  0
SECTION
  2
HEADER
  9
$ACADVER
  1
AC1024
  9
$ACADMAINTVER
 70
   155
  9
$DWGCODEPAGE
  3
ANSI_936
  9
$LASTSAVEDBY
  1
Administrator
  9
$INSBASE
 10
0.0
 20
0.0
 30
0.0
  9
$EXTMIN
 10
66.58331900713483
 20
88.2088778092816
 30
-0.0015258207003583
  9
$EXTMAX
 10
1263.752497346134
 20
1044.827992258521
 30
0.0000000349246037
  9
$LIMMIN
 10
0.0
 20
0.0
  9
$LIMMAX
 10
420.0
 20
297.0
  9
$ORTHOMODE
 70
     1
  9
$REGENMODE
 70
     1
  9
$FILLMODE
 70
     1
  9
$QTEXTMODE
 70
     0
  9
$MIRRTEXT
 70
     0
  9
$LTSCALE
 40
1.0
  9
$ATTMODE
 70
     1
  9
$TEXTSIZE
 40
2.5
  9
$TRACEWID
 40
1.0
  9
$TEXTSTYLE
  7
Standard
  9
$CLAYER
  8
dimensions
  9
$CELTYPE
  6
ByLayer
  9
$CECOLOR
 62
   256
  9
$CELTSCALE
 40
1.0
  9
$DISPSILH
 70
     0
  9
$DIMSCALE
 40
1.0
  9
$DIMASZ
 40
8.0
  9
$DIMEXO
 40
2.5
  9
$DIMDLI
 40
3.75
  9
$DIMRND
 40
0.0
  9
$DIMDLE
 40
0.0
  9
$DIMEXE
 40
5.0
  9
$DIMTP
 40
0.0
  9
$DIMTM
 40
0.0
  9
$DIMTXT
 40
9.0
  9
$DIMCEN
 40
-0.09
  9
$DIMTSZ
 40
0.0
  9
$DIMTOL
 70
     0
  9
$DIMLIM
 70
     0
  9
$DIMTIH
 70
     1
  9
$DIMTOH
 70
     1
  9
$DIMSE1
 70
     0
  9
$DIMSE2
 70
     0
  9
$DIMTAD
 70
     1
  9
$DIMZIN
 70
     8
  9
$DIMBLK
  1

  9
$DIMASO
 70
     1
  9
$DIMSHO
 70
     1
  9
$DIMPOST
  1
 mm\X
  9
$DIMAPOST
  1
 "
  9
$DIMALT
 70
     1
  9
$DIMALTD
 70
     5
  9
$DIMALTF
 40
0.03937007874016
  9
$DIMLFAC
 40
1.0
  9
$DIMTOFL
 70
     1
  9
$DIMTVP
 40
0.0
  9
$DIMTIX
 70
     0
  9
$DIMSOXD
 70
     0
  9
$DIMSAH
 70
     0
  9
$DIMBLK1
  1

  9
$DIMBLK2
  1

  9
$DIMSTYLE
  2
dimensions
  9
$DIMCLRD
 70
   256
  9
$DIMCLRE
 70
   256
  9
$DIMCLRT
 70
   256
  9
$DIMTFAC
 40
1.0
  9
$DIMGAP
 40
2.5
  9
$DIMJUST
 70
     0
  9
$DIMSD1
 70
     0
  9
$DIMSD2
 70
     0
  9
$DIMTOLJ
 70
     0
  9
$DIMTZIN
 70
     8
  9
$DIMALTZ
 70
     0
  9
$DIMALTTZ
 70
     0
  9
$DIMUPT
 70
     0
  9
$DIMDEC
 70
     2
  9
$DIMTDEC
 70
     2
  9
$DIMALTU
 70
     7
  9
$DIMALTTD
 70
     5
  9
$DIMTXSTY
  7
Standard
  9
$DIMAUNIT
 70
     0
  9
$DIMADEC
 70
     0
  9
$DIMALTRND
 40
0.0
  9
$DIMAZIN
 70
     0
  9
$DIMDSEP
 70
    44
  9
$DIMATFIT
 70
     3
  9
$DIMFRAC
 70
     0
  9
$DIMLDRBLK
  1

  9
$DIMLUNIT
 70
     2
  9
$DIMLWD
 70
    -2
  9
$DIMLWE
 70
    -2
  9
$DIMTMOVE
 70
     0
  9
$DIMFXL
 40
1.0
  9
$DIMFXLON
 70
     0
  9
$DIMJOGANG
 40
0.7853981633974483
  9
$DIMTFILL
 70
     0
  9
$DIMTFILLCLR
 70
     0
  9
$DIMARCSYM
 70
     0
  9
$DIMLTYPE
  6

  9
$DIMLTEX1
  6

  9
$DIMLTEX2
  6

  9
$DIMTXTDIRECTION
 70
     0
  9
$LUNITS
 70
     2
  9
$LUPREC
 70
     4
  9
$SKETCHINC
 40
1.0
  9
$FILLETRAD
 40
0.0
  9
$AUNITS
 70
     0
  9
$AUPREC
 70
     0
  9
$MENU
  1
.
  9
$ELEVATION
 40
0.0
  9
$PELEVATION
 40
0.0
  9
$THICKNESS
 40
0.0
  9
$LIMCHECK
 70
     0
  9
$CHAMFERA
 40
0.0
  9
$CHAMFERB
 40
0.0
  9
$CHAMFERC
 40
0.0
  9
$CHAMFERD
 40
0.0
  9
$SKPOLY
 70
     0
  9
$TDCREATE
 40
2457578.486263484
  9
$TDUCREATE
 40
2457578.152930150
  9
$TDUPDATE
 40
2457578.641662466
  9
$TDUUPDATE
 40
2457578.308329132
  9
$TDINDWG
 40
0.0350357292
  9
$TDUSRTIMER
 40
0.0350357060
  9
$USRTIMER
 70
     1
  9
$ANGBASE
 50
0.0
  9
$ANGDIR
 70
     0
  9
$PDMODE
 70
     0
  9
$PDSIZE
 40
0.0
  9
$PLINEWID
 40
0.0
  9
$SPLFRAME
 70
     0
  9
$SPLINETYPE
 70
     6
  9
$SPLINESEGS
 70
     8
  9
$HANDSEED
  5
963
  9
$SURFTAB1
 70
     6
  9
$SURFTAB2
 70
     6
  9
$SURFTYPE
 70
     6
  9
$SURFU
 70
     6
  9
$SURFV
 70
     6
  9
$UCSBASE
  2

  9
$UCSNAME
  2

  9
$UCSORG
 10
0.0
 20
0.0
 30
0.0
  9
$UCSXDIR
 10
1.0
 20
0.0
 30
0.0
  9
$UCSYDIR
 10
0.0
 20
1.0
 30
0.0
  9
$UCSORTHOREF
  2

  9
$UCSORTHOVIEW
 70
     0
  9
$UCSORGTOP
 10
0.0
 20
0.0
 30
0.0
  9
$UCSORGBOTTOM
 10
0.0
 20
0.0
 30
0.0
  9
$UCSORGLEFT
 10
0.0
 20
0.0
 30
0.0
  9
$UCSORGRIGHT
 10
0.0
 20
0.0
 30
0.0
  9
$UCSORGFRONT
 10
0.0
 20
0.0
 30
0.0
  9
$UCSORGBACK
 10
0.0
 20
0.0
 30
0.0
  9
$PUCSBASE
  2

  9
$PUCSNAME
  2

  9
$PUCSORG
 10
0.0
 20
0.0
 30
0.0
  9
$PUCSXDIR
 10
1.0
 20
0.0
 30
0.0
  9
$PUCSYDIR
 10
0.0
 20
1.0
 30
0.0
  9
$PUCSORTHOREF
  2

  9
$PUCSORTHOVIEW
 70
     0
  9
$PUCSORGTOP
 10
0.0
 20
0.0
 30
0.0
  9
$PUCSORGBOTTOM
 10
0.0
 20
0.0
 30
0.0
  9
$PUCSORGLEFT
 10
0.0
 20
0.0
 30
0.0
  9
$PUCSORGRIGHT
 10
0.0
 20
0.0
 30
0.0
  9
$PUCSORGFRONT
 10
0.0
 20
0.0
 30
0.0
  9
$PUCSORGBACK
 10
0.0
 20
0.0
 30
0.0
  9
$USERI1
 70
     0
  9
$USERI2
 70
     0
  9
$USERI3
 70
     0
  9
$USERI4
 70
     0
  9
$USERI5
 70
     0
  9
$USERR1
 40
0.0
  9
$USERR2
 40
0.0
  9
$USERR3
 40
0.0
  9
$USERR4
 40
0.0
  9
$USERR5
 40
0.0
  9
$WORLDVIEW
 70
     1
  9
$SHADEDGE
 70
     3
  9
$SHADEDIF
 70
    70
  9
$TILEMODE
 70
     1
  9
$MAXACTVP
 70
    64
  9
$PINSBASE
 10
0.0
 20
0.0
 30
0.0
  9
$PLIMCHECK
 70
     0
  9
$PEXTMIN
 10
0.0
 20
0.0
 30
0.0
  9
$PEXTMAX
 10
0.0
 20
0.0
 30
0.0
  9
$PLIMMIN
 10
0.0
 20
0.0
  9
$PLIMMAX
 10
12.0
 20
9.0
  9
$UNITMODE
 70
     0
  9
$VISRETAIN
 70
     1
  9
$PLINEGEN
 70
     0
  9
$PSLTSCALE
 70
     1
  9
$TREEDEPTH
 70
  3020
  9
$CMLSTYLE
  2
Standard
  9
$CMLJUST
 70
     0
  9
$CMLSCALE
 40
20.0
  9
$PROXYGRAPHICS
 70
     1
  9
$MEASUREMENT
 70
     1
  9
$CELWEIGHT
370
    -1
  9
$ENDCAPS
280
     0
  9
$JOINSTYLE
280
     0
  9
$LWDISPLAY
290
     0
  9
$INSUNITS
 70
     4
  9
$HYPERLINKBASE
  1

  9
$STYLESHEET
  1

  9
$XEDIT
290
     1
  9
$CEPSNTYPE
380
     0
  9
$PSTYLEMODE
290
     1
  9
$FINGERPRINTGUID
  2
{99D701DE-15BE-41AC-AF27-FA7FFA4958C5}
  9
$VERSIONGUID
  2
{8528DB74-AFFE-4859-8A9B-B4DEFE5E0D50}
  9
$EXTNAMES
290
     1
  9
$PSVPSCALE
 40
0.0
  9
$OLESTARTUP
290
     0
  9
$SORTENTS
280
   127
  9
$INDEXCTL
280
     0
  9
$HIDETEXT
280
     1
  9
$XCLIPFRAME
280
     2
  9
$HALOGAP
280
     0
  9
$OBSCOLOR
 70
   257
  9
$OBSLTYPE
280
     0
  9
$INTERSECTIONDISPLAY
280
     0
  9
$INTERSECTIONCOLOR
 70
   257
  9
$DIMASSOC
280
     2
  9
$PROJECTNAME
  1

  9
$CAMERADISPLAY
290
     0
  9
$LENSLENGTH
 40
50.0
  9
$CAMERAHEIGHT
 40
0.0
  9
$STEPSPERSEC
 40
2.0
  9
$STEPSIZE
 40
6.0
  9
$3DDWFPREC
 40
2.0
  9
$PSOLWIDTH
 40
5.0
  9
$PSOLHEIGHT
 40
80.0
  9
$LOFTANG1
 40
1.570796326794896
  9
$LOFTANG2
 40
1.570796326794896
  9
$LOFTMAG1
 40
0.0
  9
$LOFTMAG2
 40
0.0
  9
$LOFTPARAM
 70
     7
  9
$LOFTNORMALS
280
     1
  9
$LATITUDE
 40
37.795
  9
$LONGITUDE
 40
-122.394
  9
$NORTHDIRECTION
 40
0.0
  9
$TIMEZONE
 70
 -8000
  9
$LIGHTGLYPHDISPLAY
280
     1
  9
$TILEMODELIGHTSYNCH
280
     1
  9
$CMATERIAL
347
EC
  9
$SOLIDHIST
280
     0
  9
$SHOWHIST
280
     1
  9
$DWFFRAME
280
     2
  9
$DGNFRAME
280
     0
  9
$REALWORLDSCALE
290
     1
  9
$INTERFERECOLOR
 62
     1
  9
$INTERFEREOBJVS
345
F9
  9
$INTERFEREVPVS
346
F6
  9
$CSHADOW
280
     0
  9
$SHADOWPLANELOCATION
 40
0.0
  0
ENDSEC
  0
SECTION
  2
CLASSES
  0
CLASS
  1
ACDBDICTIONARYWDFLT
  2
AcDbDictionaryWithDefault
  3
ObjectDBX Classes
 90
        0
 91
        1
280
     0
281
     0
  0
CLASS
  1
DICTIONARYVAR
  2
AcDbDictionaryVar
  3
ObjectDBX Classes
 90
        0
 91
        9
280
     0
281
     0
  0
CLASS
  1
TABLESTYLE
  2
AcDbTableStyle
  3
ObjectDBX Classes
 90
     4095
 91
        1
280
     0
281
     0
  0
CLASS
  1
MATERIAL
  2
AcDbMaterial
  3
ObjectDBX Classes
 90
     1153
 91
        3
280
     0
281
     0
  0
CLASS
  1
VISUALSTYLE
  2
AcDbVisualStyle
  3
ObjectDBX Classes
 90
     4095
 91
       24
280
     0
281
     0
  0
CLASS
  1
SCALE
  2
AcDbScale
  3
ObjectDBX Classes
 90
     1153
 91
       17
280
     0
281
     0
  0
CLASS
  1
MLEADERSTYLE
  2
AcDbMLeaderStyle
  3
ACDB_MLEADERSTYLE_CLASS
 90
     4095
 91
        3
280
     0
281
     0
  0
CLASS
  1
CELLSTYLEMAP
  2
AcDbCellStyleMap
  3
ObjectDBX Classes
 90
     1152
 91
        1
280
     0
281
     0
  0
CLASS
  1
EXACXREFPANELOBJECT
  2
ExAcXREFPanelObject
  3
EXAC_ESW
 90
     1025
 91
        0
280
     0
281
     0
  0
CLASS
  1
NPOCOLLECTION
  2
AcDbImpNonPersistentObjectsCollection
  3
ObjectDBX Classes
 90
     1153
 91
        0
280
     0
281
     0
  0
CLASS
  1
LAYER_INDEX
  2
AcDbLayerIndex
  3
ObjectDBX Classes
 90
        0
 91
        0
280
     0
281
     0
  0
CLASS
  1
SPATIAL_INDEX
  2
AcDbSpatialIndex
  3
ObjectDBX Classes
 90
        0
 91
        0
280
     0
281
     0
  0
CLASS
  1
IDBUFFER
  2
AcDbIdBuffer
  3
ObjectDBX Classes
 90
        0
 91
        0
280
     0
281
     0
  0
CLASS
  1
ACDBSECTIONVIEWSTYLE
  2
AcDbSectionViewStyle
  3
ObjectDBX Classes
 90
     1025
 91
        1
280
     0
281
     0
  0
CLASS
  1
ACDBDETAILVIEWSTYLE
  2
AcDbDetailViewStyle
  3
ObjectDBX Classes
 90
     1025
 91
        1
280
     0
281
     0
  0
CLASS
  1
MULTILEADER
  2
AcDbMLeader
  3
ACDB_MLEADER_CLASS
 90
     1025
 91
        3
280
     0
281
     1
  0
CLASS
  1
DIMASSOC
  2
AcDbDimAssoc
  3
"AcDbDimAssoc|Product Desc:     AcDim ARX App For Dimension|Company:          Autodesk, Inc.|WEB Address:      www.autodesk.com"
 90
        0
 91
        6
280
     0
281
     0
  0
CLASS
  1
SORTENTSTABLE
  2
AcDbSortentsTable
  3
ObjectDBX Classes
 90
        0
 91
        1
280
     0
281
     0
  0
ENDSEC
  0
SECTION
  2
TABLES
  0
TABLE
  2
VPORT
  5
8
330
0
100
AcDbSymbolTable
 70
     1
  0
VPORT
  5
EA
330
8
100
AcDbSymbolTableRecord
100
AcDbViewportTableRecord
  2
*Active
 70
     0
 10
0.0
 20
0.0
 11
1.0
 21
1.0
 12
959.4935241792237
 22
599.2215714823431
 13
0.0
 23
0.0
 14
10.0
 24
10.0
 15
10.0
 25
10.0
 16
0.0
 26
0.0
 36
1.0
 17
0.0
 27
0.0
 37
0.0
 40
1541.781540884603
 41
2.26231527093596
 42
50.0
 43
0.0
 44
0.0
 50
0.0
 51
0.0
 71
     0
 72
  1000
 73
     1
 74
     3
 75
     0
 76
     1
 77
     0
 78
     0
281
     0
 65
     1
110
0.0
120
0.0
130
0.0
111
1.0
121
0.0
131
0.0
112
0.0
122
1.0
132
0.0
 79
     0
146
0.0
348
F5
 60
     3
 61
     5
292
     1
282
     1
141
0.0
142
0.0
 63
   250
421
  3355443
1001
ACAD_NAV_VCDISPLAY
1070
     3
  0
ENDTAB
  0
TABLE
  2
LTYPE
  5
5
330
0
100
AcDbSymbolTable
 70
     6
  0
LTYPE
  5
14
330
5
100
AcDbSymbolTableRecord
100
AcDbLinetypeTableRecord
  2
ByBlock
 70
     0
  3

 72
    65
 73
     0
 40
0.0
  0
LTYPE
  5
15
330
5
100
AcDbSymbolTableRecord
100
AcDbLinetypeTableRecord
  2
ByLayer
 70
     0
  3

 72
    65
 73
     0
 40
0.0
  0
LTYPE
  5
16
330
5
100
AcDbSymbolTableRecord
100
AcDbLinetypeTableRecord
  2
Continuous
 70
     0
  3
Solid line
 72
    65
 73
     0
 40
0.0
  0
LTYPE
  5
2BB
330
5
100
AcDbSymbolTableRecord
100
AcDbLinetypeTableRecord
  2
ACAD_ISO08W100
 70
     0
  3
ISO long-dash short-dash ____ __ ____ __ ____ _
 72
    65
 73
     4
 40
36.0
 49
24.0
 74
     0
 49
-3.0
 74
     0
 49
6.0
 74
     0
 49
-3.0
 74
     0
  0
LTYPE
  5
2BC
330
5
100
AcDbSymbolTableRecord
100
AcDbLinetypeTableRecord
  2
New Line1
 70
     0
  3

 72
    65
 73
     2
 40
1.3
 49
0.6000000000000001
 74
     4
 75
     0
340
0
 46
1.0
 50
0.0
 44
0.0
 45
0.0
 49
-0.7000000000000001
 74
     4
 75
     0
340
0
 46
1.0
 50
0.0
 44
0.0
 45
0.0
  0
LTYPE
  5
6C4
330
5
100
AcDbSymbolTableRecord
100
AcDbLinetypeTableRecord
  2
HIDDENX2
 70
     0
  3
Hidden (2x) ____ ____ ____ ____ ____ ____ ____
 72
    65
 73
     2
 40
19.05
 49
12.7
 74
     0
 49
-6.349999999999997
 74
     0
  0
LTYPE
  5
6C5
330
5
100
AcDbSymbolTableRecord
100
AcDbLinetypeTableRecord
  2
HIDDEN
 70
     0
  3
Hidden __ __ __ __ __ __ __ __ __ __ __ __ __ __
 72
    65
 73
     2
 40
9.524999999999996
 49
6.349999999999997
 74
     0
 49
-3.174999999999998
 74
     0
  0
LTYPE
  5
6C6
330
5
100
AcDbSymbolTableRecord
100
AcDbLinetypeTableRecord
  2
HIDDEN2
 70
     0
  3
Hidden (.5x) _ _ _ _ _ _ _ _ _ _ _ _ _ _ _ _ _
 72
    65
 73
     2
 40
4.762499999999998
 49
3.174999999999998
 74
     0
 49
-1.587499999999999
 74
     0
  0
ENDTAB
  0
TABLE
  2
LAYER
  5
2
102
{ACAD_XDICTIONARY
360
1FF
102
}
330
0
100
AcDbSymbolTable
 70
     5
  0
LAYER
  5
10
102
{ACAD_XDICTIONARY
360
13C
102
}
330
2
100
AcDbSymbolTableRecord
100
AcDbLayerTableRecord
  2
0
 70
     0
 62
     7
  6
Continuous
370
    -3
390
F
347
EE
  0
LAYER
  5
2BD
330
2
100
AcDbSymbolTableRecord
100
AcDbLayerTableRecord
  2
centerline
 70
     0
 62
    10
  6
Continuous
370
    -3
390
F
347
EE
1001
AcAecLayerStandard
1000

1000

1001
AcCmTransparency
1071
        0
  0
LAYER
  5
2BE
330
2
100
AcDbSymbolTableRecord
100
AcDbLayerTableRecord
  2
dimensions
 70
     0
 62
   210
  6
Continuous
370
    -3
390
F
347
EE
1001
AcAecLayerStandard
1000

1000

1001
AcCmTransparency
1071
        0
  0
LAYER
  5
2BF
330
2
100
AcDbSymbolTableRecord
100
AcDbLayerTableRecord
  2
note
 70
     0
 62
     2
  6
Continuous
370
    -3
390
F
347
EE
1001
AcAecLayerStandard
1000

1000

1001
AcCmTransparency
1071
        0
  0
LAYER
  5
2C0
330
2
100
AcDbSymbolTableRecord
100
AcDbLayerTableRecord
  2
Defpoints
 70
     0
 62
     7
  6
Continuous
290
     0
370
    -3
390
F
347
EE
  0
ENDTAB
  0
TABLE
  2
STYLE
  5
3
330
0
100
AcDbSymbolTable
 70
     2
  0
STYLE
  5
11
330
3
100
AcDbSymbolTableRecord
100
AcDbTextStyleTableRecord
  2
Standard
 70
     0
 40
0.0
 41
1.0
 50
0.0
 71
     0
 42
2.5
  3
arial.ttf
  4

1001
ACAD
1000
Arial
1071
       34
  0
STYLE
  5
132
330
3
100
AcDbSymbolTableRecord
100
AcDbTextStyleTableRecord
  2
Annotative
 70
     0
 40
0.0
 41
1.0
 50
0.0
 71
     0
 42
2.5
  3
arial.ttf
  4

1001
AcadAnnotative
1000
AnnotativeData
1002
{
1070
     1
1070
     1
1002
}
1001
ACAD
1000
Arial
1071
       34
  0
ENDTAB
  0
TABLE
  2
VIEW
  5
6
330
0
100
AcDbSymbolTable
 70
     0
  0
ENDTAB
  0
TABLE
  2
UCS
  5
7
330
0
100
AcDbSymbolTable
 70
     0
  0
ENDTAB
  0
TABLE
  2
APPID
  5
9
330
0
100
AcDbSymbolTable
 70
    14
  0
APPID
  5
12
330
9
100
AcDbSymbolTableRecord
100
AcDbRegAppTableRecord
  2
ACAD
 70
     0
  0
APPID
  5
9E
330
9
100
AcDbSymbolTableRecord
100
AcDbRegAppTableRecord
  2
ACAD_PSEXT
 70
     0
  0
APPID
  5
133
330
9
100
AcDbSymbolTableRecord
100
AcDbRegAppTableRecord
  2
AcadAnnoPO
 70
     0
  0
APPID
  5
134
330
9
100
AcDbSymbolTableRecord
100
AcDbRegAppTableRecord
  2
AcadAnnotative
 70
     0
  0
APPID
  5
135
330
9
100
AcDbSymbolTableRecord
100
AcDbRegAppTableRecord
  2
ACAD_DSTYLE_DIMJAG
 70
     0
  0
APPID
  5
136
330
9
100
AcDbSymbolTableRecord
100
AcDbRegAppTableRecord
  2
ACAD_DSTYLE_DIMTALN
 70
     0
  0
APPID
  5
165
330
9
100
AcDbSymbolTableRecord
100
AcDbRegAppTableRecord
  2
ACAD_MLEADERVER
 70
     0
  0
APPID
  5
217
330
9
100
AcDbSymbolTableRecord
100
AcDbRegAppTableRecord
  2
ACAD_NAV_VCDISPLAY
 70
     0
  0
APPID
  5
2C2
330
9
100
AcDbSymbolTableRecord
100
AcDbRegAppTableRecord
  2
AcAecLayerStandard
 70
     0
  0
APPID
  5
2C3
330
9
100
AcDbSymbolTableRecord
100
AcDbRegAppTableRecord
  2
AcCmTransparency
 70
     0
  0
APPID
  5
2C4
330
9
100
AcDbSymbolTableRecord
100
AcDbRegAppTableRecord
  2
ACAD_DSTYLE_DIMBREAK
 70
     0
  0
APPID
  5
2C5
330
9
100
AcDbSymbolTableRecord
100
AcDbRegAppTableRecord
  2
GradientColor1ACI
 70
     0
  0
APPID
  5
2C6
330
9
100
AcDbSymbolTableRecord
100
AcDbRegAppTableRecord
  2
GradientColor2ACI
 70
     0
  0
APPID
  5
69D
330
9
100
AcDbSymbolTableRecord
100
AcDbRegAppTableRecord
  2
ACAD_EXEMPT_FROM_CAD_STANDARDS
 70
     0
  0
ENDTAB
  0
TABLE
  2
DIMSTYLE
  5
A
330
0
100
AcDbSymbolTable
 70
     4
100
AcDbDimStyleTable
 71
     3
340
2C1
340
27
340
137
  0
DIMSTYLE
105
1B0
330
A
100
AcDbSymbolTableRecord
100
AcDbDimStyleTableRecord
  2
Standard
 70
     0
340
11
  0
DIMSTYLE
105
137
330
A
100
AcDbSymbolTableRecord
100
AcDbDimStyleTableRecord
  2
Annotative
 70
     0
 40
0.0
 41
2.5
 42
0.625
 43
3.75
 44
1.25
 73
     0
 74
     0
 77
     1
 78
     8
140
2.5
141
2.5
143
0.03937007874016
147
0.625
171
     3
172
     1
271
     2
272
     2
274
     3
278
    44
283
     0
284
     8
340
11
1001
AcadAnnotative
1000
AnnotativeData
1002
{
1070
     1
1070
     1
1002
}
1001
ACAD_DSTYLE_DIMJAG
1070
   388
1040
1.5
1001
ACAD_DSTYLE_DIMTALN
1070
   392
1070
     0
  0
DIMSTYLE
105
27
330
A
100
AcDbSymbolTableRecord
100
AcDbDimStyleTableRecord
  2
ISO-25
 70
     0
 41
2.5
 42
0.625
 43
3.75
 44
1.25
 73
     0
 74
     0
 77
     1
 78
     8
140
2.5
141
2.5
143
0.03937007874016
147
0.625
171
     3
172
     1
271
     2
272
     2
274
     3
278
    44
283
     0
284
     8
340
11
  0
DIMSTYLE
105
2C1
102
{ACAD_REACTORS
330
799
330
7B5
330
7D1
330
851
330
86B
330
885
102
}
330
A
100
AcDbSymbolTableRecord
100
AcDbDimStyleTableRecord
  2
dimensions
 70
     0
  3
 mm\X
  4
 "
 41
8.0
 42
2.5
 43
3.75
 44
5.0
 77
     1
 78
     8
140
9.0
141
-0.09
143
0.03937007874016
147
2.5
170
     1
171
     5
172
     1
176
   256
177
   256
178
   256
271
     2
272
     2
273
     7
274
     5
278
    44
283
     0
284
     8
340
11
1001
ACAD_DSTYLE_DIMBREAK
1070
   391
1040
3.75
1001
ACAD_DSTYLE_DIMJAG
1070
   388
1040
2.5
1001
ACAD_DSTYLE_DIMTALN
1070
   392
1070
     0
  0
ENDTAB
  0
TABLE
  2
BLOCK_RECORD
  5
1
330
0
100
AcDbSymbolTable
 70
     7
  0
BLOCK_RECORD
  5
1F
102
{ACAD_XDICTIONARY
360
1CE
102
}
330
1
100
AcDbSymbolTableRecord
100
AcDbBlockTableRecord
  2
*Model_Space
340
22
 70
     0
280
     1
281
     0
  0
BLOCK_RECORD
  5
D2
330
1
100
AcDbSymbolTableRecord
100
AcDbBlockTableRecord
  2
*Paper_Space
340
D3
 70
     0
280
     1
281
     0
  0
BLOCK_RECORD
  5
D6
330
1
100
AcDbSymbolTableRecord
100
AcDbBlockTableRecord
  2
*Paper_Space0
340
D7
 70
     0
280
     1
281
     0
  0
BLOCK_RECORD
  5
79A
330
1
100
AcDbSymbolTableRecord
100
AcDbBlockTableRecord
  2
*D1
340
0
 70
     0
280
     1
281
     0
  0
BLOCK_RECORD
  5
7B6
330
1
100
AcDbSymbolTableRecord
100
AcDbBlockTableRecord
  2
*D2
340
0
 70
     0
280
     1
281
     0
  0
BLOCK_RECORD
  5
7D2
330
1
100
AcDbSymbolTableRecord
100
AcDbBlockTableRecord
  2
*D3
340
0
 70
     0
280
     1
281
     0
  0
BLOCK_RECORD
  5
852
330
1
100
AcDbSymbolTableRecord
100
AcDbBlockTableRecord
  2
*D4
340
0
 70
     0
280
     1
281
     0
  0
BLOCK_RECORD
  5
86C
330
1
100
AcDbSymbolTableRecord
100
AcDbBlockTableRecord
  2
*D5
340
0
 70
     0
280
     1
281
     0
  0
BLOCK_RECORD
  5
886
330
1
100
AcDbSymbolTableRecord
100
AcDbBlockTableRecord
  2
*D6
340
0
 70
     0
280
     1
281
     0
  0
ENDTAB
  0
ENDSEC
  0
SECTION
  2
BLOCKS
  0
BLOCK
  5
20
330
1F
100
AcDbEntity
  8
0
100
AcDbBlockBegin
  2
*Model_Space
 70
     0
 10
0.0
 20
0.0
 30
0.0
  3
*Model_Space
  1

  0
ENDBLK
  5
21
330
1F
100
AcDbEntity
  8
0
100
AcDbBlockEnd
  0
BLOCK
  5
D4
330
D2
100
AcDbEntity
 67
     1
  8
0
100
AcDbBlockBegin
  2
*Paper_Space
 70
     0
 10
0.0
 20
0.0
 30
0.0
  3
*Paper_Space
  1

  0
ENDBLK
  5
D5
330
D2
100
AcDbEntity
 67
     1
  8
0
100
AcDbBlockEnd
  0
BLOCK
  5
D8
330
D6
100
AcDbEntity
 67
     1
  8
0
100
AcDbBlockBegin
  2
*Paper_Space0
 70
     0
 10
0.0
 20
0.0
 30
0.0
  3
*Paper_Space0
  1

  0
ENDBLK
  5
D9
330
D6
100
AcDbEntity
 67
     1
  8
0
100
AcDbBlockEnd
  0
BLOCK
  5
79B
330
79A
100
AcDbEntity
  8
0
100
AcDbBlockBegin
  2
*D1
 70
     1
 10
0.0
 20
0.0
 30
0.0
  3
*D1
  1

  0
LINE
  5
847
330
79A
100
AcDbEntity
  8
dimensions
440
 16777216
370
    -2
100
AcDbLine
 10
355.6995992241591
 20
989.3277428496176
 30
0.0
 11
753.5974638343788
 21
989.3277428496176
 31
0.0
  0
LINE
  5
848
330
79A
100
AcDbEntity
  8
dimensions
440
 16777216
370
    -2
100
AcDbLine
 10
355.6995992241606
 20
551.2777428496182
 30
0.0
 11
753.5974638343788
 21
551.2777428496182
 31
0.0
  0
LINE
  5
849
330
79A
100
AcDbEntity
  8
dimensions
440
 16777216
370
    -2
100
AcDbLine
 10
748.5974638343789
 20
981.3277428496176
 30
0.0
 11
748.5974638343789
 21
786.1472176108731
 31
0.0
  0
LINE
  5
84A
330
79A
100
AcDbEntity
  8
dimensions
440
 16777216
370
    -2
100
AcDbLine
 10
748.5974638343788
 20
559.2777428496182
 30
0.0
 11
748.5974638343788
 21
754.4582680883628
 31
0.0
  0
SOLID
  5
84B
330
79A
100
AcDbEntity
  8
dimensions
440
 16777216
100
AcDbTrace
 10
747.2641305010455
 20
981.3277428496176
 30
0.0
 11
749.9307971677122
 21
981.3277428496176
 31
0.0
 12
748.5974638343789
 22
989.3277428496176
 32
0.0
 13
748.5974638343789
 23
989.3277428496176
 33
0.0
  0
SOLID
  5
84C
330
79A
100
AcDbEntity
  8
dimensions
440
 16777216
100
AcDbTrace
 10
747.2641305010454
 20
559.2777428496182
 30
0.0
 11
749.9307971677121
 21
559.2777428496182
 31
0.0
 12
748.5974638343788
 22
551.2777428496182
 32
0.0
 13
748.5974638343788
 23
551.2777428496182
 33
0.0
  0
MTEXT
  5
84D
330
79A
100
AcDbEntity
  8
dimensions
440
 16777216
100
AcDbMText
 10
748.5974638343787
 20
770.3027428496181
 30
0.0
 40
9.0
 41
0.0
 46
0.0
 71
     5
 72
     1
  1
438,05 mm\P [17 1/4 "]
 73
     1
 44
1.0
  0
POINT
  5
84E
330
79A
100
AcDbEntity
  8
Defpoints
 62
     0
440
 16777216
100
AcDbPoint
 10
353.1995992241591
 20
989.3277428496176
 30
0.0
  0
POINT
  5
84F
330
79A
100
AcDbEntity
  8
Defpoints
 62
     0
440
 16777216
100
AcDbPoint
 10
353.1995992241606
 20
551.2777428496182
 30
0.0
  0
POINT
  5
850
330
79A
100
AcDbEntity
  8
Defpoints
 62
     0
440
 16777216
100
AcDbPoint
 10
748.5974638343788
 20
551.2777428496182
 30
0.0
  0
ENDBLK
  5
79C
330
79A
100
AcDbEntity
  8
0
100
AcDbBlockEnd
  0
BLOCK
  5
7B7
330
7B6
100
AcDbEntity
  8
0
100
AcDbBlockBegin
  2
*D2
 70
     1
 10
0.0
 20
0.0
 30
0.0
  3
*D2
  1

  0
LINE
  5
83D
330
7B6
100
AcDbEntity
  8
dimensions
440
 16777216
370
    -2
100
AcDbLine
 10
355.6995992241592
 20
979.802742849618
 30
0.0
 11
676.2139967907826
 21
979.802742849618
 31
0.0
  0
LINE
  5
83E
330
7B6
100
AcDbEntity
  8
dimensions
440
 16777216
370
    -2
100
AcDbLine
 10
355.6995992241592
 20
560.8027428496178
 30
0.0
 11
676.2139967907825
 21
560.8027428496178
 31
0.0
  0
LINE
  5
83F
330
7B6
100
AcDbEntity
  8
dimensions
440
 16777216
370
    -2
100
AcDbLine
 10
671.2139967907826
 20
971.802742849618
 30
0.0
 11
671.2139967907826
 21
786.147217610873
 31
0.0
  0
LINE
  5
840
330
7B6
100
AcDbEntity
  8
dimensions
440
 16777216
370
    -2
100
AcDbLine
 10
671.2139967907825
 20
568.8027428496178
 30
0.0
 11
671.2139967907825
 21
754.4582680883627
 31
0.0
  0
SOLID
  5
841
330
7B6
100
AcDbEntity
  8
dimensions
440
 16777216
100
AcDbTrace
 10
669.8806634574492
 20
971.802742849618
 30
0.0
 11
672.547330124116
 21
971.802742849618
 31
0.0
 12
671.2139967907826
 22
979.802742849618
 32
0.0
 13
671.2139967907826
 23
979.802742849618
 33
0.0
  0
SOLID
  5
842
330
7B6
100
AcDbEntity
  8
dimensions
440
 16777216
100
AcDbTrace
 10
669.8806634574491
 20
568.8027428496178
 30
0.0
 11
672.5473301241159
 21
568.8027428496178
 31
0.0
 12
671.2139967907825
 22
560.8027428496178
 32
0.0
 13
671.2139967907825
 23
560.8027428496178
 33
0.0
  0
MTEXT
  5
843
330
7B6
100
AcDbEntity
  8
dimensions
440
 16777216
100
AcDbMText
 10
671.2139967907823
 20
770.3027428496179
 30
0.0
 40
9.0
 41
0.0
 46
0.0
 71
     5
 72
     1
  1
419 mm\P [16 1/2 "]
 73
     1
 44
1.0
  0
POINT
  5
844
330
7B6
100
AcDbEntity
  8
Defpoints
 62
     0
440
 16777216
100
AcDbPoint
 10
353.1995992241592
 20
979.802742849618
 30
0.0
  0
POINT
  5
845
330
7B6
100
AcDbEntity
  8
Defpoints
 62
     0
440
 16777216
100
AcDbPoint
 10
353.1995992241592
 20
560.8027428496178
 30
0.0
  0
POINT
  5
846
330
7B6
100
AcDbEntity
  8
Defpoints
 62
     0
440
 16777216
100
AcDbPoint
 10
671.2139967907825
 20
560.8027428496178
 30
0.0
  0
ENDBLK
  5
7B8
330
7B6
100
AcDbEntity
  8
0
100
AcDbBlockEnd
  0
BLOCK
  5
7D3
330
7D2
100
AcDbEntity
  8
0
100
AcDbBlockBegin
  2
*D3
 70
     1
 10
0.0
 20
0.0
 30
0.0
  3
*D3
  1

  0
LINE
  5
833
330
7D2
100
AcDbEntity
  8
dimensions
440
 16777216
370
    -2
100
AcDbLine
 10
355.6995992241591
 20
976.6277428496177
 30
0.0
 11
599.2604474615457
 21
976.6277428496177
 31
0.0
  0
LINE
  5
834
330
7D2
100
AcDbEntity
  8
dimensions
440
 16777216
370
    -2
100
AcDbLine
 10
355.6995992241592
 20
563.977742849618
 30
0.0
 11
599.2604474615456
 21
563.977742849618
 31
0.0
  0
LINE
  5
835
330
7D2
100
AcDbEntity
  8
dimensions
440
 16777216
370
    -2
100
AcDbLine
 10
594.2604474615457
 20
968.6277428496177
 30
0.0
 11
594.2604474615457
 21
786.147217610873
 31
0.0
  0
LINE
  5
836
330
7D2
100
AcDbEntity
  8
dimensions
440
 16777216
370
    -2
100
AcDbLine
 10
594.2604474615456
 20
571.977742849618
 30
0.0
 11
594.2604474615456
 21
754.4582680883627
 31
0.0
  0
SOLID
  5
837
330
7D2
100
AcDbEntity
  8
dimensions
440
 16777216
100
AcDbTrace
 10
592.9271141282123
 20
968.6277428496177
 30
0.0
 11
595.5937807948791
 21
968.6277428496177
 31
0.0
 12
594.2604474615457
 22
976.6277428496177
 32
0.0
 13
594.2604474615457
 23
976.6277428496177
 33
0.0
  0
SOLID
  5
838
330
7D2
100
AcDbEntity
  8
dimensions
440
 16777216
100
AcDbTrace
 10
592.9271141282121
 20
571.977742849618
 30
0.0
 11
595.593780794879
 21
571.977742849618
 31
0.0
 12
594.2604474615456
 22
563.977742849618
 32
0.0
 13
594.2604474615456
 23
563.977742849618
 33
0.0
  0
MTEXT
  5
839
330
7D2
100
AcDbEntity
  8
dimensions
440
 16777216
100
AcDbMText
 10
594.2604474615454
 20
770.3027428496179
 30
0.0
 40
9.0
 41
0.0
 46
0.0
 71
     5
 72
     1
  1
412,65 mm\P [16 1/4 "]
 73
     1
 44
1.0
  0
POINT
  5
83A
330
7D2
100
AcDbEntity
  8
Defpoints
 62
     0
440
 16777216
100
AcDbPoint
 10
353.1995992241591
 20
976.6277428496177
 30
0.0
  0
POINT
  5
83B
330
7D2
100
AcDbEntity
  8
Defpoints
 62
     0
440
 16777216
100
AcDbPoint
 10
353.1995992241592
 20
563.977742849618
 30
0.0
  0
POINT
  5
83C
330
7D2
100
AcDbEntity
  8
Defpoints
 62
     0
440
 16777216
100
AcDbPoint
 10
594.2604474615456
 20
563.977742849618
 30
0.0
  0
ENDBLK
  5
7D4
330
7D2
100
AcDbEntity
  8
0
100
AcDbBlockEnd
  0
BLOCK
  5
853
330
852
100
AcDbEntity
  8
0
100
AcDbBlockBegin
  2
*D4
 70
     1
 10
0.0
 20
0.0
 30
0.0
  3
*D4
  1

  0
LINE
  5
860
330
852
100
AcDbEntity
  8
dimensions
440
 16777216
370
    -2
100
AcDbLine
 10
191.3745992241566
 20
767.8027428496179
 30
0.0
 11
191.3745992241566
 21
501.687091064301
 31
0.0
  0
LINE
  5
861
330
852
100
AcDbEntity
  8
dimensions
440
 16777216
370
    -2
100
AcDbLine
 10
515.024599224158
 20
767.802742849614
 30
0.0
 11
515.024599224158
 21
501.687091064301
 31
0.0
  0
LINE
  5
862
330
852
100
AcDbEntity
  8
dimensions
440
 16777216
370
    -2
100
AcDbLine
 10
199.3745992241566
 20
506.687091064301
 30
0.0
 11
507.024599224158
 21
506.687091064301
 31
0.0
  0
SOLID
  5
863
330
852
100
AcDbEntity
  8
dimensions
440
 16777216
100
AcDbTrace
 10
199.3745992241566
 20
508.0204243976344
 30
0.0
 11
199.3745992241566
 21
505.3537577309677
 31
0.0
 12
191.3745992241566
 22
506.687091064301
 32
0.0
 13
191.3745992241566
 23
506.687091064301
 33
0.0
  0
SOLID
  5
864
330
852
100
AcDbEntity
  8
dimensions
440
 16777216
100
AcDbTrace
 10
507.024599224158
 20
508.0204243976344
 30
0.0
 11
507.024599224158
 21
505.3537577309677
 31
0.0
 12
515.024599224158
 22
506.687091064301
 32
0.0
 13
515.024599224158
 23
506.687091064301
 33
0.0
  0
MTEXT
  5
865
330
852
100
AcDbEntity
  8
dimensions
440
 16777216
100
AcDbMText
 10
353.1995992241574
 20
514.5956858801264
 30
0.0
 40
9.0
 41
0.0
 46
0.0
 71
     5
 72
     1
  1
323,65 mm
 73
     1
 44
1.0
  0
MTEXT
  5
866
330
852
100
AcDbEntity
  8
dimensions
440
 16777216
100
AcDbMText
 10
353.1995992241574
 20
498.3610337655289
 30
0.0
 40
9.0
 41
0.0
 46
0.0
 71
     5
 72
     1
  1
[12 3/4 "]
 73
     1
 44
1.0
  0
POINT
  5
867
330
852
100
AcDbEntity
  8
Defpoints
 62
     0
440
 16777216
100
AcDbPoint
 10
191.3745992241566
 20
770.3027428496178
 30
0.0
  0
POINT
  5
868
330
852
100
AcDbEntity
  8
Defpoints
 62
     0
440
 16777216
100
AcDbPoint
 10
515.024599224158
 20
770.302742849614
 30
0.0
  0
POINT
  5
869
330
852
100
AcDbEntity
  8
Defpoints
 62
     0
440
 16777216
100
AcDbPoint
 10
515.024599224158
 20
506.687091064301
 30
0.0
  0
ENDBLK
  5
854
330
852
100
AcDbEntity
  8
0
100
AcDbBlockEnd
  0
BLOCK
  5
86D
330
86C
100
AcDbEntity
  8
0
100
AcDbBlockBegin
  2
*D5
 70
     1
 10
0.0
 20
0.0
 30
0.0
  3
*D5
  1

  0
LINE
  5
8A8
330
86C
100
AcDbEntity
  8
dimensions
440
 16777216
370
    -2
100
AcDbLine
 10
188.1995992241573
 20
767.8027428496179
 30
0.0
 11
188.1995992241572
 21
452.6131072528824
 31
0.0
  0
LINE
  5
8A9
330
86C
100
AcDbEntity
  8
dimensions
440
 16777216
370
    -2
100
AcDbLine
 10
518.1995992241573
 20
767.8027428496116
 30
0.0
 11
518.1995992241573
 21
452.6131072528824
 31
0.0
  0
LINE
  5
8AA
330
86C
100
AcDbEntity
  8
dimensions
440
 16777216
370
    -2
100
AcDbLine
 10
196.1995992241572
 20
457.6131072528824
 30
0.0
 11
510.1995992241572
 21
457.6131072528824
 31
0.0
  0
SOLID
  5
8AB
330
86C
100
AcDbEntity
  8
dimensions
440
 16777216
100
AcDbTrace
 10
196.1995992241572
 20
458.9464405862157
 30
0.0
 11
196.1995992241572
 21
456.2797739195491
 31
0.0
 12
188.1995992241572
 22
457.6131072528824
 32
0.0
 13
188.1995992241572
 23
457.6131072528824
 33
0.0
  0
SOLID
  5
8AC
330
86C
100
AcDbEntity
  8
dimensions
440
 16777216
100
AcDbTrace
 10
510.1995992241572
 20
458.9464405862157
 30
0.0
 11
510.1995992241572
 21
456.2797739195491
 31
0.0
 12
518.1995992241573
 22
457.6131072528824
 32
0.0
 13
518.1995992241573
 23
457.6131072528824
 33
0.0
  0
MTEXT
  5
8AD
330
86C
100
AcDbEntity
  8
dimensions
440
 16777216
100
AcDbMText
 10
353.1995992241573
 20
457.6131072528824
 30
0.0
 40
9.0
 41
0.0
 46
0.0
 71
     5
 72
     1
  1
330 mm\P [13 "]
 73
     1
 44
1.0
  0
POINT
  5
8AE
330
86C
100
AcDbEntity
  8
Defpoints
 62
     0
440
 16777216
100
AcDbPoint
 10
188.1995992241573
 20
770.3027428496178
 30
0.0
  0
POINT
  5
8AF
330
86C
100
AcDbEntity
  8
Defpoints
 62
     0
440
 16777216
100
AcDbPoint
 10
518.1995992241573
 20
770.3027428496117
 30
0.0
  0
POINT
  5
8B0
330
86C
100
AcDbEntity
  8
Defpoints
 62
     0
440
 16777216
100
AcDbPoint
 10
518.1995992241573
 20
457.6131072528824
 30
0.0
  0
ENDBLK
  5
86E
330
86C
100
AcDbEntity
  8
0
100
AcDbBlockEnd
  0
BLOCK
  5
887
330
886
100
AcDbEntity
  8
0
100
AcDbBlockBegin
  2
*D6
 70
     1
 10
0.0
 20
0.0
 30
0.0
  3
*D6
  1

  0
LINE
  5
89F
330
886
100
AcDbEntity
  8
dimensions
440
 16777216
370
    -2
100
AcDbLine
 10
178.6745992241576
 20
767.8027428496179
 30
0.0
 11
178.6745992241576
 21
409.4660520941856
 31
0.0
  0
LINE
  5
8A0
330
886
100
AcDbEntity
  8
dimensions
440
 16777216
370
    -2
100
AcDbLine
 10
527.7245992241569
 20
767.8027428496164
 30
0.0
 11
527.7245992241569
 21
409.4660520941856
 31
0.0
  0
LINE
  5
8A1
330
886
100
AcDbEntity
  8
dimensions
440
 16777216
370
    -2
100
AcDbLine
 10
186.6745992241576
 20
414.4660520941856
 30
0.0
 11
519.7245992241569
 21
414.4660520941856
 31
0.0
  0
SOLID
  5
8A2
330
886
100
AcDbEntity
  8
dimensions
440
 16777216
100
AcDbTrace
 10
186.6745992241576
 20
415.7993854275189
 30
0.0
 11
186.6745992241576
 21
413.1327187608524
 31
0.0
 12
178.6745992241576
 22
414.4660520941856
 32
0.0
 13
178.6745992241576
 23
414.4660520941856
 33
0.0
  0
SOLID
  5
8A3
330
886
100
AcDbEntity
  8
dimensions
440
 16777216
100
AcDbTrace
 10
519.7245992241569
 20
415.7993854275189
 30
0.0
 11
519.7245992241569
 21
413.1327187608524
 31
0.0
 12
527.7245992241569
 22
414.4660520941856
 32
0.0
 13
527.7245992241569
 23
414.4660520941856
 33
0.0
  0
MTEXT
  5
8A4
330
886
100
AcDbEntity
  8
dimensions
440
 16777216
100
AcDbMText
 10
353.1995992241573
 20
414.4660520941856
 30
0.0
 40
9.0
 41
0.0
 46
0.0
 71
     5
 72
     1
  1
349,05 mm\P [13 3/4 "]
 73
     1
 44
1.0
  0
POINT
  5
8A5
330
886
100
AcDbEntity
  8
Defpoints
 62
     0
440
 16777216
100
AcDbPoint
 10
178.6745992241576
 20
770.3027428496178
 30
0.0
  0
POINT
  5
8A6
330
886
100
AcDbEntity
  8
Defpoints
 62
     0
440
 16777216
100
AcDbPoint
 10
527.7245992241569
 20
770.3027428496165
 30
0.0
  0
POINT
  5
8A7
330
886
100
AcDbEntity
  8
Defpoints
 62
     0
440
 16777216
100
AcDbPoint
 10
527.7245992241569
 20
414.4660520941856
 30
0.0
  0
ENDBLK
  5
888
330
886
100
AcDbEntity
  8
0
100
AcDbBlockEnd
  0
ENDSEC
  0
SECTION
  2
ENTITIES
  0
LINE
  5
40A
330
1F
100
AcDbEntity
  8
0
  6
ByBlock
370
    40
100
AcDbLine
 10
96.31306675397361
 20
245.1788424761455
 30
0.0
 11
85.81181024638295
 21
245.1788424761455
 31
0.0
  0
LINE
  5
40B
330
1F
100
AcDbEntity
  8
0
  6
ByBlock
370
    40
100
AcDbLine
 10
85.81181024638295
 20
245.1788424761455
 30
0.0
 11
85.81181024638295
 21
243.4986545622005
 31
0.0
  0
LINE
  5
40C
330
1F
100
AcDbEntity
  8
0
  6
ByBlock
370
    40
100
AcDbLine
 10
85.81181024638295
 20
243.4986545622005
 30
0.0
 11
86.7021016942399
 21
243.490783106588
 31
0.0
  0
SPLINE
  5
40D
330
1F
100
AcDbEntity
  8
0
  6
ByBlock
370
    40
100
AcDbSpline
210
0.0
220
0.0
230
1.0
 70
  1064
 71
     3
 72
    16
 73
    12
 74
    10
 42
0.000000001
 43
0.0000000001
 44
0.00001
 40
0.0
 40
0.0
 40
0.0
 40
0.0
 40
0.6984460512773021
 40
1.101520165680522
 40
1.435302918672452
 40
1.757408282031149
 40
2.126151446382049
 40
2.560642181969439
 40
2.953932748484778
 40
3.38724165185193
 40
3.558353040344518
 40
3.558353040344518
 40
3.558353040344518
 40
3.558353040344518
 10
86.7021016942399
 20
243.4907831065934
 30
0.0
 10
86.93530253387031
 20
243.4779616440401
 30
0.0
 10
87.30308267314409
 20
243.457728732855
 30
0.0
 10
87.76786884049752
 20
243.3362859834756
 30
0.0
 10
88.09744791186815
 20
243.2073189665778
 30
0.0
 10
88.39015480520586
 20
243.026036180748
 30
0.0
 10
88.64237361640569
 20
242.7363201470986
 30
0.0
 10
88.77523118292669
 20
242.3560175941646
 30
0.0
 10
88.90059461771491
 20
241.9534318147089
 30
0.0
 10
88.91418516010892
 20
241.6186358245054
 30
0.0
 10
88.92588273301278
 20
241.4176574717802
 30
0.0
 10
88.9291882935745
 20
241.3607601598595
 30
0.0
 11
86.7021016942399
 21
243.4907831065934
 31
0.0
 11
87.39725146875306
 21
243.4229756347544
 31
0.0
 11
87.78753481549481
 21
243.3222351221949
 31
0.0
 11
88.09674677807985
 21
243.1965389185413
 31
0.0
 11
88.36759581604752
 21
243.0222020609555
 31
0.0
 11
88.60850140307707
 21
242.7430301219795
 31
0.0
 11
88.7771624735623
 21
242.3426095282561
 31
0.0
 11
88.88057262268176
 21
241.9631559508155
 31
0.0
 11
88.91954663817173
 21
241.5316025147328
 31
0.0
 11
88.9291882935745
 21
241.3607601598595
 31
0.0
  0
LINE
  5
40E
330
1F
100
AcDbEntity
  8
0
  6
ByBlock
370
    40
100
AcDbLine
 10
88.92918829356359
 20
241.3607601598581
 30
0.0
 11
88.92918829356359
 21
226.1118445576162
 31
0.0
  0
LINE
  5
40F
330
1F
100
AcDbEntity
  8
0
  6
ByBlock
370
    40
100
AcDbLine
 10
88.92918829356359
 20
226.1118445576162
 30
0.0
 11
92.96544325989598
 21
225.5136845275341
 31
0.0
  0
LINE
  5
410
330
1F
100
AcDbEntity
  8
0
  6
ByBlock
370
    40
100
AcDbLine
 10
92.96544325989598
 20
225.5136845275341
 30
0.0
 11
92.96544325989598
 21
226.7253945188408
 31
0.0
  0
LINE
  5
411
330
1F
100
AcDbEntity
  8
0
  6
ByBlock
370
    40
100
AcDbLine
 10
92.96544325989598
 20
226.7253945188408
 30
0.0
 11
96.13917746188645
 21
230.7458728373997
 31
0.0
  0
LINE
  5
412
330
1F
100
AcDbEntity
  8
0
  6
ByBlock
370
    40
100
AcDbLine
 10
96.13917746188645
 20
230.7458728373997
 30
0.0
 11
100.0139686497758
 21
224.7344810185013
 31
0.0
  0
LINE
  5
413
330
1F
100
AcDbEntity
  8
0
  6
ByBlock
370
    40
100
AcDbLine
 10
101.1692818548942
 20
222.9421159560557
 30
0.0
 11
102.3049277306637
 21
221.1802629952678
 31
0.0
  0
LINE
  5
414
330
1F
100
AcDbEntity
  8
0
  6
ByBlock
370
    40
100
AcDbLine
 10
100.0139686497758
 20
224.7344810185013
 30
0.0
 11
104.853129074576
 21
224.4589800722716
 31
0.0
  0
LINE
  5
415
330
1F
100
AcDbEntity
  8
0
  6
ByBlock
370
    40
100
AcDbLine
 10
107.0677241531884
 20
220.9795493233944
 30
0.0
 11
105.9675817839148
 21
222.7080229503631
 31
0.0
  0
LINE
  5
416
330
1F
100
AcDbEntity
  8
0
  6
ByBlock
370
    40
100
AcDbLine
 10
104.853129074576
 20
224.4589800722716
 30
0.0
 11
98.89295646213424
 21
233.8232237014779
 31
0.0
  0
LINE
  5
417
330
1F
100
AcDbEntity
  8
0
  6
ByBlock
370
    40
100
AcDbLine
 10
98.89295646213424
 20
233.8232237014779
 30
0.0
 11
98.89295646213424
 21
233.9253055383145
 31
0.0
  0
LINE
  5
418
330
1F
100
AcDbEntity
  8
0
  6
ByBlock
370
    40
100
AcDbLine
 10
98.89295646213424
 20
233.9253055383145
 30
0.0
 11
104.7899830215922
 21
241.3452290366964
 31
0.0
  0
SPLINE
  5
419
330
1F
100
AcDbEntity
  8
0
  6
ByBlock
370
    40
100
AcDbSpline
210
0.0
220
0.0
230
1.0
 70
  1064
 71
     3
 72
    13
 73
     9
 74
     7
 42
0.000000001
 43
0.0000000001
 44
0.00001
 40
0.0
 40
0.0
 40
0.0
 40
0.0
 40
0.5320102234487228
 40
1.739434318363573
 40
2.6026519576682
 40
3.357793282875373
 40
4.169172182150658
 40
5.071977070781462
 40
5.071977070781462
 40
5.071977070781462
 40
5.071977070781462
 10
104.789983021603
 20
241.3452290366991
 30
0.0
 10
104.9051954435127
 20
241.4804790675124
 30
0.0
 10
105.28190382703
 20
241.9226719645706
 30
0.0
 10
105.9818475793791
 20
242.4443115714142
 30
0.0
 10
106.7603867289643
 20
242.9826281851532
 30
0.0
 10
107.5329567132485
 20
243.2489047111929
 30
0.0
 10
108.3418470527933
 20
243.4076485430634
 30
0.0
 10
108.911886097526
 20
243.45332237554
 30
0.0
 10
109.2121079008763
 20
243.477369863862
 30
0.0
 11
104.789983021603
 21
241.3452290366991
 31
0.0
 11
105.1441441100834
 21
241.742225723723
 31
0.0
 11
106.0790451889221
 21
242.5063216856731
 31
0.0
 11
106.8097061308457
 21
242.9659723354842
 31
0.0
 11
107.5185714996595
 21
243.2262598406106
 31
0.0
 11
108.3138043731542
 21
243.3873246474801
 31
0.0
 11
109.2121079008763
 21
243.477369863862
 31
0.0
  0
LINE
  5
41A
330
1F
100
AcDbEntity
  8
0
  6
ByBlock
370
    40
100
AcDbLine
 10
109.2121079008763
 20
243.4773698638579
 30
0.0
 11
110.446443488945
 21
243.4773698638579
 31
0.0
  0
LINE
  5
41B
330
1F
100
AcDbEntity
  8
0
  6
ByBlock
370
    40
100
AcDbLine
 10
110.446443488945
 20
243.4773698638579
 30
0.0
 11
110.446443488945
 21
245.1788424761455
 31
0.0
  0
LINE
  5
41C
330
1F
100
AcDbEntity
  8
0
  6
ByBlock
370
    40
100
AcDbLine
 10
110.446443488945
 20
245.1788424761455
 30
0.0
 11
99.22233442229146
 21
245.1788424761455
 31
0.0
  0
LINE
  5
41D
330
1F
100
AcDbEntity
  8
0
  6
ByBlock
370
    40
100
AcDbLine
 10
99.22233442229146
 20
245.1788424761455
 30
0.0
 11
99.22233442229146
 21
243.4848530413816
 31
0.0
  0
LINE
  5
41E
330
1F
100
AcDbEntity
  8
0
  6
ByBlock
370
    40
100
AcDbLine
 10
99.22233442229146
 20
243.4848530413816
 30
0.0
 11
100.6745578425998
 21
243.4848530413816
 31
0.0
  0
LINE
  5
41F
330
1F
100
AcDbEntity
  8
0
  6
ByBlock
370
    40
100
AcDbLine
 10
96.31306675397361
 20
245.1788424761455
 30
0.0
 11
96.31306675397361
 21
243.4787817841452
 31
0.0
  0
LINE
  5
420
330
1F
100
AcDbEntity
  8
0
  6
ByBlock
370
    40
100
AcDbLine
 10
96.31306675397361
 20
243.4787817841452
 30
0.0
 11
95.14004394636859
 21
243.4787817841452
 31
0.0
  0
SPLINE
  5
421
330
1F
100
AcDbEntity
  8
0
  6
ByBlock
370
    40
100
AcDbSpline
210
0.0
220
0.0
230
1.0
 70
  1064
 71
     3
 72
    16
 73
    12
 74
    10
 42
0.000000001
 43
0.0000000001
 44
0.00001
 40
0.0
 40
0.0
 40
0.0
 40
0.0
 40
0.3055943414939875
 40
0.7341826668520311
 40
1.179338813993882
 40
1.603794135781541
 40
1.994374856460282
 40
2.340972261301959
 40
2.764840714427736
 40
3.093219912605466
 40
3.262602712495015
 40
3.262602712495015
 40
3.262602712495015
 40
3.262602712495015
 10
95.14004394639014
 20
243.4787817841466
 30
0.0
 10
95.0380956260183
 20
243.4768040959164
 30
0.0
 10
94.79316804298218
 20
243.4720363105681
 30
0.0
 10
94.40441210473341
 20
243.4038969592251
 30
0.0
 10
93.98604681274013
 20
243.2931691760308
 30
0.0
 10
93.60062525322009
 20
243.110181468841
 30
0.0
 10
93.32807944022475
 20
242.8242065971604
 30
0.0
 10
93.14072364326065
 20
242.4840753903776
 30
0.0
 10
93.01316409658829
 20
242.1372297704416
 30
0.0
 10
92.97575708239531
 20
241.8310945773157
 30
0.0
 10
92.96137008663489
 20
241.6658707747089
 30
0.0
 10
92.95648059434203
 20
241.6096464086625
 30
0.0
 11
95.14004394639014
 21
243.4787817841466
 31
0.0
 11
94.83470222573108
 21
243.4663215876021
 31
0.0
 11
94.41141997389399
 21
243.3990788838776
 31
0.0
 11
93.98311319743763
 21
243.2777596331185
 31
0.0
 11
93.60600225315428
 21
243.0829499313579
 31
0.0
 11
93.33291254878734
 21
242.8037073963636
 31
0.0
 11
93.16024543836951
 21
242.5031801630282
 31
0.0
 11
93.0201019401486
 21
242.1031478473813
 31
0.0
 11
92.97182576419118
 21
241.7783355850882
 31
0.0
 11
92.95648059434203
 21
241.6096464086625
 31
0.0
  0
LINE
  5
422
330
1F
100
AcDbEntity
  8
0
  6
ByBlock
370
    40
100
AcDbLine
 10
92.95648059432034
 20
241.6096464086585
 30
0.0
 11
92.95648059432034
 21
229.7089938757804
 31
0.0
  0
LINE
  5
423
330
1F
100
AcDbEntity
  8
0
  6
ByBlock
370
    40
100
AcDbLine
 10
92.95648059432034
 20
229.7089938757804
 30
0.0
 11
102.0621414323606
 21
241.0909421927962
 31
0.0
  0
SPLINE
  5
424
330
1F
100
AcDbEntity
  8
0
  6
ByBlock
370
    40
100
AcDbSpline
210
0.0
220
0.0
230
1.0
 70
  1064
 71
     3
 72
    19
 73
    15
 74
    13
 42
0.000000001
 43
0.0000000001
 44
0.00001
 40
0.0
 40
0.0
 40
0.0
 40
0.0
 40
0.6428144523921734
 40
1.135476044311899
 40
1.471118915082372
 40
1.671945404179025
 40
1.809557939080436
 40
1.968342534131427
 40
2.090644140025729
 40
2.27699632702305
 40
2.633435198831281
 40
3.193782223268956
 40
3.931885792522141
 40
4.44576348430925
 40
4.44576348430925
 40
4.44576348430925
 40
4.44576348430925
 10
102.0621414323606
 20
241.0909421927989
 30
0.0
 10
102.2001156198069
 20
241.2548627937152
 30
0.0
 10
102.4438270953203
 20
241.5444207637472
 30
0.0
 10
102.720556319703
 20
241.9519708041519
 30
0.0
 10
102.8688048701825
 20
242.261060376759
 30
0.0
 10
102.9485780084847
 20
242.47361239164
 30
0.0
 10
102.9608049006806
 20
242.6393636468972
 30
0.0
 10
102.9605233780362
 20
242.7809608858179
 30
0.0
 10
102.9000811637473
 20
242.927592408014
 30
0.0
 10
102.7478406038454
 20
243.0971791196245
 30
0.0
 10
102.3919131810168
 20
243.2241085238489
 30
0.0
 10
101.8621217188343
 20
243.3611866227412
 30
0.0
 10
101.2629106554209
 20
243.4632749711429
 30
0.0
 10
100.8457729901902
 20
243.4785778290349
 30
0.0
 10
100.6745578426105
 20
243.4848530413843
 30
0.0
 11
102.0621414323606
 21
241.0909421927989
 31
0.0
 11
102.4664119693188
 21
241.5907266767996
 31
0.0
 11
102.7371931082778
 21
242.0023014408011
 31
0.0
 11
102.8828364240056
 21
242.3046994685214
 31
0.0
 11
102.9448960932617
 21
242.4956969855018
 31
0.0
 11
102.9586795865387
 21
242.6326179554409
 31
0.0
 11
102.9489700321813
 21
242.7911060077919
 31
0.0
 11
102.9035456133983
 21
242.9046596969647
 31
0.0
 11
102.7807842545298
 21
243.0448633815815
 31
0.0
 11
102.4580603945726
 21
243.1961859384725
 31
0.0
 11
101.9164981166436
 21
243.3400606158341
 31
0.0
 11
101.1876704472404
 21
243.4567205296414
 31
0.0
 11
100.6745578426105
 21
243.4848530413843
 31
0.0
  0
LINE
  5
425
330
1F
100
AcDbEntity
  8
0
  6
ByBlock
370
    40
100
AcDbLine
 10
88.92918829356359
 20
224.3751473051558
 30
0.0
 11
88.92918829356359
 21
222.7312485136459
 31
0.0
  0
LINE
  5
426
330
1F
100
AcDbEntity
  8
0
  6
ByBlock
370
    40
100
AcDbLine
 10
88.92918829356359
 20
224.3751473051558
 30
0.0
 11
92.96544325989598
 21
223.7818452570175
 31
0.0
  0
LINE
  5
427
330
1F
100
AcDbEntity
  8
0
  6
ByBlock
370
    40
100
AcDbLine
 10
92.96544325989598
 20
223.7818452570175
 30
0.0
 11
92.96544325989598
 21
222.113698560559
 31
0.0
  0
LINE
  5
428
330
1F
100
AcDbEntity
  8
0
  6
ByBlock
370
    40
100
AcDbLine
 10
92.96544325989598
 20
220.3976972573755
 30
0.0
 11
92.96544325989598
 21
219.5761361397006
 31
0.0
  0
LINE
  5
429
330
1F
100
AcDbEntity
  8
0
  6
ByBlock
370
    40
100
AcDbLine
 10
88.92918829356359
 20
220.9994576841948
 30
0.0
 11
88.92918829356359
 21
219.7251643261113
 31
0.0
  0
SPLINE
  5
42A
330
1F
100
AcDbEntity
  8
0
  6
ByBlock
370
    40
100
AcDbSpline
210
0.0
220
0.0
230
1.0
 70
  1064
 71
     3
 72
     9
 73
     5
 74
     3
 42
0.000000001
 43
0.0000000001
 44
0.00001
 40
0.0
 40
0.0
 40
0.0
 40
0.0
 40
1.939160426905057
 40
4.083491158017496
 40
4.083491158017496
 40
4.083491158017496
 40
4.083491158017496
 10
88.9291882935745
 20
222.7312485136486
 30
0.0
 10
89.5663846677227
 20
222.622340105652
 30
0.0
 10
90.90819830361201
 20
222.3930201761321
 30
0.0
 10
92.25710253214511
 20
222.20986627539
 30
0.0
 10
92.96544325989598
 20
222.1136985605617
 30
0.0
 11
88.9291882935745
 21
222.7312485136486
 31
0.0
 11
90.84237790053178
 21
222.4149430710899
 31
0.0
 11
92.96544325989598
 21
222.1136985605617
 31
0.0
  0
SPLINE
  5
42B
330
1F
100
AcDbEntity
  8
0
  6
ByBlock
370
    40
100
AcDbSpline
210
0.0
220
0.0
230
1.0
 70
  1064
 71
     3
 72
    12
 73
     8
 74
     6
 42
0.000000001
 43
0.0000000001
 44
0.00001
 40
0.0
 40
0.0
 40
0.0
 40
0.0
 40
0.7378399352939166
 40
1.739330061203769
 40
2.918036665318411
 40
3.722407254401324
 40
4.081526932952121
 40
4.081526932952121
 40
4.081526932952121
 40
4.081526932952121
 10
88.9291882935745
 20
220.9994576841989
 30
0.0
 10
89.1709234703365
 20
220.9539370963186
 30
0.0
 10
89.74076949412419
 20
220.8466144721649
 30
0.0
 10
90.70525272902877
 20
220.7182000037075
 30
0.0
 10
91.68828845403259
 20
220.5662174626452
 30
0.0
 10
92.46059265923811
 20
220.4501965016346
 30
0.0
 10
92.84637074322773
 20
220.4100843840714
 30
0.0
 10
92.96544325989598
 20
220.3976972573782
 30
0.0
 11
88.9291882935745
 21
220.9994576841989
 31
0.0
 11
89.6553000037016
 21
220.8684314814571
 31
0.0
 11
90.64614984347091
 21
220.7228272017323
 31
0.0
 11
91.81183956105972
 21
220.5481373640858
 31
0.0
 11
92.60843041419784
 21
220.4365250653041
 31
0.0
 11
92.96544325989598
 21
220.3976972573782
 31
0.0
  0
SPLINE
  5
42C
330
1F
100
AcDbEntity
  8
0
  6
ByBlock
370
    40
100
AcDbSpline
210
0.0
220
0.0
230
1.0
 70
  1064
 71
     3
 72
    15
 73
    11
 74
     9
 42
0.000000001
 43
0.0000000001
 44
0.00001
 40
0.0
 40
0.0
 40
0.0
 40
0.0
 40
0.4291218924111073
 40
0.8302260447533997
 40
1.238137521798712
 40
1.678461799953187
 40
2.148172630488305
 40
2.611474895534596
 40
3.091247811726047
 40
3.392683288389041
 40
3.392683288389041
 40
3.392683288389041
 40
3.392683288389041
 10
88.9291882935745
 20
219.725164326114
 30
0.0
 10
88.91657856593157
 20
219.5820183560182
 30
0.0
 10
88.89216936295518
 20
219.3050744924591
 30
0.0
 10
88.72811856734807
 20
218.9179073354143
 30
0.0
 10
88.46828573508222
 20
218.5910330643422
 30
0.0
 10
88.14570446316777
 20
218.282775860993
 30
0.0
 10
87.71415025015638
 20
218.1128082736683
 30
0.0
 10
87.26753956094587
 20
217.9624511024177
 30
0.0
 10
86.8528460729254
 20
217.9160171471087
 30
0.0
 10
86.59326900545741
 20
217.8979418359161
 30
0.0
 10
86.49310862862126
 20
217.8909739777655
 30
0.0
 11
88.9291882935745
 21
219.725164326114
 31
0.0
 11
88.86848660394017
 21
219.3003528094136
 31
0.0
 11
88.71401642058927
 21
218.9301826078674
 31
0.0
 11
88.46781471301392
 21
218.6049467694831
 31
0.0
 11
88.13809725794323
 21
218.3131028459157
 31
0.0
 11
87.71169165294006
 21
218.1161046677147
 31
0.0
 11
87.26885449437091
 21
217.9799249559223
 31
0.0
 11
86.79369742054428
 21
217.913529404372
 31
0.0
 11
86.49310862862126
 21
217.8909739777655
 31
0.0
  0
LINE
  5
42D
330
1F
100
AcDbEntity
  8
0
  6
ByBlock
370
    40
100
AcDbLine
 10
86.49310862859957
 20
217.8909739777627
 30
0.0
 11
85.81181024638295
 21
217.8909739777627
 31
0.0
  0
LINE
  5
42E
330
1F
100
AcDbEntity
  8
0
  6
ByBlock
370
    40
100
AcDbLine
 10
85.81181024638295
 20
217.8909739777627
 30
0.0
 11
85.81181024638295
 21
216.2423452532826
 31
0.0
  0
LINE
  5
42F
330
1F
100
AcDbEntity
  8
0
  6
ByBlock
370
    40
100
AcDbLine
 10
85.81181024638295
 20
216.2423452532826
 30
0.0
 11
96.30824592628307
 21
216.2423452532826
 31
0.0
  0
LINE
  5
430
330
1F
100
AcDbEntity
  8
0
  6
ByBlock
370
    40
100
AcDbLine
 10
96.30824592628307
 20
216.2423452532826
 30
0.0
 11
96.30824592628307
 21
217.8983159632577
 31
0.0
  0
LINE
  5
431
330
1F
100
AcDbEntity
  8
0
  6
ByBlock
370
    40
100
AcDbLine
 10
96.30824592628307
 20
217.8983159632577
 30
0.0
 11
95.53996894850214
 21
217.8983159632577
 31
0.0
  0
SPLINE
  5
432
330
1F
100
AcDbEntity
  8
0
  6
ByBlock
370
    40
100
AcDbSpline
210
0.0
220
0.0
230
1.0
 70
  1064
 71
     3
 72
    15
 73
    11
 74
     9
 42
0.000000001
 43
0.0000000001
 44
0.00001
 40
0.0
 40
0.0
 40
0.0
 40
0.0
 40
0.3223178719117476
 40
0.6663931418305667
 40
1.039412090662606
 40
1.397812657752157
 40
1.935582391338026
 40
2.285767009404426
 40
2.994494082489738
 40
3.424644708434212
 40
3.424644708434212
 40
3.424644708434212
 40
3.424644708434212
 10
92.96544325989598
 20
219.5761361397046
 30
0.0
 10
92.97400098046489
 20
219.4684687761102
 30
0.0
 10
92.99170750319882
 20
219.2458680378783
 30
0.0
 10
93.12019518276862
 20
218.9205140540678
 30
0.0
 10
93.3095909305336
 20
218.6099627594324
 30
0.0
 10
93.64525952963402
 20
218.3458636671801
 30
0.0
 10
94.00883461955066
 20
218.1334048902828
 30
0.0
 10
94.53027133874831
 20
218.0162889398106
 30
0.0
 10
95.01568436506227
 20
217.9025202087737
 30
0.0
 10
95.39623565540148
 20
217.8994643905586
 30
0.0
 10
95.53996894850214
 20
217.8983159632618
 30
0.0
 11
92.96544325989598
 21
219.5761361397046
 31
0.0
 11
93.0062505479062
 21
219.2564067904464
 31
0.0
 11
93.12527746279057
 21
218.9335712165551
 31
0.0
 11
93.32897440786343
 21
218.6210779587753
 31
0.0
 11
93.60172461729522
 21
218.3885699853243
 31
0.0
 11
94.07491262065983
 21
218.1330477111691
 31
0.0
 11
94.41311744844014
 21
218.042225938638
 31
0.0
 11
95.1101004954628
 21
217.9137411924108
 31
0.0
 11
95.53996894850214
 21
217.8983159632618
 31
0.0
  0
SPLINE
  5
433
330
1F
100
AcDbEntity
  8
0
  6
ByBlock
370
    40
100
AcDbSpline
210
0.0
220
0.0
230
1.0
 70
  1064
 71
     3
 72
    13
 73
     9
 74
     7
 42
0.000000001
 43
0.0000000001
 44
0.00001
 40
0.0
 40
0.0
 40
0.0
 40
0.0
 40
0.5442118626145148
 40
1.367513247527663
 40
2.191597648024514
 40
3.327297689929046
 40
4.266612631479121
 40
4.804215498410577
 40
4.804215498410577
 40
4.804215498410577
 40
4.804215498410577
 10
105.9675817839256
 20
222.7080229503644
 30
0.0
 10
105.7862920648614
 20
222.7143849267643
 30
0.0
 10
105.3307418851719
 20
222.730387436061
 30
0.0
 10
104.6003829263138
 20
222.7500326199588
 30
0.0
 10
103.6745376739948
 20
222.8103931219243
 30
0.0
 10
102.7091056026809
 20
222.8531891627508
 30
0.0
 10
101.8395967838733
 20
222.9021390477786
 30
0.0
 10
101.3481643727599
 20
222.9314416475536
 30
0.0
 10
101.1692818548617
 20
222.9421159561016
 30
0.0
 11
105.9675817839256
 21
222.7080229503644
 31
0.0
 11
105.4236842176785
 21
222.7265185806839
 31
0.0
 11
104.6008843576191
 21
222.7552511585477
 31
0.0
 11
103.778084497538
 21
222.8012444619363
 31
0.0
 11
102.6438320084727
 21
222.8585684256338
 31
0.0
 11
101.7059433744312
 21
222.9103153041978
 31
0.0
 11
101.1692818548617
 21
222.9421159561016
 31
0.0
  0
LINE
  5
434
330
1F
100
AcDbEntity
  8
0
  6
ByBlock
370
    40
100
AcDbLine
 10
102.3049277306637
 20
221.1802629952692
 30
0.0
 11
107.0677241531884
 21
220.9795493233944
 31
0.0
  0
LINE
  5
435
330
1F
100
AcDbEntity
  8
0
  6
ByBlock
370
    40
100
AcDbLine
 10
100.1722411760873
 20
216.2423452532813
 30
0.0
 11
120.5437689545018
 21
216.2423452532813
 31
0.0
  0
LINE
  5
436
330
1F
100
AcDbEntity
  8
0
  6
ByBlock
370
    40
100
AcDbLine
 10
100.1722411760873
 20
216.2423452532826
 30
0.0
 11
100.1722411760873
 21
217.8949979505885
 31
0.0
  0
LINE
  5
437
330
1F
100
AcDbEntity
  8
0
  6
ByBlock
370
    40
100
AcDbLine
 10
100.1722411760873
 20
217.8949979505885
 30
0.0
 11
101.2842227991662
 21
217.8949979505885
 31
0.0
  0
LINE
  5
438
330
1F
100
AcDbEntity
  8
0
  6
ByBlock
370
    40
100
AcDbLine
 10
120.5437689545018
 20
216.2423452532826
 30
0.0
 11
120.5437689545018
 21
217.8978570891668
 31
0.0
  0
LINE
  5
439
330
1F
100
AcDbEntity
  8
0
  6
ByBlock
370
    40
100
AcDbLine
 10
120.5437689545018
 20
217.8978570891668
 30
0.0
 11
119.7763067645006
 21
217.8978570891668
 31
0.0
  0
SPLINE
  5
43A
330
1F
100
AcDbEntity
  8
0
  6
ByBlock
370
    40
100
AcDbSpline
210
0.0
220
0.0
230
1.0
 70
  1064
 71
     3
 72
    18
 73
    14
 74
    12
 42
0.000000001
 43
0.0000000001
 44
0.00001
 40
0.0
 40
0.0
 40
0.0
 40
0.0
 40
0.2416590012870249
 40
0.801050101309759
 40
1.524547288706549
 40
2.166438977689007
 40
2.459304152810125
 40
2.579933077913828
 40
2.705785337173447
 40
2.911433048499015
 40
3.152095676015772
 40
3.467996442448003
 40
3.707578588388865
 40
3.707578588388865
 40
3.707578588388865
 40
3.707578588388865
 10
101.2842227991662
 20
217.8949979505912
 30
0.0
 10
101.3647893445205
 20
217.8945766585416
 30
0.0
 10
101.631850898473
 20
217.8931974449695
 30
0.0
 10
102.139249563417
 20
217.9309831056221
 30
0.0
 10
102.7770819691811
 20
217.9948490805874
 30
0.0
 10
103.3228375475768
 20
218.1025093382436
 30
0.0
 10
103.6485417296799
 20
218.2406197759365
 30
0.0
 10
103.7872578507176
 20
218.3663690790654
 30
0.0
 10
103.8133526829812
 20
218.5227715635415
 30
0.0
 10
103.7782999987012
 20
218.7102056029369
 30
0.0
 10
103.70817183756
 20
218.95679226351
 30
0.0
 10
103.5593726832376
 20
219.1794639985412
 30
0.0
 10
103.4769816431489
 20
219.3452103727369
 30
0.0
 10
103.4414413463299
 20
219.4166950411599
 30
0.0
 11
101.2842227991662
 21
217.8949979505912
 31
0.0
 11
101.5258752749884
 21
217.8956686127196
 31
0.0
 11
102.0842765003947
 21
217.9289546335157
 31
0.0
 11
102.8032588174665
 21
218.0097164739992
 31
0.0
 11
103.4286763377829
 21
218.1542265154895
 31
0.0
 11
103.6910380030301
 21
218.2843702680533
 31
0.0
 11
103.7741463565926
 21
218.3718034318982
 31
0.0
 11
103.8030713228115
 21
218.4942875168992
 31
0.0
 11
103.777541305685
 21
218.6983452965449
 31
0.0
 11
103.705228890186
 21
218.9278882373953
 31
0.0
 11
103.5520487875023
 21
219.2041657397823
 31
0.0
 11
103.4414413463299
 21
219.4166950411599
 31
0.0
  0
SPLINE
  5
43B
330
1F
100
AcDbEntity
  8
0
  6
ByBlock
370
    40
100
AcDbSpline
210
0.0
220
0.0
230
1.0
 70
  1064
 71
     3
 72
    10
 73
     6
 74
     4
 42
0.000000001
 43
0.0000000001
 44
0.00001
 40
0.0
 40
0.0
 40
0.0
 40
0.0
 40
1.618794718517131
 40
3.511499321772672
 40
4.815974444358793
 40
4.815974444358793
 40
4.815974444358793
 40
4.815974444358793
 10
103.4414413463407
 20
219.4166950411599
 30
0.0
 10
103.9802835691714
 20
219.3877932075067
 30
0.0
 10
105.149144123055
 20
219.3251127854038
 30
0.0
 10
106.7540510753495
 20
219.2815884474831
 30
0.0
 10
107.8196284851963
 20
219.2643260213191
 30
0.0
 10
108.2543927641872
 20
219.2572892406231
 30
0.0
 11
103.4414413463407
 21
219.4166950411599
 31
0.0
 11
105.0582518982578
 21
219.3365685648078
 31
0.0
 11
106.9501212249714
 21
219.2803388393311
 31
0.0
 11
108.2543927641872
 21
219.2572892406231
 31
0.0
  0
SPLINE
  5
43C
330
1F
100
AcDbEntity
  8
0
  6
ByBlock
370
    40
100
AcDbSpline
210
0.0
220
0.0
230
1.0
 70
  1064
 71
     3
 72
    21
 73
    17
 74
    15
 42
0.000000001
 43
0.0000000001
 44
0.00001
 40
0.0
 40
0.0
 40
0.0
 40
0.0
 40
0.2015090212973325
 40
0.6237162699658676
 40
1.029269493999799
 40
1.605104055288572
 40
2.362266142092665
 40
3.282239112355404
 40
3.991878681064085
 40
4.64574717433332
 40
5.448980967937433
 40
6.026487742640705
 40
6.384116338185463
 40
6.78110274748323
 40
7.150744557582124
 40
7.422576121782757
 40
7.422576121782757
 40
7.422576121782757
 40
7.422576121782757
 10
108.2543927641872
 20
219.2572892406231
 30
0.0
 10
108.2913948134937
 20
219.2009321284519
 30
0.0
 10
108.4059378725395
 20
219.026504061262
 30
0.0
 10
108.6745531638803
 20
218.8070729463583
 30
0.0
 10
109.0067465061453
 20
218.476790001075
 30
0.0
 10
109.526776921066
 20
218.1985166522244
 30
0.0
 10
110.2612636938089
 20
218.0226177014801
 30
0.0
 10
111.0536279403523
 20
217.9430254481931
 30
0.0
 10
111.8129626236578
 20
217.8923067298744
 30
0.0
 10
112.5363458813171
 20
217.8818985846578
 30
0.0
 10
113.2113626661073
 20
217.9753237674808
 30
0.0
 10
113.7664055020056
 20
218.1651430437709
 30
0.0
 10
114.1307645000397
 20
218.4270950554447
 30
0.0
 10
114.371106814968
 20
218.7200398782092
 30
0.0
 10
114.5113028805256
 20
219.0446109044423
 30
0.0
 10
114.5284141121814
 20
219.2586457605122
 30
0.0
 10
114.535659661016
 20
219.3493464434092
 30
0.0
 11
108.2543927641872
 21
219.2572892406231
 31
0.0
 11
108.3704321238904
 21
219.092553440998
 31
0.0
 11
108.6736689761025
 21
218.7987681270435
 31
0.0
 11
108.9769058283256
 21
218.5294796300773
 31
0.0
 11
109.4792224948379
 21
218.247942724619
 31
0.0
 11
110.2102229316751
 21
218.0506268643475
 31
0.0
 11
111.1237358312723
 21
217.9418031081368
 31
0.0
 11
111.8319901092569
 21
217.8975041091022
 31
0.0
 11
112.4858573028721
 21
217.8975041091022
 31
0.0
 11
113.2804111865612
 21
218.0152582611331
 31
0.0
 11
113.8202759899654
 21
218.220339682984
 31
0.0
 11
114.1098651468531
 21
218.4301863358183
 31
0.0
 11
114.3607518841989
 21
218.7378437666073
 31
0.0
 11
114.5014385742405
 21
219.0796696683718
 31
0.0
 11
114.535659661016
 21
219.3493464434092
 31
0.0
  0
LINE
  5
43D
330
1F
100
AcDbEntity
  8
0
  6
ByBlock
370
    40
100
AcDbLine
 10
114.5356596610052
 20
219.3493464434078
 30
0.0
 11
117.7550219786749
 21
219.6004564666578
 31
0.0
  0
SPLINE
  5
43E
330
1F
100
AcDbEntity
  8
0
  6
ByBlock
370
    40
100
AcDbSpline
210
0.0
220
0.0
230
1.0
 70
  1064
 71
     3
 72
    14
 73
    10
 74
     8
 42
0.000000001
 43
0.0000000001
 44
0.00001
 40
0.0
 40
0.0
 40
0.0
 40
0.0
 40
0.4191077194228106
 40
0.8983518141414775
 40
1.275623085237581
 40
1.687148125494036
 40
2.186209421871626
 40
2.730312572871223
 40
3.102268426830186
 40
3.102268426830186
 40
3.102268426830186
 40
3.102268426830186
 10
117.7550219786857
 20
219.6004564666605
 30
0.0
 10
117.7518209873404
 20
219.460778158074
 30
0.0
 10
117.7449735919868
 20
219.1613797191059
 30
0.0
 10
117.824009374998
 20
218.7358957048495
 30
0.0
 10
118.0470729032093
 20
218.3658488540401
 30
0.0
 10
118.4062017841373
 20
218.1081023569415
 30
0.0
 10
118.8820390610655
 20
217.9924586022663
 30
0.0
 10
119.3463809087667
 20
217.9071051227692
 30
0.0
 10
119.6521515923021
 20
217.9005228879679
 30
0.0
 10
119.7763067645113
 20
217.8978570891682
 30
0.0
 11
117.7550219786857
 21
219.6004564666605
 31
0.0
 11
117.7590280186075
 21
219.1813632271277
 31
0.0
 11
117.8608764911439
 21
218.7130645655537
 31
0.0
 11
118.0596168105305
 21
218.3923821701005
 31
0.0
 11
118.390760144221
 21
218.1480493642351
 31
0.0
 11
118.8675467936501
 21
218.0006095881264
 31
0.0
 11
119.404695637735
 21
217.9138823844422
 31
0.0
 11
119.7763067645113
 21
217.8978570891682
 31
0.0
  0
LINE
  5
43F
330
1F
100
AcDbEntity
  8
0
  6
ByBlock
370
    40
100
AcDbLine
 10
114.5690659600012
 20
221.0350380754509
 30
0.0
 11
114.5690659600012
 21
222.7410966576574
 31
0.0
  0
LINE
  5
440
330
1F
100
AcDbEntity
  8
0
  6
ByBlock
370
    40
100
AcDbLine
 10
114.5690659600012
 20
224.4590859662896
 30
0.0
 11
114.5690659600012
 21
231.8963760842184
 31
0.0
  0
LINE
  5
441
330
1F
100
AcDbEntity
  8
0
  6
ByBlock
370
    40
100
AcDbLine
 10
117.7136714988332
 20
221.3148453785637
 30
0.0
 11
117.7136714988332
 21
223.0131383991798
 31
0.0
  0
LINE
  5
442
330
1F
100
AcDbEntity
  8
0
  6
ByBlock
370
    40
100
AcDbLine
 10
117.7136714988332
 20
224.741328831895
 30
0.0
 11
117.7136714988332
 21
229.6165483949136
 31
0.0
  0
LINE
  5
443
330
1F
100
AcDbEntity
  8
0
  6
ByBlock
370
    40
100
AcDbLine
 10
117.7136714988332
 20
232.1954208012468
 30
0.0
 11
117.7136714988332
 21
236.28427135977
 31
0.0
  0
LINE
  5
444
330
1F
100
AcDbEntity
  8
0
  6
ByBlock
370
    40
100
AcDbLine
 10
117.7136714988332
 20
236.28427135977
 30
0.0
 11
111.6516504138766
 21
234.097348025423
 31
0.0
  0
LINE
  5
445
330
1F
100
AcDbEntity
  8
0
  6
ByBlock
370
    40
100
AcDbLine
 10
111.6516504138766
 20
234.097348025423
 30
0.0
 11
112.1299987398562
 21
232.9817192097267
 31
0.0
  0
LINE
  5
446
330
1F
100
AcDbEntity
  8
0
  6
ByBlock
370
    40
100
AcDbLine
 10
114.5690659600012
 20
221.0350380754509
 30
0.0
 11
117.7136714988332
 21
221.3148453785637
 31
0.0
  0
LINE
  5
447
330
1F
100
AcDbEntity
  8
0
  6
ByBlock
370
    40
100
AcDbLine
 10
114.5690659599905
 20
222.7410966576574
 30
0.0
 11
117.7136714988332
 21
223.0131383991798
 31
0.0
  0
LINE
  5
448
330
1F
100
AcDbEntity
  8
0
  6
ByBlock
370
    40
100
AcDbLine
 10
114.5690659600012
 20
224.4590859662896
 30
0.0
 11
117.7136714988332
 21
224.741328831895
 31
0.0
  0
SPLINE
  5
449
330
1F
100
AcDbEntity
  8
0
  6
ByBlock
370
    40
100
AcDbSpline
210
0.0
220
0.0
230
1.0
 70
  1064
 71
     3
 72
    15
 73
    11
 74
     9
 42
0.000000001
 43
0.0000000001
 44
0.00001
 40
0.0
 40
0.0
 40
0.0
 40
0.0
 40
0.4817482979279787
 40
0.9802150022323175
 40
1.524009407487535
 40
1.941122804660975
 40
2.239718325652045
 40
2.498820030009401
 40
2.752468970683554
 40
3.026510485787259
 40
3.026510485787259
 40
3.026510485787259
 40
3.026510485787259
 10
112.1299987398779
 20
232.9817192097308
 30
0.0
 10
112.2906328616939
 20
232.9797993222398
 30
0.0
 10
112.6174756498118
 20
232.9758903054014
 30
0.0
 10
113.1242429299885
 20
232.9566753851314
 30
0.0
 10
113.6133098760158
 20
232.9242680016151
 30
0.0
 10
114.0142743749969
 20
232.8006746755938
 30
0.0
 10
114.3129509979342
 20
232.6481496432431
 30
0.0
 10
114.457395449736
 20
232.4108308388572
 30
0.0
 10
114.5547521917125
 20
232.1652744616719
 30
0.0
 10
114.5641771317073
 20
231.9882892285213
 30
0.0
 10
114.5690659600012
 20
231.8963760842198
 30
0.0
 11
112.1299987398779
 21
232.9817192097308
 31
0.0
 11
112.6116741159629
 21
232.973918350138
 31
0.0
 11
113.1097810455815
 21
232.9549633202701
 31
0.0
 11
113.6505964347287
 21
232.8980982306621
 31
0.0
 11
114.0490955582426
 21
232.7748728875143
 31
0.0
 11
114.3045315273526
 21
232.6202323179499
 31
0.0
 11
114.4512612267756
 21
232.4066793743697
 31
0.0
 11
114.5393262060243
 21
232.1688061038188
 31
0.0
 11
114.5690659600012
 21
231.8963760842198
 31
0.0
  0
SPLINE
  5
44A
330
1F
100
AcDbEntity
  8
0
  6
ByBlock
370
    40
100
AcDbSpline
210
0.0
220
0.0
230
1.0
 70
  1064
 71
     3
 72
    47
 73
    43
 74
    41
 42
0.000000001
 43
0.0000000001
 44
0.00001
 40
0.0
 40
0.0
 40
0.0
 40
0.0
 40
0.9432398604806321
 40
2.005647510879522
 40
3.10482104696551
 40
3.978684803594506
 40
4.686306192737629
 40
5.30760878629414
 40
5.552625351153306
 40
5.790413712208336
 40
5.957786086688443
 40
6.335789515111558
 40
6.841420035451649
 40
7.496029852728207
 40
7.937196163834985
 40
8.408264029444286
 40
8.755159827506005
 40
9.050729580575609
 40
9.548844100420453
 40
9.986865963759942
 40
10.54226035516183
 40
11.08225764192449
 40
11.5801026104657
 40
12.14317588480204
 40
12.72121832136324
 40
13.38840642771429
 40
13.98436238142329
 40
14.46512164325523
 40
15.14067720365447
 40
15.67155261375347
 40
16.08796200219239
 40
16.57052078241249
 40
17.06113091068828
 40
17.72376935842732
 40
18.62945447378869
 40
19.29101329745926
 40
20.07319427634536
 40
20.82901250717455
 40
21.95698700858598
 40
22.9828892266593
 40
23.85413097776731
 40
24.07973734594575
 40
24.07973734594575
 40
24.07973734594575
 40
24.07973734594575
 10
117.713671498844
 20
229.6165483949177
 30
0.0
 10
117.9199820996588
 20
229.8538778762656
 30
0.0
 10
118.358663581666
 20
230.3585249170091
 30
0.0
 10
119.0584092852362
 20
231.1202189604145
 30
0.0
 10
119.7377517729528
 20
231.8735358543889
 30
0.0
 10
120.4568974172991
 20
232.4137743452983
 30
0.0
 10
121.1077640171422
 20
232.7562275637347
 30
0.0
 10
121.5739108933469
 20
232.99443665434
 30
0.0
 10
121.9321802919035
 20
233.102966936457
 30
0.0
 10
122.1492327985492
 20
233.0802994264388
 30
0.0
 10
122.4143981110914
 20
233.0717731734782
 30
0.0
 10
122.7035627400738
 20
232.8413800692292
 30
0.0
 10
123.1093993338163
 20
232.5425700351409
 30
0.0
 10
123.5584288921389
 20
232.2462305943642
 30
0.0
 10
124.0416347579255
 20
232.0382712364825
 30
0.0
 10
124.4623864460714
 20
231.9821485079858
 30
0.0
 10
124.833179844414
 20
231.9867051274419
 30
0.0
 10
125.2141167241907
 20
232.0090364221216
 30
0.0
 10
125.6098376001598
 20
232.1282736169405
 30
0.0
 10
126.0709558167713
 20
232.3258277173438
 30
0.0
 10
126.4470184216048
 20
232.6847812365052
 30
0.0
 10
126.7722942575102
 20
233.1057355242194
 30
0.0
 10
126.9934743658328
 20
233.6007583858917
 30
0.0
 10
127.0431198506062
 20
234.150877791606
 30
0.0
 10
126.9885866207658
 20
234.7580451381951
 30
0.0
 10
126.7134019085984
 20
235.3211139477894
 30
0.0
 10
126.3374307826957
 20
235.769596913032
 30
0.0
 10
125.8724069368611
 20
236.1293296239478
 30
0.0
 10
125.3321419672183
 20
236.3349105051157
 30
0.0
 10
124.7886438966363
 20
236.3456231037908
 30
0.0
 10
124.3113944617484
 20
236.3510642335674
 30
0.0
 10
123.8534494789049
 20
236.2706086592411
 30
0.0
 10
123.319275144473
 20
236.161610488748
 30
0.0
 10
122.6640206804074
 20
235.9527557315807
 30
0.0
 10
121.9776765369116
 20
235.6634092917685
 30
0.0
 10
121.2902790574955
 20
235.2873276191496
 30
0.0
 10
120.6613462984638
 20
234.9089908543063
 30
0.0
 10
119.9487528677239
 20
234.3764692460368
 30
0.0
 10
119.2082015140286
 20
233.7486483426722
 30
0.0
 10
118.4856959983461
 20
233.0456002471129
 30
0.0
 10
117.9871986114654
 20
232.5412585798356
 30
0.0
 10
117.7603358348599
 20
232.2544183748138
 30
0.0
 10
117.713671498844
 20
232.1954208012495
 30
0.0
 11
117.713671498844
 21
229.6165483949177
 31
0.0
 11
118.3355582721154
 21
230.3257559556643
 31
0.0
 11
119.0493123675959
 21
231.1126897282701
 31
0.0
 11
119.8154165779645
 21
231.9008942291429
 31
0.0
 11
120.5146402913649
 21
232.4250343381129
 31
0.0
 11
121.1335395094443
 21
232.7680956701363
 31
0.0
 11
121.6979837441998
 21
233.0277478111286
 31
0.0
 11
121.9356980790872
 21
233.0871190592434
 31
0.0
 11
122.1734124139746
 21
233.0811889940357
 31
0.0
 11
122.3398328180822
 21
233.063363500391
 31
0.0
 11
122.6666306169481
 21
232.8733896256242
 31
0.0
 11
123.0737529111349
 21
232.5735330544238
 31
0.0
 11
123.6292344803148
 21
232.2271890077321
 31
0.0
 11
124.0379184510738
 21
232.0610412878238
 31
0.0
 11
124.5035696674826
 21
231.989809909292
 31
0.0
 11
124.8504655649121
 21
231.989809909292
 31
0.0
 11
125.1450792464514
 21
232.0135654681404
 31
0.0
 11
125.6259398347567
 21
232.1435327306651
 31
0.0
 11
126.0223340898455
 21
232.329906208696
 31
0.0
 11
126.4392338373875
 21
232.696864291595
 31
0.0
 11
126.7623650912345
 21
233.1295119658947
 31
0.0
 11
126.9592721381333
 21
233.5867623512237
 31
0.0
 11
127.0258810391642
 21
234.1458827853342
 31
0.0
 11
126.9592721381333
 21
234.7200754685264
 31
0.0
 11
126.6794604345899
 21
235.32575397414
 31
0.0
 11
126.2961810786568
 21
235.7821103676918
 31
0.0
 11
125.9131525272819
 21
236.0726598065836
 31
0.0
 11
125.2802661189967
 21
236.3089446668096
 31
0.0
 11
124.7506540618353
 21
236.3455487002736
 31
0.0
 11
124.3342975061572
 21
236.3389126749282
 31
0.0
 11
123.8568318669334
 21
236.2689873226508
 31
0.0
 11
123.3771934602866
 21
236.165811247596
 31
0.0
 11
122.7443070519798
 21
235.969483731518
 31
0.0
 11
121.9105075568851
 21
235.6158682953509
 31
0.0
 11
121.3275947990928
 21
235.303022057505
 31
0.0
 11
120.6612341928247
 21
234.8934239819053
 31
0.0
 11
120.0521124281112
 21
234.4459511445802
 31
0.0
 11
119.1914928352443
 21
233.7168002097601
 31
0.0
 11
118.4509865409676
 21
233.0067807948444
 31
0.0
 11
117.8549692797364
 21
232.3713107711526
 31
0.0
 11
117.713671498844
 21
232.1954208012495
 31
0.0
  0
SPLINE
  5
44B
330
1F
100
AcDbEntity
  8
0
  6
ByBlock
370
    40
100
AcDbSpline
210
0.0
220
0.0
230
1.0
 70
  1065
 71
     3
 72
    35
 73
    31
 74
    29
 42
0.000000001
 43
0.0000000001
 44
0.00001
 40
0.0
 40
0.0
 40
0.0
 40
0.0
 40
0.4070718340673809
 40
1.200476808480315
 40
1.892484890288552
 40
2.567383763043674
 40
3.233454562071417
 40
3.9320528966951
 40
4.500535855417092
 40
4.860895131076767
 40
5.286683835221703
 40
5.879066171614845
 40
6.323645596991053
 40
6.984959450223694
 40
7.620452298755624
 40
8.150489292829625
 40
8.745375328950721
 40
9.359852431817223
 40
10.00387786302368
 40
10.64184869074815
 40
11.23810842688072
 40
11.96398435539141
 40
12.77239205939433
 40
13.68674851746871
 40
14.21871537319116
 40
15.0325808743689
 40
15.52310742111354
 40
15.71196497320265
 40
15.96700663748286
 40
16.14614187065824
 40
16.14614187065824
 40
16.14614187065824
 40
16.14614187065824
 10
133.2440697819854
 20
244.1969197407174
 30
0.0
 10
133.1814008333283
 20
244.0765048223742
 30
0.0
 10
132.9965977080137
 20
243.7213888670168
 30
0.0
 10
132.6493629622454
 20
243.1936792293971
 30
0.0
 10
132.2553558621175
 20
242.5911246340321
 30
0.0
 10
131.8698523027023
 20
242.0338759587012
 30
0.0
 10
131.516913853987
 20
241.4511121436559
 30
0.0
 10
131.2649075057434
 20
240.8559617206206
 30
0.0
 10
131.1338199760503
 20
240.3240627726257
 30
0.0
 10
131.1284063243442
 20
239.8721304863522
 30
0.0
 10
131.1445697400723
 20
239.4086810413584
 30
0.0
 10
131.3590680165925
 20
238.9541263387133
 30
0.0
 10
131.718414580938
 20
238.5152861482349
 30
0.0
 10
132.1788207581593
 20
238.1500820331179
 30
0.0
 10
132.7454007288641
 20
237.9055588673622
 30
0.0
 10
133.3367800711409
 20
237.8368443650406
 30
0.0
 10
133.9142074794794
 20
237.9633763748763
 30
0.0
 10
134.4555632128136
 20
238.2777807703128
 30
0.0
 10
134.9079894153005
 20
238.7263893118909
 30
0.0
 10
135.2586445469701
 20
239.2516228625659
 30
0.0
 10
135.438140518757
 20
239.899420928818
 30
0.0
 10
135.2991385665348
 20
240.6099290320239
 30
0.0
 10
135.0619271672117
 20
241.3923149800664
 30
0.0
 10
134.663803515269
 20
242.0376802381119
 30
0.0
 10
134.2386380926677
 20
242.6585300998404
 30
0.0
 10
133.8849621110485
 20
243.1579400034733
 30
0.0
 10
133.5967893977471
 20
243.5650142813489
 30
0.0
 10
133.4495124504989
 20
243.8397053348376
 30
0.0
 10
133.3420029804758
 20
244.0174419633437
 30
0.0
 10
133.2726768566243
 20
244.1444997620774
 30
0.0
 10
133.2440697819854
 20
244.1969197407174
 30
0.0
 11
133.2440697819854
 21
244.1969197407174
 31
0.0
 11
133.0519835627881
 21
243.8380096034618
 31
0.0
 11
132.6312135732983
 21
243.1653707781795
 31
0.0
 11
132.2496891952035
 21
242.5880365723492
 31
0.0
 11
131.8738004325788
 21
242.0275042179472
 31
0.0
 11
131.5364103925781
 21
241.4532056407343
 31
0.0
 11
131.267123031215
 21
240.808593433166
 31
0.0
 11
131.1436826825191
 21
240.2536734619136
 31
0.0
 11
131.131257168864
 21
239.8935278944084
 31
0.0
 11
131.1666325383221
 21
239.4692105498068
 31
0.0
 11
131.4027172976502
 21
238.9259036229205
 31
0.0
 11
131.6819858093295
 21
238.5799831523133
 31
0.0
 11
132.2010735243216
 21
238.1702438846972
 31
0.0
 11
132.7870417362819
 21
237.9242873704963
 31
0.0
 11
133.3140057331327
 21
237.8672810888623
 31
0.0
 11
133.8960358041474
 21
237.9902946439578
 31
0.0
 11
134.430876082889
 21
238.2928338637082
 31
0.0
 11
134.8926570573393
 21
238.7417539193379
 31
0.0
 11
135.235071621981
 21
239.2800485291942
 31
0.0
 11
135.3841098867796
 21
239.8573827350327
 31
0.0
 11
135.2936684431792
 21
240.5776032740273
 31
0.0
 11
135.0419669180753
 21
241.3458291028159
 31
0.0
 11
134.5896239020774
 21
242.1404578410019
 31
0.0
 11
134.2907325847006
 21
242.5805180968163
 31
0.0
 11
133.8225012069898
 21
243.2462032146773
 31
0.0
 11
133.5511089771799
 21
243.6548129460769
 31
0.0
 11
133.4587526427026
 21
243.8195482734108
 31
0.0
 11
133.3308446805992
 21
244.0401965887293
 31
0.0
 11
133.2440697819854
 21
244.1969197407174
 31
0.0
  0
SPLINE
  5
44C
330
1F
100
AcDbEntity
  8
0
  6
ByBlock
370
    40
100
AcDbSpline
210
0.0
220
0.0
230
1.0
 70
  1065
 71
     3
 72
    35
 73
    31
 74
    29
 42
0.000000001
 43
0.0000000001
 44
0.00001
 40
0.0
 40
0.0
 40
0.0
 40
0.0
 40
0.4070718340674345
 40
1.200476808491794
 40
1.892484890294092
 40
2.567383763049135
 40
3.233454562071508
 40
3.932052896703495
 40
4.500535855425481
 40
4.860895131084784
 40
5.286683835230613
 40
5.87906617161952
 40
6.323645596995746
 40
6.984959450219909
 40
7.620452298741776
 40
8.150489292837194
 40
8.74537532896883
 40
9.359852431826103
 40
10.00387786303254
 40
10.64184869076281
 40
11.23810842689265
 40
11.96398435540333
 40
12.77239205940956
 40
13.6867485174786
 40
14.21871537319502
 40
15.0325808743852
 40
15.5231074211239
 40
15.71196497321296
 40
15.96700663749316
 40
16.14614187066332
 40
16.14614187066332
 40
16.14614187066332
 40
16.14614187066332
 10
139.9284529330902
 20
244.1969197407174
 30
0.0
 10
139.8657839844337
 20
244.0765048223738
 30
0.0
 10
139.6809808591195
 20
243.7213888670117
 30
0.0
 10
139.3337461133228
 20
243.1936792294075
 30
0.0
 10
138.9397390132155
 20
242.5911246340274
 30
0.0
 10
138.5542354537918
 20
242.0338759587057
 30
0.0
 10
138.201297005099
 20
241.4511121436471
 30
0.0
 10
137.9492906568229
 20
240.8559617206258
 30
0.0
 10
137.8182031271296
 20
240.3240627726258
 30
0.0
 10
137.8127894754387
 20
239.8721304863513
 30
0.0
 10
137.8289528911831
 20
239.4086810413617
 30
0.0
 10
138.0434511676837
 20
238.9541263387106
 30
0.0
 10
138.4027977320323
 20
238.5152861482385
 30
0.0
 10
138.863203909241
 20
238.1500820331182
 30
0.0
 10
139.4297838799465
 20
237.9055588673572
 30
0.0
 10
140.0211632222311
 20
237.8368443650421
 30
0.0
 10
140.5985906305786
 20
237.963376374871
 30
0.0
 10
141.13994636391
 20
238.2777807703163
 30
0.0
 10
141.592372566392
 20
238.726389311894
 30
0.0
 10
141.9430276980804
 20
239.2516228625607
 30
0.0
 10
142.1225236698449
 20
239.8994209288204
 30
0.0
 10
141.9835217176334
 20
240.6099290320255
 30
0.0
 10
141.7463103182904
 20
241.3923149800623
 30
0.0
 10
141.3481866663591
 20
242.0376802381085
 30
0.0
 10
140.9230212437767
 20
242.6585300998509
 30
0.0
 10
140.5693452621261
 20
243.1579400034621
 30
0.0
 10
140.2811725488407
 20
243.5650142813511
 30
0.0
 10
140.1338956015933
 20
243.8397053348378
 30
0.0
 10
140.0263861315675
 20
244.0174419633405
 30
0.0
 10
139.9570600077248
 20
244.144499762077
 30
0.0
 10
139.9284529330902
 20
244.1969197407174
 30
0.0
 11
139.9284529330902
 21
244.1969197407174
 31
0.0
 11
139.7363667138928
 21
243.8380096034618
 31
0.0
 11
139.3155967243815
 21
243.1653707781795
 31
0.0
 11
138.9340723462974
 21
242.5880365723492
 31
0.0
 11
138.5581835836728
 21
242.0275042179472
 31
0.0
 11
138.2207935436828
 21
241.4532056407343
 31
0.0
 11
137.9515061822981
 21
240.808593433166
 31
0.0
 11
137.8280658336022
 21
240.2536734619136
 31
0.0
 11
137.8156403199579
 21
239.8935278944084
 31
0.0
 11
137.8510156894267
 21
239.4692105498068
 31
0.0
 11
138.0871004487442
 21
238.9259036229205
 31
0.0
 11
138.3663689604236
 21
238.5799831523133
 31
0.0
 11
138.8854566754048
 21
238.1702438846972
 31
0.0
 11
139.4714248873542
 21
237.9242873704963
 31
0.0
 11
139.9983888842265
 21
237.8672810888623
 31
0.0
 11
140.5804189552521
 21
237.9902946439578
 31
0.0
 11
141.1152592339831
 21
238.2928338637082
 31
0.0
 11
141.5770402084333
 21
238.7417539193379
 31
0.0
 11
141.9194547730858
 21
239.2800485291942
 31
0.0
 11
142.0684930378735
 21
239.8573827350327
 31
0.0
 11
141.9780515942731
 21
240.5776032740273
 31
0.0
 11
141.7263500691585
 21
241.3458291028159
 31
0.0
 11
141.2740070531715
 21
242.1404578410019
 31
0.0
 11
140.9751157358054
 21
242.5805180968163
 31
0.0
 11
140.5068843580729
 21
243.2462032146773
 31
0.0
 11
140.2354921282738
 21
243.6548129460769
 31
0.0
 11
140.1431357937966
 21
243.8195482734108
 31
0.0
 11
140.0152278316932
 21
244.0401965887293
 31
0.0
 11
139.9284529330902
 21
244.1969197407174
 31
0.0
  0
LINE
  5
44D
330
1F
100
AcDbEntity
  8
0
  6
ByBlock
370
    40
100
AcDbLine
 10
140.1328288679578
 20
231.2604824844342
 30
0.0
 11
140.1328288679578
 21
228.2773772995879
 31
0.0
  0
LINE
  5
44E
330
1F
100
AcDbEntity
  8
0
  6
ByBlock
370
    40
100
AcDbLine
 10
140.1328288679578
 20
226.5465395163292
 30
0.0
 11
140.1328288679578
 21
224.8874625817182
 31
0.0
  0
LINE
  5
44F
330
1F
100
AcDbEntity
  8
0
  6
ByBlock
370
    40
100
AcDbLine
 10
140.1328288679578
 20
223.1452941381464
 30
0.0
 11
140.1328288679578
 21
219.9556250151502
 31
0.0
  0
LINE
  5
450
330
1F
100
AcDbEntity
  8
0
  6
ByBlock
370
    40
100
AcDbLine
 10
143.3299882186279
 20
218.8293362012844
 30
0.0
 11
143.3299882186279
 21
223.6676693467616
 31
0.0
  0
LINE
  5
451
330
1F
100
AcDbEntity
  8
0
  6
ByBlock
370
    40
100
AcDbLine
 10
143.3299882186279
 20
225.3881295159037
 30
0.0
 11
143.3299882186279
 21
227.0647495601008
 31
0.0
  0
LINE
  5
452
330
1F
100
AcDbEntity
  8
0
  6
ByBlock
370
    40
100
AcDbLine
 10
143.3299882186279
 20
228.7891278080411
 30
0.0
 11
143.3299882186279
 21
230.69497311101
 31
0.0
  0
LINE
  5
453
330
1F
100
AcDbEntity
  8
0
  6
ByBlock
370
    40
100
AcDbLine
 10
140.1328288679578
 20
228.2773772995879
 30
0.0
 11
143.3299882186279
 21
228.7891278080411
 31
0.0
  0
LINE
  5
454
330
1F
100
AcDbEntity
  8
0
  6
ByBlock
370
    40
100
AcDbLine
 10
143.3299882186279
 20
227.0647495601008
 30
0.0
 11
140.1328288679578
 21
226.5465395163318
 31
0.0
  0
LINE
  5
455
330
1F
100
AcDbEntity
  8
0
  6
ByBlock
370
    40
100
AcDbLine
 10
140.1328288679578
 20
224.8874625817182
 30
0.0
 11
143.3299882186279
 21
225.3881295159064
 31
0.0
  0
LINE
  5
456
330
1F
100
AcDbEntity
  8
0
  6
ByBlock
370
    40
100
AcDbLine
 10
140.1328288679578
 20
223.1452941381478
 30
0.0
 11
143.3299882186279
 21
223.6676693467616
 31
0.0
  0
SPLINE
  5
457
330
1F
100
AcDbEntity
  8
0
  6
ByBlock
370
    40
100
AcDbSpline
210
0.0
220
0.0
230
1.0
 70
  1064
 71
     3
 72
    57
 73
    53
 74
    51
 42
0.000000001
 43
0.0000000001
 44
0.00001
 40
0.0
 40
0.0
 40
0.0
 40
0.0
 40
0.4158578909166045
 40
0.9648743934404555
 40
1.727439431771556
 40
2.265191833121689
 40
2.957789432219366
 40
3.551445539834017
 40
4.108225869013469
 40
4.804822080484075
 40
5.480586041188497
 40
6.128273298314554
 40
6.942076733392109
 40
7.508109601365021
 40
8.035421131982113
 40
8.637058315107429
 40
9.185736286733657
 40
9.645624086379509
 40
10.31246782431796
 40
10.81720201509458
 40
11.32622262436963
 40
11.91619459110419
 40
12.37640059388036
 40
12.90701333259079
 40
13.48682452403627
 40
14.03218890977125
 40
14.45959100822454
 40
14.88775445477125
 40
15.42954054982628
 40
15.97442014513027
 40
16.19132681697908
 40
16.48586395579437
 40
16.87424901687732
 40
17.45230006876289
 40
17.99476277801668
 40
18.79715760707167
 40
19.59166169635599
 40
20.3575353435469
 40
21.19809979177293
 40
22.07137870405888
 40
23.06408637518466
 40
24.0786295528937
 40
25.24365789545459
 40
26.45867167627561
 40
27.65214107408542
 40
29.15241205778107
 40
30.70888596761768
 40
32.16150901341781
 40
32.8231618726433
 40
33.688836990673
 40
34.80183441343254
 40
35.53703753244369
 40
35.53703753244369
 40
35.53703753244369
 40
35.53703753244369
 10
140.1328288679686
 20
231.2604824844368
 30
0.0
 10
140.1207814215845
 20
231.3988527229799
 30
0.0
 10
140.0928436943633
 20
231.71990130581
 30
0.0
 10
139.9382854790149
 20
232.2762160487256
 30
0.0
 10
139.7066730476583
 20
232.8554161448198
 30
0.0
 10
139.2849497107385
 20
233.3753660351515
 30
0.0
 10
138.8320093803105
 20
233.7848011192134
 30
0.0
 10
138.2941991074139
 20
234.0961739142594
 30
0.0
 10
137.6956665566345
 20
234.254527065097
 30
0.0
 10
137.0561268199652
 20
234.3460681950122
 30
0.0
 10
136.3820996506725
 20
234.3087870530011
 30
0.0
 10
135.669786151715
 20
234.2716776856183
 30
0.0
 10
135.0110105339494
 20
234.0857793784108
 30
0.0
 10
134.4471144108805
 20
233.7854538904061
 30
0.0
 10
134.0023434649237
 20
233.4327714350461
 30
0.0
 10
133.631595594976
 20
233.0081133193401
 30
0.0
 10
133.3682047627364
 20
232.5382424504308
 30
0.0
 10
133.1337033179802
 20
232.0309172100021
 30
0.0
 10
132.9613833346299
 20
231.5142630473288
 30
0.0
 10
132.7055927560292
 20
231.0125149892027
 30
0.0
 10
132.3874303952483
 20
230.5830309824675
 30
0.0
 10
132.0363214334445
 20
230.1903039685669
 30
0.0
 10
131.5643803010497
 20
229.9395436436665
 30
0.0
 10
131.051864615302
 20
229.8092552819015
 30
0.0
 10
130.4942405920521
 20
229.8194641134086
 30
0.0
 10
129.986119041006
 20
229.9397376093867
 30
0.0
 10
129.5668325612019
 20
230.1539216376653
 30
0.0
 10
129.2131529412743
 20
230.4684149039638
 30
0.0
 10
128.9690236954266
 20
230.9174437575864
 30
0.0
 10
128.8436875953312
 20
231.3436278303892
 30
0.0
 10
128.8608841935836
 20
231.6965259632778
 30
0.0
 10
128.8444811245025
 20
231.9966918269988
 30
0.0
 10
128.8983441147211
 20
232.4142067905504
 30
0.0
 10
129.0194157135422
 20
232.911428118643
 30
0.0
 10
129.4047804293285
 20
233.4347456080382
 30
0.0
 10
129.896903107799
 20
233.9513591682549
 30
0.0
 10
130.5310101810823
 20
234.4253279468675
 30
0.0
 10
131.231078322043
 20
234.8159658170469
 30
0.0
 10
131.9895013522006
 20
235.146978391633
 30
0.0
 10
132.8406961532669
 20
235.4488491890513
 30
0.0
 10
133.7748873402736
 20
235.6783632437023
 30
0.0
 10
134.819787789919
 20
235.8428346134187
 30
0.0
 10
135.9463842068081
 20
235.9650749939547
 30
0.0
 10
137.1389230556075
 20
235.957283988291
 30
0.0
 10
138.4415119371125
 20
235.9021744947514
 30
0.0
 10
139.8394679582543
 20
235.5938247682811
 30
0.0
 10
141.1850089204003
 20
234.8927130610389
 30
0.0
 10
142.1194931508448
 20
234.069733671257
 30
0.0
 10
142.6582345093162
 20
233.2301799511357
 30
0.0
 10
143.0378843564354
 20
232.4354576330827
 30
0.0
 10
143.3020638525333
 20
231.55781300083
 30
0.0
 10
143.3220373738519
 20
230.9405258989195
 30
0.0
 10
143.3299882186386
 20
230.6949731110127
 30
0.0
 11
140.1328288679686
 21
231.2604824844368
 31
0.0
 11
140.0858427726459
 21
231.6736809567644
 31
0.0
 11
139.9491621225046
 21
232.2054101372935
 31
0.0
 11
139.6398822609216
 21
232.9024398855556
 31
0.0
 11
139.3090784221556
 21
233.3264042500804
 31
0.0
 11
138.7912128888329
 21
233.7863019859462
 31
0.0
 11
138.2735510524605
 21
234.0769104792628
 31
0.0
 11
137.739118167587
 21
234.2330688631284
 31
0.0
 11
137.0484497258833
 21
234.3237494436363
 31
0.0
 11
136.3728548581022
 21
234.308641896555
 31
0.0
 11
135.7275429361619
 21
234.2532240252408
 31
0.0
 11
134.9445318793396
 21
234.0314819439818
 31
0.0
 11
134.4454064649802
 21
233.7645231155009
 31
0.0
 11
134.0320374644724
 21
233.437134098684
 31
0.0
 11
133.6379517747592
 21
232.9825310638959
 31
0.0
 11
133.3607202325396
 21
232.5090435952582
 31
0.0
 11
133.1691093062406
 21
232.090973997932
 31
0.0
 11
132.926574143641
 21
231.4697996671565
 31
0.0
 11
132.6946312221979
 21
231.0215149756608
 31
0.0
 11
132.39716578343
 21
230.6084576953578
 31
0.0
 11
131.982778298203
 21
230.1885173036466
 31
0.0
 11
131.5794583469769
 21
229.9668811164178
 31
0.0
 11
131.065259358684
 21
229.8359255096849
 31
0.0
 11
130.4854699540362
 21
229.8409731247186
 31
0.0
 11
129.956061593836
 21
229.971928731449
 31
0.0
 11
129.5769136801144
 21
230.1692092937113
 31
0.0
 11
129.2592822437744
 21
230.4563232843058
 31
0.0
 11
128.9870752261848
 21
230.9247631379152
 31
0.0
 11
128.8559622925698
 21
231.453633179858
 31
0.0
 11
128.8564375854358
 21
231.6705394341219
 31
0.0
 11
128.8539253230992
 21
231.9650660062421
 31
0.0
 11
128.8960905907529
 21
232.3511556090388
 31
0.0
 11
129.0580975610381
 21
232.9060402822889
 31
0.0
 11
129.3591616458273
 21
233.3572900063822
 31
0.0
 11
129.9141679221519
 21
233.9367773906548
 31
0.0
 11
130.5480728151562
 21
234.4157360504135
 31
0.0
 11
131.2145013204329
 21
234.7931423434407
 31
0.0
 11
131.9830498941295
 21
235.1335563249165
 31
0.0
 11
132.8071398348454
 21
235.4225058118869
 31
0.0
 11
133.7702868900868
 21
235.6629558369672
 31
0.0
 11
134.7713894760558
 21
235.827550444561
 31
0.0
 11
135.9308324873234
 21
235.9414924118159
 31
0.0
 11
137.1458168656318
 21
235.9499286355319
 31
0.0
 11
138.3369687013385
 21
235.8755910323615
 31
0.0
 11
139.7984942821575
 21
235.5368360572197
 31
0.0
 11
141.1807138523316
 21
234.8212395571758
 31
0.0
 11
142.2472031576946
 21
233.8349779378768
 31
0.0
 11
142.6107343056295
 21
233.2821405490455
 31
0.0
 11
142.9847218967793
 21
232.5014192257059
 31
0.0
 11
143.2808293558929
 21
231.4285362967285
 31
0.0
 11
143.3299882186386
 21
230.6949731110127
 31
0.0
  0
SPLINE
  5
458
330
1F
100
AcDbEntity
  8
0
  6
ByBlock
370
    40
100
AcDbSpline
210
0.0
220
0.0
230
1.0
 70
  1064
 71
     3
 72
    27
 73
    23
 74
    21
 42
0.000000001
 43
0.0000000001
 44
0.00001
 40
0.0
 40
0.0
 40
0.0
 40
0.0
 40
0.7709328502826791
 40
1.559922625367435
 40
2.485372734860593
 40
3.237137203496455
 40
4.010498401450185
 40
4.888638290943254
 40
5.508126014961606
 40
6.046731327388664
 40
6.691842366924599
 40
7.30599577887123
 40
7.743622495861743
 40
8.178746271449581
 40
8.672992744165799
 40
9.166414995554598
 40
9.620061930444734
 40
10.0743240429743
 40
10.48698992605893
 40
10.98369380313743
 40
11.47377464446595
 40
11.71974010574083
 40
11.71974010574083
 40
11.71974010574083
 40
11.71974010574083
 10
140.1328288679686
 20
219.9556250151516
 30
0.0
 10
139.9403516261272
 20
219.7851913343547
 30
0.0
 10
139.5508794212903
 20
219.4403431361765
 30
0.0
 10
138.8751167587799
 20
218.9577159961224
 30
0.0
 10
138.1500224503908
 20
218.5654681430225
 30
0.0
 10
137.3940959003769
 20
218.2538382660703
 30
0.0
 10
136.6290662046347
 20
218.0110360984864
 30
0.0
 10
135.8807042078208
 20
217.880968546031
 30
0.0
 10
135.2039274400131
 20
217.8288878438165
 30
0.0
 10
134.6022103870526
 20
217.8094200545509
 30
0.0
 10
134.0048312605811
 20
217.8692787861789
 30
0.0
 10
133.4483714308319
 20
217.9931414187245
 30
0.0
 10
133.0020517363728
 20
218.21551131763
 30
0.0
 10
132.6265899129561
 20
218.4761223680244
 30
0.0
 10
132.2831903147032
 20
218.806098860911
 30
0.0
 10
131.9893474590691
 20
219.1893660528846
 30
0.0
 10
131.7842350558625
 20
219.6129734452798
 30
0.0
 10
131.6778975921896
 20
220.0427957435321
 30
0.0
 10
131.629785571451
 20
220.4949509803494
 30
0.0
 10
131.6246556574885
 20
220.9643801617137
 30
0.0
 10
131.715152589073
 20
221.3674500004737
 30
0.0
 10
131.7781805317998
 20
221.6044172607594
 30
0.0
 10
131.7992473506806
 20
221.6836036598279
 30
0.0
 11
140.1328288679686
 21
219.9556250151516
 31
0.0
 11
139.5469285549954
 21
219.4545698028854
 31
0.0
 11
138.9041967943572
 21
218.9969664374958
 31
0.0
 11
138.091581781532
 21
218.5541176391132
 31
0.0
 11
137.3971109968459
 21
218.2662623903624
 31
0.0
 11
136.6583700761135
 21
218.0374607076574
 31
0.0
 11
135.7940160392404
 21
217.8824671580256
 31
0.0
 11
135.1766105987461
 21
217.8317086236685
 31
0.0
 11
134.6381037749961
 21
217.8213663075585
 31
0.0
 11
133.9959831051981
 21
217.8834202042234
 31
0.0
 11
133.4004411368113
 21
218.0334720328516
 31
0.0
 11
133.0068986389619
 21
218.2248931259163
 31
0.0
 11
132.6496141973263
 21
218.4732499046047
 31
0.0
 11
132.2922618567255
 21
218.81468752829
 31
0.0
 11
131.9960185996268
 21
219.2092839508223
 31
0.0
 11
131.7992473506806
 21
219.6180348742558
 31
0.0
 11
131.6853128594242
 21
220.0577774480012
 31
0.0
 11
131.6386662590043
 21
220.4677990996867
 31
0.0
 11
131.6438944806064
 21
220.964477359057
 31
0.0
 11
131.737051883472
 21
221.4456244952562
 31
0.0
 11
131.7992473506806
 21
221.6836036598279
 31
0.0
  0
LINE
  5
459
330
1F
100
AcDbEntity
  8
0
  6
ByBlock
370
    40
100
AcDbLine
 10
131.7992473506806
 20
221.6836036598239
 30
0.0
 11
128.1860709392243
 21
221.086961444058
 31
0.0
  0
SPLINE
  5
45A
330
1F
100
AcDbEntity
  8
0
  6
ByBlock
370
    40
100
AcDbSpline
210
0.0
220
0.0
230
1.0
 70
  1064
 71
     3
 72
    22
 73
    18
 74
    16
 42
0.000000001
 43
0.0000000001
 44
0.00001
 40
0.0
 40
0.0
 40
0.0
 40
0.0
 40
0.7415860590483523
 40
1.630521699546401
 40
2.574551612468887
 40
3.794096913698069
 40
5.136073717125847
 40
6.528612333067576
 40
7.770588209679861
 40
8.771135870616115
 40
9.654470788252815
 40
10.73857598727088
 40
11.7763827037215
 40
12.79303186203154
 40
13.56521952053621
 40
14.85258913169381
 40
15.94332227003532
 40
15.94332227003532
 40
15.94332227003532
 40
15.94332227003532
 10
128.186070939246
 20
221.0869614440593
 30
0.0
 10
128.1704515179574
 20
220.8397601169486
 30
0.0
 10
128.1361215708469
 20
220.2962394481347
 30
0.0
 10
128.2524642157389
 20
219.4412642736162
 30
0.0
 10
128.5172867307588
 20
218.4535239961535
 30
0.0
 10
129.1299972964298
 20
217.4343648937993
 30
0.0
 10
130.1148361696207
 20
216.5388255291569
 30
0.0
 10
131.2922372814074
 20
215.890444950297
 30
0.0
 10
132.4901063138697
 20
215.643096635535
 30
0.0
 10
133.5304894022436
 20
215.5727624299077
 30
0.0
 10
134.5198638508554
 20
215.5860988526082
 30
0.0
 10
135.5226915471342
 20
215.6558781656389
 30
0.0
 10
136.5393727034263
 20
215.9198714213852
 30
0.0
 10
137.4266548198323
 20
216.2386212186328
 30
0.0
 10
138.3632237777318
 20
216.6583816084261
 30
0.0
 10
139.2671421112526
 20
217.2020919222331
 30
0.0
 10
139.8877652465271
 20
217.6958724220634
 30
0.0
 10
140.1724139742987
 20
217.9223539061687
 30
0.0
 11
128.186070939246
 21
221.0869614440593
 31
0.0
 11
128.1615594068708
 21
220.345773888782
 31
0.0
 11
128.2678892121627
 21
219.4632178146537
 31
0.0
 11
128.52963978657
 21
218.5562002215369
 31
0.0
 11
129.1517302567699
 21
217.5072493414511
 31
0.0
 11
130.1332100370631
 21
216.5920426106555
 31
0.0
 11
131.3614347167739
 21
215.9358173587224
 31
0.0
 11
132.5719377622838
 21
215.6579867440168
 31
0.0
 11
133.5697811971669
 21
215.5844609950157
 31
0.0
 11
134.4530790498994
 21
215.5926148346757
 31
0.0
 11
135.5327407576885
 21
215.6906726986853
 31
0.0
 11
136.540972736756
 21
215.936664510898
 31
0.0
 11
137.4979409846633
 21
216.2798670349447
 31
0.0
 11
138.2013065359271
 21
216.5985374439803
 31
0.0
 11
139.3054797761236
 21
217.2604456750759
 31
0.0
 11
140.1724139742987
 21
217.9223539061687
 31
0.0
  0
SPLINE
  5
45B
330
1F
100
AcDbEntity
  8
0
  6
ByBlock
370
    40
100
AcDbSpline
210
0.0
220
0.0
230
1.0
 70
  1064
 71
     3
 72
    19
 73
    15
 74
    13
 42
0.000000001
 43
0.0000000001
 44
0.00001
 40
0.0
 40
0.0
 40
0.0
 40
0.0
 40
0.2507919980740591
 40
0.9721556876155542
 40
1.712087936643158
 40
2.364645601780143
 40
3.216838510485736
 40
4.040382671845843
 40
4.984521381070486
 40
5.748778045849206
 40
6.582715260885354
 40
7.319746847212147
 40
8.032700592129117
 40
8.510774008484546
 40
8.510774008484546
 40
8.510774008484546
 40
8.510774008484546
 10
140.1724139742987
 20
217.9223539061687
 30
0.0
 10
140.1884380674274
 20
217.8402979903159
 30
0.0
 10
140.25057245701
 20
217.5222250161332
 30
0.0
 10
140.376095436338
 20
216.9659152369135
 30
0.0
 10
140.7021174974069
 20
216.3174900355305
 30
0.0
 10
141.3116156341613
 20
215.8588057664426
 30
0.0
 10
142.0513380716717
 20
215.5698681890507
 30
0.0
 10
142.932369144052
 20
215.5892358709946
 30
0.0
 10
143.7817014446077
 20
215.6413192039493
 30
0.0
 10
144.5721604248796
 20
215.9762972506572
 30
0.0
 10
145.2238502381322
 20
216.4099575888486
 30
0.0
 10
145.7646306129874
 20
216.9491635775093
 30
0.0
 10
146.1981202733806
 20
217.4235804193955
 30
0.0
 10
146.448462190717
 20
217.7318340059798
 30
0.0
 10
146.5489431424293
 20
217.8555700765377
 30
0.0
 11
140.1724139742987
 21
217.9223539061687
 31
0.0
 11
140.2210975441675
 21
217.6763267959562
 31
0.0
 11
140.4035421079514
 21
216.9784145975161
 31
0.0
 11
140.7617092363643
 21
216.3309432513708
 31
0.0
 11
141.2704763061265
 21
215.9222982219608
 31
0.0
 11
142.0684930378843
 21
215.6232888029387
 31
0.0
 11
142.8914965949265
 21
215.5933913908412
 31
0.0
 11
143.829249430983
 21
215.7030270012116
 31
0.0
 11
144.5388616885786
 21
215.9868229791329
 31
0.0
 11
145.2321781905822
 21
216.4502505157164
 31
0.0
 11
145.7658641866416
 21
216.9585771174646
 31
0.0
 11
146.2446878055088
 21
217.4868117952788
 31
0.0
 11
146.5489431424293
 21
217.8555700765377
 31
0.0
  0
LINE
  5
45C
330
1F
100
AcDbEntity
  8
0
  6
ByBlock
370
    40
100
AcDbLine
 10
146.5489431424185
 20
217.8555700765363
 30
0.0
 11
145.7716356000642
 21
218.7302546950548
 31
0.0
  0
SPLINE
  5
45D
330
1F
100
AcDbEntity
  8
0
  6
ByBlock
370
    40
100
AcDbSpline
210
0.0
220
0.0
230
1.0
 70
  1064
 71
     3
 72
    19
 73
    15
 74
    13
 42
0.000000001
 43
0.0000000001
 44
0.00001
 40
0.0
 40
0.0
 40
0.0
 40
0.0
 40
0.2928347067594101
 40
0.6780740143358058
 40
1.138523102236443
 40
1.561456022267247
 40
1.886571752858679
 40
2.109989568677536
 40
2.352478671157779
 40
2.509525236265071
 40
2.759995490258839
 40
3.006783095120175
 40
3.325785164257811
 40
3.582003727718136
 40
3.582003727718136
 40
3.582003727718136
 40
3.582003727718136
 10
145.7716356000751
 20
218.7302546950574
 30
0.0
 10
145.6955346749816
 20
218.6690867577961
 30
0.0
 10
145.5193090801535
 20
218.5274616109503
 30
0.0
 10
145.2218310241855
 20
218.2927122176971
 30
0.0
 10
144.8907912891081
 20
218.0254122572744
 30
0.0
 10
144.5272225036621
 20
217.8513884277236
 30
0.0
 10
144.2213843451968
 20
217.7296788728906
 30
0.0
 10
143.9584857413585
 20
217.7213939375151
 30
0.0
 10
143.7444545260414
 20
217.6906223861065
 30
0.0
 10
143.5478836764223
 20
217.8104907665612
 30
0.0
 10
143.4614714586398
 20
218.0206228734432
 30
0.0
 10
143.3904708362579
 20
218.2808881256781
 30
0.0
 10
143.3432274347875
 20
218.5524802935164
 30
0.0
 10
143.3340648840265
 20
218.7440193134569
 30
0.0
 10
143.3299882186386
 20
218.8293362012871
 30
0.0
 11
145.7716356000751
 21
218.7302546950574
 31
0.0
 11
145.5431555267006
 21
218.5470933356804
 31
0.0
 11
145.2415482500476
 21
218.3074198667587
 31
0.0
 11
144.8714309008887
 21
218.033507330854
 31
0.0
 11
144.4944557545687
 21
217.8417685557175
 31
0.0
 11
144.1859906807654
 21
217.7390513547576
 31
0.0
 11
143.963621515738
 21
217.717413676345
 31
0.0
 11
143.7211542521362
 21
217.7208022850326
 31
0.0
 11
143.5864426724569
 21
217.8015288275097
 31
0.0
 11
143.4666688687692
 21
218.0215060084099
 31
0.0
 11
143.399924169775
 21
218.259096894901
 31
0.0
 11
143.3469629640579
 21
218.573672735102
 31
0.0
 11
143.3299882186386
 21
218.8293362012871
 31
0.0
  0
LINE
  5
45E
330
1F
100
AcDbEntity
  8
0
  6
ByBlock
370
    40
100
AcDbLine
 10
138.9640157972248
 20
226.3355280292542
 30
0.0
 11
130.7333012371924
 21
224.9231488670044
 31
0.0
  0
LINE
  5
45F
330
1F
100
AcDbEntity
  8
0
  6
ByBlock
370
    40
100
AcDbLine
 10
128.876331987049
 20
222.9386949019887
 30
0.0
 11
133.1876457282103
 21
223.6719051076276
 31
0.0
  0
SPLINE
  5
460
330
1F
100
AcDbEntity
  8
0
  6
ByBlock
370
    40
100
AcDbSpline
210
0.0
220
0.0
230
1.0
 70
  1064
 71
     3
 72
    13
 73
     9
 74
     7
 42
0.000000001
 43
0.0000000001
 44
0.00001
 40
0.0
 40
0.0
 40
0.0
 40
0.0
 40
0.4304318262663021
 40
1.045532391753506
 40
1.659221682900547
 40
2.034886802430148
 40
2.404028041768687
 40
2.736817226793003
 40
2.736817226793003
 40
2.736817226793003
 40
2.736817226793003
 10
130.7333012371924
 20
224.9231488670084
 30
0.0
 10
130.6224329845929
 20
224.8320677300255
 30
0.0
 10
130.3531330129333
 20
224.6108258581917
 30
0.0
 10
129.9336512651702
 20
224.2504303617691
 30
0.0
 10
129.5500391551284
 20
223.8759379650721
 30
0.0
 10
129.2617989637754
 20
223.5267795946274
 30
0.0
 10
129.0390443468762
 20
223.2435346130452
 30
0.0
 10
128.9286589355924
 20
223.0367412514166
 30
0.0
 10
128.8763319870598
 20
222.9386949019914
 30
0.0
 11
130.7333012371924
 21
224.9231488670084
 31
0.0
 11
130.4015468126833
 21
224.6489186490334
 31
0.0
 11
129.9375251718446
 21
224.2451447446342
 31
0.0
 11
129.5033790829353
 21
223.8114028321054
 31
0.0
 11
129.2614550111867
 21
223.524006457451
 31
0.0
 11
129.041122815619
 21
223.2278208789995
 31
0.0
 11
128.8763319870598
 21
222.9386949019914
 31
0.0
  0
SPLINE
  5
461
330
1F
100
AcDbEntity
  8
0
  6
ByBlock
370
    40
100
AcDbSpline
210
0.0
220
0.0
230
1.0
 70
  1064
 71
     3
 72
    19
 73
    15
 74
    13
 42
0.000000001
 43
0.0000000001
 44
0.00001
 40
0.0
 40
0.0
 40
0.0
 40
0.0
 40
0.4257201053474612
 40
0.9925452311340499
 40
1.544720307617485
 40
2.001713751012306
 40
2.693619324856372
 40
3.319749971172566
 40
3.882308528335084
 40
4.527954536210705
 40
5.236666801808267
 40
5.706512111005419
 40
6.10338461795773
 40
6.425806411319598
 40
6.425806411319598
 40
6.425806411319598
 40
6.425806411319598
 10
133.1876457282212
 20
223.671905107629
 30
0.0
 10
133.293008727158
 20
223.7670052715198
 30
0.0
 10
133.5386677780183
 20
223.98871465389
 30
0.0
 10
133.9523824177768
 20
224.2974584092305
 30
0.0
 10
134.4036809311333
 20
224.5666716172125
 30
0.0
 10
134.8824183468671
 20
224.8709986373419
 30
0.0
 10
135.4121237512872
 20
225.1367723836571
 30
0.0
 10
135.9847035878283
 20
225.3921648501783
 30
0.0
 10
136.5558696099354
 20
225.6110047626229
 30
0.0
 10
137.1600297046629
 20
225.8196615728675
 30
0.0
 10
137.7456104691993
 20
225.9847137528348
 30
0.0
 10
138.2538737081484
 20
226.1160458702313
 30
0.0
 10
138.6381808048806
 20
226.2149056234062
 30
0.0
 10
138.8631649525654
 20
226.2981986356188
 30
0.0
 10
138.9640157972355
 20
226.3355280292583
 30
0.0
 11
133.1876457282212
 21
223.671905107629
 31
0.0
 11
133.5074499319626
 21
223.9529125429861
 31
0.0
 11
133.9616262204591
 21
224.2920557962086
 31
0.0
 11
134.4294502043019
 21
224.5853822360709
 31
0.0
 11
134.8193940561084
 21
224.8236790827103
 31
0.0
 11
135.4339477393417
 21
225.14157293559
 31
0.0
 11
136.0063361549645
 21
225.3953656073808
 31
0.0
 11
136.5309915864505
 21
225.5983644468214
 31
0.0
 11
137.1419466236734
 21
225.8071521594291
 31
0.0
 11
137.8229734099852
 21
226.0033031854558
 31
0.0
 11
138.2775570923715
 21
226.1220809796934
 31
0.0
 11
138.6599641572437
 21
226.2282573853647
 31
0.0
 11
138.9640157972355
 21
226.3355280292583
 31
0.0
  0
LINE
  5
462
330
1F
100
AcDbEntity
  8
0
  6
ByBlock
370
    40
100
AcDbLine
 10
152.764755420888
 20
236.0630940466267
 30
0.0
 11
152.764755420888
 21
229.962045289423
 31
0.0
  0
LINE
  5
463
330
1F
100
AcDbEntity
  8
0
  6
ByBlock
370
    40
100
AcDbLine
 10
152.764755420888
 20
228.2546453829515
 30
0.0
 11
152.764755420888
 21
226.5647532880504
 31
0.0
  0
LINE
  5
464
330
1F
100
AcDbEntity
  8
0
  6
ByBlock
370
    40
100
AcDbLine
 10
152.764755420888
 20
224.8523763625622
 30
0.0
 11
152.764755420888
 21
220.1524114053125
 31
0.0
  0
LINE
  5
465
330
1F
100
AcDbEntity
  8
0
  6
ByBlock
370
    40
100
AcDbLine
 10
149.6468341818651
 20
220.2643766841656
 30
0.0
 11
149.6468341818651
 21
224.5363180060528
 31
0.0
  0
LINE
  5
466
330
1F
100
AcDbEntity
  8
0
  6
ByBlock
370
    40
100
AcDbLine
 10
149.6468341818651
 20
226.262390558335
 30
0.0
 11
149.6468341818651
 21
227.9474821242587
 31
0.0
  0
LINE
  5
467
330
1F
100
AcDbEntity
  8
0
  6
ByBlock
370
    40
100
AcDbLine
 10
149.6468341818651
 20
229.6804377879463
 30
0.0
 11
149.6468341818651
 21
231.8061543778027
 31
0.0
  0
LINE
  5
468
330
1F
100
AcDbEntity
  8
0
  6
ByBlock
370
    40
100
AcDbLine
 10
152.764755420888
 20
236.0630940466267
 30
0.0
 11
146.8342546634687
 21
234.4088882370063
 31
0.0
  0
LINE
  5
469
330
1F
100
AcDbEntity
  8
0
  6
ByBlock
370
    40
100
AcDbLine
 10
146.8342546634687
 20
234.4088882370063
 30
0.0
 11
147.1384421014129
 21
233.2113327465968
 31
0.0
  0
LINE
  5
46A
330
1F
100
AcDbEntity
  8
0
  6
ByBlock
370
    40
100
AcDbLine
 10
147.1384421014129
 20
233.2113327465968
 30
0.0
 11
147.8856024958896
 21
233.2113327465968
 31
0.0
  0
SPLINE
  5
46B
330
1F
100
AcDbEntity
  8
0
  6
ByBlock
370
    40
100
AcDbSpline
210
0.0
220
0.0
230
1.0
 70
  1064
 71
     3
 72
    14
 73
    10
 74
     8
 42
0.000000001
 43
0.0000000001
 44
0.00001
 40
0.0
 40
0.0
 40
0.0
 40
0.0
 40
0.4629788101759541
 40
1.027735746291132
 40
1.338309988785129
 40
1.631469435017568
 40
1.983872312471743
 40
2.287891158364077
 40
2.579452597651839
 40
2.579452597651839
 40
2.579452597651839
 40
2.579452597651839
 10
147.8856024959003
 20
233.2113327465995
 30
0.0
 10
148.0397407101007
 20
233.1994089840278
 30
0.0
 10
148.3819003192267
 20
233.1729246799951
 30
0.0
 10
148.8164301027036
 20
233.0733234387273
 30
0.0
 10
149.1880888195028
 20
232.9344591106117
 30
0.0
 10
149.4099826167484
 20
232.6930833458321
 30
0.0
 10
149.5517555589143
 20
232.4088396987162
 30
0.0
 10
149.645595536991
 20
232.1032983743851
 30
0.0
 10
149.6464314170097
 20
231.9038117848059
 30
0.0
 10
149.6468341818651
 20
231.8061543778054
 30
0.0
 11
147.8856024959003
 21
233.2113327465995
 31
0.0
 11
148.3462970866337
 21
233.1654100392225
 31
0.0
 11
148.8965504342441
 21
233.0382313192659
 31
0.0
 11
149.179892884789
 21
232.9110525993121
 31
0.0
 11
149.3852194054104
 21
232.7018060126055
 31
0.0
 11
149.5494670421272
 21
232.3900187149726
 31
0.0
 11
149.6316927089446
 21
232.0973276392268
 31
0.0
 11
149.6468341818651
 21
231.8061543778054
 31
0.0
  0
LINE
  5
46C
330
1F
100
AcDbEntity
  8
0
  6
ByBlock
370
    40
100
AcDbLine
 10
149.6468341818651
 20
229.6804377879463
 30
0.0
 11
152.764755420888
 21
229.9620452894242
 31
0.0
  0
LINE
  5
46D
330
1F
100
AcDbEntity
  8
0
  6
ByBlock
370
    40
100
AcDbLine
 10
149.6468341818651
 20
227.9474821242587
 30
0.0
 11
152.764755420888
 21
228.2546453829515
 31
0.0
  0
LINE
  5
46E
330
1F
100
AcDbEntity
  8
0
  6
ByBlock
370
    40
100
AcDbLine
 10
149.6468341818651
 20
226.262390558335
 30
0.0
 11
152.764755420888
 21
226.5647532880504
 31
0.0
  0
LINE
  5
46F
330
1F
100
AcDbEntity
  8
0
  6
ByBlock
370
    40
100
AcDbLine
 10
149.6468341818651
 20
224.5363180060528
 30
0.0
 11
152.764755420888
 21
224.8523763625595
 31
0.0
  0
SPLINE
  5
470
330
1F
100
AcDbEntity
  8
0
  6
ByBlock
370
    40
100
AcDbSpline
210
0.0
220
0.0
230
1.0
 70
  1064
 71
     3
 72
    23
 73
    19
 74
    17
 42
0.000000001
 43
0.0000000001
 44
0.00001
 40
0.0
 40
0.0
 40
0.0
 40
0.0
 40
0.8821043297756631
 40
2.02901380670989
 40
2.932355680488604
 40
3.553789413326846
 40
4.372988288361062
 40
5.591297794457995
 40
6.724298569201238
 40
7.369268675832308
 40
8.130218874291102
 40
9.025758789648795
 40
10.3962698292065
 40
11.67944105431405
 40
12.55983071401505
 40
13.34985309508949
 40
14.07860717140512
 40
14.65344144515646
 40
14.65344144515646
 40
14.65344144515646
 40
14.65344144515646
 10
149.6468341818651
 20
220.2643766841683
 30
0.0
 10
149.6859924948827
 20
219.9725835709307
 30
0.0
 10
149.7760774953728
 20
219.3014040989577
 30
0.0
 10
150.0878761843491
 20
218.3669898932069
 30
0.0
 10
150.5272068109042
 20
217.5836156840453
 30
0.0
 10
151.0516439470761
 20
217.0010789335149
 30
0.0
 10
151.7085074973098
 20
216.4018077144499
 30
0.0
 10
152.6481390528873
 20
215.8864659367737
 30
0.0
 10
153.6264159994491
 20
215.6392406352805
 30
0.0
 10
154.4711021411706
 20
215.5840600628979
 30
0.0
 10
155.2407859148722
 20
215.5604575181924
 30
0.0
 10
156.2375181318291
 20
215.744960897745
 30
0.0
 10
157.3798673906247
 20
216.0694146909706
 30
0.0
 10
158.4365317665379
 20
216.5983700339042
 30
0.0
 10
159.3029499870807
 20
217.0664788876958
 30
0.0
 10
159.9704023127357
 20
217.5077824919149
 30
0.0
 10
160.5503612048121
 20
217.8969846583267
 30
0.0
 10
160.8863552759345
 20
218.1728982495275
 30
0.0
 10
161.0345118953975
 20
218.2945713921376
 30
0.0
 11
149.6468341818651
 21
220.2643766841683
 31
0.0
 11
149.7880640637705
 21
219.3936454424546
 31
0.0
 11
150.151052019874
 21
218.305690264405
 31
0.0
 11
150.6052962073359
 21
217.5248630470433
 31
0.0
 11
151.0136406832137
 21
217.0564231934394
 31
0.0
 11
151.626157397009
 21
216.5124456044152
 31
0.0
 11
152.6924430054107
 21
215.9231100761313
 31
0.0
 11
153.7902337413229
 21
215.6428438989276
 31
0.0
 11
154.4330334009373
 21
215.5899674841363
 31
0.0
 11
155.1939772887017
 21
215.5867200674758
 31
0.0
 11
156.0784973231361
 21
215.7267825600627
 31
0.0
 11
157.3917994268821
 21
216.1186257380375
 31
0.0
 11
158.5526683168017
 21
216.6653565716219
 31
0.0
 11
159.3224390721786
 21
217.0926036508217
 31
0.0
 11
159.9869664059372
 21
217.5198507300215
 31
0.0
 11
160.5851564346023
 21
217.9360848309678
 31
0.0
 11
161.0345118953975
 21
218.2945713921376
 31
0.0
  0
LINE
  5
471
330
1F
100
AcDbEntity
  8
0
  6
ByBlock
370
    40
100
AcDbLine
 10
161.0345118953758
 20
218.2945713921349
 30
0.0
 11
161.0345118953758
 21
215.9916941041276
 31
0.0
  0
LINE
  5
472
330
1F
100
AcDbEntity
  8
0
  6
ByBlock
370
    40
100
AcDbLine
 10
161.0345118953758
 20
220.2223367575844
 30
0.0
 11
161.0345118953758
 21
225.0240305715979
 31
0.0
  0
LINE
  5
473
330
1F
100
AcDbEntity
  8
0
  6
ByBlock
370
    40
100
AcDbLine
 10
161.0345118953758
 20
226.7333718684645
 30
0.0
 11
161.0345118953758
 21
228.4342063456008
 31
0.0
  0
LINE
  5
474
330
1F
100
AcDbEntity
  8
0
  6
ByBlock
370
    40
100
AcDbLine
 10
161.0345118953758
 20
230.1297461216553
 30
0.0
 11
161.0345118953758
 21
232.1625936545511
 31
0.0
  0
SPLINE
  5
475
330
1F
100
AcDbEntity
  8
0
  6
ByBlock
370
    40
100
AcDbSpline
210
0.0
220
0.0
230
1.0
 70
  1064
 71
     3
 72
    20
 73
    16
 74
    14
 42
0.000000001
 43
0.0000000001
 44
0.00001
 40
0.0
 40
0.0
 40
0.0
 40
0.0
 40
0.3432600429129451
 40
0.9334932639363172
 40
2.1444704754915
 40
2.976086067719985
 40
3.820599920184921
 40
4.420714236530096
 40
5.293568651358008
 40
6.153592147058111
 40
6.942463111055833
 40
7.979311518869074
 40
8.767257711134654
 40
9.497872381294998
 40
10.12874458518053
 40
10.12874458518053
 40
10.12874458518053
 40
10.12874458518053
 10
152.7647554208989
 20
220.1524114053152
 30
0.0
 10
152.7657614153088
 20
220.0375720824312
 30
0.0
 10
152.7685071074389
 20
219.7252680835137
 30
0.0
 10
152.9726627016015
 20
219.034517972475
 30
0.0
 10
153.5258183295402
 20
218.266182257844
 30
0.0
 10
154.4746066607987
 20
217.9782081992934
 30
0.0
 10
155.2278999212473
 20
217.9021462550856
 30
0.0
 10
156.0025106664929
 20
217.9062207194682
 30
0.0
 10
156.7742660805367
 20
218.0143048738032
 30
0.0
 10
157.595310260271
 20
218.2066986317329
 30
0.0
 10
158.4243833839977
 20
218.5503982306627
 30
0.0
 10
159.200282651504
 20
218.9499569760999
 30
0.0
 10
159.9128596059723
 20
219.4177542398033
 30
0.0
 10
160.5046728301871
 20
219.821754259355
 30
0.0
 10
160.8667426411128
 20
220.0954911832873
 30
0.0
 10
161.0345118953975
 20
220.2223367575872
 30
0.0
 11
152.7647554208989
 21
220.1524114053152
 31
0.0
 11
152.7794216009425
 21
219.8094559673192
 31
0.0
 11
152.9357929557791
 21
219.2403108991568
 31
0.0
 11
153.6906259351857
 21
218.2933712598905
 31
0.0
 11
154.4713284266
 21
218.0068573354128
 31
0.0
 11
155.3104240422947
 21
217.9113409279193
 31
0.0
 11
155.9105152424239
 21
217.9166356289997
 31
0.0
 11
156.7762272589405
 21
218.0280714377423
 31
0.0
 11
157.610909440802
 21
218.2353060380395
 31
0.0
 11
158.3438110491247
 21
218.5271499616069
 31
0.0
 11
159.263570655043
 21
219.0057909392937
 31
0.0
 11
159.9274189989961
 21
219.4302494759281
 31
0.0
 11
160.5284607848899
 21
219.8456364247015
 31
0.0
 11
161.0345118953975
 21
220.2223367575872
 31
0.0
  0
LINE
  5
476
330
1F
100
AcDbEntity
  8
0
  6
ByBlock
370
    40
100
AcDbLine
 10
164.1608526081538
 20
236.0656355031482
 30
0.0
 11
158.2378886376796
 21
234.4026757877401
 31
0.0
  0
LINE
  5
477
330
1F
100
AcDbEntity
  8
0
  6
ByBlock
370
    40
100
AcDbLine
 10
158.2378886376796
 20
234.4026757877401
 30
0.0
 11
158.5629210630122
 21
233.2214985726679
 31
0.0
  0
LINE
  5
478
330
1F
100
AcDbEntity
  8
0
  6
ByBlock
370
    40
100
AcDbLine
 10
158.5629210630122
 20
233.2214985726679
 30
0.0
 11
159.3409754941699
 21
233.2098149322833
 31
0.0
  0
LINE
  5
479
330
1F
100
AcDbEntity
  8
0
  6
ByBlock
370
    40
100
AcDbLine
 10
164.1608526081538
 20
236.0656355031482
 30
0.0
 11
164.1608526081538
 21
229.9363483401807
 31
0.0
  0
LINE
  5
47A
330
1F
100
AcDbEntity
  8
0
  6
ByBlock
370
    40
100
AcDbLine
 10
164.1608526081538
 20
228.2211122761075
 30
0.0
 11
164.1608526081538
 21
226.5281845525887
 31
0.0
  0
LINE
  5
47B
330
1F
100
AcDbEntity
  8
0
  6
ByBlock
370
    40
100
AcDbLine
 10
164.1608526081538
 20
224.8116424622409
 30
0.0
 11
164.1608526081538
 21
220.0433052650431
 31
0.0
  0
LINE
  5
47C
330
1F
100
AcDbEntity
  8
0
  6
ByBlock
370
    40
100
AcDbLine
 10
166.9204030218459
 20
216.441990782034
 30
0.0
 11
166.9204030218459
 21
217.9394381416531
 31
0.0
  0
LINE
  5
47D
330
1F
100
AcDbEntity
  8
0
  6
ByBlock
370
    40
100
AcDbLine
 10
161.0345118953758
 20
230.1297461216553
 30
0.0
 11
164.1608526081538
 21
229.9363483401807
 31
0.0
  0
LINE
  5
47E
330
1F
100
AcDbEntity
  8
0
  6
ByBlock
370
    40
100
AcDbLine
 10
161.0345118953758
 20
228.4342063456008
 30
0.0
 11
164.1608526081538
 21
228.2211122761075
 31
0.0
  0
LINE
  5
47F
330
1F
100
AcDbEntity
  8
0
  6
ByBlock
370
    40
100
AcDbLine
 10
161.0345118953758
 20
226.7333718684645
 30
0.0
 11
164.1608526081538
 21
226.5281845525887
 31
0.0
  0
LINE
  5
480
330
1F
100
AcDbEntity
  8
0
  6
ByBlock
370
    40
100
AcDbLine
 10
161.0345118953758
 20
225.0240305715979
 30
0.0
 11
164.1608526081538
 21
224.8116424622409
 31
0.0
  0
SPLINE
  5
481
330
1F
100
AcDbEntity
  8
0
  6
ByBlock
370
    40
100
AcDbSpline
210
0.0
220
0.0
230
1.0
 70
  1064
 71
     3
 72
    14
 73
    10
 74
     8
 42
0.000000001
 43
0.0000000001
 44
0.00001
 40
0.0
 40
0.0
 40
0.0
 40
0.0
 40
0.4082220387767116
 40
0.9180047792489769
 40
1.273333440987825
 40
1.540853648584003
 40
1.816771724954163
 40
2.062027522574589
 40
2.211161522825233
 40
2.211161522825233
 40
2.211161522825233
 40
2.211161522825233
 10
159.3409754941807
 20
233.209814932286
 30
0.0
 10
159.4770716165053
 20
233.2001735023238
 30
0.0
 10
159.7831220728922
 20
233.1784831355481
 30
0.0
 10
160.1933222893177
 20
233.0700256915779
 30
0.0
 10
160.5628365122883
 20
232.9727205383657
 30
0.0
 10
160.8042247853722
 20
232.7819440723822
 30
0.0
 10
160.9440019416495
 20
232.5563748952605
 30
0.0
 10
161.0241459247052
 20
232.3441358158842
 30
0.0
 10
161.0316717463479
 20
232.2124062880075
 30
0.0
 10
161.0345118953975
 20
232.1625936545525
 30
0.0
 11
159.3409754941807
 21
233.209814932286
 31
0.0
 11
159.7472151016117
 21
233.1697163961042
 31
0.0
 11
160.2443035465221
 21
233.0566568790274
 31
0.0
 11
160.5797924150371
 21
232.9395733891262
 31
0.0
 11
160.7899397633598
 21
232.7740257353454
 31
0.0
 11
160.9410149975965
 21
232.543141470218
 31
0.0
 11
161.0203210082307
 21
232.3110570728542
 31
0.0
 11
161.0345118953975
 21
232.1625936545525
 31
0.0
  0
SPLINE
  5
482
330
1F
100
AcDbEntity
  8
0
  6
ByBlock
370
    40
100
AcDbSpline
210
0.0
220
0.0
230
1.0
 70
  1064
 71
     3
 72
    15
 73
    11
 74
     9
 42
0.000000001
 43
0.0000000001
 44
0.00001
 40
0.0
 40
0.0
 40
0.0
 40
0.0
 40
0.5324001495112525
 40
0.9890312435866796
 40
1.448023334984929
 40
1.865215828638174
 40
2.379421784747623
 40
2.902996839955027
 40
3.509644713617843
 40
4.01019221179449
 40
4.01019221179449
 40
4.01019221179449
 40
4.01019221179449
 10
164.1608526081646
 20
220.0433052650431
 30
0.0
 10
164.1685708714367
 20
219.8650347618614
 30
0.0
 10
164.1829214635907
 20
219.5338657425031
 30
0.0
 10
164.33666405241
 20
219.072806568087
 30
0.0
 10
164.5316164174617
 20
218.6689539902885
 30
0.0
 10
164.8679026965727
 20
218.3363866420609
 30
0.0
 10
165.3088236173291
 20
218.1222770543833
 30
0.0
 10
165.8386303217602
 20
217.967850499833
 30
0.0
 10
166.3851721652719
 20
217.9510135437278
 30
0.0
 10
166.7537665191515
 20
217.9430370863748
 30
0.0
 10
166.9204030218568
 20
217.9394381416557
 30
0.0
 11
164.1608526081646
 21
220.0433052650431
 31
0.0
 11
164.2102830668368
 21
219.5131997928562
 31
0.0
 11
164.3455378383477
 21
219.0770576158374
 31
0.0
 11
164.5607097113004
 21
218.6716247050947
 31
0.0
 11
164.8558665846929
 21
218.376780450919
 31
0.0
 11
165.3108576609906
 21
218.1372128760262
 31
0.0
 11
165.8150076000017
 21
217.9959149531845
 31
0.0
 11
166.4199875268409
 21
217.9509452920025
 31
0.0
 11
166.9204030218568
 21
217.9394381416557
 31
0.0
  0
SPLINE
  5
483
330
1F
100
AcDbEntity
  8
0
  6
ByBlock
370
    40
100
AcDbSpline
210
0.0
220
0.0
230
1.0
 70
  1064
 71
     3
 72
    12
 73
     8
 74
     6
 42
0.000000001
 43
0.0000000001
 44
0.00001
 40
0.0
 40
0.0
 40
0.0
 40
0.0
 40
1.042803631644087
 40
2.317864374833903
 40
3.699689703410879
 40
4.854213106944176
 40
5.904038906383568
 40
5.904038906383568
 40
5.904038906383568
 40
5.904038906383568
 10
161.0345118953975
 20
215.9916941041289
 30
0.0
 10
161.3799817372075
 20
216.0302808443829
 30
0.0
 10
162.1478679120872
 20
216.1160272431886
 30
0.0
 10
163.3772853865808
 20
216.2149664078432
 30
0.0
 10
164.6445437681344
 20
216.3043212046541
 30
0.0
 10
165.8366672838562
 20
216.3942003853389
 30
0.0
 10
166.5707798596829
 20
216.4265800325392
 30
0.0
 10
166.9204030218568
 20
216.4419907820354
 30
0.0
 11
161.0345118953975
 21
215.9916941041289
 31
0.0
 11
162.0713972447251
 21
216.102635740774
 31
0.0
 11
163.3419229900421
 21
216.210082874704
 31
0.0
 11
164.7200686213182
 21
216.3108586852646
 31
0.0
 11
165.8718390476774
 21
216.3905615855391
 31
0.0
 11
166.9204030218568
 21
216.4419907820354
 31
0.0
  0
LINE
  5
484
330
1F
100
AcDbEntity
  8
0
  6
ByBlock
370
    40
100
AcDbLine
 10
183.5628508270641
 20
229.2876415637846
 30
0.0
 11
184.8355493397825
 21
229.856645439917
 31
0.0
  0
LINE
  5
485
330
1F
100
AcDbEntity
  8
0
  6
ByBlock
370
    40
100
AcDbLine
 10
184.8355493397825
 20
229.856645439917
 30
0.0
 11
182.2350183412054
 21
236.1243360891279
 31
0.0
  0
LINE
  5
486
330
1F
100
AcDbEntity
  8
0
  6
ByBlock
370
    40
100
AcDbLine
 10
182.2350183412054
 20
236.1243360891279
 30
0.0
 11
180.3305198038863
 21
235.2557580258564
 31
0.0
  0
LINE
  5
487
330
1F
100
AcDbEntity
  8
0
  6
ByBlock
370
    40
100
AcDbLine
 10
170.6217123115379
 20
229.198161115521
 30
0.0
 11
175.6294659078472
 21
228.4102037006991
 31
0.0
  0
SPLINE
  5
488
330
1F
100
AcDbEntity
  8
0
  6
ByBlock
370
    40
100
AcDbSpline
210
0.0
220
0.0
230
1.0
 70
  1064
 71
     3
 72
    28
 73
    24
 74
    22
 42
0.000000001
 43
0.0000000001
 44
0.00001
 40
0.0
 40
0.0
 40
0.0
 40
0.0
 40
0.1561683534035693
 40
0.4175788889382514
 40
0.932096190917173
 40
1.730764155684749
 40
2.454752869349585
 40
3.242739148007905
 40
3.90086201186505
 40
4.595382670439714
 40
5.272347053786152
 40
6.166670032038326
 40
7.180338070841416
 40
8.155084638796513
 40
9.081380804717641
 40
9.950244790354451
 40
10.6829150220952
 40
11.36107787570776
 40
12.17178708781516
 40
12.74747814153789
 40
13.53440580295751
 40
14.23889718630013
 40
14.72037298920433
 40
14.72037298920433
 40
14.72037298920433
 40
14.72037298920433
 10
180.3305198038971
 20
235.2557580258577
 30
0.0
 10
180.2788514544796
 20
235.2498814164525
 30
0.0
 10
180.1406971273465
 20
235.2341505701773
 30
0.0
 10
179.8267293320489
 20
235.2263826902537
 30
0.0
 10
179.3279784124853
 20
235.4159480532742
 30
0.0
 10
178.6769498686777
 20
235.5968705864135
 30
0.0
 10
177.9380956985758
 20
235.8201933553804
 30
0.0
 10
177.221076835459
 20
235.9330158721078
 30
0.0
 10
176.5080559279242
 20
235.9682122516618
 30
0.0
 10
175.830619146628
 20
235.965494101199
 30
0.0
 10
175.0790433776432
 20
235.8859192027284
 30
0.0
 10
174.2273946781617
 20
235.7381541698583
 30
0.0
 10
173.3216506827263
 20
235.4056475859006
 30
0.0
 10
172.4503037426803
 20
234.9672174697866
 30
0.0
 10
171.7160418237737
 20
234.4004461958924
 30
0.0
 10
171.1239488108045
 20
233.7946850047559
 30
0.0
 10
170.7150958510715
 20
233.1479807588739
 30
0.0
 10
170.427546158448
 20
232.4640986064522
 30
0.0
 10
170.2624239820576
 20
231.7877421327537
 30
0.0
 10
170.2730034095481
 20
231.060636246127
 30
0.0
 10
170.318786399591
 20
230.3733556236896
 30
0.0
 10
170.4384904690199
 20
229.7233925591164
 30
0.0
 10
170.5688042875011
 20
229.3498214169403
 30
0.0
 10
170.6217123115595
 20
229.1981611155224
 30
0.0
 11
180.3305198038971
 21
235.2557580258577
 31
0.0
 11
180.1751669337904
 21
235.2398386246072
 31
0.0
 11
179.9137558542967
 21
235.2398386246072
 31
0.0
 11
179.4174142981681
 21
235.375382972275
 31
0.0
 11
178.6530075623673
 21
235.6067967074955
 31
0.0
 11
177.9548702326624
 21
235.7985354826307
 31
0.0
 11
177.1770194984443
 21
235.9245140703469
 31
0.0
 11
176.519961052676
 21
235.9619299579787
 31
0.0
 11
175.8254902680008
 21
235.9535996282794
 31
0.0
 11
175.1517965716838
 21
235.8871334807189
 31
0.0
 11
174.2731158496807
 21
235.7205974827311
 31
0.0
 11
173.3173018844883
 21
235.3830426398338
 31
0.0
 11
172.4527441506864
 21
234.9328518559494
 31
0.0
 11
171.7155649064937
 21
234.3719665214786
 31
0.0
 11
171.1179180696925
 21
233.7412970267565
 31
0.0
 11
170.7243076728668
 21
233.123334814639
 31
0.0
 11
170.4599769371685
 21
232.4988071731742
 31
0.0
 11
170.2838469786603
 21
231.7074611496646
 31
0.0
 11
170.2761743937519
 21
231.1318212481772
 31
0.0
 11
170.3366044874273
 21
230.3472171440459
 31
0.0
 11
170.4726061477739
 21
229.6559762689604
 31
0.0
 11
170.6217123115595
 21
229.1981611155224
 31
0.0
  0
SPLINE
  5
489
330
1F
100
AcDbEntity
  8
0
  6
ByBlock
370
    40
100
AcDbSpline
210
0.0
220
0.0
230
1.0
 70
  1064
 71
     3
 72
    33
 73
    29
 74
    27
 42
0.000000001
 43
0.0000000001
 44
0.00001
 40
0.0
 40
0.0
 40
0.0
 40
0.0
 40
0.6923126202897525
 40
1.749849774198004
 40
2.870340608844562
 40
3.997877006229343
 40
5.019543839462747
 40
6.059650715781597
 40
7.071478957829224
 40
8.062979549438741
 40
8.641885600255902
 40
9.449417622123698
 40
10.03686993296063
 40
10.73846411773701
 40
11.08262044809996
 40
11.65833707754148
 40
12.18427240333374
 40
12.61015419641719
 40
13.06658411701218
 40
13.52263661777763
 40
13.99745629362045
 40
14.53040010414034
 40
15.09567930035604
 40
15.53166465376216
 40
16.12388420985492
 40
16.76780007214379
 40
17.75451036618804
 40
18.25744865695246
 40
18.25744865695246
 40
18.25744865695246
 40
18.25744865695246
 10
183.5628508270749
 20
229.2876415637873
 30
0.0
 10
183.4416970808079
 20
229.4840191004194
 30
0.0
 10
183.1354622831824
 20
229.9803632086258
 30
0.0
 10
182.5755312968075
 20
230.7596558121223
 30
0.0
 10
181.8087780447418
 20
231.5538325885717
 30
0.0
 10
181.0071894930448
 20
232.2943462643226
 30
0.0
 10
180.1474688438841
 20
232.9220472404391
 30
0.0
 10
179.2862402430068
 20
233.4792010135502
 30
0.0
 10
178.3670520457493
 20
233.9171343566829
 30
0.0
 10
177.5387400442141
 20
234.1648087823974
 30
0.0
 10
176.7540004912527
 20
234.2887591167357
 30
0.0
 10
176.0942416630157
 20
234.2944002020173
 30
0.0
 10
175.3950797601303
 20
234.2342762406979
 30
0.0
 10
174.875047136073
 20
234.0525937295692
 30
0.0
 10
174.3926965738815
 20
233.8110665339196
 30
0.0
 10
173.9727887564141
 20
233.5639822231236
 30
0.0
 10
173.6295032174449
 20
233.1816244401885
 30
0.0
 10
173.3505931609019
 20
232.8036204177874
 30
0.0
 10
173.1596332741341
 20
232.3947388376683
 30
0.0
 10
173.0718361664048
 20
231.9387961887616
 30
0.0
 10
173.0133358901418
 20
231.4531390616116
 30
0.0
 10
173.0557965627022
 20
230.9271342586765
 30
0.0
 10
173.1843477685408
 20
230.4282054700388
 30
0.0
 10
173.4252262990793
 20
229.9516978378505
 30
0.0
 10
173.7660971907583
 20
229.5057609344644
 30
0.0
 10
174.3349843134109
 20
229.0213333318881
 30
0.0
 10
174.9807414967354
 20
228.7089130075266
 30
0.0
 10
175.4419679890067
 20
228.5260513738254
 30
0.0
 10
175.5976891844211
 20
228.4643155457494
 30
0.0
 11
183.5628508270749
 21
229.2876415637873
 31
0.0
 11
183.1938877605876
 21
229.873447291347
 31
0.0
 11
182.5688776341612
 21
230.7265295294579
 31
0.0
 11
181.8030450197299
 21
231.5444549523972
 31
0.0
 11
180.9668011612854
 21
232.3007853527571
 31
0.0
 11
180.1470567553725
 21
232.9105584272066
 31
0.0
 11
179.2668143567757
 21
233.4646312462928
 31
0.0
 11
178.3513323867382
 21
233.8955493182388
 31
0.0
 11
177.4006108451519
 21
234.176980329679
 31
0.0
 11
176.8284261264794
 21
234.2649429636359
 31
0.0
 11
176.0210393352346
 21
234.2802975967678
 31
0.0
 11
175.4371759917319
 21
234.2154551575321
 31
0.0
 11
174.7710869813794
 21
233.9950896985566
 31
0.0
 11
174.4624861096128
 21
233.8427434994644
 31
0.0
 11
173.9780947742625
 21
233.5315915659603
 31
0.0
 11
173.6147673232669
 21
233.1513261343452
 31
0.0
 11
173.368022423817
 21
232.8042055315016
 31
0.0
 11
173.1777015781313
 21
232.3893480528347
 31
0.0
 11
173.0782295699897
 21
231.9442754799916
 31
0.0
 11
173.0306323837946
 21
231.4718469515751
 31
0.0
 11
173.0696063992954
 21
230.9403295590969
 31
0.0
 11
173.216675593632
 21
230.3945164736983
 31
0.0
 11
173.4113419741315
 21
230.0044028980772
 31
0.0
 11
173.7703238903024
 21
229.5333862899385
 31
0.0
 11
174.2591286594644
 21
229.114222454386
 31
0.0
 11
175.1316984731205
 21
228.6535481623723
 31
0.0
 11
175.5976891844211
 21
228.4643155457494
 31
0.0
  0
LINE
  5
48A
330
1F
100
AcDbEntity
  8
0
  6
ByBlock
370
    40
100
AcDbLine
 10
175.6294659078472
 20
228.4102037006991
 30
0.0
 11
175.5976891844103
 21
228.4643155457481
 31
0.0
  0
LINE
  5
48B
330
1F
100
AcDbEntity
  8
0
  6
ByBlock
370
    40
100
AcDbLine
 10
172.1981908683324
 20
227.2297324457671
 30
0.0
 11
183.3407532579632
 21
225.4241687812601
 31
0.0
  0
SPLINE
  5
48C
330
1F
100
AcDbEntity
  8
0
  6
ByBlock
370
    40
100
AcDbSpline
210
0.0
220
0.0
230
1.0
 70
  1064
 71
     3
 72
    22
 73
    18
 74
    16
 42
0.000000001
 43
0.0000000001
 44
0.00001
 40
0.0
 40
0.0
 40
0.0
 40
0.0
 40
0.2739139449294444
 40
0.6563767667381218
 40
1.155216454959034
 40
2.130545026698321
 40
2.805486356743428
 40
3.871297160984716
 40
4.92748664527633
 40
6.078169316598553
 40
6.996010839987472
 40
8.013654174703315
 40
8.897864694145468
 40
10.60279790172143
 40
12.22589812114328
 40
13.00178090162789
 40
13.38131822494817
 40
13.38131822494817
 40
13.38131822494817
 40
13.38131822494817
 10
172.1981908683432
 20
227.2297324457671
 30
0.0
 10
172.2604949319267
 20
227.1626825948079
 30
0.0
 10
172.4097818187948
 20
227.0020003601931
 30
0.0
 10
172.7303238251122
 20
226.7840199284037
 30
0.0
 10
173.263984913554
 20
226.4723083834122
 30
0.0
 10
173.8966259661636
 20
226.1336972910059
 30
0.0
 10
174.7251018981588
 20
225.7682129564441
 30
0.0
 10
175.5920912267533
 20
225.423111383002
 30
0.0
 10
176.6374435454477
 20
225.1080822674615
 30
0.0
 10
177.6448405799446
 20
224.8439297614591
 30
0.0
 10
178.6412451083977
 20
224.5874108996833
 30
0.0
 10
179.5598453086935
 20
224.388321526012
 30
0.0
 10
180.7335218025596
 20
224.1260462727644
 30
0.0
 10
182.1249981161318
 20
223.9300799954633
 30
0.0
 10
183.4804199990758
 20
223.7448673572108
 30
0.0
 10
184.3850280237827
 20
223.5355116299266
 30
0.0
 10
184.7691297018906
 20
223.50323504087
 30
0.0
 10
184.8953004437063
 20
223.4926265290315
 30
0.0
 11
172.1981908683432
 21
227.2297324457671
 31
0.0
 11
172.3908202793936
 21
227.034993340021
 31
0.0
 11
172.699692747076
 21
226.8094390739805
 31
0.0
 11
173.1282032204827
 21
226.554057991866
 31
0.0
 11
173.9911992777339
 21
226.0996314471251
 31
0.0
 11
174.6071788395869
 21
225.8237422228188
 31
0.0
 11
175.60013354776
 21
225.4364524877669
 31
0.0
 11
176.6087729207173
 21
225.1231120778113
 31
0.0
 11
177.7202113519431
 21
224.8251615990025
 31
0.0
 11
178.610299102893
 21
224.6011604452832
 31
0.0
 11
179.6031180131028
 21
224.3777593576903
 31
0.0
 11
180.4679473428095
 21
224.1936449521169
 31
0.0
 11
182.1519778866191
 21
223.9274979777997
 31
0.0
 11
183.7550728442355
 21
223.6734582199503
 31
0.0
 11
184.5176463075483
 21
223.5303600987486
 31
0.0
 11
184.8953004437063
 21
223.4926265290315
 31
0.0
  0
SPLINE
  5
48D
330
1F
100
AcDbEntity
  8
0
  6
ByBlock
370
    40
100
AcDbSpline
210
0.0
220
0.0
230
1.0
 70
  1064
 71
     3
 72
    12
 73
     8
 74
     6
 42
0.000000001
 43
0.0000000001
 44
0.00001
 40
0.0
 40
0.0
 40
0.0
 40
0.0
 40
0.2919696361136423
 40
0.8905523918334745
 40
1.455724879498618
 40
2.069470987602171
 40
2.504801571360906
 40
2.504801571360906
 40
2.504801571360906
 40
2.504801571360906
 10
184.8953004437063
 20
223.4926265290315
 30
0.0
 10
184.858538682479
 20
223.5829754364762
 30
0.0
 10
184.7463885839753
 20
223.8585437398187
 30
0.0
 10
184.4580784501336
 20
224.2538365997027
 30
0.0
 10
184.1056035488268
 20
224.7289369522835
 30
0.0
 10
183.7299810551192
 20
225.1183219616607
 30
0.0
 10
183.4549055219475
 20
225.3344779507287
 30
0.0
 10
183.3407532579848
 20
225.4241687812629
 30
0.0
 11
184.8953004437063
 21
223.4926265290315
 31
0.0
 11
184.7781068012991
 21
223.7600442316113
 31
0.0
 11
184.451376901431
 21
224.2615936159764
 31
0.0
 11
184.1059068825996
 21
224.70888996328
 31
0.0
 11
183.677871702059
 21
225.1487384310527
 31
0.0
 11
183.3407532579848
 21
225.4241687812629
 31
0.0
  0
LINE
  5
48E
330
1F
100
AcDbEntity
  8
0
  6
ByBlock
370
    40
100
AcDbLine
 10
174.2520671653528
 20
216.3521926517001
 30
0.0
 11
172.185086364861
 21
215.5570697414249
 31
0.0
  0
LINE
  5
48F
330
1F
100
AcDbEntity
  8
0
  6
ByBlock
370
    40
100
AcDbLine
 10
172.185086364861
 20
215.5570697414249
 30
0.0
 11
169.513193536517
 21
222.2162505885322
 31
0.0
  0
LINE
  5
490
330
1F
100
AcDbEntity
  8
0
  6
ByBlock
370
    40
100
AcDbLine
 10
169.513193536517
 20
222.2162505885322
 30
0.0
 11
170.583213588914
 21
222.6715242854583
 31
0.0
  0
LINE
  5
491
330
1F
100
AcDbEntity
  8
0
  6
ByBlock
370
    40
100
AcDbLine
 10
185.3610195590697
 20
221.7390568291459
 30
0.0
 11
182.4506655070457
 21
222.1980721148284
 31
0.0
  0
SPLINE
  5
492
330
1F
100
AcDbEntity
  8
0
  6
ByBlock
370
    40
100
AcDbSpline
210
0.0
220
0.0
230
1.0
 70
  1064
 71
     3
 72
    26
 73
    22
 74
    20
 42
0.000000001
 43
0.0000000001
 44
0.00001
 40
0.0
 40
0.0
 40
0.0
 40
0.0
 40
0.987464821672796
 40
2.088661798896637
 40
3.911775617684702
 40
5.601372273231026
 40
6.869741804863104
 40
8.212497615789974
 40
9.204480569878992
 40
10.0162619422597
 40
10.67731475102968
 40
11.78046501249157
 40
12.4639333490227
 40
13.34180395332932
 40
14.10098662253116
 40
14.84405936630466
 40
15.47770974182788
 40
16.06537341592511
 40
16.72066871078978
 40
17.16495117990408
 40
17.2821207625465
 40
17.2821207625465
 40
17.2821207625465
 40
17.2821207625465
 10
170.5832135889248
 20
222.6715242854583
 30
0.0
 10
170.7851394967519
 20
222.4115196513971
 30
0.0
 10
171.2122598828498
 20
221.8615732444274
 30
0.0
 10
172.0618207964899
 20
220.8720715398851
 30
0.0
 10
173.134634500652
 20
219.7652737217254
 30
0.0
 10
174.3915076529771
 20
218.7782197668389
 30
0.0
 10
175.6215303105441
 20
218.0318964237831
 30
0.0
 10
176.7506348718454
 20
217.605237313396
 30
0.0
 10
177.7781293636015
 20
217.3711321780315
 30
0.0
 10
178.6000238660381
 20
217.3337129228511
 30
0.0
 10
179.4618018106964
 20
217.3255705775558
 30
0.0
 10
180.2582455046872
 20
217.5726826112263
 30
0.0
 10
181.0368703280046
 20
218.0028425487412
 30
0.0
 10
181.6390235361105
 20
218.4987895435865
 30
0.0
 10
182.1416854909408
 20
219.1188531571744
 30
0.0
 10
182.4644437324879
 20
219.761029707846
 30
0.0
 10
182.6214669956658
 20
220.4011143117901
 30
0.0
 10
182.6704491707959
 20
221.02588784176
 30
0.0
 10
182.6341125805703
 20
221.592203773806
 30
0.0
 10
182.5182276269151
 20
221.982245563064
 30
0.0
 10
182.4623336238596
 20
222.1608088188407
 30
0.0
 10
182.4506655070457
 20
222.1980721148323
 30
0.0
 11
170.5832135889248
 21
222.6715242854583
 31
0.0
 11
171.1949155149404
 21
221.8963447492498
 31
0.0
 11
171.9113855696972
 21
221.0600996605711
 31
0.0
 11
173.1944047276454
 21
219.764874584226
 31
0.0
 11
174.5245457788797
 21
218.7230186035832
 31
0.0
 11
175.6171082931898
 21
218.0787593760932
 31
0.0
 11
176.8707271920639
 21
217.5976828359028
 31
0.0
 11
177.8407320444233
 21
217.3900246595199
 31
0.0
 11
178.6507668959573
 21
217.3367952646598
 31
0.0
 11
179.3116276847185
 21
217.3527499639194
 31
0.0
 11
180.3722097786524
 21
217.6562422298554
 31
0.0
 11
180.9702640093435
 21
217.987090451385
 31
0.0
 11
181.6470810587939
 21
218.546175587485
 31
0.0
 11
182.122034435681
 21
219.1384408503685
 31
0.0
 11
182.452430880579
 21
219.8040200742103
 31
0.0
 11
182.6074442557721
 21
220.4184171876077
 31
0.0
 11
182.655448835814
 21
221.004117021148
 31
0.0
 11
182.6007901555612
 21
221.6571301544271
 31
0.0
 11
182.4855655836268
 21
222.0862127300013
 31
0.0
 11
182.4506655070457
 21
222.1980721148323
 31
0.0
  0
SPLINE
  5
493
330
1F
100
AcDbEntity
  8
0
  6
ByBlock
370
    40
100
AcDbSpline
210
0.0
220
0.0
230
1.0
 70
  1064
 71
     3
 72
    27
 73
    23
 74
    21
 42
0.000000001
 43
0.0000000001
 44
0.00001
 40
0.0
 40
0.0
 40
0.0
 40
0.0
 40
0.4523072765949287
 40
1.286809576236198
 40
2.17174966068936
 40
3.11769955445827
 40
3.83119351640365
 40
4.794275873866944
 40
5.855212237626034
 40
6.929293589631461
 40
7.88901396809281
 40
9.043240184556193
 40
9.658036428220228
 40
10.40723432575202
 40
10.94790590487534
 40
12.3873477505165
 40
13.29996280226403
 40
13.89270429757212
 40
14.16233170513413
 40
14.47841037025014
 40
14.68046118045617
 40
14.86151464100141
 40
14.86151464100141
 40
14.86151464100141
 40
14.86151464100141
 10
185.3610195590805
 20
221.7390568291486
 30
0.0
 10
185.3659669584585
 20
221.5883864031403
 30
0.0
 10
185.3800295684075
 20
221.1597302667287
 30
0.0
 10
185.3587219691722
 20
220.4342564649523
 30
0.0
 10
185.1853234951463
 20
219.5573966541891
 30
0.0
 10
184.8570639858531
 20
218.7691741315616
 30
0.0
 10
184.3859032124041
 20
218.0279538353939
 30
0.0
 10
183.7464664235475
 20
217.3701114960516
 30
0.0
 10
182.9443603948828
 20
216.7149250366072
 30
0.0
 10
182.0358527162226
 20
216.2136232127875
 30
0.0
 10
181.0391755964253
 20
215.8404024209273
 30
0.0
 10
180.1467617203255
 20
215.6346448917484
 30
0.0
 10
179.3081170269433
 20
215.5855598393903
 30
0.0
 10
178.6721751961156
 20
215.5729220740412
 30
0.0
 10
177.7664860750827
 20
215.6757749867763
 30
0.0
 10
176.827851380053
 20
215.9071198166651
 30
0.0
 10
175.8839234465947
 20
216.1757454478228
 30
0.0
 10
175.3131154203059
 20
216.3300075395932
 30
0.0
 10
174.9303098236389
 20
216.4220352819899
 30
0.0
 10
174.6656962261937
 20
216.4300996321234
 30
0.0
 10
174.4336098827422
 20
216.4020704918462
 30
0.0
 10
174.3103302824063
 20
216.3681951805243
 30
0.0
 10
174.2520671653636
 20
216.3521926517027
 30
0.0
 11
185.3610195590805
 21
221.7390568291486
 31
0.0
 11
185.3725623859689
 21
221.2868893568626
 31
0.0
 11
185.3368475216082
 21
220.4531504267016
 31
0.0
 11
185.1619397447587
 21
219.585666601647
 31
0.0
 11
184.7997665764348
 21
218.7117938372949
 31
0.0
 11
184.4143719564138
 21
218.1113394367408
 31
0.0
 11
183.7577209045246
 21
217.4068265109552
 31
0.0
 11
182.9294891258913
 21
216.7437887436282
 31
0.0
 11
181.9914646939082
 21
216.2205663828468
 31
0.0
 11
181.0937043580284
 21
215.8813172356048
 31
0.0
 11
179.9658343732581
 21
215.6360666815442
 31
0.0
 11
179.3526386696574
 21
215.5917323844991
 31
0.0
 11
178.6034413057102
 21
215.5908146363105
 31
0.0
 11
178.0658171687377
 21
215.6481386000053
 31
0.0
 11
176.6603761467802
 21
215.9591493414849
 31
0.0
 11
175.7808127380321
 21
216.2025291011633
 31
0.0
 11
175.207881130567
 21
216.3544870221749
 31
0.0
 11
174.9440256877237
 21
216.4099754894967
 31
0.0
 11
174.6281596249387
 21
216.4215532358617
 31
0.0
 11
174.4277218309949
 21
216.3960680746598
 31
0.0
 11
174.2520671653636
 21
216.3521926517027
 31
0.0
  0
CIRCLE
  5
494
330
1F
100
AcDbEntity
  8
0
  6
ByBlock
370
    40
100
AcDbCircle
 10
189.0843281188216
 20
237.4350393416406
 30
0.0
 40
3.624641230862822
  0
CIRCLE
  5
495
330
1F
100
AcDbEntity
  8
0
  6
ByBlock
370
    40
100
AcDbCircle
 10
189.0843281188216
 20
237.4350393416406
 30
0.0
 40
3.198743230862822
  0
LINE
  5
496
330
1F
100
AcDbEntity
  8
0
  6
ByBlock
370
    40
100
AcDbLine
 10
189.2870642932798
 20
239.2415851731939
 30
0.0
 11
187.6418244377318
 21
239.2415851731939
 31
0.0
  0
LINE
  5
497
330
1F
100
AcDbEntity
  8
0
  6
ByBlock
370
    40
100
AcDbLine
 10
187.6418244377318
 20
239.2415851731939
 30
0.0
 11
187.6418244377318
 21
235.7256053874993
 31
0.0
  0
LINE
  5
498
330
1F
100
AcDbEntity
  8
0
  6
ByBlock
370
    40
100
AcDbLine
 10
187.6418244377318
 20
235.7256053874993
 30
0.0
 11
188.4018754538902
 21
235.7256053874993
 31
0.0
  0
LINE
  5
499
330
1F
100
AcDbEntity
  8
0
  6
ByBlock
370
    40
100
AcDbLine
 10
188.4018754538902
 20
235.7256053874993
 30
0.0
 11
188.4018754538902
 21
237.1860057236618
 31
0.0
  0
LINE
  5
49A
330
1F
100
AcDbEntity
  8
0
  6
ByBlock
370
    40
100
AcDbLine
 10
189.3563416243004
 20
237.7856782733489
 30
0.0
 11
188.4024559901689
 21
237.7856782733489
 31
0.0
  0
LINE
  5
49B
330
1F
100
AcDbEntity
  8
0
  6
ByBlock
370
    40
100
AcDbLine
 10
188.4024559901689
 20
237.7856782733489
 30
0.0
 11
188.4024559901689
 21
238.6083795166628
 31
0.0
  0
LINE
  5
49C
330
1F
100
AcDbEntity
  8
0
  6
ByBlock
370
    40
100
AcDbLine
 10
188.4024559901689
 20
238.6083795166628
 30
0.0
 11
189.2533286842313
 21
238.6083795166628
 31
0.0
  0
SPLINE
  5
49D
330
1F
100
AcDbEntity
  8
0
  6
ByBlock
370
    40
100
AcDbSpline
210
0.0
220
0.0
230
1.0
 70
  1064
 71
     3
 72
    16
 73
    12
 74
    10
 42
0.000000001
 43
0.0000000001
 44
0.00001
 40
0.0
 40
0.0
 40
0.0
 40
0.0
 40
0.1189285682107572
 40
0.2424616000615611
 40
0.4605005310679546
 40
0.6047757874546168
 40
0.794955051759972
 40
0.9861479350111769
 40
1.19431229511746
 40
1.276473337540815
 40
1.37207928844152
 40
1.37207928844152
 40
1.37207928844152
 40
1.37207928844152
 10
189.2533286842422
 20
238.6083795166628
 30
0.0
 10
189.2929551010352
 20
238.6075477361373
 30
0.0
 10
189.373741510216
 20
238.605838582458
 30
0.0
 10
189.5266475152986
 20
238.5807655365328
 30
0.0
 10
189.6663315789907
 20
238.4780240833971
 30
0.0
 10
189.7484097951922
 20
238.3098446268174
 30
0.0
 10
189.7689643409246
 20
238.1316667843541
 30
0.0
 10
189.7040496191154
 20
237.9351329896723
 30
0.0
 10
189.5680266294806
 20
237.8367563002764
 30
0.0
 10
189.4486529068746
 20
237.7850905462454
 30
0.0
 10
189.3886257958009
 20
237.7854692654618
 30
0.0
 10
189.3563416243112
 20
237.7856782733502
 30
0.0
 11
189.2533286842422
 21
238.6083795166628
 31
0.0
 11
189.3721451123011
 21
238.6031148188898
 31
0.0
 11
189.493283685518
 21
238.5789039157454
 31
0.0
 11
189.6693151904885
 21
238.4502373847869
 31
0.0
 11
189.7347867835838
 21
238.3216714531514
 31
0.0
 11
189.7547830336774
 21
238.1325447305493
 31
0.0
 11
189.6901499930159
 21
237.9526060792215
 31
0.0
 11
189.5284383832898
 21
237.8215251645718
 31
0.0
 11
189.4517430885191
 21
237.7920495636545
 31
0.0
 11
189.3563416243112
 21
237.7856782733502
 31
0.0
  0
SPLINE
  5
49E
330
1F
100
AcDbEntity
  8
0
  6
ByBlock
370
    40
100
AcDbSpline
210
0.0
220
0.0
230
1.0
 70
  1064
 71
     3
 72
    16
 73
    12
 74
    10
 42
0.000000001
 43
0.0000000001
 44
0.00001
 40
0.0
 40
0.0
 40
0.0
 40
0.0
 40
0.4376851434573351
 40
0.8878686450094161
 40
1.370846983129873
 40
1.931446266243209
 40
2.249663056098376
 40
2.635441083986738
 40
2.978963987523122
 40
3.178120610562101
 40
3.255342007798338
 40
3.255342007798338
 40
3.255342007798338
 40
3.255342007798338
 10
189.2870642932907
 20
239.2415851731966
 30
0.0
 10
189.432782113018
 20
239.2359210751362
 30
0.0
 10
189.7283776437085
 20
239.2244174743204
 30
0.0
 10
190.1789477836022
 20
239.0885975100306
 30
0.0
 10
190.5227223088743
 20
238.6749400320982
 30
0.0
 10
190.5298117408051
 20
238.204031450578
 30
0.0
 10
190.4789381329319
 20
237.7790093229418
 30
0.0
 10
190.2433576045682
 20
237.4954734813585
 30
0.0
 10
189.9696486111711
 20
237.3421565103851
 30
0.0
 10
189.7649454270986
 20
237.2975570698326
 30
0.0
 10
189.6727552989273
 20
237.2973809600662
 30
0.0
 10
189.6469967952153
 20
237.2973356383889
 30
0.0
 11
189.2870642932907
 21
239.2415851731966
 31
0.0
 11
189.723305065775
 21
239.2060065468379
 31
0.0
 11
190.1467740398048
 21
239.0532297120527
 31
0.0
 11
190.4545872833889
 21
238.6810457591969
 31
0.0
 11
190.5148340498251
 21
238.1236919903386
 31
0.0
 11
190.4551033156449
 21
237.8111299014472
 31
0.0
 11
190.2195990926063
 21
237.5055762318835
 31
0.0
 11
189.9193973248833
 21
237.3385813598063
 31
0.0
 11
189.7242081222205
 21
237.2990122937255
 31
0.0
 11
189.6469967952153
 21
237.2973356383889
 31
0.0
  0
SPLINE
  5
49F
330
1F
100
AcDbEntity
  8
0
  6
ByBlock
370
    40
100
AcDbSpline
210
0.0
220
0.0
230
1.0
 70
  1064
 71
     3
 72
    12
 73
     8
 74
     6
 42
0.000000001
 43
0.0000000001
 44
0.00001
 40
0.0
 40
0.0
 40
0.0
 40
0.0
 40
0.1414026313431429
 40
0.4506069693228507
 40
0.8891083974135529
 40
1.609391075899676
 40
1.970388567085283
 40
1.970388567085283
 40
1.970388567085283
 40
1.970388567085283
 10
189.6469967952153
 20
237.2973356383889
 30
0.0
 10
189.6856612543917
 20
237.2703857286181
 30
0.0
 10
189.808861678788
 20
237.1844885464707
 30
0.0
 10
190.0309622470174
 20
236.984864184656
 30
0.0
 10
190.3110180706168
 20
236.5807800425455
 30
0.0
 10
190.5827448008236
 20
236.1537848177567
 30
0.0
 10
190.7585352720421
 20
235.8390103013544
 30
0.0
 10
190.8172289546824
 20
235.7339215980017
 30
0.0
 11
189.6469967952153
 21
237.2973356383889
 31
0.0
 11
189.7619429813159
 21
237.2149783279758
 31
0.0
 11
189.9911258091499
 21
237.0074083966137
 31
0.0
 11
190.2552698226557
 21
236.6573898273729
 31
0.0
 11
190.6391978246884
 21
236.0479591435902
 31
0.0
 11
190.8172289546824
 21
235.7339215980017
 31
0.0
  0
SPLINE
  5
4A0
330
1F
100
AcDbEntity
  8
0
  6
ByBlock
370
    40
100
AcDbSpline
210
0.0
220
0.0
230
1.0
 70
  1064
 71
     3
 72
    16
 73
    12
 74
    10
 42
0.000000001
 43
0.0000000001
 44
0.00001
 40
0.0
 40
0.0
 40
0.0
 40
0.0
 40
0.4059519248418276
 40
0.8943564120743642
 40
1.172425834653034
 40
1.430397548507012
 40
1.624684313475927
 40
1.832531003926864
 40
1.982688507640824
 40
2.130658491693127
 40
2.229282156165763
 40
2.229282156165763
 40
2.229282156165763
 40
2.229282156165763
 10
189.9102377522539
 20
235.7339215980017
 30
0.0
 10
189.8376815963476
 20
235.8481849399822
 30
0.0
 10
189.6778417167383
 20
236.0999256074172
 30
0.0
 10
189.4491791869197
 20
236.4168552062694
 30
0.0
 10
189.2733141191641
 20
236.7107572025493
 30
0.0
 10
189.122979429207
 20
236.9008955498411
 30
0.0
 10
188.9928494858561
 20
237.0832618002928
 30
0.0
 10
188.8166548052978
 20
237.1609638472793
 30
0.0
 10
188.6492708279734
 20
237.1814610816902
 30
0.0
 10
188.5169343222255
 20
237.1858577289414
 30
0.0
 10
188.4347461569475
 20
237.1859678269387
 30
0.0
 10
188.401875453901
 20
237.1860057236618
 30
0.0
 11
189.9102377522539
 21
235.7339215980017
 31
0.0
 11
189.6895694567372
 21
236.0746514966384
 31
0.0
 11
189.4154273181685
 21
236.4788595665349
 31
0.0
 11
189.2649394101068
 21
236.7126859205598
 31
0.0
 11
189.1111617963762
 21
236.9198199215313
 31
0.0
 11
188.9840888521548
 21
237.0667955288365
 31
0.0
 11
188.7968336455199
 21
237.1569995862401
 31
0.0
 11
188.6483453624708
 21
237.1793326353991
 31
0.0
 11
188.5005021197554
 21
237.1854691939494
 31
0.0
 11
188.401875453901
 21
237.1860057236618
 31
0.0
  0
LINE
  5
4A1
330
1F
100
AcDbEntity
  8
0
  6
ByBlock
370
    40
100
AcDbLine
 10
189.9102377522539
 20
235.7339215979976
 30
0.0
 11
190.8172289546607
 21
235.7339215979976
 31
0.0
  0
LINE
  5
4A2
330
1F
100
AcDbEntity
  8
0
  6
ByBlock
370
    -3
100
AcDbLine
 10
66.63906843272662
 20
260.8004510313227
 30
0.0
 11
364.809214398215
 21
260.8004510313227
 31
0.0
  0
LINE
  5
4A3
330
1F
100
AcDbEntity
  8
0
  6
ByBlock
370
    -3
100
AcDbLine
 10
214.0274482991628
 20
260.8004510313227
 30
0.0
 11
214.0274482991628
 21
203.3210095781012
 31
0.0
  0
MTEXT
  5
4A4
330
1F
100
AcDbEntity
  8
0
  6
ByBlock
370
    -3
100
AcDbMText
 10
245.7570986197607
 20
237.6238877966425
 30
0.0
 40
14.85
 41
143.2278001120339
 46
0.0
 71
     1
 72
     5
  1
KBU16
 73
     1
 44
1.0
1001
ACAD
1000
ACAD_MTEXT_COLUMN_INFO_BEGIN
1070
    75
1070
     2
1070
    79
1070
     0
1070
    76
1070
     1
1070
    78
1070
     0
1070
    48
1040
143.2278001120339
1070
    49
1040
12.5
1070
    50
1070
     1
1040
0.0
1000
ACAD_MTEXT_COLUMN_INFO_END
  0
LINE
  5
4A5
330
1F
100
AcDbEntity
  8
0
  6
ByBlock
370
    -3
100
AcDbLine
 10
66.63906843272662
 20
203.3210095781017
 30
0.0
 11
364.8092143982157
 21
203.3210095781017
 31
0.0
  0
LINE
  5
4A6
330
1F
100
AcDbEntity
  8
0
  6
ByBlock
370
    -3
100
AcDbLine
 10
66.63906843272662
 20
128.6992491386055
 30
0.0
 11
364.809214398215
 21
128.6992491386055
 31
0.0
  0
MTEXT
  5
4A7
330
1F
100
AcDbEntity
  8
0
  6
ByBlock
370
    -3
100
AcDbMText
 10
85.01841216383786
 20
181.1576724038942
 30
0.0
 40
11.88
 41
264.9595615254484
 46
0.0
 71
     1
 72
     5
  1
15 inch Undermount Single Bowl 18 gauge Stainless Steel Kitchen Sink
 73
     1
 44
1.0
1001
ACAD
1000
ACAD_MTEXT_COLUMN_INFO_BEGIN
1070
    75
1070
     2
1070
    79
1070
     0
1070
    76
1070
     1
1070
    78
1070
     0
1070
    48
1040
264.9595615254484
1070
    49
1040
12.5
1070
    50
1070
     1
1040
0.0
1000
ACAD_MTEXT_COLUMN_INFO_END
  0
MTEXT
  5
4A8
330
1F
100
AcDbEntity
  8
0
  6
ByBlock
370
    -3
100
AcDbMText
 10
86.31643639699488
 20
113.830084929145
 30
0.0
 40
12.87
 41
266.9781062566162
 46
0.0
 71
     1
 72
     5
  1
www.kraususa.com
 73
     1
 44
1.0
1001
ACAD
1000
ACAD_MTEXT_COLUMN_INFO_BEGIN
1070
    75
1070
     2
1070
    79
1070
     0
1070
    76
1070
     1
1070
    78
1070
     0
1070
    48
1040
266.9781062566162
1070
    49
1040
12.5
1070
    50
1070
     1
1040
0.0
1000
ACAD_MTEXT_COLUMN_INFO_END
  0
LINE
  5
4A9
330
1F
100
AcDbEntity
  8
0
  6
ByBlock
370
    -3
100
AcDbLine
 10
66.63906843272662
 20
88.2322882272822
 30
0.0
 11
364.809214398215
 21
88.2322882272822
 31
0.0
  0
LINE
  5
4AA
330
1F
100
AcDbEntity
  8
0
  6
ByBlock
370
    -3
100
AcDbLine
 10
66.63906843272662
 20
260.8004510313227
 30
0.0
 11
66.63906843272662
 21
88.2322882272822
 31
0.0
  0
LINE
  5
4AB
330
1F
100
AcDbEntity
  8
0
  6
ByBlock
370
    -3
100
AcDbLine
 10
364.809214398215
 20
260.8004510313227
 30
0.0
 11
364.809214398215
 21
88.2322882272822
 31
0.0
  0
MULTILEADER
  5
4B0
330
1F
100
AcDbEntity
  8
note
160
               452
310
C4010000170000000C00000016000000000000C00C00000033000000000000000C00000013000000993A00000C00000033000000000000000C00000010000000030000000C00000016000000020000C30C00000017000000050000000C00000012000000FF7F00000C00000013000000010000000C00000014000000010000
310
005400000007000000030000000C0986216D6D69409B743CC68A06864000000000000000000C0986216D2D6840F0C9911BE013864000000000000000000C0986216D6D6940451FE7703521864000000000000000000C00000013000000891300003C00000006000000020000000C0986216D6D6940F0C9911BE01386400000
310
000000000000842D990B1C777340F0C9911BE013864000000000000000000C00000013000000112700003C0000000600000002000000842D990B1C777340F0C9911BE01386400000000000000000B2C7FC5E7DC17640F0C9911BE013864000000000000000000C00000016000000020000C30C00000012000000FF7F00000C
310
00000017000000000000000C000000130000009A3A00000C00000016000000000000C00C00000012000000FF7F00000C00000017000000FDFFFFFF0C0000003300000000000000
370
    -3
100
AcDbMLeader
270
     2
300
CONTEXT_DATA{
 40
1.0
 10
364.0931081651899
 20
706.4844275846244
 30
0.0
 41
4.0
140
10.0
145
2.0
174
     1
175
     1
176
     0
177
     0
290
     1
304

 11
0.0
 21
0.0
 31
1.0
340
11
 12
366.09310816519
 22
708.4844275846243
 32
0.0
 13
1.0
 23
0.0
 33
0.0
 42
0.0
 43
0.0
 44
0.0
 45
1.0
170
     1
 90
-1073741824
171
     1
172
     5
 91
-1073741824
141
0.0
 92
        0
291
     0
292
     0
173
     0
293
     0
142
0.0
143
0.0
294
     0
295
     0
296
     0
110
193.419571649349
120
706.4844275846244
130
0.0
111
1.0
121
0.0
131
0.0
112
0.0
122
1.0
132
0.0
297
     0
302
LEADER{
290
     1
291
     1
 10
311.4443469985492
 20
706.4844275846244
 30
0.0
 11
1.0
 21
0.0
 31
0.0
 90
        0
 40
52.64876116664061
304
LEADER_LINE{
 10
193.419571649349
 20
706.4844275846244
 30
0.0
 91
        0
305
}
271
     0
303
}
272
     9
273
     9
301
}
340
2C7
 90
   279680
170
     1
 91
-1023410174
341
14
171
     5
290
     1
291
     1
 41
8.0
 42
10.0
172
     2
343
11
173
     1
 95
        1
174
     1
175
     0
 92
-1056964608
292
     0
 93
-1056964608
 10
1.0
 20
1.0
 30
1.0
 43
0.0
176
     0
293
     0
294
     0
178
     0
179
     1
 45
1.0
271
     0
272
     9
273
     9
  0
MULTILEADER
  5
4B1
330
1F
100
AcDbEntity
  8
note
160
               452
310
C4010000170000000C00000016000000000000C00C00000033000000000000000C00000013000000993A00000C00000033000000000000000C00000010000000030000000C00000016000000020000C30C00000017000000050000000C00000012000000FF7F00000C00000013000000010000000C00000014000000010000
310
0054000000070000000300000000C9A7E30808694049D73BE342058A40000000000000000000C9A7E308C867409E2C913898128A40000000000000000000C9A7E308086940F381E68DED1F8A4000000000000000000C00000013000000891300003C000000060000000200000000C9A7E3080869409E2C913898128A400000
310
000000000000800DAAEC694473409E2C913898128A4000000000000000000C00000013000000112700003C0000000600000002000000800DAAEC694473409E2C913898128A40000000000000000060F5513D853B74409E2C913898128A4000000000000000000C00000016000000020000C30C00000012000000FF7F00000C
310
00000017000000000000000C000000130000009A3A00000C00000016000000000000C00C00000012000000FF7F00000C00000017000000FDFFFFFF0C0000003300000000000000
370
    -3
100
AcDbMLeader
270
     2
300
CONTEXT_DATA{
 40
1.0
 10
323.7200291825775
 20
834.3243266431562
 30
0.0
 41
4.0
140
10.0
145
2.0
174
     1
175
     1
176
     0
177
     0
290
     1
304

 11
0.0
 21
0.0
 31
1.0
340
11
 12
325.7200291825775
 22
836.3243266431561
 32
0.0
 13
1.0
 23
0.0
 33
0.0
 42
0.0
 43
0.0
 44
0.0
 45
1.0
170
     1
 90
-1073741824
171
     1
172
     5
 91
-1073741824
141
0.0
 92
        0
291
     0
292
     0
173
     0
293
     0
142
0.0
143
0.0
294
     0
295
     0
296
     0
110
190.2510851170591
120
834.3243266431562
130
0.0
111
1.0
121
0.0
131
0.0
112
0.0
122
1.0
132
0.0
297
     0
302
LEADER{
290
     1
291
     1
 10
308.2758604662595
 20
834.3243266431562
 30
0.0
 11
1.0
 21
0.0
 31
0.0
 90
        0
 40
15.44416871631802
304
LEADER_LINE{
 10
190.2510851170591
 20
834.3243266431562
 30
0.0
 91
        0
305
}
271
     0
303
}
272
     9
273
     9
301
}
340
2C7
 90
   279680
170
     1
 91
-1023410174
341
14
171
     5
290
     1
291
     1
 41
8.0
 42
10.0
172
     2
343
11
173
     1
 95
        1
174
     1
175
     0
 92
-1056964608
292
     0
 93
-1056964608
 10
1.0
 20
1.0
 30
1.0
 43
0.0
176
     0
293
     0
294
     0
178
     0
179
     1
 45
1.0
271
     0
272
     9
273
     9
  0
MULTILEADER
  5
4B2
330
1F
100
AcDbEntity
  8
note
160
               452
310
C4010000170000000C00000016000000000000C00C00000033000000000000000C00000013000000993A00000C00000033000000000000000C00000010000000030000000C00000016000000020000C30C00000017000000050000000C00000012000000FF7F00000C00000013000000010000000C00000014000000010000
310
00540000000700000003000000EF80463119C57340FE14C38D46338F40000000000000000044D69B866EAA7340FE14C38D46E38E400000000000000000992BF1DBC38F7340FE14C38D46338F4000000000000000000C00000013000000891300003C000000060000000200000044D69B866EAA7340FE14C38D46338F400000
310
00000000000044D69B866EAA734048677DFEBC00904000000000000000000C00000013000000112700003C000000060000000200000044D69B866EAA734048677DFEBC009040000000000000000068B036F7E49F684048677DFEBC00904000000000000000000C00000016000000020000C30C00000012000000FF7F00000C
310
00000017000000000000000C000000130000009A3A00000C00000016000000000000C00C00000012000000FF7F00000C00000017000000FDFFFFFF0C0000003300000000000000
370
    -3
100
AcDbMLeader
270
     2
300
CONTEXT_DATA{
 40
1.0
 10
192.9966999118944
 20
1024.184564551762
 30
0.0
 41
4.0
140
10.0
145
2.0
174
     1
175
     1
176
     2
177
     0
290
     1
304

 11
0.0
 21
0.0
 31
1.0
340
11
 12
194.9966999118944
 22
1026.184564551762
 32
0.0
 13
1.0
 23
0.0
 33
0.0
 42
0.0
 43
0.0
 44
0.0
 45
1.0
170
     1
 90
-1073741824
171
     3
172
     5
 91
-1073741824
141
0.0
 92
        0
291
     0
292
     0
173
     0
293
     0
142
0.0
143
0.0
294
     0
295
     0
296
     0
110
314.6519838416464
120
988.4094500771311
130
0.0
111
1.0
121
0.0
131
0.0
112
0.0
122
1.0
132
0.0
297
     0
302
LEADER{
290
     1
291
     1
 10
314.6519838416464
 20
1024.184564551762
 30
0.0
 11
-1.0
 21
0.0
 31
0.0
 90
        0
 40
117.6552839297519
304
LEADER_LINE{
 10
314.6519838416464
 20
988.4094500771313
 30
0.0
 91
        0
305
}
271
     0
303
}
272
     9
273
     9
301
}
340
2C7
 90
   279680
170
     1
 91
-1023410174
341
14
171
     5
290
     1
291
     1
 41
8.0
 42
10.0
172
     2
343
11
173
     1
 95
        1
174
     1
175
     2
 92
-1056964608
292
     0
 93
-1056964608
 10
1.0
 20
1.0
 30
1.0
 43
0.0
176
     0
293
     0
294
     0
178
     0
179
     3
 45
1.0
271
     0
272
     9
273
     9
  0
MTEXT
  5
4B5
330
1F
100
AcDbEntity
  8
note
 62
     2
370
    -3
100
AcDbMText
 10
196.765713788471
 20
1042.234713637504
 30
0.0
 40
10.0
 41
201.1158221863448
 46
0.0
 71
     1
 72
     5
  1
\A1;3/8" Positive Reveal
 73
     1
 44
1.0
1001
ACAD
1000
ACAD_MTEXT_COLUMN_INFO_BEGIN
1070
    75
1070
     2
1070
    79
1070
     0
1070
    76
1070
     1
1070
    78
1070
     0
1070
    48
1040
201.1158221863448
1070
    49
1040
12.5
1070
    50
1070
     1
1040
30.41614051781163
1000
ACAD_MTEXT_COLUMN_INFO_END
  0
MTEXT
  5
4B6
330
1F
100
AcDbEntity
  8
note
 62
     2
370
    -3
100
AcDbMText
 10
248.9240625926
 20
851.609922164212
 30
0.0
 40
10.0
 41
201.1158221863448
 46
0.0
 71
     1
 72
     5
  1
\A1;Zero Reveal
 73
     1
 44
1.0
1001
ACAD
1000
ACAD_MTEXT_COLUMN_INFO_BEGIN
1070
    75
1070
     2
1070
    79
1070
     0
1070
    76
1070
     1
1070
    78
1070
     0
1070
    48
1040
201.1158221863448
1070
    49
1040
12.5
1070
    50
1070
     1
1040
30.41614051781163
1000
ACAD_MTEXT_COLUMN_INFO_END
  0
MTEXT
  5
4B7
330
1F
100
AcDbEntity
  8
note
 62
     2
370
    -3
100
AcDbMText
 10
232.2373748647244
 20
725.8724326570663
 30
0.0
 40
10.0
 41
201.1158221863448
 46
0.0
 71
     1
 72
     5
  1
\A1;1/8" Negative Reveal
 73
     1
 44
1.0
1001
ACAD
1000
ACAD_MTEXT_COLUMN_INFO_BEGIN
1070
    75
1070
     2
1070
    79
1070
     0
1070
    76
1070
     1
1070
    78
1070
     0
1070
    48
1040
201.1158221863448
1070
    49
1040
12.5
1070
    50
1070
     1
1040
30.41614051781163
1000
ACAD_MTEXT_COLUMN_INFO_END
  0
LINE
  5
4D3
330
1F
100
AcDbEntity
  8
0
370
     5
100
AcDbLine
 10
460.1927614630769
 20
147.9577294024668
 30
0.0
 11
456.0625385319109
 21
226.7670774996212
 31
0.0
  0
LINE
  5
4D4
330
1F
100
AcDbEntity
  8
0
370
     5
100
AcDbLine
 10
458.2948323299034
 20
145.9577294024668
 30
0.0
 11
454.1646093987376
 21
224.7670774996212
 31
0.0
  0
LINE
  5
4D5
330
1F
100
AcDbEntity
  8
0
370
     5
100
AcDbLine
 10
511.3030473228262
 20
143.5481960252471
 30
0.0
 11
511.3030473228256
 21
145.5481960252498
 31
0.0
  0
ARC
  5
4D6
330
1F
100
AcDbEntity
  8
0
370
     5
100
AcDbCircle
 10
848.9683089146959
 20
367.6021220668151
 30
0.0
 40
407.7454318089715
100
AcDbArc
 50
212.5938397801196
 51
212.9966235360812
  0
ARC
  5
4D7
330
1F
100
AcDbEntity
  8
0
370
     5
100
AcDbCircle
 10
848.9683089146959
 20
367.6021220668151
 30
0.0
 40
409.7454318089716
100
AcDbArc
 50
212.7471028189254
 51
213.148611121666
  0
LINE
  5
4D8
330
1F
100
AcDbEntity
  8
0
370
     5
100
AcDbLine
 10
460.1927614630769
 20
147.9577294024668
 30
0.0
 11
505.4385752202245
 21
147.9577294024668
 31
0.0
  0
LINE
  5
4D9
330
1F
100
AcDbEntity
  8
0
370
     5
100
AcDbLine
 10
458.2948323299034
 20
145.9577294024668
 30
0.0
 11
504.3452074128192
 21
145.9577294024668
 31
0.0
  0
LINE
  5
4DA
330
1F
100
AcDbEntity
  8
0
370
     5
100
AcDbLine
 10
506.9911297190503
 20
145.5481960252471
 30
0.0
 11
537.3754374192092
 21
145.5481960252471
 31
0.0
  0
LINE
  5
4DB
330
1F
100
AcDbEntity
  8
0
370
     5
100
AcDbLine
 10
505.9068609003786
 20
143.5481960252471
 30
0.0
 11
538.4597062378809
 21
143.5481960252471
 31
0.0
  0
HATCH
  5
4DC
330
1F
100
AcDbEntity
  8
0
 62
     2
370
    -3
100
AcDbHatch
 10
0.0
 20
0.0
 30
0.0
210
0.0
220
0.0
230
1.0
  2
ANSI31
 70
     0
 71
     1
 91
        2
 92
        7
 72
     1
 73
     1
 93
        5
 10
404.5803326046672
 20
236.9748168738704
 42
0.0
 10
404.5803326046672
 20
226.7670774996231
 42
0.0
 10
456.0625385319109
 20
226.7670774996212
 42
0.0
 10
456.0625385319109
 20
233.9748168738676
 42
0.4142135623730784
 10
453.0625385319111
 20
236.9748168738677
 42
0.0
 97
        5
330
4E1
330
4E0
330
4DD
330
4DF
330
4DE
 92
        7
 72
     1
 73
     1
 93
        6
 10
605.448853540069
 20
226.7670774996212
 42
0.0
 10
639.7862345335918
 20
226.7670774996231
 42
0.0
 10
639.7862345335918
 20
236.9748168738704
 42
0.0
 10
591.3040286063478
 20
236.9748168738677
 42
0.4142135623730784
 10
588.304028606348
 20
233.9748168738676
 42
0.0
 10
588.304028606348
 20
226.7670774996212
 42
0.0
 97
        6
330
4EC
330
4ED
330
4EA
330
4EE
330
4EB
330
4E9
 75
     1
 76
     1
 52
0.0
 41
1.0
 77
     0
 78
     1
 53
45.0
 43
-1214.230297556652
 44
-158.9728419609175
 45
-2.245064030267287
 46
2.245064030267288
 79
     0
 47
0.3964580164686978
 98
        2
 10
442.7685042379463
 20
233.3656870174593
 10
601.4606257749376
 20
230.5904820201827
1001
GradientColor1ACI
1070
     5
1001
GradientColor2ACI
1070
     2
1001
ACAD
1010
0.0
1020
0.0
1030
0.0
  0
LINE
  5
4DD
102
{ACAD_REACTORS
330
4DC
102
}
330
1F
100
AcDbEntity
  8
0
370
     5
100
AcDbLine
 10
404.5803326046672
 20
236.9748168738704
 30
0.0
 11
404.5803326046672
 21
226.7670774996231
 31
0.0
  0
LINE
  5
4DE
102
{ACAD_REACTORS
330
4DC
102
}
330
1F
100
AcDbEntity
  8
0
370
     5
100
AcDbLine
 10
456.0625385319109
 20
226.7670774996212
 30
0.0
 11
456.0625385319109
 21
233.9748168738676
 31
0.0
  0
LINE
  5
4DF
102
{ACAD_REACTORS
330
4DC
102
}
330
1F
100
AcDbEntity
  8
0
370
     5
100
AcDbLine
 10
404.5803326046672
 20
226.7670774996231
 30
0.0
 11
456.0625385319109
 21
226.7670774996212
 31
0.0
  0
LINE
  5
4E0
102
{ACAD_REACTORS
330
4DC
102
}
330
1F
100
AcDbEntity
  8
0
370
     5
100
AcDbLine
 10
453.062538531911
 20
236.9748168738677
 30
0.0
 11
404.5803326046672
 21
236.9748168738704
 31
0.0
  0
ARC
  5
4E1
102
{ACAD_REACTORS
330
4DC
102
}
330
1F
100
AcDbEntity
  8
0
370
     5
100
AcDbCircle
 10
453.062538531911
 20
233.9748168738676
 30
0.0
 40
3.0
100
AcDbArc
 50
0.0
 51
89.99999999999349
  0
LINE
  5
4E2
330
1F
100
AcDbEntity
  8
0
370
     5
100
AcDbLine
 10
438.9177135981901
 20
226.7670774996212
 30
0.0
 11
456.0625385319109
 21
226.7670774996212
 31
0.0
  0
LINE
  5
4E3
330
1F
100
AcDbEntity
  8
0
370
     5
100
AcDbLine
 10
438.9177135981901
 20
224.7670774996212
 30
0.0
 11
454.1646093987376
 21
224.7670774996212
 31
0.0
  0
LINE
  5
4E4
330
1F
100
AcDbEntity
  8
0
370
    -3
100
AcDbLine
 10
438.9177135981901
 20
224.7670774996212
 30
0.0
 11
438.9177135981901
 21
226.7670774996212
 31
0.0
  0
LINE
  5
4E5
330
1F
100
AcDbEntity
  8
0
370
     5
100
AcDbLine
 10
584.1738056751821
 20
147.9577294024668
 30
0.0
 11
588.304028606348
 21
226.7670774996212
 31
0.0
  0
LINE
  5
4E6
330
1F
100
AcDbEntity
  8
0
370
     5
100
AcDbLine
 10
586.0717348083555
 20
145.9577294024668
 30
0.0
 11
590.2019577395215
 21
224.7670774996212
 31
0.0
  0
LINE
  5
4E7
330
1F
100
AcDbEntity
  8
0
370
     5
100
AcDbLine
 10
584.1738056751821
 20
147.9577294024668
 30
0.0
 11
538.9279919180346
 21
147.9577294024668
 31
0.0
  0
LINE
  5
4E8
330
1F
100
AcDbEntity
  8
0
370
     5
100
AcDbLine
 10
586.0717348083555
 20
145.9577294024668
 30
0.0
 11
540.0213597254403
 21
145.9577294024668
 31
0.0
  0
LINE
  5
4E9
102
{ACAD_REACTORS
330
4DC
102
}
330
1F
100
AcDbEntity
  8
0
370
     5
100
AcDbLine
 10
639.7862345335918
 20
236.9748168738704
 30
0.0
 11
639.7862345335918
 21
226.7670774996231
 31
0.0
  0
LINE
  5
4EA
102
{ACAD_REACTORS
330
4DC
102
}
330
1F
100
AcDbEntity
  8
0
370
     5
100
AcDbLine
 10
588.304028606348
 20
226.7670774996212
 30
0.0
 11
588.304028606348
 21
233.9748168738676
 31
0.0
  0
LINE
  5
4EB
102
{ACAD_REACTORS
330
4DC
102
}
330
1F
100
AcDbEntity
  8
0
370
     5
100
AcDbLine
 10
639.7862345335918
 20
226.7670774996231
 30
0.0
 11
588.304028606348
 21
226.7670774996212
 31
0.0
  0
LINE
  5
4EC
102
{ACAD_REACTORS
330
4DC
102
}
330
1F
100
AcDbEntity
  8
0
370
     5
100
AcDbLine
 10
591.304028606348
 20
236.9748168738677
 30
0.0
 11
639.7862345335918
 21
236.9748168738704
 31
0.0
  0
ARC
  5
4ED
102
{ACAD_REACTORS
330
4DC
102
}
330
1F
100
AcDbEntity
  8
0
370
     5
100
AcDbCircle
 10
591.304028606348
 20
233.9748168738676
 30
0.0
 40
3.0
100
AcDbArc
 50
90.0
 51
180.0
  0
LINE
  5
4EE
102
{ACAD_REACTORS
330
4DC
102
}
330
1F
100
AcDbEntity
  8
0
370
     5
100
AcDbLine
 10
605.448853540069
 20
226.7670774996212
 30
0.0
 11
588.304028606348
 21
226.7670774996212
 31
0.0
  0
LINE
  5
4EF
330
1F
100
AcDbEntity
  8
0
370
     5
100
AcDbLine
 10
605.448853540069
 20
224.7670774996212
 30
0.0
 11
590.2019577395215
 21
224.7670774996212
 31
0.0
  0
LINE
  5
4F0
330
1F
100
AcDbEntity
  8
0
370
    -3
100
AcDbLine
 10
605.448853540069
 20
224.7670774996212
 30
0.0
 11
605.448853540069
 21
226.7670774996212
 31
0.0
  0
LINE
  5
4F1
330
1F
100
AcDbEntity
  8
0
370
     5
100
AcDbLine
 10
533.0635198154334
 20
143.5481960252471
 30
0.0
 11
533.0635198154334
 21
145.5481960252498
 31
0.0
  0
ARC
  5
4F2
330
1F
100
AcDbEntity
  8
0
370
     5
100
AcDbCircle
 10
195.3982582235637
 20
367.6021220668151
 30
0.0
 40
407.7454318089715
100
AcDbArc
 50
327.0033764639215
 51
327.4061602198777
  0
ARC
  5
4F3
330
1F
100
AcDbEntity
  8
0
370
     5
100
AcDbCircle
 10
195.3982582235637
 20
367.6021220668151
 30
0.0
 40
409.7454318089716
100
AcDbArc
 50
326.851388878334
 51
327.2528971810809
  0
LINE
  5
4F4
330
1F
100
AcDbEntity
  8
0
370
     5
100
AcDbLine
 10
1060.764904120682
 20
144.8666077710288
 30
0.0
 11
1056.634681189517
 21
223.6759558681832
 31
0.0
  0
LINE
  5
4F5
330
1F
100
AcDbEntity
  8
0
370
     5
100
AcDbLine
 10
1058.866974987509
 20
142.8666077710288
 30
0.0
 11
1054.736752056343
 21
221.6759558681832
 31
0.0
  0
LINE
  5
4F6
330
1F
100
AcDbEntity
  8
0
370
     5
100
AcDbLine
 10
1111.875189980431
 20
140.4570743938091
 30
0.0
 11
1111.875189980431
 21
142.4570743938118
 31
0.0
  0
ARC
  5
4F7
330
1F
100
AcDbEntity
  8
0
370
     5
100
AcDbCircle
 10
1449.540451572301
 20
364.5110004353771
 30
0.0
 40
407.7454318089715
100
AcDbArc
 50
212.5938397801225
 51
212.9966235360808
  0
ARC
  5
4F8
330
1F
100
AcDbEntity
  8
0
370
     5
100
AcDbCircle
 10
1449.540451572301
 20
364.5110004353771
 30
0.0
 40
409.7454318089716
100
AcDbArc
 50
212.7471028189235
 51
213.1486111216678
  0
LINE
  5
4F9
330
1F
100
AcDbEntity
  8
0
370
     5
100
AcDbLine
 10
1060.764904120682
 20
144.8666077710288
 30
0.0
 11
1106.01071787783
 21
144.8666077710288
 31
0.0
  0
LINE
  5
4FA
330
1F
100
AcDbEntity
  8
0
370
     5
100
AcDbLine
 10
1058.866974987509
 20
142.8666077710288
 30
0.0
 11
1104.917350070425
 21
142.8666077710288
 31
0.0
  0
LINE
  5
4FB
330
1F
100
AcDbEntity
  8
0
370
     5
100
AcDbLine
 10
1107.563272376656
 20
142.457074393809
 30
0.0
 11
1137.947580076815
 21
142.457074393809
 31
0.0
  0
LINE
  5
4FC
330
1F
100
AcDbEntity
  8
0
370
     5
100
AcDbLine
 10
1106.479003557984
 20
140.4570743938091
 30
0.0
 11
1139.031848895486
 21
140.4570743938091
 31
0.0
  0
HATCH
  5
4FD
330
1F
100
AcDbEntity
  8
0
 62
     2
370
    -3
100
AcDbHatch
 10
0.0
 20
0.0
 30
0.0
210
0.0
220
0.0
230
1.0
  2
ANSI31
 70
     0
 71
     1
 91
        2
 92
        7
 72
     1
 73
     1
 93
        5
 10
998.6622835128367
 20
233.8836952424324
 42
0.0
 10
998.6622835128367
 20
223.675955868185
 42
0.0
 10
1050.14448944008
 20
223.6759558681832
 42
0.0
 10
1050.14448944008
 20
230.8836952424297
 42
0.4142135623730788
 10
1047.14448944008
 20
233.8836952424297
 42
0.0
 97
        5
330
502
330
4FE
330
501
330
4FF
330
500
 92
        7
 72
     1
 73
     1
 93
        5
 10
1198.36636301339
 20
233.8836952424297
 42
0.4142135623730784
 10
1195.36636301339
 20
230.8836952424297
 42
0.0
 10
1195.36636301339
 20
223.6759558681832
 42
0.0
 10
1246.848568940634
 20
223.675955868185
 42
0.0
 10
1246.848568940634
 20
233.8836952424324
 42
0.0
 97
        5
330
513
330
514
330
511
330
512
330
510
 75
     1
 76
     1
 52
0.0
 41
1.0
 77
     0
 78
     1
 53
45.0
 43
-614.2946066131143
 44
-366.8068262042114
 45
-2.245064030267287
 46
2.245064030267288
 79
     0
 47
0.2478031236227961
 98
        2
 10
1037.16453134023
 20
230.6374127379486
 10
1203.554626412079
 20
230.6374127379486
1001
GradientColor1ACI
1070
     5
1001
GradientColor2ACI
1070
     2
1001
ACAD
1010
0.0
1020
0.0
1030
0.0
  0
LINE
  5
4FE
102
{ACAD_REACTORS
330
4FD
102
}
330
1F
100
AcDbEntity
  8
0
370
     5
100
AcDbLine
 10
998.6622835128367
 20
233.8836952424324
 30
0.0
 11
998.6622835128367
 21
223.675955868185
 31
0.0
  0
LINE
  5
4FF
102
{ACAD_REACTORS
330
4FD
102
}
330
1F
100
AcDbEntity
  8
0
370
     5
100
AcDbLine
 10
1050.14448944008
 20
223.6759558681832
 30
0.0
 11
1050.14448944008
 21
230.8836952424297
 31
0.0
  0
ARC
  5
500
102
{ACAD_REACTORS
330
4FD
102
}
330
1F
100
AcDbEntity
  8
0
370
     5
100
AcDbCircle
 10
1047.14448944008
 20
230.8836952424297
 30
0.0
 40
3.0
100
AcDbArc
 50
0.0
 51
89.99999999999349
  0
LINE
  5
501
102
{ACAD_REACTORS
330
4FD
102
}
330
1F
100
AcDbEntity
  8
0
370
     5
100
AcDbLine
 10
998.6622835128367
 20
223.675955868185
 30
0.0
 11
1050.14448944008
 21
223.6759558681832
 31
0.0
  0
LINE
  5
502
102
{ACAD_REACTORS
330
4FD
102
}
330
1F
100
AcDbEntity
  8
0
370
     5
100
AcDbLine
 10
1047.14448944008
 20
233.8836952424297
 30
0.0
 11
998.6622835128367
 21
233.8836952424324
 31
0.0
  0
LINE
  5
503
330
1F
100
AcDbEntity
  8
0
370
     5
100
AcDbLine
 10
1039.489856255795
 20
223.6759558681832
 30
0.0
 11
1056.634681189517
 21
223.6759558681832
 31
0.0
  0
LINE
  5
504
330
1F
100
AcDbEntity
  8
0
370
     5
100
AcDbLine
 10
1039.489856255795
 20
221.6759558681832
 30
0.0
 11
1054.736752056343
 21
221.6759558681832
 31
0.0
  0
LINE
  5
505
330
1F
100
AcDbEntity
  8
0
370
    -3
100
AcDbLine
 10
1039.489856255795
 20
221.6759558681832
 30
0.0
 11
1039.489856255795
 21
223.6759558681832
 31
0.0
  0
LINE
  5
506
330
1F
100
AcDbEntity
  8
0
370
     5
100
AcDbLine
 10
1184.745948332788
 20
144.8666077710288
 30
0.0
 11
1188.876171263953
 21
223.6759558681832
 31
0.0
  0
LINE
  5
507
330
1F
100
AcDbEntity
  8
0
370
     5
100
AcDbLine
 10
1186.643877465961
 20
142.8666077710288
 30
0.0
 11
1190.774100397127
 21
221.6759558681832
 31
0.0
  0
LINE
  5
508
330
1F
100
AcDbEntity
  8
0
370
     5
100
AcDbLine
 10
1184.745948332788
 20
144.8666077710288
 30
0.0
 11
1139.50013457564
 21
144.8666077710288
 31
0.0
  0
LINE
  5
509
330
1F
100
AcDbEntity
  8
0
370
     5
100
AcDbLine
 10
1186.643877465961
 20
142.8666077710288
 30
0.0
 11
1140.593502383046
 21
142.8666077710288
 31
0.0
  0
LINE
  5
50A
330
1F
100
AcDbEntity
  8
0
370
     5
100
AcDbLine
 10
1206.020996197674
 20
223.6759558681832
 30
0.0
 11
1188.876171263953
 21
223.6759558681832
 31
0.0
  0
LINE
  5
50B
330
1F
100
AcDbEntity
  8
0
370
     5
100
AcDbLine
 10
1206.020996197674
 20
221.6759558681832
 30
0.0
 11
1190.774100397127
 21
221.6759558681832
 31
0.0
  0
LINE
  5
50C
330
1F
100
AcDbEntity
  8
0
370
    -3
100
AcDbLine
 10
1206.020996197674
 20
221.6759558681832
 30
0.0
 11
1206.020996197674
 21
223.6759558681832
 31
0.0
  0
LINE
  5
50D
330
1F
100
AcDbEntity
  8
0
370
     5
100
AcDbLine
 10
1133.635662473039
 20
140.4570743938091
 30
0.0
 11
1133.635662473039
 21
142.4570743938118
 31
0.0
  0
ARC
  5
50E
330
1F
100
AcDbEntity
  8
0
370
     5
100
AcDbCircle
 10
795.9704008811692
 20
364.5110004353771
 30
0.0
 40
407.7454318089715
100
AcDbArc
 50
327.0033764639198
 51
327.4061602198774
  0
ARC
  5
50F
330
1F
100
AcDbEntity
  8
0
370
     5
100
AcDbCircle
 10
795.9704008811692
 20
364.5110004353771
 30
0.0
 40
409.7454318089716
100
AcDbArc
 50
326.8513888783321
 51
327.2528971810836
  0
LINE
  5
510
102
{ACAD_REACTORS
330
4FD
102
}
330
1F
100
AcDbEntity
  8
0
370
     5
100
AcDbLine
 10
1246.848568940634
 20
233.8836952424324
 30
0.0
 11
1246.848568940634
 21
223.675955868185
 31
0.0
  0
LINE
  5
511
102
{ACAD_REACTORS
330
4FD
102
}
330
1F
100
AcDbEntity
  8
0
370
     5
100
AcDbLine
 10
1195.36636301339
 20
223.6759558681832
 30
0.0
 11
1195.36636301339
 21
230.8836952424297
 31
0.0
  0
LINE
  5
512
102
{ACAD_REACTORS
330
4FD
102
}
330
1F
100
AcDbEntity
  8
0
370
     5
100
AcDbLine
 10
1246.848568940634
 20
223.675955868185
 30
0.0
 11
1195.36636301339
 21
223.6759558681832
 31
0.0
  0
LINE
  5
513
102
{ACAD_REACTORS
330
4FD
102
}
330
1F
100
AcDbEntity
  8
0
370
     5
100
AcDbLine
 10
1198.36636301339
 20
233.8836952424297
 30
0.0
 11
1246.848568940634
 21
233.8836952424324
 31
0.0
  0
ARC
  5
514
102
{ACAD_REACTORS
330
4FD
102
}
330
1F
100
AcDbEntity
  8
0
370
     5
100
AcDbCircle
 10
1198.36636301339
 20
230.8836952424297
 30
0.0
 40
3.0
100
AcDbArc
 50
90.0
 51
180.0
  0
LINE
  5
515
330
1F
100
AcDbEntity
  8
0
370
     5
100
AcDbLine
 10
759.6725399668768
 20
144.8803106006833
 30
0.0
 11
755.5423170357109
 21
223.6896586978377
 31
0.0
  0
LINE
  5
516
330
1F
100
AcDbEntity
  8
0
370
     5
100
AcDbLine
 10
757.7746108337033
 20
142.8803106006833
 30
0.0
 11
753.6443879025374
 21
221.6896586978377
 31
0.0
  0
LINE
  5
517
330
1F
100
AcDbEntity
  8
0
370
     5
100
AcDbLine
 10
810.7828258266259
 20
140.4707772234636
 30
0.0
 11
810.7828258266255
 21
142.4707772234662
 31
0.0
  0
ARC
  5
518
330
1F
100
AcDbEntity
  8
0
370
     5
100
AcDbCircle
 10
1148.448087418496
 20
364.5247032650316
 30
0.0
 40
407.7454318089715
100
AcDbArc
 50
212.59383978012
 51
212.9966235360793
  0
ARC
  5
519
330
1F
100
AcDbEntity
  8
0
370
     5
100
AcDbCircle
 10
1148.448087418496
 20
364.5247032650316
 30
0.0
 40
409.7454318089716
100
AcDbArc
 50
212.7471028189258
 51
213.1486111216656
  0
LINE
  5
51A
330
1F
100
AcDbEntity
  8
0
370
     5
100
AcDbLine
 10
759.6725399668768
 20
144.8803106006833
 30
0.0
 11
804.9183537240242
 21
144.8803106006833
 31
0.0
  0
LINE
  5
51B
330
1F
100
AcDbEntity
  8
0
370
     5
100
AcDbLine
 10
757.7746108337033
 20
142.8803106006833
 30
0.0
 11
803.8249859166191
 21
142.8803106006833
 31
0.0
  0
LINE
  5
51C
330
1F
100
AcDbEntity
  8
0
370
     5
100
AcDbLine
 10
806.4709082228501
 20
142.4707772234635
 30
0.0
 11
836.8552159230089
 21
142.4707772234635
 31
0.0
  0
LINE
  5
51D
330
1F
100
AcDbEntity
  8
0
370
     5
100
AcDbLine
 10
805.3866394041785
 20
140.4707772234635
 30
0.0
 11
837.9394847416808
 21
140.4707772234635
 31
0.0
  0
HATCH
  5
51E
330
1F
100
AcDbEntity
  8
0
 62
     2
370
    -3
100
AcDbHatch
 10
0.0
 20
0.0
 30
0.0
210
0.0
220
0.0
230
1.0
  2
ANSI31
 70
     0
 71
     1
 91
        2
 92
        7
 72
     1
 73
     1
 93
        5
 10
759.8457694583577
 20
230.8973980720842
 42
0.4142135623730792
 10
756.8457694583578
 20
233.8973980720842
 42
0.0
 10
708.3635635311139
 20
233.8973980720869
 42
0.0
 10
708.3635635311139
 20
223.6896586978395
 42
0.0
 10
759.8457694583577
 20
223.6896586978377
 42
0.0
 97
        5
330
523
330
522
330
51F
330
521
330
520
 92
        7
 72
     1
 73
     1
 93
        5
 10
934.9625606147453
 20
223.6896586978395
 42
0.0
 10
934.9625606147453
 20
233.8973980720869
 42
0.0
 10
886.4803546875014
 20
233.8973980720842
 42
0.4142135623730784
 10
883.4803546875017
 20
230.8973980720842
 42
0.0
 10
883.4803546875017
 20
223.6896586978377
 42
0.0
 97
        5
330
534
330
535
330
532
330
533
330
531
 75
     1
 76
     1
 52
0.0
 41
1.0
 77
     0
 78
     1
 53
45.0
 43
-914.7505190528526
 44
47.30447637602378
 45
-2.245064030267287
 46
2.245064030267288
 79
     0
 47
0.2487134224183104
 98
        2
 10
755.6062869921362
 20
229.4966092035834
 10
899.212490047523
 20
225.2684808540698
1001
GradientColor1ACI
1070
     5
1001
GradientColor2ACI
1070
     2
1001
ACAD
1010
0.0
1020
0.0
1030
0.0
  0
LINE
  5
51F
102
{ACAD_REACTORS
330
51E
102
}
330
1F
100
AcDbEntity
  8
0
370
     5
100
AcDbLine
 10
708.3635635311139
 20
233.8973980720869
 30
0.0
 11
708.3635635311139
 21
223.6896586978395
 31
0.0
  0
LINE
  5
520
102
{ACAD_REACTORS
330
51E
102
}
330
1F
100
AcDbEntity
  8
0
370
     5
100
AcDbLine
 10
759.8457694583577
 20
223.6896586978377
 30
0.0
 11
759.8457694583577
 21
230.8973980720842
 31
0.0
  0
LINE
  5
521
102
{ACAD_REACTORS
330
51E
102
}
330
1F
100
AcDbEntity
  8
0
370
     5
100
AcDbLine
 10
708.3635635311139
 20
223.6896586978395
 30
0.0
 11
759.8457694583577
 21
223.6896586978377
 31
0.0
  0
LINE
  5
522
102
{ACAD_REACTORS
330
51E
102
}
330
1F
100
AcDbEntity
  8
0
370
     5
100
AcDbLine
 10
756.8457694583577
 20
233.8973980720842
 30
0.0
 11
708.3635635311139
 21
233.8973980720869
 31
0.0
  0
ARC
  5
523
102
{ACAD_REACTORS
330
51E
102
}
330
1F
100
AcDbEntity
  8
0
370
     5
100
AcDbCircle
 10
756.8457694583577
 20
230.8973980720842
 30
0.0
 40
3.0
100
AcDbArc
 50
0.0
 51
89.99999999999349
  0
LINE
  5
524
330
1F
100
AcDbEntity
  8
0
370
     5
100
AcDbLine
 10
738.3974921019899
 20
223.6896586978377
 30
0.0
 11
755.5423170357109
 21
223.6896586978377
 31
0.0
  0
LINE
  5
525
330
1F
100
AcDbEntity
  8
0
370
     5
100
AcDbLine
 10
738.3974921019899
 20
221.6896586978377
 30
0.0
 11
753.6443879025374
 21
221.6896586978377
 31
0.0
  0
LINE
  5
526
330
1F
100
AcDbEntity
  8
0
370
    -3
100
AcDbLine
 10
738.3974921019899
 20
221.6896586978377
 30
0.0
 11
738.3974921019899
 21
223.6896586978377
 31
0.0
  0
LINE
  5
527
330
1F
100
AcDbEntity
  8
0
370
     5
100
AcDbLine
 10
883.6535841789821
 20
144.8803106006833
 30
0.0
 11
887.783807110148
 21
223.6896586978377
 31
0.0
  0
LINE
  5
528
330
1F
100
AcDbEntity
  8
0
370
     5
100
AcDbLine
 10
885.5515133121555
 20
142.8803106006833
 30
0.0
 11
889.6817362433214
 21
221.6896586978377
 31
0.0
  0
LINE
  5
529
330
1F
100
AcDbEntity
  8
0
370
     5
100
AcDbLine
 10
883.6535841789821
 20
144.8803106006833
 30
0.0
 11
838.4077704218345
 21
144.8803106006833
 31
0.0
  0
LINE
  5
52A
330
1F
100
AcDbEntity
  8
0
370
     5
100
AcDbLine
 10
885.5515133121555
 20
142.8803106006833
 30
0.0
 11
839.5011382292402
 21
142.8803106006833
 31
0.0
  0
LINE
  5
52B
330
1F
100
AcDbEntity
  8
0
370
     5
100
AcDbLine
 10
904.9286320438689
 20
223.6896586978377
 30
0.0
 11
887.783807110148
 21
223.6896586978377
 31
0.0
  0
LINE
  5
52C
330
1F
100
AcDbEntity
  8
0
370
     5
100
AcDbLine
 10
904.9286320438689
 20
221.6896586978377
 30
0.0
 11
889.6817362433214
 21
221.6896586978377
 31
0.0
  0
LINE
  5
52D
330
1F
100
AcDbEntity
  8
0
370
    -3
100
AcDbLine
 10
904.9286320438689
 20
221.6896586978377
 30
0.0
 11
904.9286320438689
 21
223.6896586978377
 31
0.0
  0
LINE
  5
52E
330
1F
100
AcDbEntity
  8
0
370
     5
100
AcDbLine
 10
832.5432983192332
 20
140.4707772234636
 30
0.0
 11
832.5432983192332
 21
142.4707772234662
 31
0.0
  0
ARC
  5
52F
330
1F
100
AcDbEntity
  8
0
370
     5
100
AcDbCircle
 10
494.8780367273635
 20
364.5247032650316
 30
0.0
 40
407.7454318089715
100
AcDbArc
 50
327.0033764639223
 51
327.4061602198775
  0
ARC
  5
530
330
1F
100
AcDbEntity
  8
0
370
     5
100
AcDbCircle
 10
494.8780367273635
 20
364.5247032650316
 30
0.0
 40
409.7454318089716
100
AcDbArc
 50
326.8513888783344
 51
327.2528971810817
  0
LINE
  5
531
102
{ACAD_REACTORS
330
51E
102
}
330
1F
100
AcDbEntity
  8
0
370
     5
100
AcDbLine
 10
934.9625606147453
 20
233.8973980720869
 30
0.0
 11
934.9625606147453
 21
223.6896586978395
 31
0.0
  0
LINE
  5
532
102
{ACAD_REACTORS
330
51E
102
}
330
1F
100
AcDbEntity
  8
0
370
     5
100
AcDbLine
 10
883.4803546875017
 20
223.6896586978377
 30
0.0
 11
883.4803546875017
 21
230.8973980720842
 31
0.0
  0
LINE
  5
533
102
{ACAD_REACTORS
330
51E
102
}
330
1F
100
AcDbEntity
  8
0
370
     5
100
AcDbLine
 10
934.9625606147453
 20
223.6896586978395
 30
0.0
 11
883.4803546875017
 21
223.6896586978377
 31
0.0
  0
LINE
  5
534
102
{ACAD_REACTORS
330
51E
102
}
330
1F
100
AcDbEntity
  8
0
370
     5
100
AcDbLine
 10
886.4803546875011
 20
233.8973980720842
 30
0.0
 11
934.9625606147453
 21
233.8973980720869
 31
0.0
  0
ARC
  5
535
102
{ACAD_REACTORS
330
51E
102
}
330
1F
100
AcDbEntity
  8
0
370
     5
100
AcDbCircle
 10
886.4803546875016
 20
230.8973980720842
 30
0.0
 40
3.0
100
AcDbArc
 50
90.0
 51
180.0
  0
MTEXT
  5
536
330
1F
100
AcDbEntity
  8
note
370
    -3
100
AcDbMText
 10
398.4795374625584
 20
127.3558308172089
 30
0.0
 40
8.0
 41
233.6010130528989
 46
0.0
 71
     1
 72
     5
  1
{\fCalibri|b0|i0|c0|p34;The countertop meets the edge of the sink fitting flush with the wall of the bowl}
 73
     1
 44
1.0
1001
ACAD
1000
ACAD_MTEXT_COLUMN_INFO_BEGIN
1070
    75
1070
     2
1070
    79
1070
     0
1070
    76
1070
     1
1070
    78
1070
     0
1070
    48
1040
233.6010130528989
1070
    49
1040
12.5
1070
    50
1070
     1
1040
35.89923947831051
1000
ACAD_MTEXT_COLUMN_INFO_END
  0
MTEXT
  5
537
330
1F
100
AcDbEntity
  8
note
370
    -3
100
AcDbMText
 10
697.9593159663583
 20
128.3865591404449
 30
0.0
 40
8.0
 41
244.6985338073505
 46
0.0
 71
     1
 72
     5
  1
{\fCalibri|b0|i0|c0|p34;The countertop extends over the edge of the sink by approximately 1/8"}
 73
     1
 44
1.0
1001
ACAD
1000
ACAD_MTEXT_COLUMN_INFO_BEGIN
1070
    75
1070
     2
1070
    79
1070
     0
1070
    76
1070
     1
1070
    78
1070
     0
1070
    48
1040
244.6985338073505
1070
    49
1040
12.5
1070
    50
1070
     1
1040
30.24120512822353
1000
ACAD_MTEXT_COLUMN_INFO_END
  0
MTEXT
  5
538
330
1F
100
AcDbEntity
  8
note
370
    -3
100
AcDbMText
 10
990.1196361066988
 20
260.3063559878123
 30
0.0
 40
8.0
 41
237.1240077337111
 46
0.0
 71
     1
 72
     5
  1
{\fCalibri|b1|i0|c0|p34;3/8" Positive Reveal}
 73
     1
 44
1.0
1001
ACAD
1000
ACAD_MTEXT_COLUMN_INFO_BEGIN
1070
    75
1070
     2
1070
    79
1070
     0
1070
    76
1070
     1
1070
    78
1070
     0
1070
    48
1040
237.1240077337111
1070
    49
1040
12.5
1070
    50
1070
     1
1040
49.41104810070462
1000
ACAD_MTEXT_COLUMN_INFO_END
  0
LWPOLYLINE
  5
539
330
1F
100
AcDbEntity
  8
0
370
    -3
100
AcDbPolyline
 90
        4
 70
     1
 43
0.0
 10
976.6400365763358
 20
273.4769012014292
 10
1263.713928915223
 20
273.4769012014292
 10
1263.713928915223
 20
88.2322882272822
 10
976.6400365763358
 20
88.2322882272822
  0
MTEXT
  5
53A
330
1F
100
AcDbEntity
  8
note
370
    -3
100
AcDbMText
 10
392.4369381306176
 20
260.8588464230491
 30
0.0
 40
8.0
 41
233.6010130528989
 46
0.0
 71
     1
 72
     5
  1
{\fCalibri|b1|i0|c0|p34;Zero Reveal}
 73
     1
 44
1.0
1001
ACAD
1000
ACAD_MTEXT_COLUMN_INFO_BEGIN
1070
    75
1070
     2
1070
    79
1070
     0
1070
    76
1070
     1
1070
    78
1070
     0
1070
    48
1040
233.6010130528989
1070
    49
1040
12.5
1070
    50
1070
     1
1040
51.40105957113622
1000
ACAD_MTEXT_COLUMN_INFO_END
  0
LWPOLYLINE
  5
53B
330
1F
100
AcDbEntity
  8
0
370
    -3
100
AcDbPolyline
 90
        4
 70
     1
 43
0.0
 10
376.7043456327976
 20
273.4769012014292
 10
663.7782379716847
 20
273.4769012014292
 10
663.7782379716847
 20
88.2322882272822
 10
376.7043456327976
 20
88.2322882272822
  0
MTEXT
  5
53C
330
1F
100
AcDbEntity
  8
note
370
    -3
100
AcDbMText
 10
990.7560878207588
 20
127.319349144502
 30
0.0
 40
8.0
 41
237.1240077337111
 46
0.0
 71
     1
 72
     5
  1
{\fCalibri|b0|i0|c0|p34;The countertop edge sits approximately 3/8" back from the edge of the sink}
 73
     1
 44
1.0
1001
ACAD
1000
ACAD_MTEXT_COLUMN_INFO_BEGIN
1070
    75
1070
     2
1070
    79
1070
     0
1070
    76
1070
     1
1070
    78
1070
     0
1070
    48
1040
237.1240077337111
1070
    49
1040
12.5
1070
    50
1070
     1
1040
49.41104810070462
1000
ACAD_MTEXT_COLUMN_INFO_END
  0
LWPOLYLINE
  5
53D
330
1F
100
AcDbEntity
  8
0
370
    -3
100
AcDbPolyline
 90
        4
 70
     1
 43
0.0
 10
676.1841241365974
 20
273.4769012014292
 10
963.2580164754847
 20
273.4769012014292
 10
963.2580164754847
 20
88.2322882272822
 10
676.1841241365974
 20
88.2322882272822
  0
MTEXT
  5
53E
330
1F
100
AcDbEntity
  8
note
370
    -3
100
AcDbMText
 10
695.6336060289515
 20
258.6665653240473
 30
0.0
 40
8.0
 41
177.9117880023291
 46
0.0
 71
     1
 72
     5
  1
{\fCalibri|b1|i0|c0|p34;1/8" Negative Reveal}
 73
     1
 44
1.0
1001
ACAD
1000
ACAD_MTEXT_COLUMN_INFO_BEGIN
1070
    75
1070
     2
1070
    79
1070
     0
1070
    76
1070
     1
1070
    78
1070
     0
1070
    48
1040
177.9117880023291
1070
    49
1040
12.5
1070
    50
1070
     1
1040
24.69815819178072
1000
ACAD_MTEXT_COLUMN_INFO_END
  0
LWPOLYLINE
  5
6DD
102
{ACAD_REACTORS
330
7D0
330
884
102
}
330
1F
100
AcDbEntity
  8
0
 48
5.0
370
     5
100
AcDbPolyline
 90
       12
 70
     1
 43
0.0
 10
188.1995992241573
 20
770.3027428496179
 42
-0.0320436604554597
 10
196.3971256070253
 20
898.083231684707
 42
-0.3501950682675994
 10
277.0979079660265
 20
976.1748497115117
 42
-0.023822297783509
 10
353.1995992241591
 20
979.802742849618
 42
-0.023822297783509
 10
429.3012904822899
 20
976.1748497115117
 42
-0.3501950682675994
 10
510.0020728412927
 20
898.083231684707
 42
-0.0320436604554597
 10
518.1995992241573
 20
770.3027428496179
 42
-0.0320436604554597
 10
510.0020728412927
 20
642.5222540145289
 42
-0.3501950682675994
 10
429.3012904822899
 20
564.4306359877239
 42
-0.023822297783509
 10
353.1995992241591
 20
560.8027428496179
 42
-0.023822297783509
 10
277.0979079660265
 20
564.4306359877239
 42
-0.3501950682675994
 10
196.3971256070253
 20
642.5222540145289
 42
-0.0320436604554597
  0
LWPOLYLINE
  5
6DE
102
{ACAD_REACTORS
330
7B4
330
89E
102
}
330
1F
100
AcDbEntity
  8
0
  6
New Line1
 62
     3
 48
7.0
370
     5
100
AcDbPolyline
 90
       12
 70
     1
 43
0.0
 10
178.6745992241576
 20
770.3027428496179
 42
-0.0320436604554597
 10
186.9502070458202
 20
899.3003408408609
 42
-0.3501950682675993
 10
276.1918222044842
 20
985.6566551088363
 42
-0.023822297783509
 10
353.1995992241591
 20
989.3277428496176
 42
-0.023822297783509
 10
430.2073762438322
 20
985.6566551088363
 42
-0.3501950682675991
 10
519.4489914024943
 20
899.3003408408613
 42
-0.0320436604554598
 10
527.7245992241569
 20
770.3027428496179
 42
-0.0320436604554597
 10
519.4489914024943
 20
641.3051448583746
 42
-0.3501950682675993
 10
430.2073762438322
 20
554.9488305903995
 42
-0.023822297783509
 10
353.1995992241591
 20
551.2777428496179
 42
-0.023822297783509
 10
276.1918222044842
 20
554.9488305903995
 42
-0.3501950682675993
 10
186.9502070458202
 20
641.3051448583746
 42
-0.0320436604554597
  0
LWPOLYLINE
  5
6DF
102
{ACAD_REACTORS
330
7EC
330
86A
102
}
330
1F
100
AcDbEntity
  8
0
  6
New Line1
 62
    30
 48
4.0
370
     5
100
AcDbPolyline
 90
       12
 70
     1
 43
0.0
 10
191.3745992241565
 20
770.3027428496179
 42
-0.0320436604554597
 10
199.5460984607598
 20
897.6775286326555
 42
-0.3501950682675995
 10
277.3999365532072
 20
973.0142479124038
 42
-0.023822297783509
 10
353.1995992241591
 20
976.6277428496177
 42
-0.023822297783509
 10
428.9992618951073
 20
973.0142479124038
 42
-0.3501950682675994
 10
506.8530999875565
 20
897.6775286326555
 42
-0.0320436604554598
 10
515.024599224158
 20
770.3027428496179
 42
-0.0320436604554597
 10
506.8530999875565
 20
642.9279570665803
 42
-0.3501950682675994
 10
428.9992618951073
 20
567.5912377868321
 42
-0.023822297783509
 10
353.1995992241591
 20
563.9777428496179
 42
-0.023822297783509
 10
277.3999365532072
 20
567.5912377868319
 42
-0.3501950682675995
 10
199.5460984607598
 20
642.9279570665803
 42
-0.0320436604554597
  0
LINE
  5
6E0
102
{ACAD_REACTORS
330
86A
330
884
330
89E
102
}
330
1F
100
AcDbEntity
  8
centerline
  6
ACAD_ISO08W100
370
    -3
100
AcDbLine
 10
158.6745992241576
 20
770.3027428496179
 30
0.0
 11
547.7245992241569
 21
770.3027428496179
 31
0.0
  0
LINE
  5
6E1
102
{ACAD_REACTORS
330
7B4
330
7D0
330
7EC
102
}
330
1F
100
AcDbEntity
  8
centerline
  6
ACAD_ISO08W100
370
    -3
100
AcDbLine
 10
353.1995992241591
 20
531.2777428496182
 30
0.0
 11
353.1995992241591
 21
1009.327742849617
 31
0.0
  0
DIMENSION
  5
799
102
{ACAD_XDICTIONARY
360
7A8
102
}
102
{ACAD_REACTORS
330
7B4
102
}
330
1F
100
AcDbEntity
  8
dimensions
100
AcDbDimension
280
     0
  2
*D1
 10
748.5974638343788
 20
551.2777428496182
 30
0.0
 11
748.5974638343787
 21
770.3027428496181
 31
0.0
 70
   160
 71
     5
 42
438.0499999999995
 73
     0
 74
     0
 75
     0
  3
dimensions
100
AcDbAlignedDimension
 13
353.1995992241591
 23
989.3277428496176
 33
0.0
 14
353.1995992241606
 24
551.2777428496182
 34
0.0
 50
90.0
100
AcDbRotatedDimension
  0
DIMENSION
  5
7B5
102
{ACAD_XDICTIONARY
360
7C4
102
}
102
{ACAD_REACTORS
330
7D0
102
}
330
1F
100
AcDbEntity
  8
dimensions
100
AcDbDimension
280
     0
  2
*D2
 10
671.2139967907825
 20
560.8027428496178
 30
0.0
 11
671.2139967907823
 21
770.3027428496179
 31
0.0
 70
   160
 71
     5
 42
419.0000000000001
 73
     0
 74
     0
 75
     0
  3
dimensions
100
AcDbAlignedDimension
 13
353.1995992241592
 23
979.802742849618
 33
0.0
 14
353.1995992241592
 24
560.8027428496178
 34
0.0
 50
90.0
100
AcDbRotatedDimension
  0
DIMENSION
  5
7D1
102
{ACAD_XDICTIONARY
360
7E0
102
}
102
{ACAD_REACTORS
330
7EC
102
}
330
1F
100
AcDbEntity
  8
dimensions
100
AcDbDimension
280
     0
  2
*D3
 10
594.2604474615456
 20
563.977742849618
 30
0.0
 11
594.2604474615454
 21
770.3027428496179
 31
0.0
 70
   160
 71
     5
 42
412.6499999999996
 73
     0
 74
     0
 75
     0
  3
dimensions
100
AcDbAlignedDimension
 13
353.1995992241591
 23
976.6277428496177
 33
0.0
 14
353.1995992241592
 24
563.977742849618
 34
0.0
 50
90.0
100
AcDbRotatedDimension
  0
DIMENSION
  5
851
102
{ACAD_XDICTIONARY
360
85F
102
}
102
{ACAD_REACTORS
330
86A
102
}
330
1F
100
AcDbEntity
  8
dimensions
100
AcDbDimension
280
     0
  2
*D4
 10
515.024599224158
 20
506.687091064301
 30
0.0
 11
353.1995992241574
 21
506.687091064301
 31
0.0
 70
    32
 71
     5
 42
323.6500000000014
 73
     0
 74
     0
 75
     0
  3
dimensions
100
AcDbAlignedDimension
 13
191.3745992241566
 23
770.3027428496178
 33
0.0
 14
515.024599224158
 24
770.302742849614
 34
0.0
100
AcDbRotatedDimension
  0
DIMENSION
  5
86B
102
{ACAD_XDICTIONARY
360
879
102
}
102
{ACAD_REACTORS
330
884
102
}
330
1F
100
AcDbEntity
  8
dimensions
100
AcDbDimension
280
     0
  2
*D5
 10
518.1995992241573
 20
457.6131072528824
 30
0.0
 11
353.1995992241573
 21
457.6131072528824
 31
0.0
 70
   160
 71
     5
 42
330.0
 73
     0
 74
     0
 75
     0
  3
dimensions
100
AcDbAlignedDimension
 13
188.1995992241573
 23
770.3027428496178
 33
0.0
 14
518.1995992241573
 24
770.3027428496117
 34
0.0
100
AcDbRotatedDimension
  0
DIMENSION
  5
885
102
{ACAD_XDICTIONARY
360
893
102
}
102
{ACAD_REACTORS
330
89E
102
}
330
1F
100
AcDbEntity
  8
dimensions
100
AcDbDimension
280
     0
  2
*D6
 10
527.7245992241569
 20
414.4660520941856
 30
0.0
 11
353.1995992241573
 21
414.4660520941856
 31
0.0
 70
   160
 71
     5
 42
349.0499999999993
 73
     0
 74
     0
 75
     0
  3
dimensions
100
AcDbAlignedDimension
 13
178.6745992241576
 23
770.3027428496178
 33
0.0
 14
527.7245992241569
 24
770.3027428496165
 34
0.0
100
AcDbRotatedDimension
  0
ENDSEC
  0
SECTION
  2
OBJECTS
  0
DICTIONARY
  5
C
330
0
100
AcDbDictionary
281
     1
  3
ACAD_CIP_PREVIOUS_PRODUCT_INFO
350
216
  3
ACAD_COLOR
350
6B
  3
ACAD_DETAILVIEWSTYLE
350
21B
  3
ACAD_GROUP
350
D
  3
ACAD_LAYOUT
350
1A
  3
ACAD_MATERIAL
350
6A
  3
ACAD_MLEADERSTYLE
350
12D
  3
ACAD_MLINESTYLE
350
17
  3
ACAD_PLOTSETTINGS
350
19
  3
ACAD_PLOTSTYLENAME
350
E
  3
ACAD_SCALELIST
350
10C
  3
ACAD_SECTIONVIEWSTYLE
350
219
  3
ACAD_TABLESTYLE
350
7E
  3
ACAD_VISUALSTYLE
350
EF
  3
ACDB_RECOMPOSE_DATA
350
928
  3
AcDbVariableDictionary
350
5E
  3
AcDsDecomposeData
350
92E
  0
DICTIONARY
  5
1FF
330
2
100
AcDbDictionary
280
     1
281
     1
  3
ACAD_LAYERSTATES
360
200
  0
DICTIONARY
  5
13C
330
10
100
AcDbDictionary
280
     1
281
     1
  0
DICTIONARY
  5
1CE
330
1F
100
AcDbDictionary
280
     1
281
     1
  3
ACAD_SORTENTS
360
715
  0
DICTIONARY
  5
7A8
330
799
100
AcDbDictionary
280
     1
281
     1
  3
ACAD_DIMASSOC
360
7B4
  0
DICTIONARY
  5
7C4
330
7B5
100
AcDbDictionary
280
     1
281
     1
  3
ACAD_DIMASSOC
360
7D0
  0
DICTIONARY
  5
7E0
330
7D1
100
AcDbDictionary
280
     1
281
     1
  3
ACAD_DIMASSOC
360
7EC
  0
DICTIONARY
  5
85F
330
851
100
AcDbDictionary
280
     1
281
     1
  3
ACAD_DIMASSOC
360
86A
  0
DICTIONARY
  5
879
330
86B
100
AcDbDictionary
280
     1
281
     1
  3
ACAD_DIMASSOC
360
884
  0
DICTIONARY
  5
893
330
885
100
AcDbDictionary
280
     1
281
     1
  3
ACAD_DIMASSOC
360
89E
  0
XRECORD
  5
216
102
{ACAD_REACTORS
330
C
102
}
330
C
100
AcDbXrecord
280
     1
300
ACD
300
2014
300
ACD_F_S
  0
DICTIONARY
  5
6B
102
{ACAD_REACTORS
330
C
102
}
330
C
100
AcDbDictionary
281
     1
  0
DICTIONARY
  5
21B
102
{ACAD_REACTORS
330
C
102
}
330
C
100
AcDbDictionary
281
     1
  3
Metric50
350
21C
  0
DICTIONARY
  5
D
102
{ACAD_REACTORS
330
C
102
}
330
C
100
AcDbDictionary
281
     1
  0
DICTIONARY
  5
1A
102
{ACAD_REACTORS
330
C
102
}
330
C
100
AcDbDictionary
281
     1
  3
Model
350
22
  3
布局1
350
D3
  3
布局2
350
D7
  0
DICTIONARY
  5
6A
102
{ACAD_REACTORS
330
C
102
}
330
C
100
AcDbDictionary
281
     1
  3
ByBlock
350
ED
  3
ByLayer
350
EC
  3
Global
350
EE
  0
DICTIONARY
  5
12D
102
{ACAD_REACTORS
330
C
102
}
330
C
100
AcDbDictionary
281
     1
  3
Annotative
350
13B
  3
leader
350
2C7
  3
Standard
350
12E
  0
DICTIONARY
  5
17
102
{ACAD_REACTORS
330
C
102
}
330
C
100
AcDbDictionary
281
     1
  3
Standard
350
18
  0
DICTIONARY
  5
19
102
{ACAD_REACTORS
330
C
102
}
330
C
100
AcDbDictionary
281
     1
  0
ACDBDICTIONARYWDFLT
  5
E
102
{ACAD_REACTORS
330
C
102
}
330
C
100
AcDbDictionary
281
     1
  3
Normal
350
F
100
AcDbDictionaryWithDefault
340
F
  0
DICTIONARY
  5
10C
102
{ACAD_REACTORS
330
C
102
}
330
C
100
AcDbDictionary
281
     1
  3
A0
350
10D
  3
A1
350
1BE
  3
A2
350
1BF
  3
A3
350
1C0
  3
A4
350
1C1
  3
A5
350
1C2
  3
A6
350
1C3
  3
A7
350
1C4
  3
A8
350
1C5
  3
A9
350
1C6
  3
B0
350
1C7
  3
B1
350
1C8
  3
B2
350
1C9
  3
B3
350
1CA
  3
B4
350
1CB
  3
B5
350
1CC
  3
B6
350
1CD
  0
DICTIONARY
  5
219
102
{ACAD_REACTORS
330
C
102
}
330
C
100
AcDbDictionary
281
     1
  3
Metric50
350
21A
  0
DICTIONARY
  5
7E
102
{ACAD_REACTORS
330
C
102
}
330
C
100
AcDbDictionary
281
     1
  3
Standard
350
7F
  0
DICTIONARY
  5
EF
102
{ACAD_REACTORS
330
C
102
}
330
C
100
AcDbDictionary
281
     1
  3
2dWireframe
350
F5
  3
Basic
350
F4
  3
Brighten
350
FB
  3
ColorChange
350
FF
  3
Conceptual
350
F8
  3
Dim
350
FA
  3
EdgeColorOff
350
1E6
  3
Facepattern
350
FE
  3
Flat
350
F0
  3
FlatWithEdges
350
F1
  3
Gouraud
350
F2
  3
GouraudWithEdges
350
F3
  3
Hidden
350
F7
  3
JitterOff
350
1E4
  3
Linepattern
350
FD
  3
OverhangOff
350
1E5
  3
Realistic
350
F9
  3
Shaded
350
1F3
  3
Shaded with edges
350
1F2
  3
Shades of Gray
350
1EF
  3
Sketchy
350
1F0
  3
Thicken
350
FC
  3
Wireframe
350
F6
  3
X-Ray
350
1F1
  0
XRECORD
  5
928
102
{ACAD_REACTORS
330
C
102
}
330
C
100
AcDbXrecord
280
     1
 90
        1
330
7F
330
4A4
330
4A7
330
4A8
330
4B5
330
4B6
330
4B7
330
536
330
537
330
538
330
53A
330
53C
330
53E
  0
DICTIONARY
  5
5E
102
{ACAD_REACTORS
330
C
102
}
330
C
100
AcDbDictionary
281
     1
  3
CANNOSCALE
350
146
  3
CMLEADERSTYLE
350
145
  3
CTABLESTYLE
350
84
  3
CVIEWDETAILSTYLE
350
227
  3
CVIEWSECTIONSTYLE
350
228
  3
DIMASSOC
350
5F
  3
HIDETEXT
350
63
  3
LAYEREVAL
350
1AE
  3
LAYERNOTIFY
350
1AF
  0
DICTIONARY
  5
92E
102
{ACAD_REACTORS
330
C
102
}
330
C
100
AcDbDictionary
281
     1
  3
AcDsRecords
350
930
  3
AcDsSchemas
350
92F
1001
ACAD
1070
     2
  0
DICTIONARY
  5
200
102
{ACAD_REACTORS
330
1FF
102
}
330
1FF
100
AcDbDictionary
281
     1
  0
SORTENTSTABLE
  5
715
102
{ACAD_REACTORS
330
1CE
102
}
330
1CE
100
AcDbSortentsTable
330
1F
331
52C
  5
52C
331
45F
  5
45F
331
49E
  5
49E
331
4ED
  5
4ED
331
4E9
  5
4E9
331
424
  5
424
331
45B
  5
45B
331
49A
  5
49A
331
528
  5
528
331
496
  5
496
331
420
  5
420
331
457
  5
457
331
4E5
  5
4E5
331
524
  5
524
331
41C
  5
41C
331
453
  5
453
331
492
  5
492
331
4E1
  5
4E1
331
520
  5
520
331
418
  5
418
331
6DF
  5
6E0
331
51C
  5
51C
331
44F
  5
44F
331
48E
  5
48E
331
4DD
  5
4DD
331
4D9
  5
4D9
331
414
  5
414
331
44B
  5
44B
331
48A
  5
48A
331
518
  5
518
331
486
  5
486
331
410
  5
410
331
447
  5
447
331
4D5
  5
4D5
331
514
  5
514
331
482
  5
482
331
40C
  5
40C
331
443
  5
443
331
510
  5
510
331
50C
  5
50C
331
43F
  5
43F
331
47E
  5
47E
331
4B5
  5
4B5
331
4B1
  5
4B1
331
43B
  5
43B
331
47A
  5
47A
331
508
  5
508
331
504
  5
504
331
437
  5
437
331
476
  5
476
331
53B
  5
53B
331
472
  5
472
331
433
  5
433
331
4A9
  5
4A9
331
500
  5
500
331
4FC
  5
4FC
331
46E
  5
46E
331
4F8
  5
4F8
331
46A
  5
46A
331
537
  5
537
331
4A5
  5
4A5
331
42F
  5
42F
331
466
  5
466
331
4F4
  5
4F4
331
533
  5
533
331
42B
  5
42B
331
462
  5
462
331
4A1
  5
4A1
331
4F0
  5
4F0
331
52F
  5
52F
331
52B
  5
52B
331
427
  5
427
331
45E
  5
45E
331
49D
  5
49D
331
4EC
  5
4EC
331
4E8
  5
4E8
331
423
  5
423
331
45A
  5
45A
331
499
  5
499
331
527
  5
527
331
495
  5
495
331
41F
  5
41F
331
456
  5
456
331
4E4
  5
4E4
331
523
  5
523
331
41B
  5
41B
331
452
  5
452
331
491
  5
491
331
4E0
  5
4E0
331
51F
  5
51F
331
6DE
  5
6DE
331
51B
  5
51B
331
417
  5
417
331
44E
  5
44E
331
48D
  5
48D
331
4DC
  5
4DC
331
4D8
  5
4D8
331
413
  5
413
331
44A
  5
44A
331
489
  5
489
331
517
  5
517
331
485
  5
485
331
40F
  5
40F
331
446
  5
446
331
4D4
  5
4D4
331
513
  5
513
331
40B
  5
40B
331
442
  5
442
331
481
  5
481
331
50F
  5
50F
331
50B
  5
50B
331
43E
  5
43E
331
47D
  5
47D
331
4B0
  5
4B0
331
43A
  5
43A
331
479
  5
479
331
507
  5
507
331
53E
  5
53E
331
475
  5
475
331
436
  5
436
331
503
  5
503
331
53A
  5
53A
331
471
  5
471
331
432
  5
432
331
4A8
  5
4A8
331
4FF
  5
4FF
331
4FB
  5
4FB
331
46D
  5
46D
331
4F7
  5
4F7
331
469
  5
469
331
536
  5
536
331
4A4
  5
4A4
331
42E
  5
42E
331
465
  5
465
331
4F3
  5
4F3
331
532
  5
532
331
42A
  5
42A
331
461
  5
461
331
4A0
  5
4A0
331
52E
  5
52E
331
4EF
  5
4EF
331
4EB
  5
4EB
331
426
  5
426
331
45D
  5
45D
331
49C
  5
49C
331
52A
  5
52A
331
4E7
  5
4E7
331
422
  5
422
331
459
  5
459
331
498
  5
498
331
526
  5
526
331
494
  5
494
331
41E
  5
41E
331
455
  5
455
331
4E3
  5
4E3
331
522
  5
522
331
6E1
  5
714
331
41A
  5
41A
331
451
  5
451
331
490
  5
490
331
51E
  5
51E
331
4DF
  5
4DF
331
6DD
  5
6DD
331
51A
  5
51A
331
44D
  5
44D
331
48C
  5
48C
331
4DB
  5
4DB
331
416
  5
416
331
4D7
  5
4D7
331
449
  5
449
331
488
  5
488
331
516
  5
516
331
412
  5
412
331
484
  5
484
331
445
  5
445
331
4D3
  5
4D3
331
512
  5
512
331
40E
  5
40E
331
441
  5
441
331
480
  5
480
331
40A
  5
40A
331
4B7
  5
4B7
331
50E
  5
50E
331
50A
  5
50A
331
43D
  5
43D
331
47C
  5
47C
331
506
  5
506
331
439
  5
439
331
478
  5
478
331
53D
  5
53D
331
474
  5
474
331
435
  5
435
331
4AB
  5
4AB
331
502
  5
502
331
539
  5
539
331
431
  5
431
331
470
  5
470
331
4FE
  5
4FE
331
4FA
  5
4FA
331
46C
  5
46C
331
4A7
  5
4A7
331
468
  5
468
331
4F6
  5
4F6
331
535
  5
535
331
464
  5
464
331
4A3
  5
4A3
331
4F2
  5
4F2
331
531
  5
531
331
42D
  5
42D
331
460
  5
460
331
429
  5
429
331
52D
  5
52D
331
49F
  5
49F
331
4EE
  5
4EE
331
4EA
  5
4EA
331
45C
  5
45C
331
49B
  5
49B
331
529
  5
529
331
425
  5
425
331
497
  5
497
331
458
  5
458
331
4E6
  5
4E6
331
525
  5
525
331
421
  5
421
331
493
  5
493
331
454
  5
454
331
4E2
  5
4E2
331
521
  5
521
331
6E0
  5
6E1
331
41D
  5
41D
331
450
  5
450
331
419
  5
419
331
51D
  5
51D
331
48F
  5
48F
331
4DE
  5
4DE
331
4DA
  5
4DA
331
415
  5
415
331
44C
  5
44C
331
48B
  5
48B
331
519
  5
519
331
4D6
  5
4D6
331
411
  5
411
331
448
  5
448
331
487
  5
487
331
515
  5
515
331
483
  5
483
331
40D
  5
40D
331
444
  5
444
331
511
  5
511
331
440
  5
440
331
50D
  5
50D
331
47F
  5
47F
331
4B6
  5
4B6
331
509
  5
509
331
43C
  5
43C
331
47B
  5
47B
331
4B2
  5
4B2
331
53C
  5
53C
331
505
  5
505
331
438
  5
438
331
477
  5
477
331
538
  5
538
331
473
  5
473
331
434
  5
434
331
4AA
  5
4AA
331
501
  5
501
331
430
  5
430
331
46F
  5
46F
331
4FD
  5
4FD
331
4F9
  5
4F9
331
46B
  5
46B
331
4A6
  5
4A6
331
467
  5
467
331
4F5
  5
4F5
331
534
  5
534
331
42C
  5
42C
331
463
  5
463
331
4A2
  5
4A2
331
4F1
  5
4F1
331
530
  5
530
331
428
  5
428
  0
DIMASSOC
  5
7B4
102
{ACAD_REACTORS
330
7A8
102
}
330
7A8
100
AcDbDimAssoc
330
799
 90
        3
 70
     0
 71
     0
  1
AcDbOsnapPointRef
 72
     6
331
6E1
 73
     2
 91
        0
 40
0.9581633720322141
 10
0.0
 20
0.0
 30
0.0
332
6DE
 74
     2
 92
        4
 75
     0
  1
AcDbOsnapPointRef
 72
     8
331
6DE
 73
     2
 91
        9
 40
4.712388980384693
 10
0.0
 20
0.0
 30
0.0
 75
     1
  1
AcDbOsnapPointRef
 72
     6
331
6E1
 73
     2
 91
        0
 40
0.9581633720322141
 10
0.0
 20
0.0
 30
0.0
332
6DE
 74
     2
 92
        4
 75
     0
  0
DIMASSOC
  5
7D0
102
{ACAD_REACTORS
330
7C4
102
}
330
7C4
100
AcDbDimAssoc
330
7B5
 90
        3
 70
     0
 71
     0
  1
AcDbOsnapPointRef
 72
     1
331
6DD
 73
     2
 91
        3
 40
1.570796326794899
 10
0.0
 20
0.0
 30
2.000000000000000E+50
 75
     0
  1
AcDbOsnapPointRef
 72
     6
331
6E1
 73
     2
 91
        0
 40
0.0617613220374431
 10
0.0
 20
0.0
 30
0.0
332
6DD
 74
     2
 92
        9
 75
     0
  0
DIMASSOC
  5
7EC
102
{ACAD_REACTORS
330
7E0
102
}
330
7E0
100
AcDbDimAssoc
330
7D1
 90
        3
 70
     0
 71
     0
  1
AcDbOsnapPointRef
 72
     6
331
6E1
 73
     2
 91
        0
 40
0.9315971132726701
 10
0.0
 20
0.0
 30
0.0
332
6DF
 74
     2
 92
        4
 75
     0
  1
AcDbOsnapPointRef
 72
     6
331
6E1
 73
     2
 91
        0
 40
0.0684028867273295
 10
0.0
 20
0.0
 30
0.0
332
6DF
 74
     2
 92
       10
 75
     0
  0
DIMASSOC
  5
86A
102
{ACAD_REACTORS
330
85F
102
}
330
85F
100
AcDbDimAssoc
330
851
 90
        3
 70
     0
 71
     0
  1
AcDbOsnapPointRef
 72
     6
331
6E0
 73
     2
 91
        0
 40
0.0840508932013857
 10
0.0
 20
0.0
 30
0.0
332
6DF
 74
     2
 92
       12
 75
     0
  1
AcDbOsnapPointRef
 72
     8
331
6DF
 73
     2
 91
        7
 40
6.283185307179574
 10
0.0
 20
0.0
 30
0.0
 75
     1
  1
AcDbOsnapPointRef
 72
     6
331
6E0
 73
     2
 91
        0
 40
0.0840508932013857
 10
0.0
 20
0.0
 30
0.0
332
6DF
 74
     2
 92
       12
 75
     0
  0
DIMASSOC
  5
884
102
{ACAD_REACTORS
330
879
102
}
330
879
100
AcDbDimAssoc
330
86B
 90
        3
 70
     0
 71
     0
  1
AcDbOsnapPointRef
 72
     6
331
6E0
 73
     2
 91
        0
 40
0.0758899884333625
 10
0.0
 20
0.0
 30
0.0
332
6DD
 74
     2
 92
        1
 75
     0
  1
AcDbOsnapPointRef
 72
     8
331
6DD
 73
     2
 91
        6
 40
6.283185307179568
 10
0.0
 20
0.0
 30
0.0
 75
     1
  1
AcDbOsnapPointRef
 72
     6
331
6E0
 73
     2
 91
        0
 40
0.0758899884333625
 10
0.0
 20
0.0
 30
0.0
332
6DD
 74
     2
 92
        1
 75
     0
  0
DIMASSOC
  5
89E
102
{ACAD_REACTORS
330
893
102
}
330
893
100
AcDbDimAssoc
330
885
 90
        3
 70
     0
 71
     0
  1
AcDbOsnapPointRef
 72
     6
331
6E0
 73
     2
 91
        0
 40
0.0514072741292894
 10
0.0
 20
0.0
 30
0.0
332
6DE
 74
     2
 92
        1
 75
     0
  1
AcDbOsnapPointRef
 72
     8
331
6DE
 73
     2
 91
        6
 40
6.283185307179582
 10
0.0
 20
0.0
 30
0.0
 75
     1
  1
AcDbOsnapPointRef
 72
     6
331
6E0
 73
     2
 91
        0
 40
0.0514072741292894
 10
0.0
 20
0.0
 30
0.0
332
6DE
 74
     2
 92
        1
 75
     0
  0
ACDBDETAILVIEWSTYLE
  5
21C
102
{ACAD_XDICTIONARY
360
236
102
}
102
{ACAD_REACTORS
330
21B
102
}
330
21B
100
AcDbModelDocViewStyle
 70
     0
  3
Metric50
290
     0
100
AcDbDetailViewStyle
 70
     0
 71
     0
 90
        3
 71
     1
340
11
 62
   256
 40
5.0
340
0
 62
   256
 40
5.0
300

 40
0.0
280
     1
 71
     2
340
16
 90
       25
 62
   256
 71
     3
340
11
 62
   256
 40
5.0
 90
        0
 40
15.0
 90
        1
300
%<\AcVar ViewDetailId>% (%<\AcVar ViewScale \f "%sn">%)
 71
     4
340
16
 90
       25
 62
   256
340
16
 90
       25
 62
   256
280
     0
  0
LAYOUT
  5
22
102
{ACAD_XDICTIONARY
360
205
102
}
102
{ACAD_REACTORS
330
1A
102
}
330
1A
100
AcDbPlotSettings
  1

  2
none_device
  4
ISO_A4_(210.00_x_297.00_MM)
  6

 40
7.5
 41
20.0
 42
7.5
 43
20.0
 44
210.0
 45
297.0
 46
11.54999923706054
 47
-13.65000009536743
 48
0.0
 49
0.0
140
0.0
141
0.0
142
1.0
143
8.704084754739808
 70
 11952
 72
     1
 73
     0
 74
     0
  7

 75
     0
147
0.1148885871608098
 76
     0
 77
     2
 78
   300
148
0.0
149
0.0
100
AcDbLayout
  1
Model
 70
     1
 71
     0
 10
0.0
 20
0.0
 11
12.0
 21
9.0
 12
0.0
 22
0.0
 32
0.0
 14
0.0
 24
0.0
 34
0.0
 15
0.0
 25
0.0
 35
0.0
146
0.0
 13
0.0
 23
0.0
 33
0.0
 16
1.0
 26
0.0
 36
0.0
 17
0.0
 27
1.0
 37
0.0
 76
     0
330
1F
331
EA
1001
ACAD_PSEXT
1000
None
1000
None
1000
Not applicable
1000
The layout will not be plotted unless a new plotter configuration name is selected.
1070
     0
  0
LAYOUT
  5
D3
102
{ACAD_REACTORS
330
1A
102
}
330
1A
100
AcDbPlotSettings
  1

  2
C:\Documents and Settings\basas\Application Data\Autodesk\AutoCAD 2005\R16.1\enu\plotters\Default Windows System Printer.pc3
  4

  6

 40
0.0
 41
0.0
 42
0.0
 43
0.0
 44
0.0
 45
0.0
 46
0.0
 47
0.0
 48
0.0
 49
0.0
140
0.0
141
0.0
142
1.0
143
1.0
 70
   688
 72
     0
 73
     0
 74
     5
  7

 75
    16
147
1.0
 76
     0
 77
     2
 78
   300
148
0.0
149
0.0
100
AcDbLayout
  1
布局1
 70
     1
 71
     1
 10
0.0
 20
0.0
 11
12.0
 21
9.0
 12
0.0
 22
0.0
 32
0.0
 14
0.0
 24
0.0
 34
0.0
 15
0.0
 25
0.0
 35
0.0
146
0.0
 13
0.0
 23
0.0
 33
0.0
 16
1.0
 26
0.0
 36
0.0
 17
0.0
 27
1.0
 37
0.0
 76
     0
330
D2
  0
LAYOUT
  5
D7
102
{ACAD_REACTORS
330
1A
102
}
330
1A
100
AcDbPlotSettings
  1

  2
C:\Documents and Settings\basas\Application Data\Autodesk\AutoCAD 2005\R16.1\enu\plotters\Default Windows System Printer.pc3
  4

  6

 40
0.0
 41
0.0
 42
0.0
 43
0.0
 44
0.0
 45
0.0
 46
0.0
 47
0.0
 48
0.0
 49
0.0
140
0.0
141
0.0
142
1.0
143
1.0
 70
   688
 72
     0
 73
     0
 74
     5
  7

 75
    16
147
1.0
 76
     0
 77
     2
 78
   300
148
0.0
149
0.0
100
AcDbLayout
  1
布局2
 70
     1
 71
     2
 10
0.0
 20
0.0
 11
12.0
 21
9.0
 12
0.0
 22
0.0
 32
0.0
 14
0.0
 24
0.0
 34
0.0
 15
0.0
 25
0.0
 35
0.0
146
0.0
 13
0.0
 23
0.0
 33
0.0
 16
1.0
 26
0.0
 36
0.0
 17
0.0
 27
1.0
 37
0.0
 76
     0
330
D6
  0
MATERIAL
  5
ED
102
{ACAD_XDICTIONARY
360
1F9
102
}
102
{ACAD_REACTORS
330
6A
102
}
330
6A
100
AcDbMaterial
  1
ByBlock
 94
       63
  0
MATERIAL
  5
EC
102
{ACAD_XDICTIONARY
360
1F7
102
}
102
{ACAD_REACTORS
330
6A
102
}
330
6A
100
AcDbMaterial
  1
ByLayer
 94
       63
  0
MATERIAL
  5
EE
102
{ACAD_XDICTIONARY
360
173
102
}
102
{ACAD_REACTORS
330
6A
102
}
330
6A
100
AcDbMaterial
  1
Global
 43
0.0007999999797903
 43
0.0
 43
0.0
 43
0.0
 43
0.0
 43
0.0007999999797903
 43
0.0
 43
0.0
 43
0.0
 43
0.0
 43
1.0
 43
0.0
 43
0.0
 43
0.0
 43
0.0
 43
1.0
 49
0.0007999999797903
 49
0.0
 49
0.0
 49
0.0
 49
0.0
 49
0.0007999999797903
 49
0.0
 49
0.0
 49
0.0
 49
0.0
 49
1.0
 49
0.0
 49
0.0
 49
0.0
 49
0.0
 49
1.0
142
0.0007999999797903
142
0.0
142
0.0
142
0.0
142
0.0
142
0.0007999999797903
142
0.0
142
0.0
142
0.0
142
0.0
142
1.0
142
0.0
142
0.0
142
0.0
142
0.0
142
1.0
144
0.0007999999797903
144
0.0
144
0.0
144
0.0
144
0.0
144
0.0007999999797903
144
0.0
144
0.0
144
0.0
144
0.0
144
1.0
144
0.0
144
0.0
144
0.0
144
0.0
144
1.0
 94
       63
1001
ACAD
1070
    -1
1070
     3
1070
     0
1000

1071
        0
1070
     0
  0
MLEADERSTYLE
  5
13B
102
{ACAD_REACTORS
330
12D
102
}
330
12D
100
AcDbMLeaderStyle
179
     2
170
     2
171
     1
172
     0
 90
        2
 40
0.0
 41
0.0
173
     1
 91
-1056964608
340
14
 92
       -2
290
     1
 42
2.0
291
     1
 43
8.0
  3
Standard
 44
4.0
300

342
11
174
     1
178
     1
175
     1
176
     0
 93
-1056964608
 45
4.0
292
     0
297
     0
 46
4.0
 94
-1056964608
 47
1.0
 49
1.0
140
1.0
293
     1
141
0.0
294
     1
177
     0
142
1.0
295
     0
296
     1
143
3.75
271
     0
272
     9
273
     9
  0
MLEADERSTYLE
  5
2C7
102
{ACAD_REACTORS
330
12D
330
4B0
330
4B1
330
4B2
102
}
330
12D
100
AcDbMLeaderStyle
179
     2
170
     2
171
     1
172
     0
 90
        2
 40
0.0
 41
0.0
173
     1
 91
-1023410174
340
14
 92
        5
290
     1
 42
2.0
291
     1
 43
8.0
  3
Standard
 44
10.0
300

342
11
174
     1
178
     1
175
     1
176
     0
 93
-1056964608
 45
4.0
292
     0
297
     0
 46
4.0
 94
-1056964608
 47
1.0
 49
1.0
140
1.0
293
     1
141
0.0
294
     1
177
     0
142
1.0
295
     0
296
     0
143
3.75
271
     0
272
     9
273
     9
  0
MLEADERSTYLE
  5
12E
102
{ACAD_REACTORS
330
12D
102
}
330
12D
100
AcDbMLeaderStyle
179
     2
170
     2
171
     1
172
     0
 90
        2
 40
0.0
 41
0.0
173
     1
 91
-1056964608
340
14
 92
       -2
290
     1
 42
2.0
291
     1
 43
8.0
  3
Standard
 44
4.0
300

342
11
174
     1
178
     1
175
     1
176
     0
 93
-1056964608
 45
4.0
292
     0
297
     0
 46
4.0
 94
-1056964608
 47
1.0
 49
1.0
140
1.0
293
     1
141
0.0
294
     1
177
     0
142
1.0
295
     0
296
     0
143
3.75
271
     0
272
     9
273
     9
  0
MLINESTYLE
  5
18
102
{ACAD_REACTORS
330
17
102
}
330
17
100
AcDbMlineStyle
  2
STANDARD
 70
     0
  3

 62
   256
 51
90.0
 52
90.0
 71
     2
 49
0.5
 62
   256
  6
BYLAYER
 49
-0.5
 62
   256
  6
BYLAYER
  0
ACDBPLACEHOLDER
  5
F
102
{ACAD_REACTORS
330
E
102
}
330
E
  0
SCALE
  5
10D
102
{ACAD_REACTORS
330
10C
102
}
330
10C
100
AcDbScale
 70
     0
300
1:1
140
1.0
141
1.0
290
     1
  0
SCALE
  5
1BE
102
{ACAD_REACTORS
330
10C
102
}
330
10C
100
AcDbScale
 70
     0
300
1:2
140
1.0
141
2.0
290
     0
  0
SCALE
  5
1BF
102
{ACAD_REACTORS
330
10C
102
}
330
10C
100
AcDbScale
 70
     0
300
1:4
140
1.0
141
4.0
290
     0
  0
SCALE
  5
1C0
102
{ACAD_REACTORS
330
10C
102
}
330
10C
100
AcDbScale
 70
     0
300
1:5
140
1.0
141
5.0
290
     0
  0
SCALE
  5
1C1
102
{ACAD_REACTORS
330
10C
102
}
330
10C
100
AcDbScale
 70
     0
300
1:8
140
1.0
141
8.0
290
     0
  0
SCALE
  5
1C2
102
{ACAD_REACTORS
330
10C
102
}
330
10C
100
AcDbScale
 70
     0
300
1:10
140
1.0
141
10.0
290
     0
  0
SCALE
  5
1C3
102
{ACAD_REACTORS
330
10C
102
}
330
10C
100
AcDbScale
 70
     0
300
1:16
140
1.0
141
16.0
290
     0
  0
SCALE
  5
1C4
102
{ACAD_REACTORS
330
10C
102
}
330
10C
100
AcDbScale
 70
     0
300
1:20
140
1.0
141
20.0
290
     0
  0
SCALE
  5
1C5
102
{ACAD_REACTORS
330
10C
102
}
330
10C
100
AcDbScale
 70
     0
300
1:30
140
1.0
141
30.0
290
     0
  0
SCALE
  5
1C6
102
{ACAD_REACTORS
330
10C
102
}
330
10C
100
AcDbScale
 70
     0
300
1:40
140
1.0
141
40.0
290
     0
  0
SCALE
  5
1C7
102
{ACAD_REACTORS
330
10C
102
}
330
10C
100
AcDbScale
 70
     0
300
1:50
140
1.0
141
50.0
290
     0
  0
SCALE
  5
1C8
102
{ACAD_REACTORS
330
10C
102
}
330
10C
100
AcDbScale
 70
     0
300
1:100
140
1.0
141
100.0
290
     0
  0
SCALE
  5
1C9
102
{ACAD_REACTORS
330
10C
102
}
330
10C
100
AcDbScale
 70
     0
300
2:1
140
2.0
141
1.0
290
     0
  0
SCALE
  5
1CA
102
{ACAD_REACTORS
330
10C
102
}
330
10C
100
AcDbScale
 70
     0
300
4:1
140
4.0
141
1.0
290
     0
  0
SCALE
  5
1CB
102
{ACAD_REACTORS
330
10C
102
}
330
10C
100
AcDbScale
 70
     0
300
8:1
140
8.0
141
1.0
290
     0
  0
SCALE
  5
1CC
102
{ACAD_REACTORS
330
10C
102
}
330
10C
100
AcDbScale
 70
     0
300
10:1
140
10.0
141
1.0
290
     0
  0
SCALE
  5
1CD
102
{ACAD_REACTORS
330
10C
102
}
330
10C
100
AcDbScale
 70
     0
300
100:1
140
100.0
141
1.0
290
     0
  0
ACDBSECTIONVIEWSTYLE
  5
21A
102
{ACAD_XDICTIONARY
360
234
102
}
102
{ACAD_REACTORS
330
219
102
}
330
219
100
AcDbModelDocViewStyle
 70
     0
  3
Metric50
290
     0
100
AcDbSectionViewStyle
 70
     0
 71
     0
 90
      102
 71
     1
340
11
 62
   256
 40
5.0
340
0
340
0
 62
   256
 40
5.0
300
I, O, Q, S, X, Z
 40
10.0
 90
        0
 40
2.5
 90
        0
 71
     2
340
16
 90
       25
 62
   256
340
16
 90
       50
 62
   256
 40
5.0
 40
2.5
 40
5.0
 71
     3
340
11
 62
   256
 40
5.0
 90
        0
 40
15.0
 90
        1
300
%<\AcVar ViewSectionStartId>%-%<\AcVar ViewSectionEndId>% (%<\AcVar ViewScale \f "%sn">%)
 71
     4
 62
   256
 62
   257
300
ANSI31
 40
1.0
 90
        0
290
     0
290
     0
 90
        6
 40
0.0
 40
1.570796326794896
 40
0.2617993877991494
 40
1.308996938995747
 40
-0.2617993877991494
 40
1.832595714594046
  0
TABLESTYLE
  5
7F
102
{ACAD_XDICTIONARY
360
162
102
}
102
{ACAD_REACTORS
330
7E
102
}
330
7E
100
AcDbTableStyle
280
     0
  3
Standard
 70
     0
 71
     0
 40
1.5
 41
1.5
280
     0
281
     0
  7
Standard
140
4.5
170
     2
 62
     0
 63
     7
283
     0
 90
      512
 91
        0
  1

274
    -2
284
     1
 64
     0
275
    -2
285
     1
 65
     0
276
    -2
286
     1
 66
     0
277
    -2
287
     1
 67
     0
278
    -2
288
     1
 68
     0
279
    -2
289
     1
 69
     0
  7
Standard
140
6.0
170
     5
 62
     0
 63
     7
283
     0
 90
      512
 91
        0
  1

274
    -2
284
     1
 64
     0
275
    -2
285
     1
 65
     0
276
    -2
286
     1
 66
     0
277
    -2
287
     1
 67
     0
278
    -2
288
     1
 68
     0
279
    -2
289
     1
 69
     0
  7
Standard
140
4.5
170
     5
 62
     0
 63
     7
283
     0
 90
      512
 91
        0
  1

274
    -2
284
     1
 64
     0
275
    -2
285
     1
 65
     0
276
    -2
286
     1
 66
     0
277
    -2
287
     1
 67
     0
278
    -2
288
     1
 68
     0
279
    -2
289
     1
 69
     0
  0
VISUALSTYLE
  5
F5
102
{ACAD_XDICTIONARY
360
93B
102
}
102
{ACAD_REACTORS
330
EF
102
}
330
EF
100
AcDbVisualStyle
  2
2dWireframe
 70
     4
177
     2
291
     0
 71
     0
176
     1
 72
     2
176
     1
 73
     1
176
     1
 90
        0
176
     1
 40
0.6
176
     1
 41
30.0
176
     1
 63
     7
421
 16777215
176
     1
 74
     1
176
     1
 91
        4
176
     1
 64
     7
176
     1
 65
   257
176
     1
 75
     1
176
     1
175
     1
176
     1
 42
1.0
176
     1
 92
        0
176
     1
 66
   257
176
     1
 43
1.0
176
     1
 76
     1
176
     1
 77
     6
176
     1
 78
     2
176
     1
 67
     7
176
     1
 79
     5
176
     1
170
     0
176
     1
171
     0
176
     1
290
     0
176
     1
 93
        1
176
     1
 44
0.0
176
     1
173
     0
176
     1
1001
ACAD
1000
AcDbSavedByObjectVersion
1070
     0
  0
VISUALSTYLE
  5
F4
102
{ACAD_XDICTIONARY
360
939
102
}
102
{ACAD_REACTORS
330
EF
102
}
330
EF
100
AcDbVisualStyle
  2
Basic
 70
     7
177
     2
291
     1
 71
     1
176
     1
 72
     0
176
     1
 73
     1
176
     1
 90
        0
176
     1
 40
0.6
176
     1
 41
30.0
176
     1
 63
     7
421
 16777215
176
     1
 74
     0
176
     1
 91
        4
176
     1
 64
     7
176
     1
 65
   257
176
     1
 75
     1
176
     1
175
     1
176
     1
 42
1.0
176
     1
 92
        8
176
     1
 66
     7
176
     1
 43
1.0
176
     1
 76
     1
176
     1
 77
     6
176
     1
 78
     2
176
     1
 67
     7
176
     1
 79
     5
176
     1
170
     0
176
     1
171
     0
176
     1
290
     0
176
     1
 93
        1
176
     1
 44
0.0
176
     1
173
     0
176
     1
1001
ACAD
1000
AcDbSavedByObjectVersion
1070
     0
  0
VISUALSTYLE
  5
FB
102
{ACAD_XDICTIONARY
360
947
102
}
102
{ACAD_REACTORS
330
EF
102
}
330
EF
100
AcDbVisualStyle
  2
Brighten
 70
    12
177
     2
291
     1
 71
     2
176
     1
 72
     2
176
     1
 73
     1
176
     1
 90
        0
176
     1
 40
0.6
176
     1
 41
30.0
176
     1
 63
     7
421
 16777215
176
     1
 74
     1
176
     1
 91
        4
176
     1
 64
     7
176
     1
 65
   257
176
     1
 75
     1
176
     1
175
     1
176
     1
 42
1.0
176
     1
 92
        8
176
     1
 66
     7
176
     1
 43
1.0
176
     1
 76
     1
176
     1
 77
     6
176
     1
 78
     2
176
     1
 67
     7
176
     1
 79
     5
176
     1
170
     0
176
     1
171
     0
176
     1
290
     0
176
     1
 93
        1
176
     1
 44
50.0
176
     1
173
     0
176
     1
1001
ACAD
1000
AcDbSavedByObjectVersion
1070
     0
  0
VISUALSTYLE
  5
FF
102
{ACAD_XDICTIONARY
360
94F
102
}
102
{ACAD_REACTORS
330
EF
102
}
330
EF
100
AcDbVisualStyle
  2
ColorChange
 70
    16
177
     2
291
     1
 71
     2
176
     1
 72
     2
176
     1
 73
     3
176
     1
 90
        0
176
     1
 40
0.6
176
     1
 41
30.0
176
     1
 63
     8
421
  8421504
176
     1
 74
     1
176
     1
 91
        4
176
     1
 64
     7
176
     1
 65
   257
176
     1
 75
     1
176
     1
175
     1
176
     1
 42
1.0
176
     1
 92
        8
176
     1
 66
     8
424
  8421504
176
     1
 43
1.0
176
     1
 76
     1
176
     1
 77
     6
176
     1
 78
     2
176
     1
 67
     7
176
     1
 79
     5
176
     1
170
     0
176
     1
171
     0
176
     1
290
     0
176
     1
 93
        1
176
     1
 44
0.0
176
     1
173
     0
176
     1
1001
ACAD
1000
AcDbSavedByObjectVersion
1070
     0
  0
VISUALSTYLE
  5
F8
102
{ACAD_XDICTIONARY
360
941
102
}
102
{ACAD_REACTORS
330
EF
102
}
330
EF
100
AcDbVisualStyle
  2
Conceptual
 70
     9
177
     2
291
     0
 71
     3
176
     1
 72
     2
176
     1
 73
     1
176
     1
 90
        0
176
     1
 40
0.6
176
     1
 41
30.0
176
     1
 63
     7
421
 16777215
176
     1
 74
     2
176
     1
 91
        2
176
     1
 64
     7
176
     1
 65
   257
176
     1
 75
     1
176
     1
175
     1
176
     1
 42
40.0
176
     1
 92
        8
176
     1
 66
     7
176
     1
 43
1.0
176
     1
 76
     1
176
     1
 77
     6
176
     1
 78
     2
176
     1
 67
     7
176
     1
 79
     3
176
     1
170
     0
176
     1
171
     0
176
     1
290
     0
176
     1
 93
        1
176
     1
 44
0.0
176
     1
173
     0
176
     1
1001
ACAD
1000
AcDbSavedByObjectVersion
1070
     0
  0
VISUALSTYLE
  5
FA
102
{ACAD_XDICTIONARY
360
945
102
}
102
{ACAD_REACTORS
330
EF
102
}
330
EF
100
AcDbVisualStyle
  2
Dim
 70
    11
177
     2
291
     1
 71
     2
176
     1
 72
     2
176
     1
 73
     1
176
     1
 90
        0
176
     1
 40
0.6
176
     1
 41
30.0
176
     1
 63
     7
421
 16777215
176
     1
 74
     1
176
     1
 91
        4
176
     1
 64
     7
176
     1
 65
   257
176
     1
 75
     1
176
     1
175
     1
176
     1
 42
1.0
176
     1
 92
        8
176
     1
 66
     7
176
     1
 43
1.0
176
     1
 76
     1
176
     1
 77
     6
176
     1
 78
     2
176
     1
 67
     7
176
     1
 79
     5
176
     1
170
     0
176
     1
171
     0
176
     1
290
     0
176
     1
 93
        1
176
     1
 44
-50.0
176
     1
173
     0
176
     1
1001
ACAD
1000
AcDbSavedByObjectVersion
1070
     0
  0
VISUALSTYLE
  5
1E6
102
{ACAD_XDICTIONARY
360
955
102
}
102
{ACAD_REACTORS
330
EF
102
}
330
EF
100
AcDbVisualStyle
  2
EdgeColorOff
 70
    22
177
     2
291
     1
 71
     2
176
     0
 72
     2
176
     0
 73
     0
176
     0
 90
        0
176
     0
 40
0.6
176
     0
 41
30.0
176
     0
 63
     7
421
 16777215
176
     0
 74
     1
176
     0
 91
        4
176
     0
 64
     7
176
     0
 65
   257
176
     0
 75
     1
176
     0
175
     1
176
     0
 42
1.0
176
     0
 92
        8
176
     2
 66
     7
176
     0
 43
1.0
176
     0
 76
     1
176
     0
 77
     6
176
     0
 78
     2
176
     0
 67
     7
176
     0
 79
     5
176
     0
170
     0
176
     0
171
     0
176
     0
290
     0
176
     0
 93
        1
176
     0
 44
0.0
176
     0
173
     0
176
     0
1001
ACAD
1000
AcDbSavedByObjectVersion
1070
     0
  0
VISUALSTYLE
  5
FE
102
{ACAD_XDICTIONARY
360
94D
102
}
102
{ACAD_REACTORS
330
EF
102
}
330
EF
100
AcDbVisualStyle
  2
Facepattern
 70
    15
177
     2
291
     1
 71
     2
176
     1
 72
     2
176
     1
 73
     1
176
     1
 90
        0
176
     1
 40
0.6
176
     1
 41
30.0
176
     1
 63
     7
421
 16777215
176
     1
 74
     1
176
     1
 91
        4
176
     1
 64
     7
176
     1
 65
   257
176
     1
 75
     1
176
     1
175
     1
176
     1
 42
1.0
176
     1
 92
        8
176
     1
 66
     7
176
     1
 43
1.0
176
     1
 76
     1
176
     1
 77
     6
176
     1
 78
     2
176
     1
 67
     7
176
     1
 79
     5
176
     1
170
     0
176
     1
171
     0
176
     1
290
     0
176
     1
 93
        1
176
     1
 44
0.0
176
     1
173
     0
176
     1
1001
ACAD
1000
AcDbSavedByObjectVersion
1070
     0
  0
VISUALSTYLE
  5
F0
102
{ACAD_XDICTIONARY
360
931
102
}
102
{ACAD_REACTORS
330
EF
102
}
330
EF
100
AcDbVisualStyle
  2
Flat
 70
     0
177
     2
291
     1
 71
     2
176
     1
 72
     1
176
     1
 73
     1
176
     1
 90
        2
176
     1
 40
0.6
176
     1
 41
30.0
176
     1
 63
     7
421
 16777215
176
     1
 74
     0
176
     1
 91
        0
176
     1
 64
     7
176
     1
 65
   257
176
     1
 75
     1
176
     1
175
     1
176
     1
 42
1.0
176
     1
 92
        8
176
     1
 66
     7
176
     1
 43
1.0
176
     1
 76
     1
176
     1
 77
     6
176
     1
 78
     2
176
     1
 67
     7
176
     1
 79
     5
176
     1
170
     0
176
     1
171
     0
176
     1
290
     0
176
     1
 93
       13
176
     1
 44
0.0
176
     1
173
     0
176
     1
1001
ACAD
1000
AcDbSavedByObjectVersion
1070
     0
  0
VISUALSTYLE
  5
F1
102
{ACAD_XDICTIONARY
360
933
102
}
102
{ACAD_REACTORS
330
EF
102
}
330
EF
100
AcDbVisualStyle
  2
FlatWithEdges
 70
     1
177
     2
291
     1
 71
     2
176
     1
 72
     1
176
     1
 73
     1
176
     1
 90
        2
176
     1
 40
0.6
176
     1
 41
30.0
176
     1
 63
     7
421
 16777215
176
     1
 74
     1
176
     1
 91
        0
176
     1
 64
     7
176
     1
 65
   257
176
     1
 75
     1
176
     1
175
     1
176
     1
 42
1.0
176
     1
 92
        0
176
     1
 66
   257
176
     1
 43
1.0
176
     1
 76
     1
176
     1
 77
     6
176
     1
 78
     2
176
     1
 67
     7
176
     1
 79
     5
176
     1
170
     0
176
     1
171
     0
176
     1
290
     0
176
     1
 93
       13
176
     1
 44
0.0
176
     1
173
     0
176
     1
1001
ACAD
1000
AcDbSavedByObjectVersion
1070
     0
  0
VISUALSTYLE
  5
F2
102
{ACAD_XDICTIONARY
360
935
102
}
102
{ACAD_REACTORS
330
EF
102
}
330
EF
100
AcDbVisualStyle
  2
Gouraud
 70
     2
177
     2
291
     1
 71
     2
176
     1
 72
     2
176
     1
 73
     1
176
     1
 90
        2
176
     1
 40
0.6
176
     1
 41
30.0
176
     1
 63
     7
421
 16777215
176
     1
 74
     0
176
     1
 91
        0
176
     1
 64
     7
176
     1
 65
   257
176
     1
 75
     1
176
     1
175
     1
176
     1
 42
1.0
176
     1
 92
        0
176
     1
 66
     7
176
     1
 43
1.0
176
     1
 76
     1
176
     1
 77
     6
176
     1
 78
     2
176
     1
 67
     7
176
     1
 79
     5
176
     1
170
     0
176
     1
171
     0
176
     1
290
     0
176
     1
 93
       13
176
     1
 44
0.0
176
     1
173
     0
176
     1
1001
ACAD
1000
AcDbSavedByObjectVersion
1070
     0
  0
VISUALSTYLE
  5
F3
102
{ACAD_XDICTIONARY
360
937
102
}
102
{ACAD_REACTORS
330
EF
102
}
330
EF
100
AcDbVisualStyle
  2
GouraudWithEdges
 70
     3
177
     2
291
     1
 71
     2
176
     1
 72
     2
176
     1
 73
     1
176
     1
 90
        2
176
     1
 40
0.6
176
     1
 41
30.0
176
     1
 63
     7
421
 16777215
176
     1
 74
     1
176
     1
 91
        0
176
     1
 64
     7
176
     1
 65
   257
176
     1
 75
     1
176
     1
175
     1
176
     1
 42
1.0
176
     1
 92
        0
176
     1
 66
   257
176
     1
 43
1.0
176
     1
 76
     1
176
     1
 77
     6
176
     1
 78
     2
176
     1
 67
     7
176
     1
 79
     5
176
     1
170
     0
176
     1
171
     0
176
     1
290
     0
176
     1
 93
       13
176
     1
 44
0.0
176
     1
173
     0
176
     1
1001
ACAD
1000
AcDbSavedByObjectVersion
1070
     0
  0
VISUALSTYLE
  5
F7
102
{ACAD_XDICTIONARY
360
93F
102
}
102
{ACAD_REACTORS
330
EF
102
}
330
EF
100
AcDbVisualStyle
  2
Hidden
 70
     6
177
     2
291
     0
 71
     1
176
     1
 72
     2
176
     1
 73
     2
176
     1
 90
        0
176
     1
 40
0.6
176
     1
 41
30.0
176
     1
 63
     7
421
 16777215
176
     1
 74
     2
176
     1
 91
        2
176
     1
 64
     7
176
     1
 65
   257
176
     1
 75
     2
176
     1
175
     1
176
     1
 42
40.0
176
     1
 92
        0
176
     1
 66
   257
176
     1
 43
1.0
176
     1
 76
     1
176
     1
 77
     6
176
     1
 78
     2
176
     1
 67
     7
176
     1
 79
     3
176
     1
170
     0
176
     1
171
     0
176
     1
290
     0
176
     1
 93
        1
176
     1
 44
0.0
176
     1
173
     0
176
     1
1001
ACAD
1000
AcDbSavedByObjectVersion
1070
     0
  0
VISUALSTYLE
  5
1E4
102
{ACAD_XDICTIONARY
360
951
102
}
102
{ACAD_REACTORS
330
EF
102
}
330
EF
100
AcDbVisualStyle
  2
JitterOff
 70
    20
177
     2
291
     1
 71
     2
176
     0
 72
     2
176
     0
 73
     0
176
     0
 90
        0
176
     0
 40
0.6
176
     0
 41
30.0
176
     0
 63
     7
421
 16777215
176
     0
 74
     1
176
     0
 91
        4
176
     0
 64
     7
176
     0
 65
   257
176
     0
 75
     1
176
     0
175
     1
176
     0
 42
1.0
176
     0
 92
       10
176
     2
 66
     7
176
     0
 43
1.0
176
     0
 76
     1
176
     0
 77
     6
176
     0
 78
     2
176
     0
 67
     7
176
     0
 79
     5
176
     0
170
     0
176
     0
171
     0
176
     0
290
     0
176
     0
 93
        1
176
     0
 44
0.0
176
     0
173
     0
176
     0
1001
ACAD
1000
AcDbSavedByObjectVersion
1070
     0
  0
VISUALSTYLE
  5
FD
102
{ACAD_XDICTIONARY
360
94B
102
}
102
{ACAD_REACTORS
330
EF
102
}
330
EF
100
AcDbVisualStyle
  2
Linepattern
 70
    14
177
     2
291
     1
 71
     2
176
     1
 72
     2
176
     1
 73
     1
176
     1
 90
        0
176
     1
 40
0.6
176
     1
 41
30.0
176
     1
 63
     7
421
 16777215
176
     1
 74
     1
176
     1
 91
        4
176
     1
 64
     7
176
     1
 65
   257
176
     1
 75
     7
176
     1
175
     7
176
     1
 42
1.0
176
     1
 92
        8
176
     1
 66
     7
176
     1
 43
1.0
176
     1
 76
     1
176
     1
 77
     6
176
     1
 78
     2
176
     1
 67
     7
176
     1
 79
     5
176
     1
170
     0
176
     1
171
     0
176
     1
290
     0
176
     1
 93
        1
176
     1
 44
0.0
176
     1
173
     0
176
     1
1001
ACAD
1000
AcDbSavedByObjectVersion
1070
     0
  0
VISUALSTYLE
  5
1E5
102
{ACAD_XDICTIONARY
360
953
102
}
102
{ACAD_REACTORS
330
EF
102
}
330
EF
100
AcDbVisualStyle
  2
OverhangOff
 70
    21
177
     2
291
     1
 71
     2
176
     0
 72
     2
176
     0
 73
     0
176
     0
 90
        0
176
     0
 40
0.6
176
     0
 41
30.0
176
     0
 63
     7
421
 16777215
176
     0
 74
     1
176
     0
 91
        4
176
     0
 64
     7
176
     0
 65
   257
176
     0
 75
     1
176
     0
175
     1
176
     0
 42
1.0
176
     0
 92
        9
176
     2
 66
     7
176
     0
 43
1.0
176
     0
 76
     1
176
     0
 77
     6
176
     0
 78
     2
176
     0
 67
     7
176
     0
 79
     5
176
     0
170
     0
176
     0
171
     0
176
     0
290
     0
176
     0
 93
        1
176
     0
 44
0.0
176
     0
173
     0
176
     0
1001
ACAD
1000
AcDbSavedByObjectVersion
1070
     0
  0
VISUALSTYLE
  5
F9
102
{ACAD_XDICTIONARY
360
943
102
}
102
{ACAD_REACTORS
330
EF
102
}
330
EF
100
AcDbVisualStyle
  2
Realistic
 70
     8
177
     2
291
     0
 71
     2
176
     1
 72
     3
176
     1
 73
     0
176
     1
 90
        2
176
     1
 40
0.6
176
     1
 41
30.0
176
     1
 63
     7
421
 16777215
176
     1
 74
     0
176
     1
 91
        0
176
     1
 64
     7
176
     1
 65
   257
176
     1
 75
     1
176
     1
175
     1
176
     1
 42
1.0
176
     1
 92
        8
176
     1
 66
   257
176
     1
 43
1.0
176
     1
 76
     1
176
     1
 77
     6
176
     1
 78
     2
176
     1
 67
     7
176
     1
 79
     3
176
     1
170
     0
176
     1
171
     0
176
     1
290
     0
176
     1
 93
       13
176
     1
 44
0.0
176
     1
173
     0
176
     1
1001
ACAD
1000
AcDbSavedByObjectVersion
1070
     0
  0
VISUALSTYLE
  5
1F3
102
{ACAD_XDICTIONARY
360
95F
102
}
102
{ACAD_REACTORS
330
EF
102
}
330
EF
100
AcDbVisualStyle
  2
Shaded
 70
    27
177
     2
291
     0
 71
     2
176
     1
 72
     2
176
     1
 73
     1
176
     1
 90
        2
176
     1
 40
0.6
176
     1
 41
30.0
176
     1
 63
     7
421
 16777215
176
     1
 74
     0
176
     1
 91
        4
176
     1
 64
     7
176
     1
 65
   257
176
     1
 75
     1
176
     1
175
     1
176
     1
 42
1.0
176
     1
 92
        8
176
     1
 66
   257
176
     1
 43
1.0
176
     1
 76
     1
176
     1
 77
     6
176
     1
 78
     2
176
     1
 67
     8
425
  7895160
176
     1
 79
     3
176
     1
170
     0
176
     1
171
     0
176
     1
290
     0
176
     1
 93
        5
176
     1
 44
0.0
176
     1
173
     0
176
     1
1001
ACAD
1000
AcDbSavedByObjectVersion
1070
     0
  0
VISUALSTYLE
  5
1F2
102
{ACAD_XDICTIONARY
360
95D
102
}
102
{ACAD_REACTORS
330
EF
102
}
330
EF
100
AcDbVisualStyle
  2
Shaded with edges
 70
    26
177
     2
291
     0
 71
     2
176
     1
 72
     2
176
     1
 73
     1
176
     1
 90
        2
176
     1
 40
0.6
176
     1
 41
30.0
176
     1
 63
     7
421
 16777215
176
     1
 74
     1
176
     1
 91
       10
176
     1
 64
     7
176
     1
 65
   257
176
     1
 75
     2
176
     1
175
     1
176
     1
 42
1.0
176
     1
 92
        8
176
     1
 66
   257
176
     1
 43
1.0
176
     1
 76
     1
176
     1
 77
     6
176
     1
 78
     2
176
     1
 67
     7
176
     1
 79
     3
176
     1
170
     0
176
     1
171
     0
176
     1
290
     0
176
     1
 93
        5
176
     1
 44
0.0
176
     1
173
     0
176
     1
1001
ACAD
1000
AcDbSavedByObjectVersion
1070
     0
  0
VISUALSTYLE
  5
1EF
102
{ACAD_XDICTIONARY
360
957
102
}
102
{ACAD_REACTORS
330
EF
102
}
330
EF
100
AcDbVisualStyle
  2
Shades of Gray
 70
    23
177
     2
291
     0
 71
     2
176
     1
 72
     2
176
     1
 73
     3
176
     1
 90
        0
176
     1
 40
0.6
176
     1
 41
30.0
176
     1
 63
     7
421
 16777215
176
     1
 74
     2
176
     1
 91
        2
176
     1
 64
     7
176
     1
 65
     7
176
     1
 75
     1
176
     1
175
     1
176
     1
 42
40.0
176
     1
 92
        8
176
     1
 66
     7
176
     1
 43
1.0
176
     1
 76
     1
176
     1
 77
     6
176
     1
 78
     2
176
     1
 67
     7
176
     1
 79
     3
176
     1
170
     0
176
     1
171
     0
176
     1
290
     0
176
     1
 93
        1
176
     1
 44
0.0
176
     1
173
     0
176
     1
1001
ACAD
1000
AcDbSavedByObjectVersion
1070
     0
  0
VISUALSTYLE
  5
1F0
102
{ACAD_XDICTIONARY
360
959
102
}
102
{ACAD_REACTORS
330
EF
102
}
330
EF
100
AcDbVisualStyle
  2
Sketchy
 70
    24
177
     2
291
     0
 71
     1
176
     1
 72
     2
176
     1
 73
     2
176
     1
 90
        0
176
     1
 40
0.6
176
     1
 41
30.0
176
     1
 63
     7
421
 16777215
176
     1
 74
     2
176
     1
 91
        2
176
     1
 64
     7
176
     1
 65
     7
176
     1
 75
     1
176
     1
175
     1
176
     1
 42
40.0
176
     1
 92
       11
176
     1
 66
     7
176
     1
 43
1.0
176
     1
 76
     1
176
     1
 77
     6
176
     1
 78
     2
176
     1
 67
     7
176
     1
 79
     6
176
     1
170
     0
176
     1
171
     0
176
     1
290
     0
176
     1
 93
        1
176
     1
 44
0.0
176
     1
173
     0
176
     1
1001
ACAD
1000
AcDbSavedByObjectVersion
1070
     0
  0
VISUALSTYLE
  5
FC
102
{ACAD_XDICTIONARY
360
949
102
}
102
{ACAD_REACTORS
330
EF
102
}
330
EF
100
AcDbVisualStyle
  2
Thicken
 70
    13
177
     2
291
     1
 71
     2
176
     1
 72
     2
176
     1
 73
     1
176
     1
 90
        0
176
     1
 40
0.6
176
     1
 41
30.0
176
     1
 63
     7
421
 16777215
176
     1
 74
     1
176
     1
 91
        4
176
     1
 64
     7
176
     1
 65
   257
176
     1
 75
     1
176
     1
175
     1
176
     1
 42
1.0
176
     1
 92
       12
176
     1
 66
     7
176
     1
 43
1.0
176
     1
 76
     1
176
     1
 77
     6
176
     1
 78
     2
176
     1
 67
     7
176
     1
 79
     5
176
     1
170
     0
176
     1
171
     0
176
     1
290
     0
176
     1
 93
        1
176
     1
 44
0.0
176
     1
173
     0
176
     1
1001
ACAD
1000
AcDbSavedByObjectVersion
1070
     0
  0
VISUALSTYLE
  5
F6
102
{ACAD_XDICTIONARY
360
93D
102
}
102
{ACAD_REACTORS
330
EF
102
}
330
EF
100
AcDbVisualStyle
  2
Wireframe
 70
     5
177
     2
291
     0
 71
     0
176
     1
 72
     2
176
     1
 73
     0
176
     1
 90
        0
176
     1
 40
0.6
176
     1
 41
30.0
176
     1
 63
     7
421
 16777215
176
     1
 74
     1
176
     1
 91
        4
176
     1
 64
     7
176
     1
 65
   257
176
     1
 75
     1
176
     1
175
     1
176
     1
 42
1.0
176
     1
 92
        0
176
     1
 66
   257
176
     1
 43
1.0
176
     1
 76
     1
176
     1
 77
     6
176
     1
 78
     2
176
     1
 67
     7
176
     1
 79
     3
176
     1
170
     0
176
     1
171
     0
176
     1
290
     0
176
     1
 93
        1
176
     1
 44
0.0
176
     1
173
     0
176
     1
1001
ACAD
1000
AcDbSavedByObjectVersion
1070
     0
  0
VISUALSTYLE
  5
1F1
102
{ACAD_XDICTIONARY
360
95B
102
}
102
{ACAD_REACTORS
330
EF
102
}
330
EF
100
AcDbVisualStyle
  2
X-Ray
 70
    25
177
     2
291
     0
 71
     2
176
     1
 72
     2
176
     1
 73
     1
176
     1
 90
        1
176
     1
 40
0.5
176
     1
 41
30.0
176
     1
 63
     7
421
 16777215
176
     1
 74
     1
176
     1
 91
        0
176
     1
 64
     7
176
     1
 65
   257
176
     1
 75
     1
176
     1
175
     1
176
     1
 42
1.0
176
     1
 92
        8
176
     1
 66
     7
176
     1
 43
1.0
176
     1
 76
     1
176
     1
 77
     6
176
     1
 78
     2
176
     1
 67
     7
176
     1
 79
     3
176
     1
170
     0
176
     1
171
     0
176
     1
290
     0
176
     1
 93
       13
176
     1
 44
0.0
176
     1
173
     0
176
     1
1001
ACAD
1000
AcDbSavedByObjectVersion
1070
     0
  0
DICTIONARYVAR
  5
146
102
{ACAD_REACTORS
330
5E
102
}
330
5E
100
DictionaryVariables
280
     0
  1
1:1
  0
DICTIONARYVAR
  5
145
102
{ACAD_REACTORS
330
5E
102
}
330
5E
100
DictionaryVariables
280
     0
  1
STANDARD
  0
DICTIONARYVAR
  5
84
102
{ACAD_REACTORS
330
5E
102
}
330
5E
100
DictionaryVariables
280
     0
  1
STANDARD
  0
DICTIONARYVAR
  5
227
102
{ACAD_REACTORS
330
5E
102
}
330
5E
100
DictionaryVariables
280
     0
  1
Metric50
  0
DICTIONARYVAR
  5
228
102
{ACAD_REACTORS
330
5E
102
}
330
5E
100
DictionaryVariables
280
     0
  1
Metric50
  0
DICTIONARYVAR
  5
5F
102
{ACAD_REACTORS
330
5E
102
}
330
5E
100
DictionaryVariables
280
     0
  1
2
  0
DICTIONARYVAR
  5
63
102
{ACAD_REACTORS
330
5E
102
}
330
5E
100
DictionaryVariables
280
     0
  1
1
  0
DICTIONARYVAR
  5
1AE
102
{ACAD_REACTORS
330
5E
102
}
330
5E
100
DictionaryVariables
280
     0
  1
0
  0
DICTIONARYVAR
  5
1AF
102
{ACAD_REACTORS
330
5E
102
}
330
5E
100
DictionaryVariables
280
     0
  1
0
  0
DICTIONARY
  5
930
102
{ACAD_REACTORS
330
92E
102
}
330
92E
100
AcDbDictionary
281
     1
  0
DICTIONARY
  5
92F
102
{ACAD_REACTORS
330
92E
102
}
330
92E
100
AcDbDictionary
281
     1
  3
140695205610256
350
929
  3
140695205610272
350
92A
  3
140695205610288
350
92B
  3
140695205610304
350
92C
  3
140695205610320
350
92D
  0
DICTIONARY
  5
236
330
21C
100
AcDbDictionary
280
     1
281
     1
  3
ACAD_XREC_ROUNDTRIP
360
962
  0
DICTIONARY
  5
205
330
22
100
AcDbDictionary
280
     1
281
     1
  0
DICTIONARY
  5
1F9
330
ED
100
AcDbDictionary
280
     1
281
     1
  3
FBXASSET
360
1FA
  0
DICTIONARY
  5
1F7
330
EC
100
AcDbDictionary
280
     1
281
     1
  3
FBXASSET
360
1F8
  0
DICTIONARY
  5
173
330
EE
100
AcDbDictionary
280
     1
281
     1
  3
BUMPTILE
360
175
  3
DIFFUSETILE
360
174
  3
FBXASSET
360
1FB
  3
OPACITYTILE
360
176
  3
REFLECTIONTILE
360
177
  0
DICTIONARY
  5
234
330
21A
100
AcDbDictionary
280
     1
281
     1
  3
ACAD_XREC_ROUNDTRIP
360
961
  0
DICTIONARY
  5
162
330
7F
100
AcDbDictionary
280
     1
281
     1
  3
ACAD_ROUNDTRIP_2008_TABLESTYLE_CELLSTYLEMAP
360
927
  0
DICTIONARY
  5
93B
330
F5
100
AcDbDictionary
280
     1
281
     1
  3
ACAD_XREC_ROUNDTRIP
360
93C
  0
DICTIONARY
  5
939
330
F4
100
AcDbDictionary
280
     1
281
     1
  3
ACAD_XREC_ROUNDTRIP
360
93A
  0
DICTIONARY
  5
947
330
FB
100
AcDbDictionary
280
     1
281
     1
  3
ACAD_XREC_ROUNDTRIP
360
948
  0
DICTIONARY
  5
94F
330
FF
100
AcDbDictionary
280
     1
281
     1
  3
ACAD_XREC_ROUNDTRIP
360
950
  0
DICTIONARY
  5
941
330
F8
100
AcDbDictionary
280
     1
281
     1
  3
ACAD_XREC_ROUNDTRIP
360
942
  0
DICTIONARY
  5
945
330
FA
100
AcDbDictionary
280
     1
281
     1
  3
ACAD_XREC_ROUNDTRIP
360
946
  0
DICTIONARY
  5
955
330
1E6
100
AcDbDictionary
280
     1
281
     1
  3
ACAD_XREC_ROUNDTRIP
360
956
  0
DICTIONARY
  5
94D
330
FE
100
AcDbDictionary
280
     1
281
     1
  3
ACAD_XREC_ROUNDTRIP
360
94E
  0
DICTIONARY
  5
931
330
F0
100
AcDbDictionary
280
     1
281
     1
  3
ACAD_XREC_ROUNDTRIP
360
932
  0
DICTIONARY
  5
933
330
F1
100
AcDbDictionary
280
     1
281
     1
  3
ACAD_XREC_ROUNDTRIP
360
934
  0
DICTIONARY
  5
935
330
F2
100
AcDbDictionary
280
     1
281
     1
  3
ACAD_XREC_ROUNDTRIP
360
936
  0
DICTIONARY
  5
937
330
F3
100
AcDbDictionary
280
     1
281
     1
  3
ACAD_XREC_ROUNDTRIP
360
938
  0
DICTIONARY
  5
93F
330
F7
100
AcDbDictionary
280
     1
281
     1
  3
ACAD_XREC_ROUNDTRIP
360
940
  0
DICTIONARY
  5
951
330
1E4
100
AcDbDictionary
280
     1
281
     1
  3
ACAD_XREC_ROUNDTRIP
360
952
  0
DICTIONARY
  5
94B
330
FD
100
AcDbDictionary
280
     1
281
     1
  3
ACAD_XREC_ROUNDTRIP
360
94C
  0
DICTIONARY
  5
953
330
1E5
100
AcDbDictionary
280
     1
281
     1
  3
ACAD_XREC_ROUNDTRIP
360
954
  0
DICTIONARY
  5
943
330
F9
100
AcDbDictionary
280
     1
281
     1
  3
ACAD_XREC_ROUNDTRIP
360
944
  0
DICTIONARY
  5
95F
330
1F3
100
AcDbDictionary
280
     1
281
     1
  3
ACAD_XREC_ROUNDTRIP
360
960
  0
DICTIONARY
  5
95D
330
1F2
100
AcDbDictionary
280
     1
281
     1
  3
ACAD_XREC_ROUNDTRIP
360
95E
  0
DICTIONARY
  5
957
330
1EF
100
AcDbDictionary
280
     1
281
     1
  3
ACAD_XREC_ROUNDTRIP
360
958
  0
DICTIONARY
  5
959
330
1F0
100
AcDbDictionary
280
     1
281
     1
  3
ACAD_XREC_ROUNDTRIP
360
95A
  0
DICTIONARY
  5
949
330
FC
100
AcDbDictionary
280
     1
281
     1
  3
ACAD_XREC_ROUNDTRIP
360
94A
  0
DICTIONARY
  5
93D
330
F6
100
AcDbDictionary
280
     1
281
     1
  3
ACAD_XREC_ROUNDTRIP
360
93E
  0
DICTIONARY
  5
95B
330
1F1
100
AcDbDictionary
280
     1
281
     1
  3
ACAD_XREC_ROUNDTRIP
360
95C
  0
XRECORD
  5
929
102
{ACAD_REACTORS
330
92F
102
}
330
92F
100
AcDbXrecord
280
     1
  1
AcDb_Thumbnail_Schema
102
{ATTRRECORD
341
92A
  2
AcDbDs::TreatedAsObjectData
280
     1
291
     1
102
ATTRRECORD}
102
{ATTRRECORD
341
92B
  2
AcDbDs::Legacy
280
     1
291
     1
102
ATTRRECORD}
  2
AcDbDs::ID
280
    10
 91
        8
102
{ATTRRECORD
341
92C
  2
AcDs:Indexable
280
     1
291
     1
102
ATTRRECORD}
102
{ATTRRECORD
341
92D
  2
AcDbDs::HandleAttribute
280
     7
282
     1
102
ATTRRECORD}
  2
Thumbnail_Data
280
    15
 91
        0
  0
XRECORD
  5
92A
102
{ACAD_REACTORS
330
92F
102
}
330
92F
100
AcDbXrecord
280
     1
  1
AcDbDs::TreatedAsObjectDataSchema
  2
AcDbDs::TreatedAsObjectData
280
     1
 91
        0
  0
XRECORD
  5
92B
102
{ACAD_REACTORS
330
92F
102
}
330
92F
100
AcDbXrecord
280
     1
  1
AcDbDs::LegacySchema
  2
AcDbDs::Legacy
280
     1
 91
        0
  0
XRECORD
  5
92C
102
{ACAD_REACTORS
330
92F
102
}
330
92F
100
AcDbXrecord
280
     1
  1
AcDbDs::IndexedPropertySchema
  2
AcDs:Indexable
280
     1
 91
        0
  0
XRECORD
  5
92D
102
{ACAD_REACTORS
330
92F
102
}
330
92F
100
AcDbXrecord
280
     1
  1
AcDbDs::HandleAttributeSchema
  2
AcDbDs::HandleAttribute
280
     7
 91
        1
284
     1
  0
XRECORD
  5
962
102
{ACAD_REACTORS
330
236
102
}
330
236
100
AcDbXrecord
280
     1
102
DISPLAYNAME
  1
Metric50
102
FLAGS
 90
        0
  0
XRECORD
  5
1FA
102
{ACAD_REACTORS
330
1F9
102
}
330
1F9
100
AcDbXrecord
280
     1
 70
     1
 90
429727718
  1
D62C5603-E3A1-4AEA-B7FB-FE5D8D0755AF
310
504B03040A0000080000CC70623B3DEE336E79000000790000001B0000006175746F6465736B2D64657369676E2D7061636B6167652E786D6C3C3F786D6C2076657273696F6E3D22312E302220656E636F64696E673D227574662D3822203F3E3C666F726D6174733E3C666F726D61743E687474703A2F2F736368656D612E
310
6175746F6465736B2E636F6D2F64657369676E2D7061636B6167652F323030393C2F666F726D61743E3C2F666F726D6174733E504B0304140006080800CC70623BD486FD9CA0000000F4000000130000005B436F6E74656E745F54797065735D2E786D6C7D8EC10E82300C865F65E91D8A1E8C310C0EEA1BF002731658846E
310
D98AC1B77784ABF1D8FE5FBFBF75BBCE937A534CCEB38643598122B6FEE978D0B0485F9C41B54DDD7D022595594E1A469170414C76A4D9A4D207E29CF43ECE46F218070CC6BECC4078ACAA135ACF422C856C0E68EA1BF5669944DDD7BCDE7B1F8E415D77AECB980613C2E4AC91FC167A2B244592486606FC29C8FD7F045B9A
310
EF7053A7E60B504B0304140006080800CC70623B853B8169EB0000007C01000008000000636F72652E786D6C8D90416EC3201045AF62CDB6C206821CC7C244919D9CA01740401C94182C03558F5F9C3852BBEB6A467FFE9B197D7EFC9E1EC5975982F5AE035262288C535E5B377690E21535501C055FBC8FBF6C503839990E
310
5619041F179FE64D52DE45E362569DD7661365082642A11EB9E920A89B99642953CC8E702F67A9EE7234257977194EC9EAE275C4EABCCF5EAD5940D4AC6F0E35A568B8F43562CD7046CD199FD07E60174276A7BE677B5EADB0E0D14EEFFB6A31321A0D82627C4084204C3F096B71DD52F6819B16635EADF63F509AF53FA164
310
5DDCD1EDDD17164090FCC8732078B56691CB33A85CD7DCC40F504B0304140006080800CC70623B55019EA25F0000007C00000007000000636E782E786D6C4DCB3B0E80201045D1AD90E915ED2CF8AC45050C11660C8261F98AB1B07AC9C97D42D718D865D3E909258CFD00CCE24AC6E326A164D74DC0B4128928FF32603847
310
2BA13128B1252AC747C6BAB984FC68F0B87FE8960A5C09FE86CFB69FBA01504B0304140006080800CC70623BDBABAAF470010000D40300000C0000006662782F636F72652E786D6CC553D16E823014FD95A6AF4B694182CC941A83FA05FB810A9511A125A5257EFE2E82712ECEB8A7F100CD39F7F69E734AF9FADC366850B6
310
AF8DCE7018308C942E4C59EB2AC3DE1D498AD15A706B8CFB56869196ADCAF00863C12B6B7C374385D14E6907A836A59A41D9F7CA615434B0C8705F7CAA5606D23BA8E84F41278B93AC54100640439DE0BDB320004D43C63716C7C399D30917DCFBBA9CD9BA8469F5B156168B24CED3F7248AC8769F27244EB73B92EED8862C
310
B7F13E0C179B3C8F979C8ECD82BBBABDAA2BAC924E9558448CBD9330242CFA08E3154B5651FCC6D215639C8EE5774DBE2B5F6CF2B5768B68963BB5F5588420E442FC700B1139D4CB01F450C1E918227C2E09DF070D8140C84E1E9AAB8F1340832A9CB13130A5F1376A908D57309505ECF2A0DF179C4E9D30F5B239B87E3823
310
7A79C6F31DE1A8A5AEC08474B03C7837EAE4938639B44E5932B833D2C6B6B279CDC613877FA26EE21F4A2A4C63EC7F29A2F301D1F9F7A0E37D145F504B0304140006080800CC70623B9C113CC27E0000009D0000000B0000006662782F636E782E786D6C4DCCDF0A83201C86E15B91DFB94BFB330DD428C8FB886521330DA7
310
6397BF1A1DECE883878F57749FCDA1B7892F1BBC047A23808C7F84D9FA55424E0BE6803A256208E9EF06C84F9B91703228B1C690F78B66B34CD9A5439DF5CF0BFBF65E35BCA1B8D6A5C6F540381E886698B5741C695F9503EBA150A2F8958E3DC3EA0B504B0304140006080800CC70623B7DF2F77C2A010000120200003100
310
00006662782F41393633353835312D344632462D344230382D423046372D3739314545314133324237412F636F72652E786D6C8D51DB8EC22014FC15C2939B0D2DB4B45643319AE817EC0F6041255A68B86CFCFC856D4D76DF7CE190393373060EDB3DC707F856CE6B6B7A480A0C81328395DA5C7B18C3057510EC3873D686
310
3F34088C18550F330C39BB3A1BA7051AAC09CA84841A2BD5020AEF55806078A44B0FFD7053A328440C89E1EFC52486BBB8AA8214A99D789CF9E05200300FC927E4FB4D5B375D43103D5527440FB843077C5AA3F5861C8F645F5787F59E95B390B318B55CE45AA638FAA2957BD7248B390B7A7CC51F9C124149C82B8C378810
310
84AB2F42B7B8DD56F413775B8C5999E9FF4471926F8AA236A1AE96B8B3CC434E5839373893369E1FAF30EA395917409EB7F26AF8801C171837A4A6AC9C89E9F9C9B1A58BA30FD6A5EF5DDDCF894B9AD9B6A59C957943A9FCAE2FD5BC4DFE03504B0304140006080800CC70623BAD7543B64E01000033030000300000006662
310
782F41393633353835312D344632462D344230382D423046372D3739314545314133324237412F636E782E786D6CD593CD6EC32010845F0571AD6CE3D48AD20813A9873E410FBD12D82434182C7EAAE6EDBB2424CD25871E7B41D6EC30B3FA84F9E67BB2E40B4234DE8DB46F1925E094D7C6ED479AD3AE5951B2113C789FEE
310
6C943839C1488B4C05DF079FE72A69D8C96C13AAD6B8631503449F83828872B949AC57D26200B826A308D316B4064D6E46FCDA41C05550DC9E483A00797BFD207EFB092A45DE9514C1BBD22178396BD39D891265658C238DEA00936C654E5E433CB65A26D9F6EDB5EBC14EBF49A45CB856E66048291F6939A9A81BB5C89177
310
38143CA680F4AA299D66A042CEB3354A2684DC9D8D178FE0D9B8B41CAAD720F880EE7EF93C0C18769E099ECC04D5A102C8049A8A05632F4DDF376CF1DE0F6BB65C2F8627B65A33C6BB62177CEBBDAD973006829F89F22E814B54F4BC2BE347F8AA8F681390B50FA73F804400B5F542E796F19FF974E7F78DB802FE05E20750
310
4B0304140006080800CC70623BE75B7789680500003C100000340000006662782F41393633353835312D344632462D344230382D423046372D3739314545314133324237412F6F626A656374732E786D6CAD575B8F9B3818FD2B887D06C22499CB8AA1CA655245D5B455A356FB305264C061D8018C6C3393D95FBFC7600890
310
A4CD5EF210B0B1BFEBF98E3F7B1FF6596ABC522E1296DF9BAE3D320D9A872C4AF2F8DE2CE5CEBA358D0FBEC719939D65A691938CDE9B6ADAF4BD98B3B2D05311DD91329583D9D5FC0F438434A7A611A644887B5384CF34233629258BA878B12322891DEFF6B66BD70BFB62634E8AE781D082709A4B588AF91C528CDA28B73F
310
1C998EEF39EABBEFA97FBD6A7C7E9553F9D3D79FE442923C3C523610337627CB87ABE99D359D4CC6D6E4FACAB5E6ABF9D2726FC6A3C5F56271377BB88362213924694B38DD99FE47C48627A1E7D49F5A8BB5E1A74C0A599ED3B0F21F1E56366B89112D681E218F0915D0D6F17AD41FBA2A369DCF6335D62ABBD39779D5DDD1
310
11D4D8DE3CBB96B2E04FB8202E41051754A1AA8E8F76B4C6DFE810B580B1547F4B84911149794252234D024EF8BBE963A95AE27B3D310A9D5C215C7960FAEE415ED75694C6AFB17BCACA5D99A60A9AA65F217B0BFC53292ACB92BF283FAD0D3621576592CB5BED907C2FA8E9DF794E35E97BEA31BED21FEB401ABB94C44839
310
DCACBF0E1C5DA8DA5B2F4DFFD32AD86F543D9E565E7056502E157C00AD2671CD534549AB752FCA9CDA00677A313F04E51B22FF19E57B300579E3C97EB29F682D92935CEC18CF901B7B54FD8C51F362B56FC72FE0B3C1EAE335EDCCBF5AEC39ADB17DC238973F804BA5E6F6BFE7AF1FB32E523BE9F3BD571418E3631DCA4D48
310
5250CF639223210A9446CA30052EDF057BD35F8329C1ECD84552BF0DC8D18BE7BCE23BFE6BD960AB4A7DE79923A103BEBD80F911CBAA2C60DB19B01CF164A5583B772EE6D3FFA56666CBCDA74DC97724A48F9A58967497E489C4D979006FD7A05E227A1EBDD0F737C623387A9C844D3709995625106D157315F8B8392CD4E0
310
A0B9A720C4BE9829CEF37EA1E13111214D53925356365ADA634861B52519DD27A00AEB808EAF0628E6F435519D446F45CF2C9CF5214F0A15B2F6D06B79DA3EE3CBF7F56780D2F4E7EF73A0F5E5B02A38D07DC852C6B7C1FBB6664213E0C39E3EBA7FF4E1AD23EA2829407C85E586727488B751B2DB9502BC7B228A3FD68B6E
310
A65A22397E690AA8D158D7E404EC8CDA235CC3B7D1898680131CEC2CDF2638C65196279577750F15884AEE19F94199155B92B13297978469D4F8D358DF0AEF7631E28DC8F0D9F437D5D39A83B2231A1D52D543813A824EF8D44BCFF2FA6A31BD1E8DAD87F1CCB526B3879935BF59CDADD5C37479BB1CDD4CA7B3556B516589
310
EF352754B706114D9C885EC9131DE6EFEB43D99AFE2391C2F958179413D7CFEF6B1B6DB1E7600F00DE6E5C67454A339A4BA2E0FBA85ED26F045D454F463DBFCE484C2F90F2E5E3666003662ED8F755951A7D1BECD5B30B550B2785C8E7320B7292A4838DDA71BBC863ED7613CAF659337A3354231D4FF4A182A54904C2898C
310
98B28C4AD0CE056CCF332A80986E571EE9DBC305BB5FEB7E509220A58D25CF042D712A806AC0AD0C657FDEF80D2D9CEAA2EE4D1C76F60BFE74219A06527D6F82DF6412526107381E55E353090704D085B52408A8913C4ED159D79BDA71BB4BC506F4831350EB6F975CD22D69BF7AC49B91A2C0A9DDA3D5CA36AD20FC478E37
310
E61844E2352865EBCB61A275A65283CAAA9DD27703B4102F5AF51EF5F573B75CBB5AD38BC845F7A49F82A0966A49C2E3EA5EA0ECD326CD965F1DB402C6FA8B51A4658C5C5E2EC9E214602E55810345408596591009A82E7E7FFACA19EEA299B14A0081A705CB3296EBC14CDF658DCD336EA6D1136881AAEB87B81AB9EE53D5
310
F5EB8BC8362082DA24122F98680A4E7930C01A0079749CEA14382A0783E5EBA5A10F8C098456A03D6A4AEB6BB881E2513747552A5DB22C7EDAF83BD5528081A365F7FF06504B0304140006080000CC70623B000000000000000000000000350000006662782F41393633353835312D344632462D344230382D423046372D37
310
39314545314133324237412F76657274696365732E62696E504B0304140006080800CC70623BF270F1330600000004000000360000006662782F41393633353835312D344632462D344230382D423046372D3739314545314133324237412F747269616E676C65732E62696E636660600000504B0304140006080000CC7062
310
3B000000000000000000000000370000006662782F41393633353835312D344632462D344230382D423046372D3739314545314133324237412F617474726962757465732E62696E504B0304140006080800CC70623B08DA0BD19000000041010000360000006662782F41393633353835312D344632462D344230382D4230
310
46372D3739314545314133324237412F6469726563746F72792E786D6C858F410AC3201045AF22B36F53E9A60B35CBEEBAE80D244E44489C6234F4F835464A48035D0DF398FF9F8AF63D0E6CC63039F212F8F9020C7D47C6792B21C5FE7403D62A1188E2E60C98D7234A5830286103A55745067B9D86B8A3CF9C7F90C11DE6
310
07FB144396D7B6A82D282E9A152AD114D5EF2CB866EEE831B8EEA07A7BB5A8D7D61A2BAAEB7FD5F70921FF497D00504B0304140006080800CC70623BEDD1DC58FD000000A00100003B0000006662782F41393633353835312D344632462D344230382D423046372D3739314545314133324237412F7265736F75726365732F
310
636F72652E786D6C8D504B6E833010BD0A9A6D65B00922041947112427E8052C33A156828DFCA97AFC9A40A576D7CDCCE87D344F8F9FBFE667F689CE6B6B3A6039850C8DB2A336530731DC4903D95970676DF82583CCC8193B5861107C72362E3BA4AC096842428D1D7107A5F7182053CF7474E0D507CE32973124857FE48B
310
540F3961CEF244279DE03EB81420DB9EAC1384436FA353E879B1B182C7A8C75DA3C7F453DF353A1075D537A7BA6464B8F535A99AE14A9A2BBD90E350DD183B5CFABE3AF262350B1EF4FC9351399401471025A527C218A1E53BAB5A5AB765F5469B96525EACF23FA6B88CFF34456DC2A1DCE36E360F82A5202F42F062ED2BAD
310
579969AFDD8A6F504B010214000A0000080000CC70623B3DEE336E79000000790000001B00000000000000000000000000000000006175746F6465736B2D64657369676E2D7061636B6167652E786D6C504B01021400140006080800CC70623BD486FD9CA0000000F40000001300000000000000000000000000B20000005B
310
436F6E74656E745F54797065735D2E786D6C504B01021400140006080800CC70623B853B8169EB0000007C010000080000000000000000000000000083010000636F72652E786D6C504B01021400140006080800CC70623B55019EA25F0000007C000000070000000000000000000000000094020000636E782E786D6C504B
310
01021400140006080800CC70623BDBABAAF470010000D40300000C00000000000000000000000000180300006662782F636F72652E786D6C504B01021400140006080800CC70623B9C113CC27E0000009D0000000B00000000000000000000000000B20400006662782F636E782E786D6C504B01021400140006080800CC70
310
623B7DF2F77C2A010000120200003100000000000000000000000000590500006662782F41393633353835312D344632462D344230382D423046372D3739314545314133324237412F636F72652E786D6C504B01021400140006080800CC70623BAD7543B64E010000330300003000000000000000000000000000D2060000
310
6662782F41393633353835312D344632462D344230382D423046372D3739314545314133324237412F636E782E786D6C504B01021400140006080800CC70623BE75B7789680500003C10000034000000000000000000000000006E0800006662782F41393633353835312D344632462D344230382D423046372D3739314545
310
314133324237412F6F626A656374732E786D6C504B01021400140006080000CC70623B0000000000000000000000003500000000000000000000000000280E00006662782F41393633353835312D344632462D344230382D423046372D3739314545314133324237412F76657274696365732E62696E504B01021400140006
310
080800CC70623BF270F133060000000400000036000000000000000000000000007B0E00006662782F41393633353835312D344632462D344230382D423046372D3739314545314133324237412F747269616E676C65732E62696E504B01021400140006080000CC70623B0000000000000000000000003700000000000000
310
000000000000D50E00006662782F41393633353835312D344632462D344230382D423046372D3739314545314133324237412F617474726962757465732E62696E504B01021400140006080800CC70623B08DA0BD1900000004101000036000000000000000000000000002A0F00006662782F41393633353835312D344632
310
462D344230382D423046372D3739314545314133324237412F6469726563746F72792E786D6C504B01021400140006080800CC70623BEDD1DC58FD000000A00100003B000000000000000000000000000E1000006662782F41393633353835312D344632462D344230382D423046372D3739314545314133324237412F7265
310
736F75726365732F636F72652E786D6C504B0506000000000E000E0080040000641100000000
  0
XRECORD
  5
1F8
102
{ACAD_REACTORS
330
1F7
102
}
330
1F7
100
AcDbXrecord
280
     1
 70
     1
 90
429727718
  1
30362254-06B7-45E0-A893-8CFA70E3D6BC
310
504B03040A0000080000CC70623B3DEE336E79000000790000001B0000006175746F6465736B2D64657369676E2D7061636B6167652E786D6C3C3F786D6C2076657273696F6E3D22312E302220656E636F64696E673D227574662D3822203F3E3C666F726D6174733E3C666F726D61743E687474703A2F2F736368656D612E
310
6175746F6465736B2E636F6D2F64657369676E2D7061636B6167652F323030393C2F666F726D61743E3C2F666F726D6174733E504B0304140006080800CC70623BD486FD9CA0000000F4000000130000005B436F6E74656E745F54797065735D2E786D6C7D8EC10E82300C865F65E91D8A1E8C310C0EEA1BF002731658846E
310
D98AC1B77784ABF1D8FE5FBFBF75BBCE937A534CCEB38643598122B6FEE978D0B0485F9C41B54DDD7D022595594E1A469170414C76A4D9A4D207E29CF43ECE46F218070CC6BECC4078ACAA135ACF422C856C0E68EA1BF5669944DDD7BCDE7B1F8E415D77AECB980613C2E4AC91FC167A2B244592486606FC29C8FD7F045B9A
310
EF7053A7E60B504B0304140006080800CC70623B1EC5D7A3EB0000007C01000008000000636F72652E786D6C8D90416EC3201045AF82665B6103C6756C6122AB4D4ED00B204C5C94182C03558F5F9C3852BBEB6A467FFE9B197D71FC9E6FE8CBACC17AD7032D0820E3B41FAD9B7A48F1820F808E52ACDEC75F36404ECDA687
310
4D0629A6D5A76597B477D1B89855E747B38B2A041301E95B6E7A08FAD3CCAA50296647B8168BD2573599823EBB0CA76447F43862C7BCCF5EAC59410E4DDD9C7973C2755553CCCFA4C603E3040F1565ED3B1FDE4E432BCA0D9622DAF9795FAF464533826484B498524CD807E51D79ED187F21878E10516EF63F505AC67F42C9
310
BA58B1FDDD071640D2FCC87D2045B96591CB3DA85CB7DCE40F504B0304140006080800CC70623B55019EA25F0000007C00000007000000636E782E786D6C4DCB3B0E80201045D1AD90E915ED2CF8AC45050C11660C8261F98AB1B07AC9C97D42D718D865D3E909258CFD00CCE24AC6E326A164D74DC0B4128928FF32603847
310
2BA13128B1252AC747C6BAB984FC68F0B87FE8960A5C09FE86CFB69FBA01504B0304140006080800CC70623B8C9102E971010000D40300000C0000006662782F636F72652E786D6CC5535B6E833010BC8AE5DF0A6C08340F1947A84D4ED00B38C6A128602363A31CBFCB234A53A551FA553EC09AD9F5CE8C31DB9E9B1AF5CA
310
7695D1198E428A91D2D214952E33ECDD315861B4E5CC1AE3BE9561A445A3323CC098B3D21ADFCE9034DA29ED00D5A6503328BA4E398C640D8B0C77F253352214DE4145770A5B214FA2546114020D759C75CE8200340D19DE981F0F6746269C33EFAB6266AB02A655C74A59CCF365BADC27CB5D902ED22848F6340DF238A141
310
BE88E2F57B92BFEDF23523433367AE6A2EEAA455C2A902F398D2751045018D3FA264435F3771F242571B4A1919CA6F9A7C5B3CD9E42BED16F12C776AEB308F40C848FC700B1139D4891EF410CEC810227CC6846F8386402064270EF5C5C709A05E49676C024C61FC95EA45ED154CA5211D1FF4FB8291A913A68E9B83EBBB33
310
E2A7673CDE118E5AE8124C0807CB8377834E366998436B950D7A7746DAD846D4CFD978E0F04FD455FC5D49D2D4C6FE9722321F10997F0F32DC47FE05504B0304140006080800CC70623BFFEA85907E0000009D0000000B0000006662782F636E782E786D6C4DCCD10A83201886E15B91FFDC95D95A811AB6F23E625948A6C3
310
E9D8E5AF46073BFAE0E1E365ED67B3E8ADC3CB78C7815C7240DA3DFC64DCC221C519D7805AC182F7F1EF06C88D9BE6703008B6049F9E274D7A1E938DBB5AE3D6131B2589BA0D3D965551E0B2EA732C9B9A624AAEB41E3A557677029960D9AFB4EF11165F504B0304140006080800CC70623B4FEEA4082C0100001202000031
310
0000006662782F39464131463745442D413632322D343644302D413938332D3331353338454246344243312F636F72652E786D6C8D515B6EC32010BC0AE2AB55850DD871ED0813254D72825EC00192A2C460F1A872FC42ED48ED5F7E00CDCECCCEB26C731F6FE05B39AFADE921293004CA082BB5B9F43086336A21D870E6AC
310
0D7F68109861543DCC30E4ECE26C9C164858139409093556AA051CBC570102714B8F1E7AF1A5C6A11862480C7F2DA6415C878B2A4891CA89C7990F2E050073937C42DE1DB7E4F87ED8A36D4329AA9B3D46DBAEAD504556557BD81DEBDD0761E52CE42C462D17B996298E3E6BE59E35C962CE821E1FF18553435012728A7187
310
0841987E927A8D9B35ADDF70BBC6989599FE4F1427F9A4286A132ABAC49D651EF234CD5CE04CDA78BA3DC2A8FB645D00B9DF8B57E215725C60BCA2A463E54C4CE327C7A65E1C7DB02E7DEFCBF594B864C5CA6CDBD49C957943E9FA5D5FBAF336F90F504B0304140006080800CC70623BAD7543B64E01000033030000300000
310
006662782F39464131463745442D413632322D343644302D413938332D3331353338454246344243312F636E782E786D6CD593CD6EC32010845F0571AD6CE3D48AD20813A9873E410FBD12D82434182C7EAAE6EDBB2424CD25871E7B41D6EC30B3FA84F9E67BB2E40B4234DE8DB46F1925E094D7C6ED479AD3AE5951B2113C
310
789FEE6C943839C1488B4C05DF079FE72A69D8C96C13AAD6B8631503449F83828872B949AC57D26200B826A308D316B4064D6E46FCDA41C05550DC9E483A00797BFD207EFB092A45DE9514C1BBD22178396BD39D891265658C238DEA00936C654E5E433CB65A26D9F6EDB5EBC14EBF49A45CB856E66048291F6939A9A81BB5
310
C8917738143CA680F4AA299D66A042CEB3354A2684DC9D8D178FE0D9B8B41CAAD720F880EE7EF93C0C18769E099ECC04D5A102C8049A8A05632F4DDF376CF1DE0F6BB65C2F8627B65A33C6BB62177CEBBDAD973006829F89F22E814B54F4BC2BE347F8AA8F681390B50FA73F804400B5F542E796F19FF974E7F78DB802FE05
310
E207504B0304140006080800CC70623B16AB87BA640500003C100000340000006662782F39464131463745442D413632322D343644302D413938332D3331353338454246344243312F6F626A656374732E786D6CAD575B6FA33818FD2B887DE6924B3BED8A326A92B68A663B534DD4D13E548A0C38942D60649B369D5FBFC7
310
600890A493BDE42160637FD7F31D7FF63E6FB3D478A55C242CBF3247B66B1A340F5994E4F19559CA8D75611A9F7D8F33263BCB4C232719BD32D5B4E97B316765A1A722BA21652A07B3B7B33F0D11D29C9A46981221AE4C113ED38CD8A4942CA2E2C58E882476BCD9DA23BB5ED8171B73523C0F841684D35CC252CCE79062D4
310
468DFA43D7747CCF51DF7D4FFDEB5593E3AB9CCA9FBEFE241792E4E19EB28198C968BAB8199F5D5A67D3E9C49A9E8F47D6EC76B6B0469F26EEFC7C3EBFBCBEB98462213924694B38DD98FE1D62C393D073EA4FADC5DAF04326852CCF6958F90F0F2B9BB5C48816348F90C7840A68EB78EDF68723159BCEE7891A6B95DDE9D3
310
BCEAEEE8086A6C6F9E5D4B59F0175C10A7A0820BAA5055C7473B5AE3CFDD452D602CD5DF12616444529E90D448938013FE6EFA58AA96F85E4F8C42275708571E98FE6827AF6B2B4AE3D7D83D64E5A64C53054DD3AF90BD06FEA9149565C94FCA0F6B834DC85599E4F2423B24DF0B6AFA979E534DFA9E7A4CC6FA631D486393
310
921829879BF5D781A373557BCB85E97FB90DB62B558F8795179C15944B051F40AB495CF35451D26A4727654E6D8033BD98EF82F21D91FF8AF2DD9982BCF1643BDD4EB516C9492E368C67C88DED563FC36D5EACF66DFF057C3658BDBFA69DF9578B3DA735B64F18C7F20770A9D45CFCF7FCF563D6456A277DBEF78A02637CA2
310
43B90A490AEAB94F72244481D24819A6C0E59B606BFA4B3025981DBB48EAB701D97BF19C577CC77F2D1B6C55A9EF3C732474C0B727303F625995056C3B02963D9EAC146BE78EC5FCEC7FA999EBC5EACBAAE41B12D27B4D2C0BBA49F244E2ECDC81B76B502F113D8F5EE8FB1BE3111CDD4FC2AA9B844CAB1288B68AB90A7CDC
310
1C166AB0D3DC5310625FCC14E779BFD0709F8890A629C9292B1B2DED31A4B0DA928CEE135085754027E3018A397D4D5427D15BD1330B677DC8934285AC3DF45A9EB68FF8F2B8FC0A509AFEECFD0FF2DE25CC6047F7214B195F07EFEB9A094D800F7BFAE8FED187B78EA8A3A400F115961BCAD1215E47C966530AF0EE8128FE
310
58CEBB996A8964FFA529A046635D9353B0336A8F700DDF46271A024E70B0B37C9DE01847591E54DED53D54202AB947E4076556AC49C6CA5C9E1226B7F1A7B1BE15DEED62C41B91E1B3E9AFAAA735036547343A925075041DF0A9979E893B391F8FCFA6967B3EFB644DCF6E5CEBFAE272625DCC6FAF3FB93793C5F90CE1EF57
310
407342756B10D1C489E8953CD1617E5CEECAD6F4EF8914CE5D5D504E5C3F1F9736DA62CFC11E00BCDDB8CC8A9466349744C1F75EBDA4DF09BA8A9E8C7A7E9991989E20E5DBDD6A6003664ED8F7A04A8DBE0DF6EAD9B9AA858342E47399053949D2C146EDB85DE4B176BB0965FBAC19BD19AA918E27FA50C1D22402E144464C
310
59462568E704B6E71915404CB72B8FF4EDE184DDAF753F284990D2C6926782963815403548A70C657FDEF80D2D9CEAA2AE4C1C76F60BFE74219A06527D6582DF6412526107381E55E353090704D085B52408D0933C4ED159D79BDA71BB4BC506F4831350EB6F979CD22D69BF7AC49B91A2C0A9DDA3D5CA36AD20FC478E37E6
310
1844E2352865EBCB6EA275A652E3836BE04EFB400BF1A2556F515F1FBB35B2AB35BD889C744FFA1004B5544B121E57F70215746DD2F5E2C1412B602CBF19455AC6C8E5E9922C4E01E65215385004546899059180EAFCF7A707CE7017CD8CDB0410789AB32C63B91E5CEBBBACB17AC6CD347A022D5075FD106377347AAABA7E
310
7D11590744509B44E205134DC1290F06580320F78E537D3D73540E06CB970B431F185308AD40BBD794D6D77003C5A36E8EAA54BA64597CD8F83BD552A080A365F7FF06504B0304140006080000CC70623B000000000000000000000000350000006662782F39464131463745442D413632322D343644302D413938332D3331
310
353338454246344243312F76657274696365732E62696E504B0304140006080800CC70623BF270F1330600000004000000360000006662782F39464131463745442D413632322D343644302D413938332D3331353338454246344243312F747269616E676C65732E62696E636660600000504B0304140006080000CC70623B
310
000000000000000000000000370000006662782F39464131463745442D413632322D343644302D413938332D3331353338454246344243312F617474726962757465732E62696E504B0304140006080800CC70623B08DA0BD19000000041010000360000006662782F39464131463745442D413632322D343644302D413938
310
332D3331353338454246344243312F6469726563746F72792E786D6C858F410AC3201045AF22B36F53E9A60B35CBEEBAE80D244E44489C6234F4F835464A48035D0DF398FF9F8AF63D0E6CC63039F212F8F9020C7D47C6792B21C5FE7403D62A1188E2E60C98D7234A5830286103A55745067B9D86B8A3CF9C7F90C11DE607
310
FB144396D7B6A82D282E9A152AD114D5EF2CB866EEE831B8EEA07A7BB5A8D7D61A2BAAEB7FD5F70921FF497D00504B0304140006080800CC70623B0D6EF93BFE000000A00100003B0000006662782F39464131463745442D413632322D343644302D413938332D3331353338454246344243312F7265736F75726365732F63
310
6F72652E786D6C8D50596E833010BD0A9ADFCA60B334011947A8694ED00B586642AC041B79A97AFC9A40A5F6AF3F33A3B7689E1E3F7DCD8FEC139DD7D6F4C0720A191A65476DA61E62B892236427C19DB5E1970C322367EC618541F0C9D9B8EC90B226A009093576C41D94DE63804C3DD2D18357379C652E63480A7FCF17A9
310
EE72C29CE5894E3AC17D702940B63D59270887DE46A7D0F36263058F518FBB468FE9A7BE6A7420864373B8D4873369AA8691FA421B3294352543C5CAF65C0F6FEF43CB8BD52C78D0F34F46E550061C419494B6843142CB0F5677F4B52BEB177AEC28E5C52AFF638ACBF84F53D42654E51E77B379102C05791282176B5F693D
310
CB4C7BED567C03504B010214000A0000080000CC70623B3DEE336E79000000790000001B00000000000000000000000000000000006175746F6465736B2D64657369676E2D7061636B6167652E786D6C504B01021400140006080800CC70623BD486FD9CA0000000F40000001300000000000000000000000000B20000005B
310
436F6E74656E745F54797065735D2E786D6C504B01021400140006080800CC70623B1EC5D7A3EB0000007C010000080000000000000000000000000083010000636F72652E786D6C504B01021400140006080800CC70623B55019EA25F0000007C000000070000000000000000000000000094020000636E782E786D6C504B
310
01021400140006080800CC70623B8C9102E971010000D40300000C00000000000000000000000000180300006662782F636F72652E786D6C504B01021400140006080800CC70623BFFEA85907E0000009D0000000B00000000000000000000000000B30400006662782F636E782E786D6C504B01021400140006080800CC70
310
623B4FEEA4082C0100001202000031000000000000000000000000005A0500006662782F39464131463745442D413632322D343644302D413938332D3331353338454246344243312F636F72652E786D6C504B01021400140006080800CC70623BAD7543B64E010000330300003000000000000000000000000000D5060000
310
6662782F39464131463745442D413632322D343644302D413938332D3331353338454246344243312F636E782E786D6C504B01021400140006080800CC70623B16AB87BA640500003C1000003400000000000000000000000000710800006662782F39464131463745442D413632322D343644302D413938332D3331353338
310
454246344243312F6F626A656374732E786D6C504B01021400140006080000CC70623B0000000000000000000000003500000000000000000000000000270E00006662782F39464131463745442D413632322D343644302D413938332D3331353338454246344243312F76657274696365732E62696E504B01021400140006
310
080800CC70623BF270F133060000000400000036000000000000000000000000007A0E00006662782F39464131463745442D413632322D343644302D413938332D3331353338454246344243312F747269616E676C65732E62696E504B01021400140006080000CC70623B0000000000000000000000003700000000000000
310
000000000000D40E00006662782F39464131463745442D413632322D343644302D413938332D3331353338454246344243312F617474726962757465732E62696E504B01021400140006080800CC70623B08DA0BD190000000410100003600000000000000000000000000290F00006662782F39464131463745442D413632
310
322D343644302D413938332D3331353338454246344243312F6469726563746F72792E786D6C504B01021400140006080800CC70623B0D6EF93BFE000000A00100003B000000000000000000000000000D1000006662782F39464131463745442D413632322D343644302D413938332D3331353338454246344243312F7265
310
736F75726365732F636F72652E786D6C504B0506000000000E000E0080040000641100000000
  0
XRECORD
  5
175
102
{ACAD_REACTORS
330
173
102
}
330
173
100
AcDbXrecord
280
     1
270
     1
271
     1
  0
XRECORD
  5
174
102
{ACAD_REACTORS
330
173
102
}
330
173
100
AcDbXrecord
280
     1
270
     1
271
     1
  0
XRECORD
  5
1FB
102
{ACAD_REACTORS
330
173
102
}
330
173
100
AcDbXrecord
280
     1
 70
     0
 90
1673772943
  1
ECE7A1D2-D628-4531-984C-D00F80459256
310
504B03040A0000080000CC70623B3DEE336E79000000790000001B0000006175746F6465736B2D64657369676E2D7061636B6167652E786D6C3C3F786D6C2076657273696F6E3D22312E302220656E636F64696E673D227574662D3822203F3E3C666F726D6174733E3C666F726D61743E687474703A2F2F736368656D612E
310
6175746F6465736B2E636F6D2F64657369676E2D7061636B6167652F323030393C2F666F726D61743E3C2F666F726D6174733E504B0304140006080800CC70623BD486FD9CA0000000F4000000130000005B436F6E74656E745F54797065735D2E786D6C7D8EC10E82300C865F65E91D8A1E8C310C0EEA1BF002731658846E
310
D98AC1B77784ABF1D8FE5FBFBF75BBCE937A534CCEB38643598122B6FEE978D0B0485F9C41B54DDD7D022595594E1A469170414C76A4D9A4D207E29CF43ECE46F218070CC6BECC4078ACAA135ACF422C856C0E68EA1BF5669944DDD7BCDE7B1F8E415D77AECB980613C2E4AC91FC167A2B244592486606FC29C8FD7F045B9A
310
EF7053A7E60B504B0304140006080800CC70623BD9DDAED0EC0000007C01000008000000636F72652E786D6C8D90416EC3201045AF82665B61836D9CD8C2444DD39CA01740405C94182C03558F5F9C3852BBEB6A467FFE9B197D7EF89E6EE8CB2CC17A37002D0820E394D7D68D03A478C17B4007C117EFE32F1B20272733C0
310
2A83E0E3E2D3BC49CABB685CCCAAF3DA6CA20CC14440EA969B0182FA34932C648AD911AEC52CD5558EA6A0CF2EC329598D1E47ACCEFBECC59A050463A7EA5833865FEBDD0E37353BE3EE8DBDE3F6786A48D375FBF6CC78B9C282473B3DEFABC5C86834888A900E538A49F5419B9EB47DD5BC907D4F082F57FB1F28CDFA9F50
310
B22ED6D5F6EE030B20687EE43E10BC5CB3C8E51E54AE6B6EE207504B0304140006080800CC70623B55019EA25F0000007C00000007000000636E782E786D6C4DCB3B0E80201045D1AD90E915ED2CF8AC45050C11660C8261F98AB1B07AC9C97D42D718D865D3E909258CFD00CCE24AC6E326A164D74DC0B4128928FF326038
310
472BA13128B1252AC747C6BAB984FC68F0B87FE8960A5C09FE86CFB69FBA01504B0304140006080800CC70623BA24EB22D72010000D40300000C0000006662782F636F72652E786D6CC5535B6E833010BC8AE5DF0A6C5E49888CA3A6694ED00B38E05014B091B1518EDFE511A5A9D228FD2A1F60CDEC7A67C6986DCE4D8D7A
310
69BA4AAB0C073EC548AA5C17952A33ECECD15B61B4E1CC686DBF9561A44423333CC098B3D268D7CE50AE9595CA02AA74216750749DB418E5352C32DCE59FB211BE70162ABA93DF8AFC244AE9073ED050C759670D0840D390E18DF9F1706664C23973AE2A66B62A605A75ACA4C13C4976E1364A12EF355A2EBD384AF65EFA96
310
BC7B8BED2EA6719AAE16FB8491A199335B351775B991C2CA02F390D2D40B028F861F41BCA68B7518BFD0D59A524686F29B26D7164F36B94AD9289CE54E6D1DE6010819891F6E21228B3AD1831EC219194284CF98F06DD01008846CC5A1BEF83801D4CBDC6A1303536877A57A513B0953A94FC707FDBE6064EA84A9E3E6E0FA
310
EE8CF0E9198F7784A316AA0413C2C2F2E0ECA0934D1AE6D05A69BCDE9E91D2A611F573361E38FC1375157F5752AE6B6DFE4B11990F88CCBF0719EE23FF02504B0304140006080800CC70623B408A7D3B7C0000009D0000000B0000006662782F636E782E786D6C4DCCD10A83201886E15B91FFDC552A92A0064DBC8F581632
310
D3703A76F9ABD1C18E3E78F878E5F0D9027ABBFCF2292AE86E2D20171F69F6715550CB827B40839639A5F2770314A7CD293819B45C73AAFB45B35BA61ACAA1C1C7E7855C58C15BC331339661262CC762340413D68D77DA5B42298546CBE6573AF60CEB2F504B0304140006080800CC70623B449FB9BD290100001202000031
310
0000006662782F36394639363044362D344446342D343946362D394244322D3234314243333846323333332F636F72652E786D6C8D515B6EC32010BC0AE22B55850D98B871848994463E412FE002495162B07854397EA176A4F62F3F2C9A9D991D587EB84F37F0AD7D30CEF6905418026DA553C65E7A98E219ED203808EE9D
310
8B7F6810D871D23D2C3014FCE25D9A57483A1BB58D19B54EE9151C43D0110279CB971E06F9A5A7B11A53CC8C70ADE6515EC78BAE4895DB992778883E0700CB907242D17643D7E2538BD869608875438BBAE38922CAC8F1BDD90DB4691A5E2F42C153326A951B95E398B3D1FE599322163C9AE9115F7A3D46ADA0A018778810
310
84E907617BDCEE297BC5BB3DC6BC2EF47FA234AB2745C9D8D8D035EE220B50105E2F0DC1954B9FB747187D9F9D8FA0CCDB042D5FA0C015C65B42DF78BD10F3F3B363CB56C7109DCFDFBBB97E662ED92EB62D13BC2E1BCAE5777DB9966D8A1F504B0304140006080800CC70623BAD7543B64E01000033030000300000006662
310
782F36394639363044362D344446342D343946362D394244322D3234314243333846323333332F636E782E786D6CD593CD6EC32010845F0571AD6CE3D48AD20813A9873E410FBD12D82434182C7EAAE6EDBB2424CD25871E7B41D6EC30B3FA84F9E67BB2E40B4234DE8DB46F1925E094D7C6ED479AD3AE5951B2113C789FEE
310
6C943839C1488B4C05DF079FE72A69D8C96C13AAD6B8631503449F83828872B949AC57D26200B826A308D316B4064D6E46FCDA41C05550DC9E483A00797BFD207EFB092A45DE9514C1BBD22178396BD39D891265658C238DEA00936C654E5E433CB65A26D9F6EDB5EBC14EBF49A45CB856E66048291F6939A9A81BB5C89177
310
38143CA680F4AA299D66A042CEB3354A2684DC9D8D178FE0D9B8B41CAAD720F880EE7EF93C0C18769E099ECC04D5A102C8049A8A05632F4DDF376CF1DE0F6BB65C2F8627B65A33C6BB62177CEBBDAD973006829F89F22E814B54F4BC2BE347F8AA8F681390B50FA73F804400B5F542E796F19FF974E7F78DB802FE05E20750
310
4B0304140006080800CC70623B8D05915C650500003B100000340000006662782F36394639363044362D344446342D343946362D394244322D3234314243333846323333332F6F626A656374732E786D6CAD575B6FA33814FE2B887D06429276DA1565D4266D158D3A339A6846FB502932E050B66023DB74D2FDF5FB190C01
310
9276B2973C046C8ECFF53B17071F77456EBD502133CEAE6CDF9DD81665314F32965ED995DA3A17B6F5310C04E7AA47665B8C14F4CAD6DB7618A48257A5D94AE89654B91AEDDEDDFC61C998326A5B714EA4BCB265FC440BE2924AF184CA6737218AB8E976E7FA6E4338649B0A523E8D98964450A6A029F619B8588D52FE7039
310
B1BD30F0F4F730D0FF866AF6369557DB33949F31A9088B0F848DD8CCFCF9F2767A76E99CCDE733677E3EF59D9BBB9BA5E37F984D16E78BC5E5F5ED25044B25C0C96822E8D60EEFE11B91C581D77CEA34368A1F5329E68CD1B8B61F16D63A1B8E092D294B10C78C4A48EB593D192E7DED9BDEE7995E1B91FDEDD3ACEA9FE831
310
6A756F9F7D4D79F4274C90A7A04248AA51D5F8C718DAE06FB2F75AC4796EBE65D22A88A22223B995679120E2D50E41AA49C260C046A35368846B0BECD0DFF3EBEB8AD4F835768F69B9ADF25C43D30E6B646F807FAA64AD59F61715C7A54127C4AACA98BA3006A9D792DAE165E0D59B61A01FB3A9F9D838D2DAE62445C86166
310
F37564E842E7DE6A69879FEEA2DD5AE7E371E1A5E025154AC307D06A03D73EB5978C58FFA4C8E9033066E0F3BD53BEC1F39F91BE7B55103791EDE6BBB991A2046172CB4581D8B893FA674DDA17A77B3B7C413D1B511FD2743BFF8A38F03A658705E3ADF8015C3A3417FF3D7E439FF591DA0B5F18BC20C1B8981957AE6392A3
310
F43C640C01D1A0B4728E2DD4F26DB4B3C3152A252A3B4E913CEC1C72F012782FF88EFF8637AA552DBEF76408E8A8DE9E50F9E1CB3A2DA0DB1B6039A893B56063DC5B3E3FFB5F72E67AB9FEB4AEC496C4F4C1149625DD662C53E89D7BF0F6151A046260D1337DFDC94502430F83B0EE07A130A224BCAD7DAE1D9FB6CD422FF6
310
920702629C4BB9AE79C12F243C6432A6794E18E5552BA56B431AAB5D91317302B2B071E86C3A42B1A02F999E24061403B5D0EB639195DA655DD3EBEAB4FB862DDF579F014AD0E73C22F99E28DA57FB98E75C6CA2D74D53086D600F4786E0FE3144B771A8A7B900F03594DB8A633CBC49B2EDB69228BB479CF863B5E807AAAB
310
23872F6DFEB4129B949CA33823F58830E86D65621E10047D9DB34D862E8EAC3C2ABC2F7B2C40D67CDFE01F5545B92105AF983AC54D93D69E56FB8E797F88913F898A9FEC705D3F9D1B54EC8426FB500D40A03BD0119B06E1B95DDC7EB8F6975367793EBD70E66733DFB9BC982F9CE564727731999F5D4ECFCE3B8D6A4DC2A0
310
6D50FD148437D110834A64C6CDDF57FBACB5C307A2A477DFE4939736CFEF2B175371E0E10CF0DD1D5C15654E0BCA14D1E87DD02FF93782A162C0A3D95F1524A52770F972BF1EE9809D13CE7DD599467F8ECE9ADD85CE85A34CD45355448C64F9E8A031DC2D596ACC6E5DD93D9B82DE2EF5CAF81363A8E47996A0DE24564A79
310
4115AACE09C55E14540231FDA13C319787134EBF34E3A022514E5B4D9E0826E25C02D5805B15ABE1BEF51B26383D445DD9E875EE33FE4C22DA16427D65A3BCA92CA6D28DD01DF5DC53330704308475351050232CCD31583787BA75774AFB06E5070DD0C8EF484E19968C5D83BA5B90B244D31E54D55A372320FE4786B7EA58
310
44E135AA5467CB7EA333A61683CC6A8C3257034C10CF46F40EF9F5BE59BE5BD30C3C72D235E95D10345C1D45445A5F0BB47E46A5EBE5570F9380B5FA629579952296A773720405982B9DE04011506178964401AA8BDF1FBF0A8EAB6861DD6580C0E38217056766716DAEB2D6FA0917D3E4116581EADB879C4E7CFFB11EFACD
310
3D641311495D92C8676CB409A72D18610D803CE8A626049E8EC1887CB5B44CC39883690DDA8399B4B9855B481E7D71D4A9D22F96E5BB73BF5793020C02137BF837504B0304140006080000CC70623B000000000000000000000000350000006662782F36394639363044362D344446342D343946362D394244322D32343142
310
43333846323333332F76657274696365732E62696E504B0304140006080800CC70623BF270F1330600000004000000360000006662782F36394639363044362D344446342D343946362D394244322D3234314243333846323333332F747269616E676C65732E62696E636660600000504B0304140006080000CC70623B0000
310
00000000000000000000370000006662782F36394639363044362D344446342D343946362D394244322D3234314243333846323333332F617474726962757465732E62696E504B0304140006080800CC70623B08DA0BD19000000041010000360000006662782F36394639363044362D344446342D343946362D394244322D
310
3234314243333846323333332F6469726563746F72792E786D6C858F410AC3201045AF22B36F53E9A60B35CBEEBAE80D244E44489C6234F4F835464A48035D0DF398FF9F8AF63D0E6CC63039F212F8F9020C7D47C6792B21C5FE7403D62A1188E2E60C98D7234A5830286103A55745067B9D86B8A3CF9C7F90C11DE607FB14
310
4396D7B6A82D282E9A152AD114D5EF2CB866EEE831B8EEA07A7BB5A8D7D61A2BAAEB7FD5F70921FF497D00504B0304140006080800CC70623BCA768048FE000000A00100003B0000006662782F36394639363044362D344446342D343946362D394244322D3234314243333846323333332F7265736F75726365732F636F72
310
652E786D6C8D50596E833010BD0A9ADFCA60D600328E9AA639412F609909B1126CE4A5EAF16B0295DABFFECC8CDEA2797AECF8353F924FB44E193D409E5248504B332A3D0D10FC95B4901C39B3C6F85F3248B49871801506CE266BC2B243D2688FDA47549B11775038871E12F988C7004EDE7016A9083E2ADC3D5D84BC8B09
310
D33C8D74D471E6BC8D0192EDC93A815B742658898E651BCB59086ADC356A8C3FD555A1055ED7E7E254D615792D0F075295F585746FF53B694EE78A565DD736979A65AB9933AFE69F8CD2A2F038022F28ED489E135A7CE4554F9BBEA85E68DB53CAB255FEC71496F19FA6A0B42F8B3DEE6673C0F318E4497096AD7DC5F52C33
310
EEB55BFE0D504B010214000A0000080000CC70623B3DEE336E79000000790000001B00000000000000000000000000000000006175746F6465736B2D64657369676E2D7061636B6167652E786D6C504B01021400140006080800CC70623BD486FD9CA0000000F40000001300000000000000000000000000B20000005B436F
310
6E74656E745F54797065735D2E786D6C504B01021400140006080800CC70623BD9DDAED0EC0000007C010000080000000000000000000000000083010000636F72652E786D6C504B01021400140006080800CC70623B55019EA25F0000007C000000070000000000000000000000000095020000636E782E786D6C504B0102
310
1400140006080800CC70623BA24EB22D72010000D40300000C00000000000000000000000000190300006662782F636F72652E786D6C504B01021400140006080800CC70623B408A7D3B7C0000009D0000000B00000000000000000000000000B50400006662782F636E782E786D6C504B01021400140006080800CC70623B
310
449FB9BD290100001202000031000000000000000000000000005A0500006662782F36394639363044362D344446342D343946362D394244322D3234314243333846323333332F636F72652E786D6C504B01021400140006080800CC70623BAD7543B64E010000330300003000000000000000000000000000D20600006662
310
782F36394639363044362D344446342D343946362D394244322D3234314243333846323333332F636E782E786D6C504B01021400140006080800CC70623B8D05915C650500003B10000034000000000000000000000000006E0800006662782F36394639363044362D344446342D343946362D394244322D32343142433338
310
46323333332F6F626A656374732E786D6C504B01021400140006080000CC70623B0000000000000000000000003500000000000000000000000000250E00006662782F36394639363044362D344446342D343946362D394244322D3234314243333846323333332F76657274696365732E62696E504B010214001400060808
310
00CC70623BF270F13306000000040000003600000000000000000000000000780E00006662782F36394639363044362D344446342D343946362D394244322D3234314243333846323333332F747269616E676C65732E62696E504B01021400140006080000CC70623B00000000000000000000000037000000000000000000
310
00000000D20E00006662782F36394639363044362D344446342D343946362D394244322D3234314243333846323333332F617474726962757465732E62696E504B01021400140006080800CC70623B08DA0BD190000000410100003600000000000000000000000000270F00006662782F36394639363044362D344446342D
310
343946362D394244322D3234314243333846323333332F6469726563746F72792E786D6C504B01021400140006080800CC70623BCA768048FE000000A00100003B000000000000000000000000000B1000006662782F36394639363044362D344446342D343946362D394244322D3234314243333846323333332F7265736F
310
75726365732F636F72652E786D6C504B0506000000000E000E0080040000621100000000
  0
XRECORD
  5
176
102
{ACAD_REACTORS
330
173
102
}
330
173
100
AcDbXrecord
280
     1
270
     1
271
     1
  0
XRECORD
  5
177
102
{ACAD_REACTORS
330
173
102
}
330
173
100
AcDbXrecord
280
     1
270
     1
271
     1
  0
XRECORD
  5
961
102
{ACAD_REACTORS
330
234
102
}
330
234
100
AcDbXrecord
280
     1
102
DISPLAYNAME
  1
Metric50
102
FLAGS
 90
        0
  0
CELLSTYLEMAP
  5
927
102
{ACAD_REACTORS
330
162
102
}
330
162
100
AcDbCellStyleMap
 90
        3
300
CELLSTYLE
  1
TABLEFORMAT_BEGIN
 90
        5
170
     1
 91
        0
 92
    32768
 62
   257
 93
        1
300
CONTENTFORMAT
  1
CONTENTFORMAT_BEGIN
 90
        0
 91
        0
 92
      512
 93
        0
300

 40
0.0
140
1.0
 94
        5
 62
     0
340
11
144
6.0
309
CONTENTFORMAT_END
171
     1
301
MARGIN
  1
CELLMARGIN_BEGIN
 40
1.5
 40
1.5
 40
1.5
 40
1.5
 40
4.5
 40
4.5
309
CELLMARGIN_END
 94
        6
 95
        1
302
GRIDFORMAT
  1
GRIDFORMAT_BEGIN
 90
        0
 91
        1
 62
     0
 92
       -2
340
14
 93
        0
 40
1.125
309
GRIDFORMAT_END
 95
        2
302
GRIDFORMAT
  1
GRIDFORMAT_BEGIN
 90
        0
 91
        1
 62
     0
 92
       -2
340
14
 93
        0
 40
1.125
309
GRIDFORMAT_END
 95
        4
302
GRIDFORMAT
  1
GRIDFORMAT_BEGIN
 90
        0
 91
        1
 62
     0
 92
       -2
340
14
 93
        0
 40
1.125
309
GRIDFORMAT_END
 95
        8
302
GRIDFORMAT
  1
GRIDFORMAT_BEGIN
 90
        0
 91
        1
 62
     0
 92
       -2
340
14
 93
        0
 40
1.125
309
GRIDFORMAT_END
 95
       16
302
GRIDFORMAT
  1
GRIDFORMAT_BEGIN
 90
        0
 91
        1
 62
     0
 92
       -2
340
14
 93
        0
 40
1.125
309
GRIDFORMAT_END
 95
       32
302
GRIDFORMAT
  1
GRIDFORMAT_BEGIN
 90
        0
 91
        1
 62
     0
 92
       -2
340
14
 93
        0
 40
1.125
309
GRIDFORMAT_END
309
TABLEFORMAT_END
  1
CELLSTYLE_BEGIN
 90
        1
 91
        1
300
_TITLE
309
CELLSTYLE_END
300
CELLSTYLE
  1
TABLEFORMAT_BEGIN
 90
        5
170
     1
 91
        0
 92
        0
 62
   257
 93
        1
300
CONTENTFORMAT
  1
CONTENTFORMAT_BEGIN
 90
        0
 91
        0
 92
      512
 93
        0
300

 40
0.0
140
1.0
 94
        5
 62
     0
340
11
144
4.5
309
CONTENTFORMAT_END
171
     1
301
MARGIN
  1
CELLMARGIN_BEGIN
 40
1.5
 40
1.5
 40
1.5
 40
1.5
 40
4.5
 40
4.5
309
CELLMARGIN_END
 94
        6
 95
        1
302
GRIDFORMAT
  1
GRIDFORMAT_BEGIN
 90
        0
 91
        1
 62
     0
 92
       -2
340
14
 93
        0
 40
1.125
309
GRIDFORMAT_END
 95
        2
302
GRIDFORMAT
  1
GRIDFORMAT_BEGIN
 90
        0
 91
        1
 62
     0
 92
       -2
340
14
 93
        0
 40
1.125
309
GRIDFORMAT_END
 95
        4
302
GRIDFORMAT
  1
GRIDFORMAT_BEGIN
 90
        0
 91
        1
 62
     0
 92
       -2
340
14
 93
        0
 40
1.125
309
GRIDFORMAT_END
 95
        8
302
GRIDFORMAT
  1
GRIDFORMAT_BEGIN
 90
        0
 91
        1
 62
     0
 92
       -2
340
14
 93
        0
 40
1.125
309
GRIDFORMAT_END
 95
       16
302
GRIDFORMAT
  1
GRIDFORMAT_BEGIN
 90
        0
 91
        1
 62
     0
 92
       -2
340
14
 93
        0
 40
1.125
309
GRIDFORMAT_END
 95
       32
302
GRIDFORMAT
  1
GRIDFORMAT_BEGIN
 90
        0
 91
        1
 62
     0
 92
       -2
340
14
 93
        0
 40
1.125
309
GRIDFORMAT_END
309
TABLEFORMAT_END
  1
CELLSTYLE_BEGIN
 90
        2
 91
        1
300
_HEADER
309
CELLSTYLE_END
300
CELLSTYLE
  1
TABLEFORMAT_BEGIN
 90
        5
170
     1
 91
        0
 92
        0
 62
   257
 93
        1
300
CONTENTFORMAT
  1
CONTENTFORMAT_BEGIN
 90
        0
 91
        0
 92
      512
 93
        0
300

 40
0.0
140
1.0
 94
        2
 62
     0
340
11
144
4.5
309
CONTENTFORMAT_END
171
     1
301
MARGIN
  1
CELLMARGIN_BEGIN
 40
1.5
 40
1.5
 40
1.5
 40
1.5
 40
4.5
 40
4.5
309
CELLMARGIN_END
 94
        6
 95
        1
302
GRIDFORMAT
  1
GRIDFORMAT_BEGIN
 90
        0
 91
        1
 62
     0
 92
       -2
340
14
 93
        0
 40
1.125
309
GRIDFORMAT_END
 95
        2
302
GRIDFORMAT
  1
GRIDFORMAT_BEGIN
 90
        0
 91
        1
 62
     0
 92
       -2
340
14
 93
        0
 40
1.125
309
GRIDFORMAT_END
 95
        4
302
GRIDFORMAT
  1
GRIDFORMAT_BEGIN
 90
        0
 91
        1
 62
     0
 92
       -2
340
14
 93
        0
 40
1.125
309
GRIDFORMAT_END
 95
        8
302
GRIDFORMAT
  1
GRIDFORMAT_BEGIN
 90
        0
 91
        1
 62
     0
 92
       -2
340
14
 93
        0
 40
1.125
309
GRIDFORMAT_END
 95
       16
302
GRIDFORMAT
  1
GRIDFORMAT_BEGIN
 90
        0
 91
        1
 62
     0
 92
       -2
340
14
 93
        0
 40
1.125
309
GRIDFORMAT_END
 95
       32
302
GRIDFORMAT
  1
GRIDFORMAT_BEGIN
 90
        0
 91
        1
 62
     0
 92
       -2
340
14
 93
        0
 40
1.125
309
GRIDFORMAT_END
309
TABLEFORMAT_END
  1
CELLSTYLE_BEGIN
 90
        3
 91
        2
300
_DATA
309
CELLSTYLE_END
  0
XRECORD
  5
93C
102
{ACAD_REACTORS
330
93B
102
}
330
93B
100
AcDbXrecord
280
     1
102
RTVSPost2010Prop28
280
     1
102
RTVSPost2010PropOp28
 70
     1
102
RTVSPost2010Prop29
280
     1
102
RTVSPost2010PropOp29
 70
     1
102
RTVSPost2010Prop30
280
     0
102
RTVSPost2010PropOp30
 70
     1
102
RTVSPost2010Prop31
280
     0
102
RTVSPost2010PropOp31
 70
     1
102
RTVSPost2010Prop32
280
     0
102
RTVSPost2010PropOp32
 70
     1
102
RTVSPost2010Prop33
280
     0
102
RTVSPost2010PropOp33
 70
     1
102
RTVSPost2010Prop34
280
     0
102
RTVSPost2010PropOp34
 70
     1
102
RTVSPost2010Prop35
280
     0
102
RTVSPost2010PropOp35
 70
     1
102
RTVSPost2010Prop36
280
     0
102
RTVSPost2010PropOp36
 70
     1
102
RTVSPost2010Prop37
 90
       50
102
RTVSPost2010PropOp37
 70
     1
102
RTVSPost2010Prop38
140
0.0
102
RTVSPost2010PropOp38
 70
     1
102
RTVSPost2010Prop39
140
1.0
102
RTVSPost2010PropOp39
 70
     1
102
RTVSPost2010Prop40
 90
        0
102
RTVSPost2010PropOp40
 70
     1
102
RTVSPost2010Prop41ColorIndex
 90
       18
102
RTVSPost2010Prop41ColorRGB
 90
        0
102
RTVSPost2010PropOp41
 70
     1
102
RTVSPost2010Prop42
 90
       50
102
RTVSPost2010PropOp42
 70
     1
102
RTVSPost2010Prop43
 90
        3
102
RTVSPost2010PropOp43
 70
     1
102
RTVSPost2010Prop44ColorIndex
 90
        5
102
RTVSPost2010Prop44ColorRGB
 90
      255
102
RTVSPost2010PropOp44
 70
     1
102
RTVSPost2010Prop45
280
     0
102
RTVSPost2010PropOp45
 70
     1
102
RTVSPost2010Prop46
 90
       50
102
RTVSPost2010PropOp46
 70
     1
102
RTVSPost2010Prop47
 90
       50
102
RTVSPost2010PropOp47
 70
     1
102
RTVSPost2010Prop48
 90
       50
102
RTVSPost2010PropOp48
 70
     1
102
RTVSPost2010Prop49
280
     0
102
RTVSPost2010PropOp49
 70
     1
102
RTVSPost2010Prop50
 90
       50
102
RTVSPost2010PropOp50
 70
     1
102
RTVSPost2010Prop51ColorIndex
 90
      256
102
RTVSPost2010Prop51ColorRGB
 90
-16777216
102
RTVSPost2010PropOp51
 70
     0
102
RTVSPost2010Prop52
140
1.0
102
RTVSPost2010PropOp52
 70
     0
102
RTVSPost2010Prop53
 90
        2
102
RTVSPost2010PropOp53
 70
     1
102
RTVSPost2010Prop54
  1
strokes_ogs.tif
102
RTVSPost2010PropOp54
 70
     1
102
RTVSPost2010Prop55
280
     0
102
RTVSPost2010PropOp55
 70
     1
102
RTVSPost2010Prop56
140
1.0
102
RTVSPost2010PropOp56
 70
     1
102
RTVSPost2010Prop57
140
1.0
102
RTVSPost2010PropOp57
 70
     1
  0
XRECORD
  5
93A
102
{ACAD_REACTORS
330
939
102
}
330
939
100
AcDbXrecord
280
     1
102
RTVSPost2010Prop28
280
     0
102
RTVSPost2010PropOp28
 70
     1
102
RTVSPost2010Prop29
280
     1
102
RTVSPost2010PropOp29
 70
     1
102
RTVSPost2010Prop30
280
     1
102
RTVSPost2010PropOp30
 70
     1
102
RTVSPost2010Prop31
280
     0
102
RTVSPost2010PropOp31
 70
     1
102
RTVSPost2010Prop32
280
     0
102
RTVSPost2010PropOp32
 70
     1
102
RTVSPost2010Prop33
280
     0
102
RTVSPost2010PropOp33
 70
     1
102
RTVSPost2010Prop34
280
     0
102
RTVSPost2010PropOp34
 70
     1
102
RTVSPost2010Prop35
280
     0
102
RTVSPost2010PropOp35
 70
     1
102
RTVSPost2010Prop36
280
     0
102
RTVSPost2010PropOp36
 70
     1
102
RTVSPost2010Prop37
 90
       50
102
RTVSPost2010PropOp37
 70
     1
102
RTVSPost2010Prop38
140
0.0
102
RTVSPost2010PropOp38
 70
     1
102
RTVSPost2010Prop39
140
1.0
102
RTVSPost2010PropOp39
 70
     1
102
RTVSPost2010Prop40
 90
        0
102
RTVSPost2010PropOp40
 70
     1
102
RTVSPost2010Prop41ColorIndex
 90
       18
102
RTVSPost2010Prop41ColorRGB
 90
        0
102
RTVSPost2010PropOp41
 70
     1
102
RTVSPost2010Prop42
 90
       50
102
RTVSPost2010PropOp42
 70
     1
102
RTVSPost2010Prop43
 90
        3
102
RTVSPost2010PropOp43
 70
     1
102
RTVSPost2010Prop44ColorIndex
 90
        5
102
RTVSPost2010Prop44ColorRGB
 90
      255
102
RTVSPost2010PropOp44
 70
     1
102
RTVSPost2010Prop45
280
     0
102
RTVSPost2010PropOp45
 70
     1
102
RTVSPost2010Prop46
 90
       50
102
RTVSPost2010PropOp46
 70
     1
102
RTVSPost2010Prop47
 90
       50
102
RTVSPost2010PropOp47
 70
     1
102
RTVSPost2010Prop48
 90
       50
102
RTVSPost2010PropOp48
 70
     1
102
RTVSPost2010Prop49
280
     0
102
RTVSPost2010PropOp49
 70
     1
102
RTVSPost2010Prop50
 90
       50
102
RTVSPost2010PropOp50
 70
     1
102
RTVSPost2010Prop51ColorIndex
 90
      256
102
RTVSPost2010Prop51ColorRGB
 90
-16777216
102
RTVSPost2010PropOp51
 70
     0
102
RTVSPost2010Prop52
140
1.0
102
RTVSPost2010PropOp52
 70
     0
102
RTVSPost2010Prop53
 90
        2
102
RTVSPost2010PropOp53
 70
     1
102
RTVSPost2010Prop54
  1
strokes_ogs.tif
102
RTVSPost2010PropOp54
 70
     1
102
RTVSPost2010Prop55
280
     0
102
RTVSPost2010PropOp55
 70
     1
102
RTVSPost2010Prop56
140
1.0
102
RTVSPost2010PropOp56
 70
     1
102
RTVSPost2010Prop57
140
1.0
102
RTVSPost2010PropOp57
 70
     1
  0
XRECORD
  5
948
102
{ACAD_REACTORS
330
947
102
}
330
947
100
AcDbXrecord
280
     1
102
RTVSPost2010Prop28
280
     0
102
RTVSPost2010PropOp28
 70
     1
102
RTVSPost2010Prop29
280
     1
102
RTVSPost2010PropOp29
 70
     1
102
RTVSPost2010Prop30
280
     1
102
RTVSPost2010PropOp30
 70
     1
102
RTVSPost2010Prop31
280
     0
102
RTVSPost2010PropOp31
 70
     1
102
RTVSPost2010Prop32
280
     0
102
RTVSPost2010PropOp32
 70
     1
102
RTVSPost2010Prop33
280
     0
102
RTVSPost2010PropOp33
 70
     1
102
RTVSPost2010Prop34
280
     0
102
RTVSPost2010PropOp34
 70
     1
102
RTVSPost2010Prop35
280
     0
102
RTVSPost2010PropOp35
 70
     1
102
RTVSPost2010Prop36
280
     0
102
RTVSPost2010PropOp36
 70
     1
102
RTVSPost2010Prop37
 90
       50
102
RTVSPost2010PropOp37
 70
     1
102
RTVSPost2010Prop38
140
0.0
102
RTVSPost2010PropOp38
 70
     1
102
RTVSPost2010Prop39
140
1.0
102
RTVSPost2010PropOp39
 70
     1
102
RTVSPost2010Prop40
 90
        0
102
RTVSPost2010PropOp40
 70
     1
102
RTVSPost2010Prop41ColorIndex
 90
       18
102
RTVSPost2010Prop41ColorRGB
 90
        0
102
RTVSPost2010PropOp41
 70
     1
102
RTVSPost2010Prop42
 90
       50
102
RTVSPost2010PropOp42
 70
     1
102
RTVSPost2010Prop43
 90
        3
102
RTVSPost2010PropOp43
 70
     1
102
RTVSPost2010Prop44ColorIndex
 90
        5
102
RTVSPost2010Prop44ColorRGB
 90
      255
102
RTVSPost2010PropOp44
 70
     1
102
RTVSPost2010Prop45
280
     0
102
RTVSPost2010PropOp45
 70
     1
102
RTVSPost2010Prop46
 90
       50
102
RTVSPost2010PropOp46
 70
     1
102
RTVSPost2010Prop47
 90
       50
102
RTVSPost2010PropOp47
 70
     1
102
RTVSPost2010Prop48
 90
       50
102
RTVSPost2010PropOp48
 70
     1
102
RTVSPost2010Prop49
280
     0
102
RTVSPost2010PropOp49
 70
     1
102
RTVSPost2010Prop50
 90
       50
102
RTVSPost2010PropOp50
 70
     1
102
RTVSPost2010Prop51ColorIndex
 90
      256
102
RTVSPost2010Prop51ColorRGB
 90
-16777216
102
RTVSPost2010PropOp51
 70
     0
102
RTVSPost2010Prop52
140
1.0
102
RTVSPost2010PropOp52
 70
     0
102
RTVSPost2010Prop53
 90
        2
102
RTVSPost2010PropOp53
 70
     1
102
RTVSPost2010Prop54
  1
strokes_ogs.tif
102
RTVSPost2010PropOp54
 70
     1
102
RTVSPost2010Prop55
280
     0
102
RTVSPost2010PropOp55
 70
     1
102
RTVSPost2010Prop56
140
1.0
102
RTVSPost2010PropOp56
 70
     1
102
RTVSPost2010Prop57
140
1.0
102
RTVSPost2010PropOp57
 70
     1
  0
XRECORD
  5
950
102
{ACAD_REACTORS
330
94F
102
}
330
94F
100
AcDbXrecord
280
     1
102
RTVSPost2010Prop28
280
     0
102
RTVSPost2010PropOp28
 70
     1
102
RTVSPost2010Prop29
280
     1
102
RTVSPost2010PropOp29
 70
     1
102
RTVSPost2010Prop30
280
     1
102
RTVSPost2010PropOp30
 70
     1
102
RTVSPost2010Prop31
280
     0
102
RTVSPost2010PropOp31
 70
     1
102
RTVSPost2010Prop32
280
     0
102
RTVSPost2010PropOp32
 70
     1
102
RTVSPost2010Prop33
280
     0
102
RTVSPost2010PropOp33
 70
     1
102
RTVSPost2010Prop34
280
     0
102
RTVSPost2010PropOp34
 70
     1
102
RTVSPost2010Prop35
280
     0
102
RTVSPost2010PropOp35
 70
     1
102
RTVSPost2010Prop36
280
     0
102
RTVSPost2010PropOp36
 70
     1
102
RTVSPost2010Prop37
 90
       50
102
RTVSPost2010PropOp37
 70
     1
102
RTVSPost2010Prop38
140
0.0
102
RTVSPost2010PropOp38
 70
     1
102
RTVSPost2010Prop39
140
1.0
102
RTVSPost2010PropOp39
 70
     1
102
RTVSPost2010Prop40
 90
        0
102
RTVSPost2010PropOp40
 70
     1
102
RTVSPost2010Prop41ColorIndex
 90
       18
102
RTVSPost2010Prop41ColorRGB
 90
        0
102
RTVSPost2010PropOp41
 70
     1
102
RTVSPost2010Prop42
 90
       50
102
RTVSPost2010PropOp42
 70
     1
102
RTVSPost2010Prop43
 90
        3
102
RTVSPost2010PropOp43
 70
     1
102
RTVSPost2010Prop44ColorIndex
 90
        5
102
RTVSPost2010Prop44ColorRGB
 90
      255
102
RTVSPost2010PropOp44
 70
     1
102
RTVSPost2010Prop45
280
     0
102
RTVSPost2010PropOp45
 70
     1
102
RTVSPost2010Prop46
 90
       50
102
RTVSPost2010PropOp46
 70
     1
102
RTVSPost2010Prop47
 90
       50
102
RTVSPost2010PropOp47
 70
     1
102
RTVSPost2010Prop48
 90
       50
102
RTVSPost2010PropOp48
 70
     1
102
RTVSPost2010Prop49
280
     0
102
RTVSPost2010PropOp49
 70
     1
102
RTVSPost2010Prop50
 90
       50
102
RTVSPost2010PropOp50
 70
     1
102
RTVSPost2010Prop51ColorIndex
 90
      256
102
RTVSPost2010Prop51ColorRGB
 90
-16777216
102
RTVSPost2010PropOp51
 70
     0
102
RTVSPost2010Prop52
140
1.0
102
RTVSPost2010PropOp52
 70
     0
102
RTVSPost2010Prop53
 90
        2
102
RTVSPost2010PropOp53
 70
     1
102
RTVSPost2010Prop54
  1
strokes_ogs.tif
102
RTVSPost2010PropOp54
 70
     1
102
RTVSPost2010Prop55
280
     0
102
RTVSPost2010PropOp55
 70
     1
102
RTVSPost2010Prop56
140
1.0
102
RTVSPost2010PropOp56
 70
     1
102
RTVSPost2010Prop57
140
1.0
102
RTVSPost2010PropOp57
 70
     1
  0
XRECORD
  5
942
102
{ACAD_REACTORS
330
941
102
}
330
941
100
AcDbXrecord
280
     1
102
RTVSPost2010Prop28
280
     0
102
RTVSPost2010PropOp28
 70
     1
102
RTVSPost2010Prop29
280
     1
102
RTVSPost2010PropOp29
 70
     1
102
RTVSPost2010Prop30
280
     1
102
RTVSPost2010PropOp30
 70
     1
102
RTVSPost2010Prop31
280
     0
102
RTVSPost2010PropOp31
 70
     1
102
RTVSPost2010Prop32
280
     0
102
RTVSPost2010PropOp32
 70
     1
102
RTVSPost2010Prop33
280
     0
102
RTVSPost2010PropOp33
 70
     1
102
RTVSPost2010Prop34
280
     0
102
RTVSPost2010PropOp34
 70
     1
102
RTVSPost2010Prop35
280
     0
102
RTVSPost2010PropOp35
 70
     1
102
RTVSPost2010Prop36
280
     0
102
RTVSPost2010PropOp36
 70
     1
102
RTVSPost2010Prop37
 90
       50
102
RTVSPost2010PropOp37
 70
     1
102
RTVSPost2010Prop38
140
0.0
102
RTVSPost2010PropOp38
 70
     1
102
RTVSPost2010Prop39
140
1.0
102
RTVSPost2010PropOp39
 70
     1
102
RTVSPost2010Prop40
 90
        0
102
RTVSPost2010PropOp40
 70
     1
102
RTVSPost2010Prop41ColorIndex
 90
       18
102
RTVSPost2010Prop41ColorRGB
 90
        0
102
RTVSPost2010PropOp41
 70
     1
102
RTVSPost2010Prop42
 90
       50
102
RTVSPost2010PropOp42
 70
     1
102
RTVSPost2010Prop43
 90
        3
102
RTVSPost2010PropOp43
 70
     1
102
RTVSPost2010Prop44ColorIndex
 90
        5
102
RTVSPost2010Prop44ColorRGB
 90
      255
102
RTVSPost2010PropOp44
 70
     1
102
RTVSPost2010Prop45
280
     0
102
RTVSPost2010PropOp45
 70
     1
102
RTVSPost2010Prop46
 90
       50
102
RTVSPost2010PropOp46
 70
     1
102
RTVSPost2010Prop47
 90
       50
102
RTVSPost2010PropOp47
 70
     1
102
RTVSPost2010Prop48
 90
       50
102
RTVSPost2010PropOp48
 70
     1
102
RTVSPost2010Prop49
280
     0
102
RTVSPost2010PropOp49
 70
     1
102
RTVSPost2010Prop50
 90
       50
102
RTVSPost2010PropOp50
 70
     1
102
RTVSPost2010Prop51ColorIndex
 90
      256
102
RTVSPost2010Prop51ColorRGB
 90
-16777216
102
RTVSPost2010PropOp51
 70
     0
102
RTVSPost2010Prop52
140
1.0
102
RTVSPost2010PropOp52
 70
     0
102
RTVSPost2010Prop53
 90
        2
102
RTVSPost2010PropOp53
 70
     1
102
RTVSPost2010Prop54
  1
strokes_ogs.tif
102
RTVSPost2010PropOp54
 70
     1
102
RTVSPost2010Prop55
280
     0
102
RTVSPost2010PropOp55
 70
     1
102
RTVSPost2010Prop56
140
1.0
102
RTVSPost2010PropOp56
 70
     1
102
RTVSPost2010Prop57
140
1.0
102
RTVSPost2010PropOp57
 70
     1
  0
XRECORD
  5
946
102
{ACAD_REACTORS
330
945
102
}
330
945
100
AcDbXrecord
280
     1
102
RTVSPost2010Prop28
280
     0
102
RTVSPost2010PropOp28
 70
     1
102
RTVSPost2010Prop29
280
     1
102
RTVSPost2010PropOp29
 70
     1
102
RTVSPost2010Prop30
280
     1
102
RTVSPost2010PropOp30
 70
     1
102
RTVSPost2010Prop31
280
     0
102
RTVSPost2010PropOp31
 70
     1
102
RTVSPost2010Prop32
280
     0
102
RTVSPost2010PropOp32
 70
     1
102
RTVSPost2010Prop33
280
     0
102
RTVSPost2010PropOp33
 70
     1
102
RTVSPost2010Prop34
280
     0
102
RTVSPost2010PropOp34
 70
     1
102
RTVSPost2010Prop35
280
     0
102
RTVSPost2010PropOp35
 70
     1
102
RTVSPost2010Prop36
280
     0
102
RTVSPost2010PropOp36
 70
     1
102
RTVSPost2010Prop37
 90
       50
102
RTVSPost2010PropOp37
 70
     1
102
RTVSPost2010Prop38
140
0.0
102
RTVSPost2010PropOp38
 70
     1
102
RTVSPost2010Prop39
140
1.0
102
RTVSPost2010PropOp39
 70
     1
102
RTVSPost2010Prop40
 90
        0
102
RTVSPost2010PropOp40
 70
     1
102
RTVSPost2010Prop41ColorIndex
 90
       18
102
RTVSPost2010Prop41ColorRGB
 90
        0
102
RTVSPost2010PropOp41
 70
     1
102
RTVSPost2010Prop42
 90
       50
102
RTVSPost2010PropOp42
 70
     1
102
RTVSPost2010Prop43
 90
        3
102
RTVSPost2010PropOp43
 70
     1
102
RTVSPost2010Prop44ColorIndex
 90
        5
102
RTVSPost2010Prop44ColorRGB
 90
      255
102
RTVSPost2010PropOp44
 70
     1
102
RTVSPost2010Prop45
280
     0
102
RTVSPost2010PropOp45
 70
     1
102
RTVSPost2010Prop46
 90
       50
102
RTVSPost2010PropOp46
 70
     1
102
RTVSPost2010Prop47
 90
       50
102
RTVSPost2010PropOp47
 70
     1
102
RTVSPost2010Prop48
 90
       50
102
RTVSPost2010PropOp48
 70
     1
102
RTVSPost2010Prop49
280
     0
102
RTVSPost2010PropOp49
 70
     1
102
RTVSPost2010Prop50
 90
       50
102
RTVSPost2010PropOp50
 70
     1
102
RTVSPost2010Prop51ColorIndex
 90
      256
102
RTVSPost2010Prop51ColorRGB
 90
-16777216
102
RTVSPost2010PropOp51
 70
     0
102
RTVSPost2010Prop52
140
1.0
102
RTVSPost2010PropOp52
 70
     0
102
RTVSPost2010Prop53
 90
        2
102
RTVSPost2010PropOp53
 70
     1
102
RTVSPost2010Prop54
  1
strokes_ogs.tif
102
RTVSPost2010PropOp54
 70
     1
102
RTVSPost2010Prop55
280
     0
102
RTVSPost2010PropOp55
 70
     1
102
RTVSPost2010Prop56
140
1.0
102
RTVSPost2010PropOp56
 70
     1
102
RTVSPost2010Prop57
140
1.0
102
RTVSPost2010PropOp57
 70
     1
  0
XRECORD
  5
956
102
{ACAD_REACTORS
330
955
102
}
330
955
100
AcDbXrecord
280
     1
102
RTVSPost2010Prop28
280
     0
102
RTVSPost2010PropOp28
 70
     1
102
RTVSPost2010Prop29
280
     1
102
RTVSPost2010PropOp29
 70
     1
102
RTVSPost2010Prop30
280
     1
102
RTVSPost2010PropOp30
 70
     1
102
RTVSPost2010Prop31
280
     0
102
RTVSPost2010PropOp31
 70
     1
102
RTVSPost2010Prop32
280
     0
102
RTVSPost2010PropOp32
 70
     1
102
RTVSPost2010Prop33
280
     0
102
RTVSPost2010PropOp33
 70
     1
102
RTVSPost2010Prop34
280
     0
102
RTVSPost2010PropOp34
 70
     1
102
RTVSPost2010Prop35
280
     0
102
RTVSPost2010PropOp35
 70
     1
102
RTVSPost2010Prop36
280
     0
102
RTVSPost2010PropOp36
 70
     1
102
RTVSPost2010Prop37
 90
       50
102
RTVSPost2010PropOp37
 70
     1
102
RTVSPost2010Prop38
140
0.0
102
RTVSPost2010PropOp38
 70
     1
102
RTVSPost2010Prop39
140
1.0
102
RTVSPost2010PropOp39
 70
     1
102
RTVSPost2010Prop40
 90
        0
102
RTVSPost2010PropOp40
 70
     1
102
RTVSPost2010Prop41ColorIndex
 90
       18
102
RTVSPost2010Prop41ColorRGB
 90
        0
102
RTVSPost2010PropOp41
 70
     1
102
RTVSPost2010Prop42
 90
       50
102
RTVSPost2010PropOp42
 70
     1
102
RTVSPost2010Prop43
 90
        3
102
RTVSPost2010PropOp43
 70
     1
102
RTVSPost2010Prop44ColorIndex
 90
        5
102
RTVSPost2010Prop44ColorRGB
 90
      255
102
RTVSPost2010PropOp44
 70
     1
102
RTVSPost2010Prop45
280
     0
102
RTVSPost2010PropOp45
 70
     1
102
RTVSPost2010Prop46
 90
       50
102
RTVSPost2010PropOp46
 70
     1
102
RTVSPost2010Prop47
 90
       50
102
RTVSPost2010PropOp47
 70
     1
102
RTVSPost2010Prop48
 90
       50
102
RTVSPost2010PropOp48
 70
     1
102
RTVSPost2010Prop49
280
     0
102
RTVSPost2010PropOp49
 70
     1
102
RTVSPost2010Prop50
 90
       50
102
RTVSPost2010PropOp50
 70
     1
102
RTVSPost2010Prop51ColorIndex
 90
      256
102
RTVSPost2010Prop51ColorRGB
 90
-16777216
102
RTVSPost2010PropOp51
 70
     0
102
RTVSPost2010Prop52
140
1.0
102
RTVSPost2010PropOp52
 70
     0
102
RTVSPost2010Prop53
 90
        2
102
RTVSPost2010PropOp53
 70
     1
102
RTVSPost2010Prop54
  1
strokes_ogs.tif
102
RTVSPost2010PropOp54
 70
     1
102
RTVSPost2010Prop55
280
     0
102
RTVSPost2010PropOp55
 70
     1
102
RTVSPost2010Prop56
140
1.0
102
RTVSPost2010PropOp56
 70
     1
102
RTVSPost2010Prop57
140
1.0
102
RTVSPost2010PropOp57
 70
     1
  0
XRECORD
  5
94E
102
{ACAD_REACTORS
330
94D
102
}
330
94D
100
AcDbXrecord
280
     1
102
RTVSPost2010Prop28
280
     0
102
RTVSPost2010PropOp28
 70
     1
102
RTVSPost2010Prop29
280
     1
102
RTVSPost2010PropOp29
 70
     1
102
RTVSPost2010Prop30
280
     1
102
RTVSPost2010PropOp30
 70
     1
102
RTVSPost2010Prop31
280
     0
102
RTVSPost2010PropOp31
 70
     1
102
RTVSPost2010Prop32
280
     0
102
RTVSPost2010PropOp32
 70
     1
102
RTVSPost2010Prop33
280
     0
102
RTVSPost2010PropOp33
 70
     1
102
RTVSPost2010Prop34
280
     0
102
RTVSPost2010PropOp34
 70
     1
102
RTVSPost2010Prop35
280
     0
102
RTVSPost2010PropOp35
 70
     1
102
RTVSPost2010Prop36
280
     0
102
RTVSPost2010PropOp36
 70
     1
102
RTVSPost2010Prop37
 90
       50
102
RTVSPost2010PropOp37
 70
     1
102
RTVSPost2010Prop38
140
0.0
102
RTVSPost2010PropOp38
 70
     1
102
RTVSPost2010Prop39
140
1.0
102
RTVSPost2010PropOp39
 70
     1
102
RTVSPost2010Prop40
 90
        0
102
RTVSPost2010PropOp40
 70
     1
102
RTVSPost2010Prop41ColorIndex
 90
       18
102
RTVSPost2010Prop41ColorRGB
 90
        0
102
RTVSPost2010PropOp41
 70
     1
102
RTVSPost2010Prop42
 90
       50
102
RTVSPost2010PropOp42
 70
     1
102
RTVSPost2010Prop43
 90
        3
102
RTVSPost2010PropOp43
 70
     1
102
RTVSPost2010Prop44ColorIndex
 90
        5
102
RTVSPost2010Prop44ColorRGB
 90
      255
102
RTVSPost2010PropOp44
 70
     1
102
RTVSPost2010Prop45
280
     0
102
RTVSPost2010PropOp45
 70
     1
102
RTVSPost2010Prop46
 90
       50
102
RTVSPost2010PropOp46
 70
     1
102
RTVSPost2010Prop47
 90
       50
102
RTVSPost2010PropOp47
 70
     1
102
RTVSPost2010Prop48
 90
       50
102
RTVSPost2010PropOp48
 70
     1
102
RTVSPost2010Prop49
280
     0
102
RTVSPost2010PropOp49
 70
     1
102
RTVSPost2010Prop50
 90
       50
102
RTVSPost2010PropOp50
 70
     1
102
RTVSPost2010Prop51ColorIndex
 90
      256
102
RTVSPost2010Prop51ColorRGB
 90
-16777216
102
RTVSPost2010PropOp51
 70
     0
102
RTVSPost2010Prop52
140
1.0
102
RTVSPost2010PropOp52
 70
     0
102
RTVSPost2010Prop53
 90
        2
102
RTVSPost2010PropOp53
 70
     1
102
RTVSPost2010Prop54
  1
strokes_ogs.tif
102
RTVSPost2010PropOp54
 70
     1
102
RTVSPost2010Prop55
280
     0
102
RTVSPost2010PropOp55
 70
     1
102
RTVSPost2010Prop56
140
1.0
102
RTVSPost2010PropOp56
 70
     1
102
RTVSPost2010Prop57
140
1.0
102
RTVSPost2010PropOp57
 70
     1
  0
XRECORD
  5
932
102
{ACAD_REACTORS
330
931
102
}
330
931
100
AcDbXrecord
280
     1
102
RTVSPost2010Prop28
280
     0
102
RTVSPost2010PropOp28
 70
     1
102
RTVSPost2010Prop29
280
     1
102
RTVSPost2010PropOp29
 70
     1
102
RTVSPost2010Prop30
280
     1
102
RTVSPost2010PropOp30
 70
     1
102
RTVSPost2010Prop31
280
     0
102
RTVSPost2010PropOp31
 70
     1
102
RTVSPost2010Prop32
280
     0
102
RTVSPost2010PropOp32
 70
     1
102
RTVSPost2010Prop33
280
     0
102
RTVSPost2010PropOp33
 70
     1
102
RTVSPost2010Prop34
280
     0
102
RTVSPost2010PropOp34
 70
     1
102
RTVSPost2010Prop35
280
     0
102
RTVSPost2010PropOp35
 70
     1
102
RTVSPost2010Prop36
280
     0
102
RTVSPost2010PropOp36
 70
     1
102
RTVSPost2010Prop37
 90
       50
102
RTVSPost2010PropOp37
 70
     1
102
RTVSPost2010Prop38
140
0.0
102
RTVSPost2010PropOp38
 70
     1
102
RTVSPost2010Prop39
140
1.0
102
RTVSPost2010PropOp39
 70
     1
102
RTVSPost2010Prop40
 90
        0
102
RTVSPost2010PropOp40
 70
     1
102
RTVSPost2010Prop41ColorIndex
 90
       18
102
RTVSPost2010Prop41ColorRGB
 90
        0
102
RTVSPost2010PropOp41
 70
     1
102
RTVSPost2010Prop42
 90
       50
102
RTVSPost2010PropOp42
 70
     1
102
RTVSPost2010Prop43
 90
        3
102
RTVSPost2010PropOp43
 70
     1
102
RTVSPost2010Prop44ColorIndex
 90
        5
102
RTVSPost2010Prop44ColorRGB
 90
      255
102
RTVSPost2010PropOp44
 70
     1
102
RTVSPost2010Prop45
280
     0
102
RTVSPost2010PropOp45
 70
     1
102
RTVSPost2010Prop46
 90
       50
102
RTVSPost2010PropOp46
 70
     1
102
RTVSPost2010Prop47
 90
       50
102
RTVSPost2010PropOp47
 70
     1
102
RTVSPost2010Prop48
 90
       50
102
RTVSPost2010PropOp48
 70
     1
102
RTVSPost2010Prop49
280
     0
102
RTVSPost2010PropOp49
 70
     1
102
RTVSPost2010Prop50
 90
       50
102
RTVSPost2010PropOp50
 70
     1
102
RTVSPost2010Prop51ColorIndex
 90
      256
102
RTVSPost2010Prop51ColorRGB
 90
-16777216
102
RTVSPost2010PropOp51
 70
     0
102
RTVSPost2010Prop52
140
1.0
102
RTVSPost2010PropOp52
 70
     0
102
RTVSPost2010Prop53
 90
        2
102
RTVSPost2010PropOp53
 70
     1
102
RTVSPost2010Prop54
  1
strokes_ogs.tif
102
RTVSPost2010PropOp54
 70
     1
102
RTVSPost2010Prop55
280
     0
102
RTVSPost2010PropOp55
 70
     1
102
RTVSPost2010Prop56
140
1.0
102
RTVSPost2010PropOp56
 70
     1
102
RTVSPost2010Prop57
140
1.0
102
RTVSPost2010PropOp57
 70
     1
  0
XRECORD
  5
934
102
{ACAD_REACTORS
330
933
102
}
330
933
100
AcDbXrecord
280
     1
102
RTVSPost2010Prop28
280
     0
102
RTVSPost2010PropOp28
 70
     1
102
RTVSPost2010Prop29
280
     1
102
RTVSPost2010PropOp29
 70
     1
102
RTVSPost2010Prop30
280
     1
102
RTVSPost2010PropOp30
 70
     1
102
RTVSPost2010Prop31
280
     0
102
RTVSPost2010PropOp31
 70
     1
102
RTVSPost2010Prop32
280
     0
102
RTVSPost2010PropOp32
 70
     1
102
RTVSPost2010Prop33
280
     0
102
RTVSPost2010PropOp33
 70
     1
102
RTVSPost2010Prop34
280
     0
102
RTVSPost2010PropOp34
 70
     1
102
RTVSPost2010Prop35
280
     0
102
RTVSPost2010PropOp35
 70
     1
102
RTVSPost2010Prop36
280
     0
102
RTVSPost2010PropOp36
 70
     1
102
RTVSPost2010Prop37
 90
       50
102
RTVSPost2010PropOp37
 70
     1
102
RTVSPost2010Prop38
140
0.0
102
RTVSPost2010PropOp38
 70
     1
102
RTVSPost2010Prop39
140
1.0
102
RTVSPost2010PropOp39
 70
     1
102
RTVSPost2010Prop40
 90
        0
102
RTVSPost2010PropOp40
 70
     1
102
RTVSPost2010Prop41ColorIndex
 90
       18
102
RTVSPost2010Prop41ColorRGB
 90
        0
102
RTVSPost2010PropOp41
 70
     1
102
RTVSPost2010Prop42
 90
       50
102
RTVSPost2010PropOp42
 70
     1
102
RTVSPost2010Prop43
 90
        3
102
RTVSPost2010PropOp43
 70
     1
102
RTVSPost2010Prop44ColorIndex
 90
        5
102
RTVSPost2010Prop44ColorRGB
 90
      255
102
RTVSPost2010PropOp44
 70
     1
102
RTVSPost2010Prop45
280
     0
102
RTVSPost2010PropOp45
 70
     1
102
RTVSPost2010Prop46
 90
       50
102
RTVSPost2010PropOp46
 70
     1
102
RTVSPost2010Prop47
 90
       50
102
RTVSPost2010PropOp47
 70
     1
102
RTVSPost2010Prop48
 90
       50
102
RTVSPost2010PropOp48
 70
     1
102
RTVSPost2010Prop49
280
     0
102
RTVSPost2010PropOp49
 70
     1
102
RTVSPost2010Prop50
 90
       50
102
RTVSPost2010PropOp50
 70
     1
102
RTVSPost2010Prop51ColorIndex
 90
      256
102
RTVSPost2010Prop51ColorRGB
 90
-16777216
102
RTVSPost2010PropOp51
 70
     0
102
RTVSPost2010Prop52
140
1.0
102
RTVSPost2010PropOp52
 70
     0
102
RTVSPost2010Prop53
 90
        2
102
RTVSPost2010PropOp53
 70
     1
102
RTVSPost2010Prop54
  1
strokes_ogs.tif
102
RTVSPost2010PropOp54
 70
     1
102
RTVSPost2010Prop55
280
     0
102
RTVSPost2010PropOp55
 70
     1
102
RTVSPost2010Prop56
140
1.0
102
RTVSPost2010PropOp56
 70
     1
102
RTVSPost2010Prop57
140
1.0
102
RTVSPost2010PropOp57
 70
     1
  0
XRECORD
  5
936
102
{ACAD_REACTORS
330
935
102
}
330
935
100
AcDbXrecord
280
     1
102
RTVSPost2010Prop28
280
     0
102
RTVSPost2010PropOp28
 70
     1
102
RTVSPost2010Prop29
280
     1
102
RTVSPost2010PropOp29
 70
     1
102
RTVSPost2010Prop30
280
     1
102
RTVSPost2010PropOp30
 70
     1
102
RTVSPost2010Prop31
280
     0
102
RTVSPost2010PropOp31
 70
     1
102
RTVSPost2010Prop32
280
     0
102
RTVSPost2010PropOp32
 70
     1
102
RTVSPost2010Prop33
280
     0
102
RTVSPost2010PropOp33
 70
     1
102
RTVSPost2010Prop34
280
     0
102
RTVSPost2010PropOp34
 70
     1
102
RTVSPost2010Prop35
280
     0
102
RTVSPost2010PropOp35
 70
     1
102
RTVSPost2010Prop36
280
     0
102
RTVSPost2010PropOp36
 70
     1
102
RTVSPost2010Prop37
 90
       50
102
RTVSPost2010PropOp37
 70
     1
102
RTVSPost2010Prop38
140
0.0
102
RTVSPost2010PropOp38
 70
     1
102
RTVSPost2010Prop39
140
1.0
102
RTVSPost2010PropOp39
 70
     1
102
RTVSPost2010Prop40
 90
        0
102
RTVSPost2010PropOp40
 70
     1
102
RTVSPost2010Prop41ColorIndex
 90
       18
102
RTVSPost2010Prop41ColorRGB
 90
        0
102
RTVSPost2010PropOp41
 70
     1
102
RTVSPost2010Prop42
 90
       50
102
RTVSPost2010PropOp42
 70
     1
102
RTVSPost2010Prop43
 90
        3
102
RTVSPost2010PropOp43
 70
     1
102
RTVSPost2010Prop44ColorIndex
 90
        5
102
RTVSPost2010Prop44ColorRGB
 90
      255
102
RTVSPost2010PropOp44
 70
     1
102
RTVSPost2010Prop45
280
     0
102
RTVSPost2010PropOp45
 70
     1
102
RTVSPost2010Prop46
 90
       50
102
RTVSPost2010PropOp46
 70
     1
102
RTVSPost2010Prop47
 90
       50
102
RTVSPost2010PropOp47
 70
     1
102
RTVSPost2010Prop48
 90
       50
102
RTVSPost2010PropOp48
 70
     1
102
RTVSPost2010Prop49
280
     0
102
RTVSPost2010PropOp49
 70
     1
102
RTVSPost2010Prop50
 90
       50
102
RTVSPost2010PropOp50
 70
     1
102
RTVSPost2010Prop51ColorIndex
 90
      256
102
RTVSPost2010Prop51ColorRGB
 90
-16777216
102
RTVSPost2010PropOp51
 70
     0
102
RTVSPost2010Prop52
140
1.0
102
RTVSPost2010PropOp52
 70
     0
102
RTVSPost2010Prop53
 90
        2
102
RTVSPost2010PropOp53
 70
     1
102
RTVSPost2010Prop54
  1
strokes_ogs.tif
102
RTVSPost2010PropOp54
 70
     1
102
RTVSPost2010Prop55
280
     0
102
RTVSPost2010PropOp55
 70
     1
102
RTVSPost2010Prop56
140
1.0
102
RTVSPost2010PropOp56
 70
     1
102
RTVSPost2010Prop57
140
1.0
102
RTVSPost2010PropOp57
 70
     1
  0
XRECORD
  5
938
102
{ACAD_REACTORS
330
937
102
}
330
937
100
AcDbXrecord
280
     1
102
RTVSPost2010Prop28
280
     0
102
RTVSPost2010PropOp28
 70
     1
102
RTVSPost2010Prop29
280
     1
102
RTVSPost2010PropOp29
 70
     1
102
RTVSPost2010Prop30
280
     1
102
RTVSPost2010PropOp30
 70
     1
102
RTVSPost2010Prop31
280
     0
102
RTVSPost2010PropOp31
 70
     1
102
RTVSPost2010Prop32
280
     0
102
RTVSPost2010PropOp32
 70
     1
102
RTVSPost2010Prop33
280
     0
102
RTVSPost2010PropOp33
 70
     1
102
RTVSPost2010Prop34
280
     0
102
RTVSPost2010PropOp34
 70
     1
102
RTVSPost2010Prop35
280
     0
102
RTVSPost2010PropOp35
 70
     1
102
RTVSPost2010Prop36
280
     0
102
RTVSPost2010PropOp36
 70
     1
102
RTVSPost2010Prop37
 90
       50
102
RTVSPost2010PropOp37
 70
     1
102
RTVSPost2010Prop38
140
0.0
102
RTVSPost2010PropOp38
 70
     1
102
RTVSPost2010Prop39
140
1.0
102
RTVSPost2010PropOp39
 70
     1
102
RTVSPost2010Prop40
 90
        0
102
RTVSPost2010PropOp40
 70
     1
102
RTVSPost2010Prop41ColorIndex
 90
       18
102
RTVSPost2010Prop41ColorRGB
 90
        0
102
RTVSPost2010PropOp41
 70
     1
102
RTVSPost2010Prop42
 90
       50
102
RTVSPost2010PropOp42
 70
     1
102
RTVSPost2010Prop43
 90
        3
102
RTVSPost2010PropOp43
 70
     1
102
RTVSPost2010Prop44ColorIndex
 90
        5
102
RTVSPost2010Prop44ColorRGB
 90
      255
102
RTVSPost2010PropOp44
 70
     1
102
RTVSPost2010Prop45
280
     0
102
RTVSPost2010PropOp45
 70
     1
102
RTVSPost2010Prop46
 90
       50
102
RTVSPost2010PropOp46
 70
     1
102
RTVSPost2010Prop47
 90
       50
102
RTVSPost2010PropOp47
 70
     1
102
RTVSPost2010Prop48
 90
       50
102
RTVSPost2010PropOp48
 70
     1
102
RTVSPost2010Prop49
280
     0
102
RTVSPost2010PropOp49
 70
     1
102
RTVSPost2010Prop50
 90
       50
102
RTVSPost2010PropOp50
 70
     1
102
RTVSPost2010Prop51ColorIndex
 90
      256
102
RTVSPost2010Prop51ColorRGB
 90
-16777216
102
RTVSPost2010PropOp51
 70
     0
102
RTVSPost2010Prop52
140
1.0
102
RTVSPost2010PropOp52
 70
     0
102
RTVSPost2010Prop53
 90
        2
102
RTVSPost2010PropOp53
 70
     1
102
RTVSPost2010Prop54
  1
strokes_ogs.tif
102
RTVSPost2010PropOp54
 70
     1
102
RTVSPost2010Prop55
280
     0
102
RTVSPost2010PropOp55
 70
     1
102
RTVSPost2010Prop56
140
1.0
102
RTVSPost2010PropOp56
 70
     1
102
RTVSPost2010Prop57
140
1.0
102
RTVSPost2010PropOp57
 70
     1
  0
XRECORD
  5
940
102
{ACAD_REACTORS
330
93F
102
}
330
93F
100
AcDbXrecord
280
     1
102
RTVSPost2010Prop28
280
     0
102
RTVSPost2010PropOp28
 70
     1
102
RTVSPost2010Prop29
280
     1
102
RTVSPost2010PropOp29
 70
     1
102
RTVSPost2010Prop30
280
     1
102
RTVSPost2010PropOp30
 70
     1
102
RTVSPost2010Prop31
280
     0
102
RTVSPost2010PropOp31
 70
     1
102
RTVSPost2010Prop32
280
     0
102
RTVSPost2010PropOp32
 70
     1
102
RTVSPost2010Prop33
280
     0
102
RTVSPost2010PropOp33
 70
     1
102
RTVSPost2010Prop34
280
     0
102
RTVSPost2010PropOp34
 70
     1
102
RTVSPost2010Prop35
280
     0
102
RTVSPost2010PropOp35
 70
     1
102
RTVSPost2010Prop36
280
     0
102
RTVSPost2010PropOp36
 70
     1
102
RTVSPost2010Prop37
 90
       50
102
RTVSPost2010PropOp37
 70
     1
102
RTVSPost2010Prop38
140
0.0
102
RTVSPost2010PropOp38
 70
     1
102
RTVSPost2010Prop39
140
1.0
102
RTVSPost2010PropOp39
 70
     1
102
RTVSPost2010Prop40
 90
        0
102
RTVSPost2010PropOp40
 70
     1
102
RTVSPost2010Prop41ColorIndex
 90
       18
102
RTVSPost2010Prop41ColorRGB
 90
        0
102
RTVSPost2010PropOp41
 70
     1
102
RTVSPost2010Prop42
 90
       50
102
RTVSPost2010PropOp42
 70
     1
102
RTVSPost2010Prop43
 90
        3
102
RTVSPost2010PropOp43
 70
     1
102
RTVSPost2010Prop44ColorIndex
 90
        5
102
RTVSPost2010Prop44ColorRGB
 90
      255
102
RTVSPost2010PropOp44
 70
     1
102
RTVSPost2010Prop45
280
     0
102
RTVSPost2010PropOp45
 70
     1
102
RTVSPost2010Prop46
 90
       50
102
RTVSPost2010PropOp46
 70
     1
102
RTVSPost2010Prop47
 90
       50
102
RTVSPost2010PropOp47
 70
     1
102
RTVSPost2010Prop48
 90
       50
102
RTVSPost2010PropOp48
 70
     1
102
RTVSPost2010Prop49
280
     0
102
RTVSPost2010PropOp49
 70
     1
102
RTVSPost2010Prop50
 90
       50
102
RTVSPost2010PropOp50
 70
     1
102
RTVSPost2010Prop51ColorIndex
 90
      256
102
RTVSPost2010Prop51ColorRGB
 90
-16777216
102
RTVSPost2010PropOp51
 70
     0
102
RTVSPost2010Prop52
140
1.0
102
RTVSPost2010PropOp52
 70
     0
102
RTVSPost2010Prop53
 90
        2
102
RTVSPost2010PropOp53
 70
     1
102
RTVSPost2010Prop54
  1
strokes_ogs.tif
102
RTVSPost2010PropOp54
 70
     1
102
RTVSPost2010Prop55
280
     0
102
RTVSPost2010PropOp55
 70
     1
102
RTVSPost2010Prop56
140
1.0
102
RTVSPost2010PropOp56
 70
     1
102
RTVSPost2010Prop57
140
1.0
102
RTVSPost2010PropOp57
 70
     1
  0
XRECORD
  5
952
102
{ACAD_REACTORS
330
951
102
}
330
951
100
AcDbXrecord
280
     1
102
RTVSPost2010Prop28
280
     0
102
RTVSPost2010PropOp28
 70
     1
102
RTVSPost2010Prop29
280
     1
102
RTVSPost2010PropOp29
 70
     1
102
RTVSPost2010Prop30
280
     1
102
RTVSPost2010PropOp30
 70
     1
102
RTVSPost2010Prop31
280
     0
102
RTVSPost2010PropOp31
 70
     1
102
RTVSPost2010Prop32
280
     0
102
RTVSPost2010PropOp32
 70
     1
102
RTVSPost2010Prop33
280
     0
102
RTVSPost2010PropOp33
 70
     1
102
RTVSPost2010Prop34
280
     0
102
RTVSPost2010PropOp34
 70
     1
102
RTVSPost2010Prop35
280
     0
102
RTVSPost2010PropOp35
 70
     1
102
RTVSPost2010Prop36
280
     0
102
RTVSPost2010PropOp36
 70
     1
102
RTVSPost2010Prop37
 90
       50
102
RTVSPost2010PropOp37
 70
     1
102
RTVSPost2010Prop38
140
0.0
102
RTVSPost2010PropOp38
 70
     1
102
RTVSPost2010Prop39
140
1.0
102
RTVSPost2010PropOp39
 70
     1
102
RTVSPost2010Prop40
 90
        0
102
RTVSPost2010PropOp40
 70
     1
102
RTVSPost2010Prop41ColorIndex
 90
       18
102
RTVSPost2010Prop41ColorRGB
 90
        0
102
RTVSPost2010PropOp41
 70
     1
102
RTVSPost2010Prop42
 90
       50
102
RTVSPost2010PropOp42
 70
     1
102
RTVSPost2010Prop43
 90
        3
102
RTVSPost2010PropOp43
 70
     1
102
RTVSPost2010Prop44ColorIndex
 90
        5
102
RTVSPost2010Prop44ColorRGB
 90
      255
102
RTVSPost2010PropOp44
 70
     1
102
RTVSPost2010Prop45
280
     0
102
RTVSPost2010PropOp45
 70
     1
102
RTVSPost2010Prop46
 90
       50
102
RTVSPost2010PropOp46
 70
     1
102
RTVSPost2010Prop47
 90
       50
102
RTVSPost2010PropOp47
 70
     1
102
RTVSPost2010Prop48
 90
       50
102
RTVSPost2010PropOp48
 70
     1
102
RTVSPost2010Prop49
280
     0
102
RTVSPost2010PropOp49
 70
     1
102
RTVSPost2010Prop50
 90
       50
102
RTVSPost2010PropOp50
 70
     1
102
RTVSPost2010Prop51ColorIndex
 90
      256
102
RTVSPost2010Prop51ColorRGB
 90
-16777216
102
RTVSPost2010PropOp51
 70
     0
102
RTVSPost2010Prop52
140
1.0
102
RTVSPost2010PropOp52
 70
     0
102
RTVSPost2010Prop53
 90
        2
102
RTVSPost2010PropOp53
 70
     1
102
RTVSPost2010Prop54
  1
strokes_ogs.tif
102
RTVSPost2010PropOp54
 70
     1
102
RTVSPost2010Prop55
280
     0
102
RTVSPost2010PropOp55
 70
     1
102
RTVSPost2010Prop56
140
1.0
102
RTVSPost2010PropOp56
 70
     1
102
RTVSPost2010Prop57
140
1.0
102
RTVSPost2010PropOp57
 70
     1
  0
XRECORD
  5
94C
102
{ACAD_REACTORS
330
94B
102
}
330
94B
100
AcDbXrecord
280
     1
102
RTVSPost2010Prop28
280
     0
102
RTVSPost2010PropOp28
 70
     1
102
RTVSPost2010Prop29
280
     1
102
RTVSPost2010PropOp29
 70
     1
102
RTVSPost2010Prop30
280
     1
102
RTVSPost2010PropOp30
 70
     1
102
RTVSPost2010Prop31
280
     0
102
RTVSPost2010PropOp31
 70
     1
102
RTVSPost2010Prop32
280
     0
102
RTVSPost2010PropOp32
 70
     1
102
RTVSPost2010Prop33
280
     0
102
RTVSPost2010PropOp33
 70
     1
102
RTVSPost2010Prop34
280
     0
102
RTVSPost2010PropOp34
 70
     1
102
RTVSPost2010Prop35
280
     0
102
RTVSPost2010PropOp35
 70
     1
102
RTVSPost2010Prop36
280
     0
102
RTVSPost2010PropOp36
 70
     1
102
RTVSPost2010Prop37
 90
       50
102
RTVSPost2010PropOp37
 70
     1
102
RTVSPost2010Prop38
140
0.0
102
RTVSPost2010PropOp38
 70
     1
102
RTVSPost2010Prop39
140
1.0
102
RTVSPost2010PropOp39
 70
     1
102
RTVSPost2010Prop40
 90
        0
102
RTVSPost2010PropOp40
 70
     1
102
RTVSPost2010Prop41ColorIndex
 90
       18
102
RTVSPost2010Prop41ColorRGB
 90
        0
102
RTVSPost2010PropOp41
 70
     1
102
RTVSPost2010Prop42
 90
       50
102
RTVSPost2010PropOp42
 70
     1
102
RTVSPost2010Prop43
 90
        3
102
RTVSPost2010PropOp43
 70
     1
102
RTVSPost2010Prop44ColorIndex
 90
        5
102
RTVSPost2010Prop44ColorRGB
 90
      255
102
RTVSPost2010PropOp44
 70
     1
102
RTVSPost2010Prop45
280
     0
102
RTVSPost2010PropOp45
 70
     1
102
RTVSPost2010Prop46
 90
       50
102
RTVSPost2010PropOp46
 70
     1
102
RTVSPost2010Prop47
 90
       50
102
RTVSPost2010PropOp47
 70
     1
102
RTVSPost2010Prop48
 90
       50
102
RTVSPost2010PropOp48
 70
     1
102
RTVSPost2010Prop49
280
     0
102
RTVSPost2010PropOp49
 70
     1
102
RTVSPost2010Prop50
 90
       50
102
RTVSPost2010PropOp50
 70
     1
102
RTVSPost2010Prop51ColorIndex
 90
      256
102
RTVSPost2010Prop51ColorRGB
 90
-16777216
102
RTVSPost2010PropOp51
 70
     0
102
RTVSPost2010Prop52
140
1.0
102
RTVSPost2010PropOp52
 70
     0
102
RTVSPost2010Prop53
 90
        2
102
RTVSPost2010PropOp53
 70
     1
102
RTVSPost2010Prop54
  1
strokes_ogs.tif
102
RTVSPost2010PropOp54
 70
     1
102
RTVSPost2010Prop55
280
     0
102
RTVSPost2010PropOp55
 70
     1
102
RTVSPost2010Prop56
140
1.0
102
RTVSPost2010PropOp56
 70
     1
102
RTVSPost2010Prop57
140
1.0
102
RTVSPost2010PropOp57
 70
     1
  0
XRECORD
  5
954
102
{ACAD_REACTORS
330
953
102
}
330
953
100
AcDbXrecord
280
     1
102
RTVSPost2010Prop28
280
     0
102
RTVSPost2010PropOp28
 70
     1
102
RTVSPost2010Prop29
280
     1
102
RTVSPost2010PropOp29
 70
     1
102
RTVSPost2010Prop30
280
     1
102
RTVSPost2010PropOp30
 70
     1
102
RTVSPost2010Prop31
280
     0
102
RTVSPost2010PropOp31
 70
     1
102
RTVSPost2010Prop32
280
     0
102
RTVSPost2010PropOp32
 70
     1
102
RTVSPost2010Prop33
280
     0
102
RTVSPost2010PropOp33
 70
     1
102
RTVSPost2010Prop34
280
     0
102
RTVSPost2010PropOp34
 70
     1
102
RTVSPost2010Prop35
280
     0
102
RTVSPost2010PropOp35
 70
     1
102
RTVSPost2010Prop36
280
     0
102
RTVSPost2010PropOp36
 70
     1
102
RTVSPost2010Prop37
 90
       50
102
RTVSPost2010PropOp37
 70
     1
102
RTVSPost2010Prop38
140
0.0
102
RTVSPost2010PropOp38
 70
     1
102
RTVSPost2010Prop39
140
1.0
102
RTVSPost2010PropOp39
 70
     1
102
RTVSPost2010Prop40
 90
        0
102
RTVSPost2010PropOp40
 70
     1
102
RTVSPost2010Prop41ColorIndex
 90
       18
102
RTVSPost2010Prop41ColorRGB
 90
        0
102
RTVSPost2010PropOp41
 70
     1
102
RTVSPost2010Prop42
 90
       50
102
RTVSPost2010PropOp42
 70
     1
102
RTVSPost2010Prop43
 90
        3
102
RTVSPost2010PropOp43
 70
     1
102
RTVSPost2010Prop44ColorIndex
 90
        5
102
RTVSPost2010Prop44ColorRGB
 90
      255
102
RTVSPost2010PropOp44
 70
     1
102
RTVSPost2010Prop45
280
     0
102
RTVSPost2010PropOp45
 70
     1
102
RTVSPost2010Prop46
 90
       50
102
RTVSPost2010PropOp46
 70
     1
102
RTVSPost2010Prop47
 90
       50
102
RTVSPost2010PropOp47
 70
     1
102
RTVSPost2010Prop48
 90
       50
102
RTVSPost2010PropOp48
 70
     1
102
RTVSPost2010Prop49
280
     0
102
RTVSPost2010PropOp49
 70
     1
102
RTVSPost2010Prop50
 90
       50
102
RTVSPost2010PropOp50
 70
     1
102
RTVSPost2010Prop51ColorIndex
 90
      256
102
RTVSPost2010Prop51ColorRGB
 90
-16777216
102
RTVSPost2010PropOp51
 70
     0
102
RTVSPost2010Prop52
140
1.0
102
RTVSPost2010PropOp52
 70
     0
102
RTVSPost2010Prop53
 90
        2
102
RTVSPost2010PropOp53
 70
     1
102
RTVSPost2010Prop54
  1
strokes_ogs.tif
102
RTVSPost2010PropOp54
 70
     1
102
RTVSPost2010Prop55
280
     0
102
RTVSPost2010PropOp55
 70
     1
102
RTVSPost2010Prop56
140
1.0
102
RTVSPost2010PropOp56
 70
     1
102
RTVSPost2010Prop57
140
1.0
102
RTVSPost2010PropOp57
 70
     1
  0
XRECORD
  5
944
102
{ACAD_REACTORS
330
943
102
}
330
943
100
AcDbXrecord
280
     1
102
RTVSPost2010Prop28
280
     0
102
RTVSPost2010PropOp28
 70
     1
102
RTVSPost2010Prop29
280
     1
102
RTVSPost2010PropOp29
 70
     1
102
RTVSPost2010Prop30
280
     1
102
RTVSPost2010PropOp30
 70
     1
102
RTVSPost2010Prop31
280
     0
102
RTVSPost2010PropOp31
 70
     1
102
RTVSPost2010Prop32
280
     0
102
RTVSPost2010PropOp32
 70
     1
102
RTVSPost2010Prop33
280
     0
102
RTVSPost2010PropOp33
 70
     1
102
RTVSPost2010Prop34
280
     0
102
RTVSPost2010PropOp34
 70
     1
102
RTVSPost2010Prop35
280
     0
102
RTVSPost2010PropOp35
 70
     1
102
RTVSPost2010Prop36
280
     0
102
RTVSPost2010PropOp36
 70
     1
102
RTVSPost2010Prop37
 90
       50
102
RTVSPost2010PropOp37
 70
     1
102
RTVSPost2010Prop38
140
0.0
102
RTVSPost2010PropOp38
 70
     1
102
RTVSPost2010Prop39
140
1.0
102
RTVSPost2010PropOp39
 70
     1
102
RTVSPost2010Prop40
 90
        0
102
RTVSPost2010PropOp40
 70
     1
102
RTVSPost2010Prop41ColorIndex
 90
       18
102
RTVSPost2010Prop41ColorRGB
 90
        0
102
RTVSPost2010PropOp41
 70
     1
102
RTVSPost2010Prop42
 90
       50
102
RTVSPost2010PropOp42
 70
     1
102
RTVSPost2010Prop43
 90
        3
102
RTVSPost2010PropOp43
 70
     1
102
RTVSPost2010Prop44ColorIndex
 90
        5
102
RTVSPost2010Prop44ColorRGB
 90
      255
102
RTVSPost2010PropOp44
 70
     1
102
RTVSPost2010Prop45
280
     0
102
RTVSPost2010PropOp45
 70
     1
102
RTVSPost2010Prop46
 90
       50
102
RTVSPost2010PropOp46
 70
     1
102
RTVSPost2010Prop47
 90
       50
102
RTVSPost2010PropOp47
 70
     1
102
RTVSPost2010Prop48
 90
       50
102
RTVSPost2010PropOp48
 70
     1
102
RTVSPost2010Prop49
280
     0
102
RTVSPost2010PropOp49
 70
     1
102
RTVSPost2010Prop50
 90
       50
102
RTVSPost2010PropOp50
 70
     1
102
RTVSPost2010Prop51ColorIndex
 90
      256
102
RTVSPost2010Prop51ColorRGB
 90
-16777216
102
RTVSPost2010PropOp51
 70
     0
102
RTVSPost2010Prop52
140
1.0
102
RTVSPost2010PropOp52
 70
     0
102
RTVSPost2010Prop53
 90
        2
102
RTVSPost2010PropOp53
 70
     1
102
RTVSPost2010Prop54
  1
strokes_ogs.tif
102
RTVSPost2010PropOp54
 70
     1
102
RTVSPost2010Prop55
280
     0
102
RTVSPost2010PropOp55
 70
     1
102
RTVSPost2010Prop56
140
1.0
102
RTVSPost2010PropOp56
 70
     1
102
RTVSPost2010Prop57
140
1.0
102
RTVSPost2010PropOp57
 70
     1
  0
XRECORD
  5
960
102
{ACAD_REACTORS
330
95F
102
}
330
95F
100
AcDbXrecord
280
     1
102
RTVSPost2010Prop28
280
     0
102
RTVSPost2010PropOp28
 70
     1
102
RTVSPost2010Prop29
280
     1
102
RTVSPost2010PropOp29
 70
     1
102
RTVSPost2010Prop30
280
     1
102
RTVSPost2010PropOp30
 70
     1
102
RTVSPost2010Prop31
280
     0
102
RTVSPost2010PropOp31
 70
     1
102
RTVSPost2010Prop32
280
     0
102
RTVSPost2010PropOp32
 70
     1
102
RTVSPost2010Prop33
280
     0
102
RTVSPost2010PropOp33
 70
     1
102
RTVSPost2010Prop34
280
     0
102
RTVSPost2010PropOp34
 70
     1
102
RTVSPost2010Prop35
280
     0
102
RTVSPost2010PropOp35
 70
     1
102
RTVSPost2010Prop36
280
     0
102
RTVSPost2010PropOp36
 70
     1
102
RTVSPost2010Prop37
 90
       50
102
RTVSPost2010PropOp37
 70
     1
102
RTVSPost2010Prop38
140
0.0
102
RTVSPost2010PropOp38
 70
     1
102
RTVSPost2010Prop39
140
1.0
102
RTVSPost2010PropOp39
 70
     1
102
RTVSPost2010Prop40
 90
        0
102
RTVSPost2010PropOp40
 70
     1
102
RTVSPost2010Prop41ColorIndex
 90
       18
102
RTVSPost2010Prop41ColorRGB
 90
        0
102
RTVSPost2010PropOp41
 70
     1
102
RTVSPost2010Prop42
 90
       50
102
RTVSPost2010PropOp42
 70
     1
102
RTVSPost2010Prop43
 90
        3
102
RTVSPost2010PropOp43
 70
     1
102
RTVSPost2010Prop44ColorIndex
 90
        5
102
RTVSPost2010Prop44ColorRGB
 90
      255
102
RTVSPost2010PropOp44
 70
     1
102
RTVSPost2010Prop45
280
     0
102
RTVSPost2010PropOp45
 70
     1
102
RTVSPost2010Prop46
 90
       50
102
RTVSPost2010PropOp46
 70
     1
102
RTVSPost2010Prop47
 90
       50
102
RTVSPost2010PropOp47
 70
     1
102
RTVSPost2010Prop48
 90
       50
102
RTVSPost2010PropOp48
 70
     1
102
RTVSPost2010Prop49
280
     0
102
RTVSPost2010PropOp49
 70
     1
102
RTVSPost2010Prop50
 90
       50
102
RTVSPost2010PropOp50
 70
     1
102
RTVSPost2010Prop51ColorIndex
 90
      256
102
RTVSPost2010Prop51ColorRGB
 90
-16777216
102
RTVSPost2010PropOp51
 70
     0
102
RTVSPost2010Prop52
140
1.0
102
RTVSPost2010PropOp52
 70
     0
102
RTVSPost2010Prop53
 90
        2
102
RTVSPost2010PropOp53
 70
     1
102
RTVSPost2010Prop54
  1
strokes_ogs.tif
102
RTVSPost2010PropOp54
 70
     1
102
RTVSPost2010Prop55
280
     0
102
RTVSPost2010PropOp55
 70
     1
102
RTVSPost2010Prop56
140
1.0
102
RTVSPost2010PropOp56
 70
     1
102
RTVSPost2010Prop57
140
1.0
102
RTVSPost2010PropOp57
 70
     1
  0
XRECORD
  5
95E
102
{ACAD_REACTORS
330
95D
102
}
330
95D
100
AcDbXrecord
280
     1
102
RTVSPost2010Prop28
280
     0
102
RTVSPost2010PropOp28
 70
     1
102
RTVSPost2010Prop29
280
     1
102
RTVSPost2010PropOp29
 70
     1
102
RTVSPost2010Prop30
280
     1
102
RTVSPost2010PropOp30
 70
     1
102
RTVSPost2010Prop31
280
     0
102
RTVSPost2010PropOp31
 70
     1
102
RTVSPost2010Prop32
280
     0
102
RTVSPost2010PropOp32
 70
     1
102
RTVSPost2010Prop33
280
     0
102
RTVSPost2010PropOp33
 70
     1
102
RTVSPost2010Prop34
280
     0
102
RTVSPost2010PropOp34
 70
     1
102
RTVSPost2010Prop35
280
     0
102
RTVSPost2010PropOp35
 70
     1
102
RTVSPost2010Prop36
280
     0
102
RTVSPost2010PropOp36
 70
     1
102
RTVSPost2010Prop37
 90
       50
102
RTVSPost2010PropOp37
 70
     1
102
RTVSPost2010Prop38
140
0.0
102
RTVSPost2010PropOp38
 70
     1
102
RTVSPost2010Prop39
140
1.0
102
RTVSPost2010PropOp39
 70
     1
102
RTVSPost2010Prop40
 90
        0
102
RTVSPost2010PropOp40
 70
     1
102
RTVSPost2010Prop41ColorIndex
 90
       18
102
RTVSPost2010Prop41ColorRGB
 90
        0
102
RTVSPost2010PropOp41
 70
     1
102
RTVSPost2010Prop42
 90
       50
102
RTVSPost2010PropOp42
 70
     1
102
RTVSPost2010Prop43
 90
        3
102
RTVSPost2010PropOp43
 70
     1
102
RTVSPost2010Prop44ColorIndex
 90
        5
102
RTVSPost2010Prop44ColorRGB
 90
      255
102
RTVSPost2010PropOp44
 70
     1
102
RTVSPost2010Prop45
280
     0
102
RTVSPost2010PropOp45
 70
     1
102
RTVSPost2010Prop46
 90
       50
102
RTVSPost2010PropOp46
 70
     1
102
RTVSPost2010Prop47
 90
       50
102
RTVSPost2010PropOp47
 70
     1
102
RTVSPost2010Prop48
 90
       50
102
RTVSPost2010PropOp48
 70
     1
102
RTVSPost2010Prop49
280
     0
102
RTVSPost2010PropOp49
 70
     1
102
RTVSPost2010Prop50
 90
       50
102
RTVSPost2010PropOp50
 70
     1
102
RTVSPost2010Prop51ColorIndex
 90
      256
102
RTVSPost2010Prop51ColorRGB
 90
-16777216
102
RTVSPost2010PropOp51
 70
     0
102
RTVSPost2010Prop52
140
1.0
102
RTVSPost2010PropOp52
 70
     0
102
RTVSPost2010Prop53
 90
        2
102
RTVSPost2010PropOp53
 70
     1
102
RTVSPost2010Prop54
  1
strokes_ogs.tif
102
RTVSPost2010PropOp54
 70
     1
102
RTVSPost2010Prop55
280
     0
102
RTVSPost2010PropOp55
 70
     1
102
RTVSPost2010Prop56
140
1.0
102
RTVSPost2010PropOp56
 70
     1
102
RTVSPost2010Prop57
140
1.0
102
RTVSPost2010PropOp57
 70
     1
  0
XRECORD
  5
958
102
{ACAD_REACTORS
330
957
102
}
330
957
100
AcDbXrecord
280
     1
102
RTVSPost2010Prop28
280
     0
102
RTVSPost2010PropOp28
 70
     1
102
RTVSPost2010Prop29
280
     1
102
RTVSPost2010PropOp29
 70
     1
102
RTVSPost2010Prop30
280
     1
102
RTVSPost2010PropOp30
 70
     1
102
RTVSPost2010Prop31
280
     0
102
RTVSPost2010PropOp31
 70
     1
102
RTVSPost2010Prop32
280
     0
102
RTVSPost2010PropOp32
 70
     1
102
RTVSPost2010Prop33
280
     0
102
RTVSPost2010PropOp33
 70
     1
102
RTVSPost2010Prop34
280
     0
102
RTVSPost2010PropOp34
 70
     1
102
RTVSPost2010Prop35
280
     0
102
RTVSPost2010PropOp35
 70
     1
102
RTVSPost2010Prop36
280
     0
102
RTVSPost2010PropOp36
 70
     1
102
RTVSPost2010Prop37
 90
       50
102
RTVSPost2010PropOp37
 70
     1
102
RTVSPost2010Prop38
140
0.0
102
RTVSPost2010PropOp38
 70
     1
102
RTVSPost2010Prop39
140
1.0
102
RTVSPost2010PropOp39
 70
     1
102
RTVSPost2010Prop40
 90
        0
102
RTVSPost2010PropOp40
 70
     1
102
RTVSPost2010Prop41ColorIndex
 90
       18
102
RTVSPost2010Prop41ColorRGB
 90
        0
102
RTVSPost2010PropOp41
 70
     1
102
RTVSPost2010Prop42
 90
       50
102
RTVSPost2010PropOp42
 70
     1
102
RTVSPost2010Prop43
 90
        3
102
RTVSPost2010PropOp43
 70
     1
102
RTVSPost2010Prop44ColorIndex
 90
        5
102
RTVSPost2010Prop44ColorRGB
 90
      255
102
RTVSPost2010PropOp44
 70
     1
102
RTVSPost2010Prop45
280
     0
102
RTVSPost2010PropOp45
 70
     1
102
RTVSPost2010Prop46
 90
       50
102
RTVSPost2010PropOp46
 70
     1
102
RTVSPost2010Prop47
 90
       50
102
RTVSPost2010PropOp47
 70
     1
102
RTVSPost2010Prop48
 90
       50
102
RTVSPost2010PropOp48
 70
     1
102
RTVSPost2010Prop49
280
     0
102
RTVSPost2010PropOp49
 70
     1
102
RTVSPost2010Prop50
 90
       50
102
RTVSPost2010PropOp50
 70
     1
102
RTVSPost2010Prop51ColorIndex
 90
      256
102
RTVSPost2010Prop51ColorRGB
 90
-16777216
102
RTVSPost2010PropOp51
 70
     0
102
RTVSPost2010Prop52
140
1.0
102
RTVSPost2010PropOp52
 70
     0
102
RTVSPost2010Prop53
 90
        2
102
RTVSPost2010PropOp53
 70
     1
102
RTVSPost2010Prop54
  1
strokes_ogs.tif
102
RTVSPost2010PropOp54
 70
     1
102
RTVSPost2010Prop55
280
     0
102
RTVSPost2010PropOp55
 70
     1
102
RTVSPost2010Prop56
140
1.0
102
RTVSPost2010PropOp56
 70
     1
102
RTVSPost2010Prop57
140
1.0
102
RTVSPost2010PropOp57
 70
     1
  0
XRECORD
  5
95A
102
{ACAD_REACTORS
330
959
102
}
330
959
100
AcDbXrecord
280
     1
102
RTVSPost2010Prop28
280
     0
102
RTVSPost2010PropOp28
 70
     1
102
RTVSPost2010Prop29
280
     1
102
RTVSPost2010PropOp29
 70
     1
102
RTVSPost2010Prop30
280
     1
102
RTVSPost2010PropOp30
 70
     1
102
RTVSPost2010Prop31
280
     0
102
RTVSPost2010PropOp31
 70
     1
102
RTVSPost2010Prop32
280
     0
102
RTVSPost2010PropOp32
 70
     1
102
RTVSPost2010Prop33
280
     0
102
RTVSPost2010PropOp33
 70
     1
102
RTVSPost2010Prop34
280
     0
102
RTVSPost2010PropOp34
 70
     1
102
RTVSPost2010Prop35
280
     0
102
RTVSPost2010PropOp35
 70
     1
102
RTVSPost2010Prop36
280
     0
102
RTVSPost2010PropOp36
 70
     1
102
RTVSPost2010Prop37
 90
       50
102
RTVSPost2010PropOp37
 70
     1
102
RTVSPost2010Prop38
140
0.0
102
RTVSPost2010PropOp38
 70
     1
102
RTVSPost2010Prop39
140
1.0
102
RTVSPost2010PropOp39
 70
     1
102
RTVSPost2010Prop40
 90
        0
102
RTVSPost2010PropOp40
 70
     1
102
RTVSPost2010Prop41ColorIndex
 90
       18
102
RTVSPost2010Prop41ColorRGB
 90
        0
102
RTVSPost2010PropOp41
 70
     1
102
RTVSPost2010Prop42
 90
       50
102
RTVSPost2010PropOp42
 70
     1
102
RTVSPost2010Prop43
 90
        3
102
RTVSPost2010PropOp43
 70
     1
102
RTVSPost2010Prop44ColorIndex
 90
        5
102
RTVSPost2010Prop44ColorRGB
 90
      255
102
RTVSPost2010PropOp44
 70
     1
102
RTVSPost2010Prop45
280
     0
102
RTVSPost2010PropOp45
 70
     1
102
RTVSPost2010Prop46
 90
       50
102
RTVSPost2010PropOp46
 70
     1
102
RTVSPost2010Prop47
 90
       50
102
RTVSPost2010PropOp47
 70
     1
102
RTVSPost2010Prop48
 90
       50
102
RTVSPost2010PropOp48
 70
     1
102
RTVSPost2010Prop49
280
     0
102
RTVSPost2010PropOp49
 70
     1
102
RTVSPost2010Prop50
 90
       50
102
RTVSPost2010PropOp50
 70
     1
102
RTVSPost2010Prop51ColorIndex
 90
      256
102
RTVSPost2010Prop51ColorRGB
 90
-16777216
102
RTVSPost2010PropOp51
 70
     0
102
RTVSPost2010Prop52
140
1.0
102
RTVSPost2010PropOp52
 70
     0
102
RTVSPost2010Prop53
 90
        2
102
RTVSPost2010PropOp53
 70
     1
102
RTVSPost2010Prop54
  1
strokes_ogs.tif
102
RTVSPost2010PropOp54
 70
     1
102
RTVSPost2010Prop55
280
     0
102
RTVSPost2010PropOp55
 70
     1
102
RTVSPost2010Prop56
140
1.0
102
RTVSPost2010PropOp56
 70
     1
102
RTVSPost2010Prop57
140
1.0
102
RTVSPost2010PropOp57
 70
     1
  0
XRECORD
  5
94A
102
{ACAD_REACTORS
330
949
102
}
330
949
100
AcDbXrecord
280
     1
102
RTVSPost2010Prop28
280
     0
102
RTVSPost2010PropOp28
 70
     1
102
RTVSPost2010Prop29
280
     1
102
RTVSPost2010PropOp29
 70
     1
102
RTVSPost2010Prop30
280
     1
102
RTVSPost2010PropOp30
 70
     1
102
RTVSPost2010Prop31
280
     0
102
RTVSPost2010PropOp31
 70
     1
102
RTVSPost2010Prop32
280
     0
102
RTVSPost2010PropOp32
 70
     1
102
RTVSPost2010Prop33
280
     0
102
RTVSPost2010PropOp33
 70
     1
102
RTVSPost2010Prop34
280
     0
102
RTVSPost2010PropOp34
 70
     1
102
RTVSPost2010Prop35
280
     0
102
RTVSPost2010PropOp35
 70
     1
102
RTVSPost2010Prop36
280
     0
102
RTVSPost2010PropOp36
 70
     1
102
RTVSPost2010Prop37
 90
       50
102
RTVSPost2010PropOp37
 70
     1
102
RTVSPost2010Prop38
140
0.0
102
RTVSPost2010PropOp38
 70
     1
102
RTVSPost2010Prop39
140
1.0
102
RTVSPost2010PropOp39
 70
     1
102
RTVSPost2010Prop40
 90
        0
102
RTVSPost2010PropOp40
 70
     1
102
RTVSPost2010Prop41ColorIndex
 90
       18
102
RTVSPost2010Prop41ColorRGB
 90
        0
102
RTVSPost2010PropOp41
 70
     1
102
RTVSPost2010Prop42
 90
       50
102
RTVSPost2010PropOp42
 70
     1
102
RTVSPost2010Prop43
 90
        3
102
RTVSPost2010PropOp43
 70
     1
102
RTVSPost2010Prop44ColorIndex
 90
        5
102
RTVSPost2010Prop44ColorRGB
 90
      255
102
RTVSPost2010PropOp44
 70
     1
102
RTVSPost2010Prop45
280
     0
102
RTVSPost2010PropOp45
 70
     1
102
RTVSPost2010Prop46
 90
       50
102
RTVSPost2010PropOp46
 70
     1
102
RTVSPost2010Prop47
 90
       50
102
RTVSPost2010PropOp47
 70
     1
102
RTVSPost2010Prop48
 90
       50
102
RTVSPost2010PropOp48
 70
     1
102
RTVSPost2010Prop49
280
     0
102
RTVSPost2010PropOp49
 70
     1
102
RTVSPost2010Prop50
 90
       50
102
RTVSPost2010PropOp50
 70
     1
102
RTVSPost2010Prop51ColorIndex
 90
      256
102
RTVSPost2010Prop51ColorRGB
 90
-16777216
102
RTVSPost2010PropOp51
 70
     0
102
RTVSPost2010Prop52
140
1.0
102
RTVSPost2010PropOp52
 70
     0
102
RTVSPost2010Prop53
 90
        2
102
RTVSPost2010PropOp53
 70
     1
102
RTVSPost2010Prop54
  1
strokes_ogs.tif
102
RTVSPost2010PropOp54
 70
     1
102
RTVSPost2010Prop55
280
     0
102
RTVSPost2010PropOp55
 70
     1
102
RTVSPost2010Prop56
140
1.0
102
RTVSPost2010PropOp56
 70
     1
102
RTVSPost2010Prop57
140
1.0
102
RTVSPost2010PropOp57
 70
     1
  0
XRECORD
  5
93E
102
{ACAD_REACTORS
330
93D
102
}
330
93D
100
AcDbXrecord
280
     1
102
RTVSPost2010Prop28
280
     0
102
RTVSPost2010PropOp28
 70
     1
102
RTVSPost2010Prop29
280
     1
102
RTVSPost2010PropOp29
 70
     1
102
RTVSPost2010Prop30
280
     1
102
RTVSPost2010PropOp30
 70
     1
102
RTVSPost2010Prop31
280
     0
102
RTVSPost2010PropOp31
 70
     1
102
RTVSPost2010Prop32
280
     0
102
RTVSPost2010PropOp32
 70
     1
102
RTVSPost2010Prop33
280
     0
102
RTVSPost2010PropOp33
 70
     1
102
RTVSPost2010Prop34
280
     0
102
RTVSPost2010PropOp34
 70
     1
102
RTVSPost2010Prop35
280
     0
102
RTVSPost2010PropOp35
 70
     1
102
RTVSPost2010Prop36
280
     0
102
RTVSPost2010PropOp36
 70
     1
102
RTVSPost2010Prop37
 90
       50
102
RTVSPost2010PropOp37
 70
     1
102
RTVSPost2010Prop38
140
0.0
102
RTVSPost2010PropOp38
 70
     1
102
RTVSPost2010Prop39
140
1.0
102
RTVSPost2010PropOp39
 70
     1
102
RTVSPost2010Prop40
 90
        0
102
RTVSPost2010PropOp40
 70
     1
102
RTVSPost2010Prop41ColorIndex
 90
       18
102
RTVSPost2010Prop41ColorRGB
 90
        0
102
RTVSPost2010PropOp41
 70
     1
102
RTVSPost2010Prop42
 90
       50
102
RTVSPost2010PropOp42
 70
     1
102
RTVSPost2010Prop43
 90
        3
102
RTVSPost2010PropOp43
 70
     1
102
RTVSPost2010Prop44ColorIndex
 90
        5
102
RTVSPost2010Prop44ColorRGB
 90
      255
102
RTVSPost2010PropOp44
 70
     1
102
RTVSPost2010Prop45
280
     0
102
RTVSPost2010PropOp45
 70
     1
102
RTVSPost2010Prop46
 90
       50
102
RTVSPost2010PropOp46
 70
     1
102
RTVSPost2010Prop47
 90
       50
102
RTVSPost2010PropOp47
 70
     1
102
RTVSPost2010Prop48
 90
       50
102
RTVSPost2010PropOp48
 70
     1
102
RTVSPost2010Prop49
280
     0
102
RTVSPost2010PropOp49
 70
     1
102
RTVSPost2010Prop50
 90
       50
102
RTVSPost2010PropOp50
 70
     1
102
RTVSPost2010Prop51ColorIndex
 90
      256
102
RTVSPost2010Prop51ColorRGB
 90
-16777216
102
RTVSPost2010PropOp51
 70
     0
102
RTVSPost2010Prop52
140
1.0
102
RTVSPost2010PropOp52
 70
     0
102
RTVSPost2010Prop53
 90
        2
102
RTVSPost2010PropOp53
 70
     1
102
RTVSPost2010Prop54
  1
strokes_ogs.tif
102
RTVSPost2010PropOp54
 70
     1
102
RTVSPost2010Prop55
280
     0
102
RTVSPost2010PropOp55
 70
     1
102
RTVSPost2010Prop56
140
1.0
102
RTVSPost2010PropOp56
 70
     1
102
RTVSPost2010Prop57
140
1.0
102
RTVSPost2010PropOp57
 70
     1
  0
XRECORD
  5
95C
102
{ACAD_REACTORS
330
95B
102
}
330
95B
100
AcDbXrecord
280
     1
102
RTVSPost2010Prop28
280
     0
102
RTVSPost2010PropOp28
 70
     1
102
RTVSPost2010Prop29
280
     1
102
RTVSPost2010PropOp29
 70
     1
102
RTVSPost2010Prop30
280
     1
102
RTVSPost2010PropOp30
 70
     1
102
RTVSPost2010Prop31
280
     0
102
RTVSPost2010PropOp31
 70
     1
102
RTVSPost2010Prop32
280
     0
102
RTVSPost2010PropOp32
 70
     1
102
RTVSPost2010Prop33
280
     0
102
RTVSPost2010PropOp33
 70
     1
102
RTVSPost2010Prop34
280
     0
102
RTVSPost2010PropOp34
 70
     1
102
RTVSPost2010Prop35
280
     0
102
RTVSPost2010PropOp35
 70
     1
102
RTVSPost2010Prop36
280
     0
102
RTVSPost2010PropOp36
 70
     1
102
RTVSPost2010Prop37
 90
       50
102
RTVSPost2010PropOp37
 70
     1
102
RTVSPost2010Prop38
140
0.0
102
RTVSPost2010PropOp38
 70
     1
102
RTVSPost2010Prop39
140
1.0
102
RTVSPost2010PropOp39
 70
     1
102
RTVSPost2010Prop40
 90
        0
102
RTVSPost2010PropOp40
 70
     1
102
RTVSPost2010Prop41ColorIndex
 90
       18
102
RTVSPost2010Prop41ColorRGB
 90
        0
102
RTVSPost2010PropOp41
 70
     1
102
RTVSPost2010Prop42
 90
       50
102
RTVSPost2010PropOp42
 70
     1
102
RTVSPost2010Prop43
 90
        3
102
RTVSPost2010PropOp43
 70
     1
102
RTVSPost2010Prop44ColorIndex
 90
        5
102
RTVSPost2010Prop44ColorRGB
 90
      255
102
RTVSPost2010PropOp44
 70
     1
102
RTVSPost2010Prop45
280
     0
102
RTVSPost2010PropOp45
 70
     1
102
RTVSPost2010Prop46
 90
       50
102
RTVSPost2010PropOp46
 70
     1
102
RTVSPost2010Prop47
 90
       50
102
RTVSPost2010PropOp47
 70
     1
102
RTVSPost2010Prop48
 90
       50
102
RTVSPost2010PropOp48
 70
     1
102
RTVSPost2010Prop49
280
     0
102
RTVSPost2010PropOp49
 70
     1
102
RTVSPost2010Prop50
 90
       50
102
RTVSPost2010PropOp50
 70
     1
102
RTVSPost2010Prop51ColorIndex
 90
      256
102
RTVSPost2010Prop51ColorRGB
 90
-16777216
102
RTVSPost2010PropOp51
 70
     0
102
RTVSPost2010Prop52
140
1.0
102
RTVSPost2010PropOp52
 70
     0
102
RTVSPost2010Prop53
 90
        2
102
RTVSPost2010PropOp53
 70
     1
102
RTVSPost2010Prop54
  1
strokes_ogs.tif
102
RTVSPost2010PropOp54
 70
     1
102
RTVSPost2010Prop55
280
     0
102
RTVSPost2010PropOp55
 70
     1
102
RTVSPost2010Prop56
140
1.0
102
RTVSPost2010PropOp56
 70
     1
102
RTVSPost2010Prop57
140
1.0
102
RTVSPost2010PropOp57
 70
     1
  0
ENDSEC
  0
EOF
