  0
SECTION
  2
HEADER
  9
$ACADVER
  1
AC1024
  9
$ACADMAINTVER
 70
   155
  9
$DWGCODEPAGE
  3
ANSI_936
  9
$LASTSAVEDBY
  1
Administrator
  9
$INSBASE
 10
0.0
 20
0.0
 30
0.0
  9
$EXTMIN
 10
92.42082451792066
 20
85.22837709324676
 30
-0.0000000349181948
  9
$EXTMAX
 10
1918.010041685099
 20
901.8684167511642
 30
0.0000000814935746
  9
$LIMMIN
 10
0.0
 20
0.0
  9
$LIMMAX
 10
420.0
 20
297.0
  9
$ORTHOMODE
 70
     0
  9
$REGENMODE
 70
     1
  9
$FILLMODE
 70
     1
  9
$QTEXTMODE
 70
     0
  9
$MIRRTEXT
 70
     0
  9
$LTSCALE
 40
1.0
  9
$ATTMODE
 70
     1
  9
$TEXTSIZE
 40
2.5
  9
$TRACEWID
 40
1.0
  9
$TEXTSTYLE
  7
Standard
  9
$CLAYER
  8
0
  9
$CELTYPE
  6
ByLayer
  9
$CECOLOR
 62
   256
  9
$CELTSCALE
 40
1.0
  9
$DISPSILH
 70
     0
  9
$DIMSCALE
 40
1.0
  9
$DIMASZ
 40
2.5
  9
$DIMEXO
 40
0.625
  9
$DIMDLI
 40
3.75
  9
$DIMRND
 40
0.0
  9
$DIMDLE
 40
0.0
  9
$DIMEXE
 40
1.25
  9
$DIMTP
 40
0.0
  9
$DIMTM
 40
0.0
  9
$DIMTXT
 40
2.5
  9
$DIMCEN
 40
2.5
  9
$DIMTSZ
 40
0.0
  9
$DIMTOL
 70
     0
  9
$DIMLIM
 70
     0
  9
$DIMTIH
 70
     0
  9
$DIMTOH
 70
     0
  9
$DIMSE1
 70
     0
  9
$DIMSE2
 70
     0
  9
$DIMTAD
 70
     1
  9
$DIMZIN
 70
     8
  9
$DIMBLK
  1

  9
$DIMASO
 70
     1
  9
$DIMSHO
 70
     1
  9
$DIMPOST
  1

  9
$DIMAPOST
  1

  9
$DIMALT
 70
     0
  9
$DIMALTD
 70
     3
  9
$DIMALTF
 40
0.03937007874016
  9
$DIMLFAC
 40
1.0
  9
$DIMTOFL
 70
     1
  9
$DIMTVP
 40
0.0
  9
$DIMTIX
 70
     0
  9
$DIMSOXD
 70
     0
  9
$DIMSAH
 70
     0
  9
$DIMBLK1
  1

  9
$DIMBLK2
  1

  9
$DIMSTYLE
  2
ISO-25
  9
$DIMCLRD
 70
     0
  9
$DIMCLRE
 70
     0
  9
$DIMCLRT
 70
     0
  9
$DIMTFAC
 40
1.0
  9
$DIMGAP
 40
0.625
  9
$DIMJUST
 70
     0
  9
$DIMSD1
 70
     0
  9
$DIMSD2
 70
     0
  9
$DIMTOLJ
 70
     0
  9
$DIMTZIN
 70
     8
  9
$DIMALTZ
 70
     0
  9
$DIMALTTZ
 70
     0
  9
$DIMUPT
 70
     0
  9
$DIMDEC
 70
     2
  9
$DIMTDEC
 70
     2
  9
$DIMALTU
 70
     2
  9
$DIMALTTD
 70
     3
  9
$DIMTXSTY
  7
Standard
  9
$DIMAUNIT
 70
     0
  9
$DIMADEC
 70
     0
  9
$DIMALTRND
 40
0.0
  9
$DIMAZIN
 70
     0
  9
$DIMDSEP
 70
    44
  9
$DIMATFIT
 70
     3
  9
$DIMFRAC
 70
     0
  9
$DIMLDRBLK
  1

  9
$DIMLUNIT
 70
     2
  9
$DIMLWD
 70
    -2
  9
$DIMLWE
 70
    -2
  9
$DIMTMOVE
 70
     0
  9
$DIMFXL
 40
1.0
  9
$DIMFXLON
 70
     0
  9
$DIMJOGANG
 40
0.7853981633974483
  9
$DIMTFILL
 70
     0
  9
$DIMTFILLCLR
 70
     0
  9
$DIMARCSYM
 70
     0
  9
$DIMLTYPE
  6

  9
$DIMLTEX1
  6

  9
$DIMLTEX2
  6

  9
$DIMTXTDIRECTION
 70
     0
  9
$LUNITS
 70
     2
  9
$LUPREC
 70
     4
  9
$SKETCHINC
 40
1.0
  9
$FILLETRAD
 40
0.0
  9
$AUNITS
 70
     0
  9
$AUPREC
 70
     0
  9
$MENU
  1
.
  9
$ELEVATION
 40
0.0
  9
$PELEVATION
 40
0.0
  9
$THICKNESS
 40
0.0
  9
$LIMCHECK
 70
     0
  9
$CHAMFERA
 40
0.0
  9
$CHAMFERB
 40
0.0
  9
$CHAMFERC
 40
0.0
  9
$CHAMFERD
 40
0.0
  9
$SKPOLY
 70
     0
  9
$TDCREATE
 40
2457578.486263484
  9
$TDUCREATE
 40
2457578.152930150
  9
$TDUPDATE
 40
2457578.490385093
  9
$TDUUPDATE
 40
2457578.157051759
  9
$TDINDWG
 40
0.0026946065
  9
$TDUSRTIMER
 40
0.0026945833
  9
$USRTIMER
 70
     1
  9
$ANGBASE
 50
0.0
  9
$ANGDIR
 70
     0
  9
$PDMODE
 70
     0
  9
$PDSIZE
 40
0.0
  9
$PLINEWID
 40
0.0
  9
$SPLFRAME
 70
     0
  9
$SPLINETYPE
 70
     6
  9
$SPLINESEGS
 70
     8
  9
$HANDSEED
  5
6E5
  9
$SURFTAB1
 70
     6
  9
$SURFTAB2
 70
     6
  9
$SURFTYPE
 70
     6
  9
$SURFU
 70
     6
  9
$SURFV
 70
     6
  9
$UCSBASE
  2

  9
$UCSNAME
  2

  9
$UCSORG
 10
0.0
 20
0.0
 30
0.0
  9
$UCSXDIR
 10
1.0
 20
0.0
 30
0.0
  9
$UCSYDIR
 10
0.0
 20
1.0
 30
0.0
  9
$UCSORTHOREF
  2

  9
$UCSORTHOVIEW
 70
     0
  9
$UCSORGTOP
 10
0.0
 20
0.0
 30
0.0
  9
$UCSORGBOTTOM
 10
0.0
 20
0.0
 30
0.0
  9
$UCSORGLEFT
 10
0.0
 20
0.0
 30
0.0
  9
$UCSORGRIGHT
 10
0.0
 20
0.0
 30
0.0
  9
$UCSORGFRONT
 10
0.0
 20
0.0
 30
0.0
  9
$UCSORGBACK
 10
0.0
 20
0.0
 30
0.0
  9
$PUCSBASE
  2

  9
$PUCSNAME
  2

  9
$PUCSORG
 10
0.0
 20
0.0
 30
0.0
  9
$PUCSXDIR
 10
1.0
 20
0.0
 30
0.0
  9
$PUCSYDIR
 10
0.0
 20
1.0
 30
0.0
  9
$PUCSORTHOREF
  2

  9
$PUCSORTHOVIEW
 70
     0
  9
$PUCSORGTOP
 10
0.0
 20
0.0
 30
0.0
  9
$PUCSORGBOTTOM
 10
0.0
 20
0.0
 30
0.0
  9
$PUCSORGLEFT
 10
0.0
 20
0.0
 30
0.0
  9
$PUCSORGRIGHT
 10
0.0
 20
0.0
 30
0.0
  9
$PUCSORGFRONT
 10
0.0
 20
0.0
 30
0.0
  9
$PUCSORGBACK
 10
0.0
 20
0.0
 30
0.0
  9
$USERI1
 70
     0
  9
$USERI2
 70
     0
  9
$USERI3
 70
     0
  9
$USERI4
 70
     0
  9
$USERI5
 70
     0
  9
$USERR1
 40
0.0
  9
$USERR2
 40
0.0
  9
$USERR3
 40
0.0
  9
$USERR4
 40
0.0
  9
$USERR5
 40
0.0
  9
$WORLDVIEW
 70
     1
  9
$SHADEDGE
 70
     3
  9
$SHADEDIF
 70
    70
  9
$TILEMODE
 70
     1
  9
$MAXACTVP
 70
    64
  9
$PINSBASE
 10
0.0
 20
0.0
 30
0.0
  9
$PLIMCHECK
 70
     0
  9
$PEXTMIN
 10
0.0
 20
0.0
 30
0.0
  9
$PEXTMAX
 10
0.0
 20
0.0
 30
0.0
  9
$PLIMMIN
 10
0.0
 20
0.0
  9
$PLIMMAX
 10
12.0
 20
9.0
  9
$UNITMODE
 70
     0
  9
$VISRETAIN
 70
     1
  9
$PLINEGEN
 70
     0
  9
$PSLTSCALE
 70
     1
  9
$TREEDEPTH
 70
  3020
  9
$CMLSTYLE
  2
Standard
  9
$CMLJUST
 70
     0
  9
$CMLSCALE
 40
20.0
  9
$PROXYGRAPHICS
 70
     1
  9
$MEASUREMENT
 70
     1
  9
$CELWEIGHT
370
    -1
  9
$ENDCAPS
280
     0
  9
$JOINSTYLE
280
     0
  9
$LWDISPLAY
290
     0
  9
$INSUNITS
 70
     4
  9
$HYPERLINKBASE
  1

  9
$STYLESHEET
  1

  9
$XEDIT
290
     1
  9
$CEPSNTYPE
380
     0
  9
$PSTYLEMODE
290
     1
  9
$FINGERPRINTGUID
  2
{99D701DE-15BE-41AC-AF27-FA7FFA4958C5}
  9
$VERSIONGUID
  2
{E3645609-156E-46FD-A298-86CD386EE2CA}
  9
$EXTNAMES
290
     1
  9
$PSVPSCALE
 40
0.0
  9
$OLESTARTUP
290
     0
  9
$SORTENTS
280
   127
  9
$INDEXCTL
280
     0
  9
$HIDETEXT
280
     1
  9
$XCLIPFRAME
280
     2
  9
$HALOGAP
280
     0
  9
$OBSCOLOR
 70
   257
  9
$OBSLTYPE
280
     0
  9
$INTERSECTIONDISPLAY
280
     0
  9
$INTERSECTIONCOLOR
 70
   257
  9
$DIMASSOC
280
     2
  9
$PROJECTNAME
  1

  9
$CAMERADISPLAY
290
     0
  9
$LENSLENGTH
 40
50.0
  9
$CAMERAHEIGHT
 40
0.0
  9
$STEPSPERSEC
 40
2.0
  9
$STEPSIZE
 40
6.0
  9
$3DDWFPREC
 40
2.0
  9
$PSOLWIDTH
 40
5.0
  9
$PSOLHEIGHT
 40
80.0
  9
$LOFTANG1
 40
1.570796326794896
  9
$LOFTANG2
 40
1.570796326794896
  9
$LOFTMAG1
 40
0.0
  9
$LOFTMAG2
 40
0.0
  9
$LOFTPARAM
 70
     7
  9
$LOFTNORMALS
280
     1
  9
$LATITUDE
 40
37.795
  9
$LONGITUDE
 40
-122.394
  9
$NORTHDIRECTION
 40
0.0
  9
$TIMEZONE
 70
 -8000
  9
$LIGHTGLYPHDISPLAY
280
     1
  9
$TILEMODELIGHTSYNCH
280
     1
  9
$CMATERIAL
347
EC
  9
$SOLIDHIST
280
     0
  9
$SHOWHIST
280
     1
  9
$DWFFRAME
280
     2
  9
$DGNFRAME
280
     0
  9
$REALWORLDSCALE
290
     1
  9
$INTERFERECOLOR
 62
     1
  9
$INTERFEREOBJVS
345
F9
  9
$INTERFEREVPVS
346
F6
  9
$CSHADOW
280
     0
  9
$SHADOWPLANELOCATION
 40
0.0
  0
ENDSEC
  0
SECTION
  2
CLASSES
  0
CLASS
  1
ACDBDICTIONARYWDFLT
  2
AcDbDictionaryWithDefault
  3
ObjectDBX Classes
 90
        0
 91
        1
280
     0
281
     0
  0
CLASS
  1
DICTIONARYVAR
  2
AcDbDictionaryVar
  3
ObjectDBX Classes
 90
        0
 91
        9
280
     0
281
     0
  0
CLASS
  1
TABLESTYLE
  2
AcDbTableStyle
  3
ObjectDBX Classes
 90
     4095
 91
        1
280
     0
281
     0
  0
CLASS
  1
MATERIAL
  2
AcDbMaterial
  3
ObjectDBX Classes
 90
     1153
 91
        3
280
     0
281
     0
  0
CLASS
  1
VISUALSTYLE
  2
AcDbVisualStyle
  3
ObjectDBX Classes
 90
     4095
 91
       24
280
     0
281
     0
  0
CLASS
  1
SCALE
  2
AcDbScale
  3
ObjectDBX Classes
 90
     1153
 91
       17
280
     0
281
     0
  0
CLASS
  1
MLEADERSTYLE
  2
AcDbMLeaderStyle
  3
ACDB_MLEADERSTYLE_CLASS
 90
     4095
 91
        3
280
     0
281
     0
  0
CLASS
  1
CELLSTYLEMAP
  2
AcDbCellStyleMap
  3
ObjectDBX Classes
 90
     1152
 91
        1
280
     0
281
     0
  0
CLASS
  1
EXACXREFPANELOBJECT
  2
ExAcXREFPanelObject
  3
EXAC_ESW
 90
     1025
 91
        0
280
     0
281
     0
  0
CLASS
  1
NPOCOLLECTION
  2
AcDbImpNonPersistentObjectsCollection
  3
ObjectDBX Classes
 90
     1153
 91
        0
280
     0
281
     0
  0
CLASS
  1
LAYER_INDEX
  2
AcDbLayerIndex
  3
ObjectDBX Classes
 90
        0
 91
        0
280
     0
281
     0
  0
CLASS
  1
SPATIAL_INDEX
  2
AcDbSpatialIndex
  3
ObjectDBX Classes
 90
        0
 91
        0
280
     0
281
     0
  0
CLASS
  1
IDBUFFER
  2
AcDbIdBuffer
  3
ObjectDBX Classes
 90
        0
 91
        0
280
     0
281
     0
  0
CLASS
  1
ACDBSECTIONVIEWSTYLE
  2
AcDbSectionViewStyle
  3
ObjectDBX Classes
 90
     1025
 91
        1
280
     0
281
     0
  0
CLASS
  1
ACDBDETAILVIEWSTYLE
  2
AcDbDetailViewStyle
  3
ObjectDBX Classes
 90
     1025
 91
        1
280
     0
281
     0
  0
CLASS
  1
MULTILEADER
  2
AcDbMLeader
  3
ACDB_MLEADER_CLASS
 90
     1025
 91
        3
280
     0
281
     1
  0
CLASS
  1
DIMASSOC
  2
AcDbDimAssoc
  3
"AcDbDimAssoc|Product Desc:     AcDim ARX App For Dimension|Company:          Autodesk, Inc.|WEB Address:      www.autodesk.com"
 90
        0
 91
       10
280
     0
281
     0
  0
CLASS
  1
SORTENTSTABLE
  2
AcDbSortentsTable
  3
ObjectDBX Classes
 90
        0
 91
        0
280
     0
281
     0
  0
ENDSEC
  0
SECTION
  2
TABLES
  0
TABLE
  2
VPORT
  5
8
330
0
100
AcDbSymbolTable
 70
     1
  0
VPORT
  5
EA
330
8
100
AcDbSymbolTableRecord
100
AcDbViewportTableRecord
  2
*Active
 70
     0
 10
0.0
 20
0.0
 11
1.0
 21
1.0
 12
1005.21543310151
 22
493.5483969222055
 13
0.0
 23
0.0
 14
10.0
 24
10.0
 15
10.0
 25
10.0
 16
0.0
 26
0.0
 36
1.0
 17
0.0
 27
0.0
 37
0.0
 40
822.6669034192305
 41
2.26231527093596
 42
50.0
 43
0.0
 44
0.0
 50
0.0
 51
0.0
 71
     0
 72
  1000
 73
     1
 74
     3
 75
     0
 76
     1
 77
     0
 78
     0
281
     0
 65
     1
110
0.0
120
0.0
130
0.0
111
1.0
121
0.0
131
0.0
112
0.0
122
1.0
132
0.0
 79
     0
146
0.0
348
F5
 60
     3
 61
     5
292
     1
282
     1
141
0.0
142
0.0
 63
   250
421
  3355443
1001
ACAD_NAV_VCDISPLAY
1070
     3
  0
ENDTAB
  0
TABLE
  2
LTYPE
  5
5
330
0
100
AcDbSymbolTable
 70
     4
  0
LTYPE
  5
14
330
5
100
AcDbSymbolTableRecord
100
AcDbLinetypeTableRecord
  2
ByBlock
 70
     0
  3

 72
    65
 73
     0
 40
0.0
  0
LTYPE
  5
15
330
5
100
AcDbSymbolTableRecord
100
AcDbLinetypeTableRecord
  2
ByLayer
 70
     0
  3

 72
    65
 73
     0
 40
0.0
  0
LTYPE
  5
16
330
5
100
AcDbSymbolTableRecord
100
AcDbLinetypeTableRecord
  2
Continuous
 70
     0
  3
Solid line
 72
    65
 73
     0
 40
0.0
  0
LTYPE
  5
2BB
330
5
100
AcDbSymbolTableRecord
100
AcDbLinetypeTableRecord
  2
ACAD_ISO08W100
 70
     0
  3
ISO long-dash short-dash ____ __ ____ __ ____ _
 72
    65
 73
     4
 40
36.0
 49
24.0
 74
     0
 49
-3.0
 74
     0
 49
6.0
 74
     0
 49
-3.0
 74
     0
  0
LTYPE
  5
2BC
330
5
100
AcDbSymbolTableRecord
100
AcDbLinetypeTableRecord
  2
New Line1
 70
     0
  3

 72
    65
 73
     2
 40
1.3
 49
0.6000000000000001
 74
     4
 75
     0
340
0
 46
1.0
 50
0.0
 44
0.0
 45
0.0
 49
-0.7000000000000001
 74
     4
 75
     0
340
0
 46
1.0
 50
0.0
 44
0.0
 45
0.0
  0
ENDTAB
  0
TABLE
  2
LAYER
  5
2
102
{ACAD_XDICTIONARY
360
1FF
102
}
330
0
100
AcDbSymbolTable
 70
     5
  0
LAYER
  5
10
102
{ACAD_XDICTIONARY
360
13C
102
}
330
2
100
AcDbSymbolTableRecord
100
AcDbLayerTableRecord
  2
0
 70
     0
 62
     7
  6
Continuous
370
    -3
390
F
347
EE
  0
LAYER
  5
2BD
330
2
100
AcDbSymbolTableRecord
100
AcDbLayerTableRecord
  2
centerline
 70
     0
 62
    10
  6
Continuous
370
    -3
390
F
347
EE
1001
AcAecLayerStandard
1000

1000

1001
AcCmTransparency
1071
        0
  0
LAYER
  5
2BE
330
2
100
AcDbSymbolTableRecord
100
AcDbLayerTableRecord
  2
dimensions
 70
     0
 62
   210
  6
Continuous
370
    -3
390
F
347
EE
1001
AcAecLayerStandard
1000

1000

1001
AcCmTransparency
1071
        0
  0
LAYER
  5
2BF
330
2
100
AcDbSymbolTableRecord
100
AcDbLayerTableRecord
  2
note
 70
     0
 62
     2
  6
Continuous
370
    -3
390
F
347
EE
1001
AcAecLayerStandard
1000

1000

1001
AcCmTransparency
1071
        0
  0
LAYER
  5
2C0
330
2
100
AcDbSymbolTableRecord
100
AcDbLayerTableRecord
  2
Defpoints
 70
     0
 62
     7
  6
Continuous
290
     0
370
    -3
390
F
347
EE
  0
ENDTAB
  0
TABLE
  2
STYLE
  5
3
330
0
100
AcDbSymbolTable
 70
     2
  0
STYLE
  5
11
330
3
100
AcDbSymbolTableRecord
100
AcDbTextStyleTableRecord
  2
Standard
 70
     0
 40
0.0
 41
1.0
 50
0.0
 71
     0
 42
2.5
  3
arial.ttf
  4

1001
ACAD
1000
Arial
1071
       34
  0
STYLE
  5
132
330
3
100
AcDbSymbolTableRecord
100
AcDbTextStyleTableRecord
  2
Annotative
 70
     0
 40
0.0
 41
1.0
 50
0.0
 71
     0
 42
2.5
  3
arial.ttf
  4

1001
AcadAnnotative
1000
AnnotativeData
1002
{
1070
     1
1070
     1
1002
}
1001
ACAD
1000
Arial
1071
       34
  0
ENDTAB
  0
TABLE
  2
VIEW
  5
6
330
0
100
AcDbSymbolTable
 70
     1
  0
ENDTAB
  0
TABLE
  2
UCS
  5
7
330
0
100
AcDbSymbolTable
 70
     0
  0
ENDTAB
  0
TABLE
  2
APPID
  5
9
330
0
100
AcDbSymbolTable
 70
    14
  0
APPID
  5
12
330
9
100
AcDbSymbolTableRecord
100
AcDbRegAppTableRecord
  2
ACAD
 70
     0
  0
APPID
  5
9E
330
9
100
AcDbSymbolTableRecord
100
AcDbRegAppTableRecord
  2
ACAD_PSEXT
 70
     0
  0
APPID
  5
133
330
9
100
AcDbSymbolTableRecord
100
AcDbRegAppTableRecord
  2
AcadAnnoPO
 70
     0
  0
APPID
  5
134
330
9
100
AcDbSymbolTableRecord
100
AcDbRegAppTableRecord
  2
AcadAnnotative
 70
     0
  0
APPID
  5
135
330
9
100
AcDbSymbolTableRecord
100
AcDbRegAppTableRecord
  2
ACAD_DSTYLE_DIMJAG
 70
     0
  0
APPID
  5
136
330
9
100
AcDbSymbolTableRecord
100
AcDbRegAppTableRecord
  2
ACAD_DSTYLE_DIMTALN
 70
     0
  0
APPID
  5
165
330
9
100
AcDbSymbolTableRecord
100
AcDbRegAppTableRecord
  2
ACAD_MLEADERVER
 70
     0
  0
APPID
  5
217
330
9
100
AcDbSymbolTableRecord
100
AcDbRegAppTableRecord
  2
ACAD_NAV_VCDISPLAY
 70
     0
  0
APPID
  5
2C2
330
9
100
AcDbSymbolTableRecord
100
AcDbRegAppTableRecord
  2
AcAecLayerStandard
 70
     0
  0
APPID
  5
2C3
330
9
100
AcDbSymbolTableRecord
100
AcDbRegAppTableRecord
  2
AcCmTransparency
 70
     0
  0
APPID
  5
2C4
330
9
100
AcDbSymbolTableRecord
100
AcDbRegAppTableRecord
  2
ACAD_DSTYLE_DIMBREAK
 70
     0
  0
APPID
  5
2C5
330
9
100
AcDbSymbolTableRecord
100
AcDbRegAppTableRecord
  2
GradientColor1ACI
 70
     0
  0
APPID
  5
2C6
330
9
100
AcDbSymbolTableRecord
100
AcDbRegAppTableRecord
  2
GradientColor2ACI
 70
     0
  0
APPID
  5
69D
330
9
100
AcDbSymbolTableRecord
100
AcDbRegAppTableRecord
  2
ACAD_EXEMPT_FROM_CAD_STANDARDS
 70
     0
  0
ENDTAB
  0
TABLE
  2
DIMSTYLE
  5
A
330
0
100
AcDbSymbolTable
 70
     4
100
AcDbDimStyleTable
 71
     2
340
27
340
137
  0
DIMSTYLE
105
1B0
330
A
100
AcDbSymbolTableRecord
100
AcDbDimStyleTableRecord
  2
Standard
 70
     0
340
11
  0
DIMSTYLE
105
137
330
A
100
AcDbSymbolTableRecord
100
AcDbDimStyleTableRecord
  2
Annotative
 70
     0
 40
0.0
 41
2.5
 42
0.625
 43
3.75
 44
1.25
 73
     0
 74
     0
 77
     1
 78
     8
140
2.5
141
2.5
143
0.03937007874016
147
0.625
171
     3
172
     1
271
     2
272
     2
274
     3
278
    44
283
     0
284
     8
340
11
1001
AcadAnnotative
1000
AnnotativeData
1002
{
1070
     1
1070
     1
1002
}
1001
ACAD_DSTYLE_DIMJAG
1070
   388
1040
1.5
1001
ACAD_DSTYLE_DIMTALN
1070
   392
1070
     0
  0
DIMSTYLE
105
27
330
A
100
AcDbSymbolTableRecord
100
AcDbDimStyleTableRecord
  2
ISO-25
 70
     0
 41
2.5
 42
0.625
 43
3.75
 44
1.25
 73
     0
 74
     0
 77
     1
 78
     8
140
2.5
141
2.5
143
0.03937007874016
147
0.625
171
     3
172
     1
271
     2
272
     2
274
     3
278
    44
283
     0
284
     8
340
11
  0
DIMSTYLE
105
2C1
102
{ACAD_REACTORS
330
4B8
330
4BB
330
4BE
330
4C1
330
4C4
330
4C7
330
4CA
330
4CD
330
4D0
102
}
330
A
100
AcDbSymbolTableRecord
100
AcDbDimStyleTableRecord
  2
dimensions
 70
     0
  3
 mm\X
  4
 "
 41
8.0
 42
2.5
 43
3.75
 44
5.0
 77
     1
 78
     8
140
9.0
141
-0.09
143
0.03937007874016
147
2.5
170
     1
171
     5
172
     1
176
   256
177
   256
178
   256
271
     2
272
     2
273
     7
274
     5
278
    44
283
     0
284
     8
340
11
1001
ACAD_DSTYLE_DIMBREAK
1070
   391
1040
3.75
1001
ACAD_DSTYLE_DIMJAG
1070
   388
1040
2.5
1001
ACAD_DSTYLE_DIMTALN
1070
   392
1070
     0
  0
ENDTAB
  0
TABLE
  2
BLOCK_RECORD
  5
1
330
0
100
AcDbSymbolTable
 70
    19
  0
BLOCK_RECORD
  5
1F
102
{ACAD_XDICTIONARY
360
1CE
102
}
330
1
100
AcDbSymbolTableRecord
100
AcDbBlockTableRecord
  2
*Model_Space
340
22
 70
     0
280
     1
281
     0
  0
BLOCK_RECORD
  5
D2
330
1
100
AcDbSymbolTableRecord
100
AcDbBlockTableRecord
  2
*Paper_Space
340
D3
 70
     0
280
     1
281
     0
  0
BLOCK_RECORD
  5
D6
330
1
100
AcDbSymbolTableRecord
100
AcDbBlockTableRecord
  2
*Paper_Space0
340
D7
 70
     0
280
     1
281
     0
  0
BLOCK_RECORD
  5
53F
330
1
100
AcDbSymbolTableRecord
100
AcDbBlockTableRecord
  2
*D10
340
0
 70
     0
280
     1
281
     0
  0
BLOCK_RECORD
  5
54C
330
1
100
AcDbSymbolTableRecord
100
AcDbBlockTableRecord
  2
*D11
340
0
 70
     0
280
     1
281
     0
  0
BLOCK_RECORD
  5
559
330
1
100
AcDbSymbolTableRecord
100
AcDbBlockTableRecord
  2
*D12
340
0
 70
     0
280
     1
281
     0
  0
BLOCK_RECORD
  5
566
330
1
100
AcDbSymbolTableRecord
100
AcDbBlockTableRecord
  2
*D13
340
0
 70
     0
280
     1
281
     0
  0
BLOCK_RECORD
  5
573
330
1
100
AcDbSymbolTableRecord
100
AcDbBlockTableRecord
  2
*D14
340
0
 70
     0
280
     1
281
     0
  0
BLOCK_RECORD
  5
580
330
1
100
AcDbSymbolTableRecord
100
AcDbBlockTableRecord
  2
*D15
340
0
 70
     0
280
     1
281
     0
  0
BLOCK_RECORD
  5
58E
330
1
100
AcDbSymbolTableRecord
100
AcDbBlockTableRecord
  2
*D16
340
0
 70
     0
280
     1
281
     0
  0
BLOCK_RECORD
  5
59C
330
1
100
AcDbSymbolTableRecord
100
AcDbBlockTableRecord
  2
*D17
340
0
 70
     0
280
     1
281
     0
  0
BLOCK_RECORD
  5
5AA
330
1
100
AcDbSymbolTableRecord
100
AcDbBlockTableRecord
  2
*D18
340
0
 70
     0
280
     1
281
     0
  0
ENDTAB
  0
ENDSEC
  0
SECTION
  2
BLOCKS
  0
BLOCK
  5
20
330
1F
100
AcDbEntity
  8
0
100
AcDbBlockBegin
  2
*Model_Space
 70
     0
 10
0.0
 20
0.0
 30
0.0
  3
*Model_Space
  1

  0
ENDBLK
  5
21
330
1F
100
AcDbEntity
  8
0
100
AcDbBlockEnd
  0
BLOCK
  5
D4
330
D2
100
AcDbEntity
 67
     1
  8
0
100
AcDbBlockBegin
  2
*Paper_Space
 70
     0
 10
0.0
 20
0.0
 30
0.0
  3
*Paper_Space
  1

  0
ENDBLK
  5
D5
330
D2
100
AcDbEntity
 67
     1
  8
0
100
AcDbBlockEnd
  0
BLOCK
  5
D8
330
D6
100
AcDbEntity
 67
     1
  8
0
100
AcDbBlockBegin
  2
*Paper_Space0
 70
     0
 10
0.0
 20
0.0
 30
0.0
  3
*Paper_Space0
  1

  0
ENDBLK
  5
D9
330
D6
100
AcDbEntity
 67
     1
  8
0
100
AcDbBlockEnd
  0
BLOCK
  5
540
330
53F
100
AcDbEntity
  8
0
100
AcDbBlockBegin
  2
*D10
 70
     1
 10
0.0
 20
0.0
 30
0.0
  3
*D10
  1

  0
LINE
  5
635
330
53F
100
AcDbEntity
  8
dimensions
440
 16777216
370
    -2
100
AcDbLine
 10
469.5293515905645
 20
386.1794760921327
 30
0.0
 11
469.5293515905645
 21
316.2353701659859
 31
0.0
  0
LINE
  5
636
330
53F
100
AcDbEntity
  8
dimensions
440
 16777216
370
    -2
100
AcDbLine
 10
1225.129351590579
 20
386.1794760920724
 30
0.0
 11
1225.129351590579
 21
316.2353701659859
 31
0.0
  0
LINE
  5
637
330
53F
100
AcDbEntity
  8
dimensions
440
 16777216
370
    -2
100
AcDbLine
 10
477.5293515905645
 20
321.2353701659858
 30
0.0
 11
1217.129351590579
 21
321.2353701659858
 31
0.0
  0
SOLID
  5
638
330
53F
100
AcDbEntity
  8
dimensions
440
 16777216
100
AcDbTrace
 10
477.5293515905645
 20
322.5687034993192
 30
0.0
 11
477.5293515905645
 21
319.9020368326525
 31
0.0
 12
469.5293515905645
 22
321.2353701659858
 32
0.0
 13
469.5293515905645
 23
321.2353701659858
 33
0.0
  0
SOLID
  5
639
330
53F
100
AcDbEntity
  8
dimensions
440
 16777216
100
AcDbTrace
 10
1217.129351590579
 20
322.5687034993192
 30
0.0
 11
1217.129351590579
 21
319.9020368326525
 31
0.0
 12
1225.129351590579
 22
321.2353701659858
 32
0.0
 13
1225.129351590579
 23
321.2353701659858
 33
0.0
  0
MTEXT
  5
63A
330
53F
100
AcDbEntity
  8
dimensions
440
 16777216
370
    -3
100
AcDbMText
 10
847.3293515905719
 20
329.1439649818112
 30
0.0
 40
9.0
 41
0.0
 46
0.0
 71
     5
 72
     1
  1
755,6 mm
 73
     1
 44
1.0
  0
MTEXT
  5
63B
330
53F
100
AcDbEntity
  8
dimensions
440
 16777216
370
    -3
100
AcDbMText
 10
847.3293515905719
 20
312.9093128672137
 30
0.0
 40
9.0
 41
0.0
 46
0.0
 71
     5
 72
     1
  1
[29 3/4 "]
 73
     1
 44
1.0
  0
POINT
  5
63C
330
53F
100
AcDbEntity
  8
Defpoints
 62
     0
440
 16777216
100
AcDbPoint
 10
469.5293515905645
 20
388.6794760921327
 30
0.0
  0
POINT
  5
63D
330
53F
100
AcDbEntity
  8
Defpoints
 62
     0
440
 16777216
100
AcDbPoint
 10
1225.129351590579
 20
388.6794760920724
 30
0.0
  0
POINT
  5
63E
330
53F
100
AcDbEntity
  8
Defpoints
 62
     0
440
 16777216
100
AcDbPoint
 10
1225.129351590579
 20
321.2353701659858
 30
0.0
  0
ENDBLK
  5
541
330
53F
100
AcDbEntity
  8
0
100
AcDbBlockEnd
  0
BLOCK
  5
54D
330
54C
100
AcDbEntity
  8
0
100
AcDbBlockBegin
  2
*D11
 70
     1
 10
0.0
 20
0.0
 30
0.0
  3
*D11
  1

  0
LINE
  5
63F
330
54C
100
AcDbEntity
  8
dimensions
440
 16777216
370
    -2
100
AcDbLine
 10
466.3293515905648
 20
386.1794760921295
 30
0.0
 11
466.3293515905648
 21
271.1698416948443
 31
0.0
  0
LINE
  5
640
330
54C
100
AcDbEntity
  8
dimensions
440
 16777216
370
    -2
100
AcDbLine
 10
1228.329351590579
 20
386.1794760920444
 30
0.0
 11
1228.329351590579
 21
271.1698416948443
 31
0.0
  0
LINE
  5
641
330
54C
100
AcDbEntity
  8
dimensions
440
 16777216
370
    -2
100
AcDbLine
 10
474.3293515905647
 20
276.1698416948442
 30
0.0
 11
1220.329351590579
 21
276.1698416948442
 31
0.0
  0
SOLID
  5
642
330
54C
100
AcDbEntity
  8
dimensions
440
 16777216
100
AcDbTrace
 10
474.3293515905647
 20
277.5031750281776
 30
0.0
 11
474.3293515905647
 21
274.8365083615109
 31
0.0
 12
466.3293515905648
 22
276.1698416948442
 32
0.0
 13
466.3293515905648
 23
276.1698416948442
 33
0.0
  0
SOLID
  5
643
330
54C
100
AcDbEntity
  8
dimensions
440
 16777216
100
AcDbTrace
 10
1220.329351590579
 20
277.5031750281776
 30
0.0
 11
1220.329351590579
 21
274.8365083615109
 31
0.0
 12
1228.329351590579
 22
276.1698416948442
 32
0.0
 13
1228.329351590579
 23
276.1698416948442
 33
0.0
  0
MTEXT
  5
644
330
54C
100
AcDbEntity
  8
dimensions
440
 16777216
370
    -3
100
AcDbMText
 10
847.3293515905719
 20
283.2649985843395
 30
0.0
 40
9.0
 41
0.0
 46
0.0
 71
     5
 72
     1
  1
762 mm
 73
     1
 44
1.0
  0
MTEXT
  5
645
330
54C
100
AcDbEntity
  8
dimensions
440
 16777216
370
    -3
100
AcDbMText
 10
847.3293515905719
 20
267.9021063606014
 30
0.0
 40
9.0
 41
0.0
 46
0.0
 71
     5
 72
     1
  1
[30 "]
 73
     1
 44
1.0
  0
POINT
  5
646
330
54C
100
AcDbEntity
  8
Defpoints
 62
     0
440
 16777216
100
AcDbPoint
 10
466.3293515905648
 20
388.6794760921295
 30
0.0
  0
POINT
  5
647
330
54C
100
AcDbEntity
  8
Defpoints
 62
     0
440
 16777216
100
AcDbPoint
 10
1228.329351590579
 20
388.6794760920444
 30
0.0
  0
POINT
  5
648
330
54C
100
AcDbEntity
  8
Defpoints
 62
     0
440
 16777216
100
AcDbPoint
 10
1228.329351590579
 20
276.1698416948442
 30
0.0
  0
ENDBLK
  5
54E
330
54C
100
AcDbEntity
  8
0
100
AcDbBlockEnd
  0
BLOCK
  5
55A
330
559
100
AcDbEntity
  8
0
100
AcDbBlockBegin
  2
*D12
 70
     1
 10
0.0
 20
0.0
 30
0.0
  3
*D12
  1

  0
LINE
  5
649
330
559
100
AcDbEntity
  8
dimensions
440
 16777216
370
    -2
100
AcDbLine
 10
456.7293515905644
 20
386.1794760921285
 30
0.0
 11
456.7293515905644
 21
225.1121142195877
 31
0.0
  0
LINE
  5
64A
330
559
100
AcDbEntity
  8
dimensions
440
 16777216
370
    -2
100
AcDbLine
 10
1237.92935159058
 20
386.1794760920665
 30
0.0
 11
1237.92935159058
 21
225.1121142195877
 31
0.0
  0
LINE
  5
64B
330
559
100
AcDbEntity
  8
dimensions
440
 16777216
370
    -2
100
AcDbLine
 10
464.7293515905643
 20
230.1121142195877
 30
0.0
 11
1229.92935159058
 21
230.1121142195877
 31
0.0
  0
SOLID
  5
64C
330
559
100
AcDbEntity
  8
dimensions
440
 16777216
100
AcDbTrace
 10
464.7293515905643
 20
231.445447552921
 30
0.0
 11
464.7293515905643
 21
228.7787808862543
 31
0.0
 12
456.7293515905644
 22
230.1121142195877
 32
0.0
 13
456.7293515905644
 23
230.1121142195877
 33
0.0
  0
SOLID
  5
64D
330
559
100
AcDbEntity
  8
dimensions
440
 16777216
100
AcDbTrace
 10
1229.92935159058
 20
231.445447552921
 30
0.0
 11
1229.92935159058
 21
228.7787808862543
 31
0.0
 12
1237.92935159058
 22
230.1121142195877
 32
0.0
 13
1237.92935159058
 23
230.1121142195877
 33
0.0
  0
MTEXT
  5
64E
330
559
100
AcDbEntity
  8
dimensions
440
 16777216
370
    -3
100
AcDbMText
 10
847.3293515905719
 20
238.0207090354131
 30
0.0
 40
9.0
 41
0.0
 46
0.0
 71
     5
 72
     1
  1
781,2 mm
 73
     1
 44
1.0
  0
MTEXT
  5
64F
330
559
100
AcDbEntity
  8
dimensions
440
 16777216
370
    -3
100
AcDbMText
 10
847.3293515905719
 20
221.7860569208155
 30
0.0
 40
9.0
 41
0.0
 46
0.0
 71
     5
 72
     1
  1
[30 3/4 "]
 73
     1
 44
1.0
  0
POINT
  5
650
330
559
100
AcDbEntity
  8
Defpoints
 62
     0
440
 16777216
100
AcDbPoint
 10
456.7293515905644
 20
388.6794760921285
 30
0.0
  0
POINT
  5
651
330
559
100
AcDbEntity
  8
Defpoints
 62
     0
440
 16777216
100
AcDbPoint
 10
1237.92935159058
 20
388.6794760920665
 30
0.0
  0
POINT
  5
652
330
559
100
AcDbEntity
  8
Defpoints
 62
     0
440
 16777216
100
AcDbPoint
 10
1237.92935159058
 20
230.1121142195877
 30
0.0
  0
ENDBLK
  5
55B
330
559
100
AcDbEntity
  8
0
100
AcDbBlockEnd
  0
BLOCK
  5
567
330
566
100
AcDbEntity
  8
0
100
AcDbBlockBegin
  2
*D13
 70
     1
 10
0.0
 20
0.0
 30
0.0
  3
*D13
  1

  0
LINE
  5
653
330
566
100
AcDbEntity
  8
dimensions
440
 16777216
370
    -2
100
AcDbLine
 10
473.8293515905629
 20
369.0794760921288
 30
0.0
 11
201.0379880797678
 21
369.0794760921288
 31
0.0
  0
LINE
  5
654
330
566
100
AcDbEntity
  8
dimensions
440
 16777216
370
    -2
100
AcDbLine
 10
473.829351590563
 20
845.4794760921735
 30
0.0
 11
201.0379880797679
 21
845.4794760921737
 31
0.0
  0
LINE
  5
655
330
566
100
AcDbEntity
  8
dimensions
440
 16777216
370
    -2
100
AcDbLine
 10
206.0379880797678
 20
377.0794760921288
 30
0.0
 11
206.0379880797678
 21
591.4350013308961
 31
0.0
  0
LINE
  5
656
330
566
100
AcDbEntity
  8
dimensions
440
 16777216
370
    -2
100
AcDbLine
 10
206.0379880797679
 20
837.4794760921737
 30
0.0
 11
206.0379880797678
 21
623.1239508534064
 31
0.0
  0
SOLID
  5
657
330
566
100
AcDbEntity
  8
dimensions
440
 16777216
100
AcDbTrace
 10
204.7046547464344
 20
377.0794760921288
 30
0.0
 11
207.3713214131011
 21
377.0794760921288
 31
0.0
 12
206.0379880797678
 22
369.0794760921288
 32
0.0
 13
206.0379880797678
 23
369.0794760921288
 33
0.0
  0
SOLID
  5
658
330
566
100
AcDbEntity
  8
dimensions
440
 16777216
100
AcDbTrace
 10
204.7046547464346
 20
837.4794760921737
 30
0.0
 11
207.3713214131013
 21
837.4794760921737
 31
0.0
 12
206.0379880797679
 22
845.4794760921737
 32
0.0
 13
206.0379880797679
 23
845.4794760921737
 33
0.0
  0
MTEXT
  5
659
330
566
100
AcDbEntity
  8
dimensions
440
 16777216
370
    -3
100
AcDbMText
 10
206.0379880797677
 20
607.2794760921513
 30
0.0
 40
9.0
 41
0.0
 46
0.0
 71
     5
 72
     1
  1
476,4 mm\P [18 3/4 "]
 73
     1
 44
1.0
  0
POINT
  5
65A
330
566
100
AcDbEntity
  8
Defpoints
 62
     0
440
 16777216
100
AcDbPoint
 10
476.3293515905629
 20
369.0794760921288
 30
0.0
  0
POINT
  5
65B
330
566
100
AcDbEntity
  8
Defpoints
 62
     0
440
 16777216
100
AcDbPoint
 10
476.3293515905631
 20
845.4794760921735
 30
0.0
  0
POINT
  5
65C
330
566
100
AcDbEntity
  8
Defpoints
 62
     0
440
 16777216
100
AcDbPoint
 10
206.0379880797679
 20
845.4794760921737
 30
0.0
  0
ENDBLK
  5
568
330
566
100
AcDbEntity
  8
0
100
AcDbBlockEnd
  0
BLOCK
  5
574
330
573
100
AcDbEntity
  8
0
100
AcDbBlockBegin
  2
*D14
 70
     1
 10
0.0
 20
0.0
 30
0.0
  3
*D14
  1

  0
LINE
  5
65D
330
573
100
AcDbEntity
  8
dimensions
440
 16777216
370
    -2
100
AcDbLine
 10
473.8293515905357
 20
835.8794760921735
 30
0.0
 11
288.4028965450117
 21
835.8794760921735
 31
0.0
  0
LINE
  5
65E
330
573
100
AcDbEntity
  8
dimensions
440
 16777216
370
    -2
100
AcDbLine
 10
473.8293515905669
 20
378.6794760921288
 30
0.0
 11
288.4028965450116
 21
378.6794760921288
 31
0.0
  0
LINE
  5
65F
330
573
100
AcDbEntity
  8
dimensions
440
 16777216
370
    -2
100
AcDbLine
 10
293.4028965450117
 20
827.8794760921735
 30
0.0
 11
293.4028965450116
 21
623.0656288888769
 31
0.0
  0
LINE
  5
660
330
573
100
AcDbEntity
  8
dimensions
440
 16777216
370
    -2
100
AcDbLine
 10
293.4028965450116
 20
386.6794760921288
 30
0.0
 11
293.4028965450116
 21
591.4933232954253
 31
0.0
  0
SOLID
  5
661
330
573
100
AcDbEntity
  8
dimensions
440
 16777216
100
AcDbTrace
 10
292.0695632116784
 20
827.8794760921735
 30
0.0
 11
294.736229878345
 21
827.8794760921735
 31
0.0
 12
293.4028965450117
 22
835.8794760921735
 32
0.0
 13
293.4028965450117
 23
835.8794760921735
 33
0.0
  0
SOLID
  5
662
330
573
100
AcDbEntity
  8
dimensions
440
 16777216
100
AcDbTrace
 10
292.0695632116783
 20
386.6794760921288
 30
0.0
 11
294.7362298783449
 21
386.6794760921288
 31
0.0
 12
293.4028965450116
 22
378.6794760921288
 32
0.0
 13
293.4028965450116
 23
378.6794760921288
 33
0.0
  0
MTEXT
  5
663
330
573
100
AcDbEntity
  8
dimensions
440
 16777216
370
    -3
100
AcDbMText
 10
293.4028965450116
 20
607.2794760921513
 30
0.0
 40
9.0
 41
0.0
 46
0.0
 71
     5
 72
     1
  1
457,2 mm\P [18 "]
 73
     1
 44
1.0
  0
POINT
  5
664
330
573
100
AcDbEntity
  8
Defpoints
 62
     0
440
 16777216
100
AcDbPoint
 10
476.3293515905356
 20
835.8794760921735
 30
0.0
  0
POINT
  5
665
330
573
100
AcDbEntity
  8
Defpoints
 62
     0
440
 16777216
100
AcDbPoint
 10
476.3293515905669
 20
378.6794760921288
 30
0.0
  0
POINT
  5
666
330
573
100
AcDbEntity
  8
Defpoints
 62
     0
440
 16777216
100
AcDbPoint
 10
293.4028965450116
 20
378.6794760921288
 30
0.0
  0
ENDBLK
  5
575
330
573
100
AcDbEntity
  8
0
100
AcDbBlockEnd
  0
BLOCK
  5
581
330
580
100
AcDbEntity
  8
0
100
AcDbBlockBegin
  2
*D15
 70
     1
 10
0.0
 20
0.0
 30
0.0
  3
*D15
  1

  0
LINE
  5
667
330
580
100
AcDbEntity
  8
dimensions
440
 16777216
370
    -2
100
AcDbLine
 10
473.8293515905357
 20
832.6794760921734
 30
0.0
 11
376.1408110512317
 21
832.6794760921734
 31
0.0
  0
LINE
  5
668
330
580
100
AcDbEntity
  8
dimensions
440
 16777216
370
    -2
100
AcDbLine
 10
473.8293515905647
 20
381.8794760921326
 30
0.0
 11
376.1408110512316
 21
381.8794760921326
 31
0.0
  0
LINE
  5
669
330
580
100
AcDbEntity
  8
dimensions
440
 16777216
370
    -2
100
AcDbLine
 10
381.1408110512317
 20
824.6794760921734
 30
0.0
 11
381.1408110512317
 21
623.5141282067505
 31
0.0
  0
LINE
  5
66A
330
580
100
AcDbEntity
  8
dimensions
440
 16777216
370
    -2
100
AcDbLine
 10
381.1408110512317
 20
389.8794760921326
 30
0.0
 11
381.1408110512317
 21
591.0448239775554
 31
0.0
  0
SOLID
  5
66B
330
580
100
AcDbEntity
  8
dimensions
440
 16777216
100
AcDbTrace
 10
379.8074777178984
 20
824.6794760921734
 30
0.0
 11
382.474144384565
 21
824.6794760921734
 31
0.0
 12
381.1408110512317
 22
832.6794760921734
 32
0.0
 13
381.1408110512317
 23
832.6794760921734
 33
0.0
  0
SOLID
  5
66C
330
580
100
AcDbEntity
  8
dimensions
440
 16777216
100
AcDbTrace
 10
379.8074777178984
 20
389.8794760921326
 30
0.0
 11
382.4741443845649
 21
389.8794760921326
 31
0.0
 12
381.1408110512316
 22
381.8794760921326
 32
0.0
 13
381.1408110512316
 23
381.8794760921326
 33
0.0
  0
MTEXT
  5
66D
330
580
100
AcDbEntity
  8
dimensions
440
 16777216
370
    -3
100
AcDbMText
 10
381.1408110512316
 20
615.1880709079785
 30
0.0
 40
9.0
 41
0.0
 46
0.0
 71
     5
 72
     1
  1
450,8 mm
 73
     1
 44
1.0
  0
MTEXT
  5
66E
330
580
100
AcDbEntity
  8
dimensions
440
 16777216
370
    -3
100
AcDbMText
 10
381.1408110512316
 20
598.9534187933809
 30
0.0
 40
9.0
 41
0.0
 46
0.0
 71
     5
 72
     1
  1
[17 3/4 "]
 73
     1
 44
1.0
  0
POINT
  5
66F
330
580
100
AcDbEntity
  8
Defpoints
 62
     0
440
 16777216
100
AcDbPoint
 10
476.3293515905356
 20
832.6794760921734
 30
0.0
  0
POINT
  5
670
330
580
100
AcDbEntity
  8
Defpoints
 62
     0
440
 16777216
100
AcDbPoint
 10
476.3293515905647
 20
381.8794760921326
 30
0.0
  0
POINT
  5
671
330
580
100
AcDbEntity
  8
Defpoints
 62
     0
440
 16777216
100
AcDbPoint
 10
381.1408110512316
 20
381.8794760921326
 30
0.0
  0
ENDBLK
  5
582
330
580
100
AcDbEntity
  8
0
100
AcDbBlockEnd
  0
BLOCK
  5
58F
330
58E
100
AcDbEntity
  8
0
100
AcDbBlockBegin
  2
*D16
 70
     1
 10
0.0
 20
0.0
 30
0.0
  3
*D16
  1

  0
LINE
  5
672
330
58E
100
AcDbEntity
  8
dimensions
440
 16777216
370
    -2
100
AcDbLine
 10
1220.829351590579
 20
381.8794760920455
 30
0.0
 11
1313.269896156292
 21
381.8794760920455
 31
0.0
  0
LINE
  5
673
330
58E
100
AcDbEntity
  8
dimensions
440
 16777216
370
    -2
100
AcDbLine
 10
1220.829351590579
 20
756.4794760921038
 30
0.0
 11
1313.269896156292
 21
756.4794760921037
 31
0.0
  0
LINE
  5
674
330
58E
100
AcDbEntity
  8
dimensions
440
 16777216
370
    -2
100
AcDbLine
 10
1308.269896156292
 20
389.8794760920455
 30
0.0
 11
1308.269896156292
 21
552.944823977477
 31
0.0
  0
LINE
  5
675
330
58E
100
AcDbEntity
  8
dimensions
440
 16777216
370
    -2
100
AcDbLine
 10
1308.269896156292
 20
748.4794760921037
 30
0.0
 11
1308.269896156292
 21
585.4141282066721
 31
0.0
  0
SOLID
  5
676
330
58E
100
AcDbEntity
  8
dimensions
440
 16777216
100
AcDbTrace
 10
1306.936562822959
 20
389.8794760920455
 30
0.0
 11
1309.603229489625
 21
389.8794760920455
 31
0.0
 12
1308.269896156292
 22
381.8794760920455
 32
0.0
 13
1308.269896156292
 23
381.8794760920455
 33
0.0
  0
SOLID
  5
677
330
58E
100
AcDbEntity
  8
dimensions
440
 16777216
100
AcDbTrace
 10
1306.936562822959
 20
748.4794760921037
 30
0.0
 11
1309.603229489626
 21
748.4794760921037
 31
0.0
 12
1308.269896156292
 22
756.4794760921037
 32
0.0
 13
1308.269896156292
 23
756.4794760921037
 33
0.0
  0
MTEXT
  5
678
330
58E
100
AcDbEntity
  8
dimensions
440
 16777216
370
    -3
100
AcDbMText
 10
1308.269896156292
 20
577.0880709079001
 30
0.0
 40
9.0
 41
0.0
 46
0.0
 71
     5
 72
     1
  1
374,6 mm
 73
     1
 44
1.0
  0
MTEXT
  5
679
330
58E
100
AcDbEntity
  8
dimensions
440
 16777216
370
    -3
100
AcDbMText
 10
1308.269896156292
 20
560.8534187933026
 30
0.0
 40
9.0
 41
0.0
 46
0.0
 71
     5
 72
     1
  1
[14 3/4 "]
 73
     1
 44
1.0
  0
POINT
  5
67A
330
58E
100
AcDbEntity
  8
Defpoints
 62
     0
440
 16777216
100
AcDbPoint
 10
1218.329351590579
 20
381.8794760920455
 30
0.0
  0
POINT
  5
67B
330
58E
100
AcDbEntity
  8
Defpoints
 62
     0
440
 16777216
100
AcDbPoint
 10
1218.329351590579
 20
756.4794760921038
 30
0.0
  0
POINT
  5
67C
330
58E
100
AcDbEntity
  8
Defpoints
 62
     0
440
 16777216
100
AcDbPoint
 10
1308.269896156292
 20
756.4794760921037
 30
0.0
  0
ENDBLK
  5
590
330
58E
100
AcDbEntity
  8
0
100
AcDbBlockEnd
  0
BLOCK
  5
59D
330
59C
100
AcDbEntity
  8
0
100
AcDbBlockBegin
  2
*D17
 70
     1
 10
0.0
 20
0.0
 30
0.0
  3
*D17
  1

  0
LINE
  5
67D
330
59C
100
AcDbEntity
  8
dimensions
440
 16777216
370
    -2
100
AcDbLine
 10
1220.829351590608
 20
759.6794760921036
 30
0.0
 11
1390.876553605334
 21
759.6794760921035
 31
0.0
  0
LINE
  5
67E
330
59C
100
AcDbEntity
  8
dimensions
440
 16777216
370
    -2
100
AcDbLine
 10
1220.829351590565
 20
378.6794760920454
 30
0.0
 11
1390.876553605334
 21
378.6794760920454
 31
0.0
  0
LINE
  5
67F
330
59C
100
AcDbEntity
  8
dimensions
440
 16777216
370
    -2
100
AcDbLine
 10
1385.876553605334
 20
751.6794760921035
 30
0.0
 11
1385.876553605334
 21
584.545437892893
 31
0.0
  0
LINE
  5
680
330
59C
100
AcDbEntity
  8
dimensions
440
 16777216
370
    -2
100
AcDbLine
 10
1385.876553605334
 20
386.6794760920454
 30
0.0
 11
1385.876553605334
 21
553.8135142912558
 31
0.0
  0
SOLID
  5
681
330
59C
100
AcDbEntity
  8
dimensions
440
 16777216
100
AcDbTrace
 10
1384.543220272001
 20
751.6794760921035
 30
0.0
 11
1387.209886938667
 21
751.6794760921035
 31
0.0
 12
1385.876553605334
 22
759.6794760921035
 32
0.0
 13
1385.876553605334
 23
759.6794760921035
 33
0.0
  0
SOLID
  5
682
330
59C
100
AcDbEntity
  8
dimensions
440
 16777216
100
AcDbTrace
 10
1384.543220272
 20
386.6794760920454
 30
0.0
 11
1387.209886938667
 21
386.6794760920454
 31
0.0
 12
1385.876553605334
 22
378.6794760920454
 32
0.0
 13
1385.876553605334
 23
378.6794760920454
 33
0.0
  0
MTEXT
  5
683
330
59C
100
AcDbEntity
  8
dimensions
440
 16777216
370
    -3
100
AcDbMText
 10
1385.876553605334
 20
576.2777025586504
 30
0.0
 40
9.0
 41
0.0
 46
0.0
 71
     5
 72
     1
  1
381 mm
 73
     1
 44
1.0
  0
MTEXT
  5
684
330
59C
100
AcDbEntity
  8
dimensions
440
 16777216
370
    -3
100
AcDbMText
 10
1385.876553605334
 20
560.9117407578318
 30
0.0
 40
9.0
 41
0.0
 46
0.0
 71
     5
 72
     1
  1
[15 "]
 73
     1
 44
1.0
  0
POINT
  5
685
330
59C
100
AcDbEntity
  8
Defpoints
 62
     0
440
 16777216
100
AcDbPoint
 10
1218.329351590608
 20
759.6794760921036
 30
0.0
  0
POINT
  5
686
330
59C
100
AcDbEntity
  8
Defpoints
 62
     0
440
 16777216
100
AcDbPoint
 10
1218.329351590565
 20
378.6794760920454
 30
0.0
  0
POINT
  5
687
330
59C
100
AcDbEntity
  8
Defpoints
 62
     0
440
 16777216
100
AcDbPoint
 10
1385.876553605334
 20
378.6794760920454
 30
0.0
  0
ENDBLK
  5
59E
330
59C
100
AcDbEntity
  8
0
100
AcDbBlockEnd
  0
BLOCK
  5
5AB
330
5AA
100
AcDbEntity
  8
0
100
AcDbBlockBegin
  2
*D18
 70
     1
 10
0.0
 20
0.0
 30
0.0
  3
*D18
  1

  0
LINE
  5
688
330
5AA
100
AcDbEntity
  8
dimensions
440
 16777216
370
    -2
100
AcDbLine
 10
1220.829351590579
 20
369.0794760920455
 30
0.0
 11
1465.910888735575
 21
369.0794760920454
 31
0.0
  0
LINE
  5
689
330
5AA
100
AcDbEntity
  8
dimensions
440
 16777216
370
    -2
100
AcDbLine
 10
1220.82935159061
 20
769.2794760921035
 30
0.0
 11
1465.910888735575
 21
769.2794760921034
 31
0.0
  0
LINE
  5
68A
330
5AA
100
AcDbEntity
  8
dimensions
440
 16777216
370
    -2
100
AcDbLine
 10
1460.910888735575
 20
377.0794760920455
 30
0.0
 11
1460.910888735575
 21
552.9448239774768
 31
0.0
  0
LINE
  5
68B
330
5AA
100
AcDbEntity
  8
dimensions
440
 16777216
370
    -2
100
AcDbLine
 10
1460.910888735575
 20
761.2794760921034
 30
0.0
 11
1460.910888735575
 21
585.4141282066719
 31
0.0
  0
SOLID
  5
68C
330
5AA
100
AcDbEntity
  8
dimensions
440
 16777216
100
AcDbTrace
 10
1459.577555402242
 20
377.0794760920455
 30
0.0
 11
1462.244222068908
 21
377.0794760920455
 31
0.0
 12
1460.910888735575
 22
369.0794760920454
 32
0.0
 13
1460.910888735575
 23
369.0794760920454
 33
0.0
  0
SOLID
  5
68D
330
5AA
100
AcDbEntity
  8
dimensions
440
 16777216
100
AcDbTrace
 10
1459.577555402242
 20
761.2794760921034
 30
0.0
 11
1462.244222068908
 21
761.2794760921034
 31
0.0
 12
1460.910888735575
 22
769.2794760921034
 32
0.0
 13
1460.910888735575
 23
769.2794760921034
 33
0.0
  0
MTEXT
  5
68E
330
5AA
100
AcDbEntity
  8
dimensions
440
 16777216
370
    -3
100
AcDbMText
 10
1460.910888735575
 20
577.0880709079
 30
0.0
 40
9.0
 41
0.0
 46
0.0
 71
     5
 72
     1
  1
400,2 mm
 73
     1
 44
1.0
  0
MTEXT
  5
68F
330
5AA
100
AcDbEntity
  8
dimensions
440
 16777216
370
    -3
100
AcDbMText
 10
1460.910888735575
 20
560.8534187933024
 30
0.0
 40
9.0
 41
0.0
 46
0.0
 71
     5
 72
     1
  1
[15 3/4 "]
 73
     1
 44
1.0
  0
POINT
  5
690
330
5AA
100
AcDbEntity
  8
Defpoints
 62
     0
440
 16777216
100
AcDbPoint
 10
1218.329351590579
 20
369.0794760920455
 30
0.0
  0
POINT
  5
691
330
5AA
100
AcDbEntity
  8
Defpoints
 62
     0
440
 16777216
100
AcDbPoint
 10
1218.32935159061
 20
769.2794760921035
 30
0.0
  0
POINT
  5
692
330
5AA
100
AcDbEntity
  8
Defpoints
 62
     0
440
 16777216
100
AcDbPoint
 10
1460.910888735575
 20
769.2794760921034
 30
0.0
  0
ENDBLK
  5
5AC
330
5AA
100
AcDbEntity
  8
0
100
AcDbBlockEnd
  0
ENDSEC
  0
SECTION
  2
ENTITIES
  0
LINE
  5
408
330
1F
100
AcDbEntity
  8
centerline
  6
ACAD_ISO08W100
370
    -3
100
AcDbLine
 10
419.5649270147473
 20
607.2794760921526
 30
0.0
 11
1269.31820223959
 21
607.2794760921526
 31
0.0
  0
LINE
  5
409
330
1F
100
AcDbEntity
  8
centerline
  6
ACAD_ISO08W100
370
    -3
100
AcDbLine
 10
847.3293515905707
 20
347.1606524124829
 30
0.0
 11
847.3293515905707
 21
874.6966366202089
 31
0.0
  0
LINE
  5
40A
330
1F
100
AcDbEntity
  8
0
  6
ByBlock
370
    40
100
AcDbLine
 10
117.463840823089
 20
219.0210834346683
 30
0.0
 11
108.7127937334302
 21
219.0210834346683
 31
0.0
  0
LINE
  5
40B
330
1F
100
AcDbEntity
  8
0
  6
ByBlock
370
    40
100
AcDbLine
 10
108.7127937334302
 20
219.0210834346683
 30
0.0
 11
108.7127937334302
 21
217.6209268397141
 31
0.0
  0
LINE
  5
40C
330
1F
100
AcDbEntity
  8
0
  6
ByBlock
370
    40
100
AcDbLine
 10
108.7127937334302
 20
217.6209268397141
 30
0.0
 11
109.454703273311
 21
217.6143672933704
 31
0.0
  0
SPLINE
  5
40D
330
1F
100
AcDbEntity
  8
0
  6
ByBlock
370
    40
100
AcDbSpline
210
0.0
220
0.0
230
1.0
 70
  1064
 71
     3
 72
    16
 73
    12
 74
    10
 42
0.000000001
 43
0.0000000001
 44
0.00001
 40
0.0
 40
0.0
 40
0.0
 40
0.0
 40
0.5820378778656234
 40
0.9179327664755561
 40
1.196084899047658
 40
1.464505860243544
 40
1.771791615364385
 40
2.133867034782019
 40
2.46160891786849
 40
2.822699529062571
 40
2.965291883157515
 40
2.965291883157515
 40
2.965291883157515
 40
2.965291883157515
 10
109.454703273311
 20
217.6143672933749
 30
0.0
 10
109.6490371399951
 20
217.6036827503927
 30
0.0
 10
109.9555201532083
 20
217.5868199763294
 30
0.0
 10
110.3428417408705
 20
217.4856183129568
 30
0.0
 10
110.6174908044322
 20
217.3781458083897
 30
0.0
 10
110.8614130648696
 20
217.227076960744
 30
0.0
 10
111.0715953150575
 20
216.9856470625902
 30
0.0
 10
111.1823096125008
 20
216.6687284511837
 30
0.0
 10
111.2867798172429
 20
216.3332405132434
 30
0.0
 10
111.2981026368788
 20
216.0542439991969
 30
0.0
 10
111.3078541480278
 20
215.8867624415314
 30
0.0
 10
111.3106087727565
 20
215.8393481710966
 30
0.0
 11
109.454703273311
 21
217.6143672933749
 31
0.0
 11
110.033994752072
 21
217.5578610668424
 31
0.0
 11
110.3592308743567
 21
217.4739106397094
 31
0.0
 11
110.6169075098442
 21
217.3691638033314
 31
0.0
 11
110.842615041484
 21
217.2238830886767
 31
0.0
 11
111.0433696973419
 21
216.9912398061967
 31
0.0
 11
111.183920589413
 21
216.6575559780938
 31
0.0
 11
111.2700957136792
 21
216.34134466356
 31
0.0
 11
111.3025740599208
 21
215.9817168001577
 31
0.0
 11
111.3106087727565
 21
215.8393481710966
 31
0.0
  0
LINE
  5
40E
330
1F
100
AcDbEntity
  8
0
  6
ByBlock
370
    40
100
AcDbLine
 10
111.3106087727474
 20
215.8393481710955
 30
0.0
 11
111.3106087727474
 21
203.1319185025605
 31
0.0
  0
LINE
  5
40F
330
1F
100
AcDbEntity
  8
0
  6
ByBlock
370
    40
100
AcDbLine
 10
111.3106087727474
 20
203.1319185025605
 30
0.0
 11
114.6741545780244
 21
202.6334518108255
 31
0.0
  0
LINE
  5
410
330
1F
100
AcDbEntity
  8
0
  6
ByBlock
370
    40
100
AcDbLine
 10
114.6741545780244
 20
202.6334518108255
 30
0.0
 11
114.6741545780244
 21
203.6432101369144
 31
0.0
  0
LINE
  5
411
330
1F
100
AcDbEntity
  8
0
  6
ByBlock
370
    40
100
AcDbLine
 10
114.6741545780244
 20
203.6432101369144
 30
0.0
 11
117.3189330796831
 21
206.9936087357135
 31
0.0
  0
LINE
  5
412
330
1F
100
AcDbEntity
  8
0
  6
ByBlock
370
    40
100
AcDbLine
 10
117.3189330796831
 20
206.9936087357135
 30
0.0
 11
120.5479257362576
 21
201.9841155532981
 31
0.0
  0
LINE
  5
413
330
1F
100
AcDbEntity
  8
0
  6
ByBlock
370
    40
100
AcDbLine
 10
121.5106867405229
 20
200.4904780012601
 30
0.0
 11
122.4570583036642
 21
199.0222672006035
 31
0.0
  0
LINE
  5
414
330
1F
100
AcDbEntity
  8
0
  6
ByBlock
370
    40
100
AcDbLine
 10
120.5479257362576
 20
201.9841155532981
 30
0.0
 11
124.5805594235911
 21
201.75453143144
 31
0.0
  0
LINE
  5
415
330
1F
100
AcDbEntity
  8
0
  6
ByBlock
370
    40
100
AcDbLine
 10
126.4260553224347
 20
198.8550058073757
 30
0.0
 11
125.5092700147067
 21
200.2954004965163
 31
0.0
  0
LINE
  5
416
330
1F
100
AcDbEntity
  8
0
  6
ByBlock
370
    40
100
AcDbLine
 10
124.5805594235911
 20
201.75453143144
 30
0.0
 11
119.6137489132229
 21
209.558067789112
 31
0.0
  0
LINE
  5
417
330
1F
100
AcDbEntity
  8
0
  6
ByBlock
370
    40
100
AcDbLine
 10
119.6137489132229
 20
209.558067789112
 30
0.0
 11
119.6137489132229
 21
209.6431359864758
 31
0.0
  0
LINE
  5
418
330
1F
100
AcDbEntity
  8
0
  6
ByBlock
370
    40
100
AcDbLine
 10
119.6137489132229
 20
209.6431359864758
 30
0.0
 11
124.5279377127713
 21
215.8264055684607
 31
0.0
  0
SPLINE
  5
419
330
1F
100
AcDbEntity
  8
0
  6
ByBlock
370
    40
100
AcDbSpline
210
0.0
220
0.0
230
1.0
 70
  1064
 71
     3
 72
    13
 73
     9
 74
     7
 42
0.000000001
 43
0.0000000001
 44
0.00001
 40
0.0
 40
0.0
 40
0.0
 40
0.0
 40
0.4433416072445723
 40
1.449527682068693
 40
2.168875768969024
 40
2.798160065896262
 40
3.474308996938556
 40
4.226646339346164
 40
4.226646339346164
 40
4.226646339346164
 40
4.226646339346164
 10
124.5279377127803
 20
215.826405568463
 30
0.0
 10
124.623948011178
 20
215.939113865029
 30
0.0
 10
124.9378740566172
 20
216.3076053936208
 30
0.0
 10
125.5211584772542
 20
216.7423065712838
 30
0.0
 10
126.1699413397349
 20
217.1909031226294
 30
0.0
 10
126.8137494613441
 20
217.4128005219868
 30
0.0
 10
127.4878247411525
 20
217.5450861451446
 30
0.0
 10
127.9628569642598
 20
217.5831500192227
 30
0.0
 10
128.2130417788413
 20
217.6031895910987
 30
0.0
 11
124.5279377127803
 21
215.826405568463
 31
0.0
 11
124.8230719531806
 21
216.1572361409829
 31
0.0
 11
125.6021561855461
 21
216.7939827759413
 31
0.0
 11
126.2110403038158
 21
217.1770249841172
 31
0.0
 11
126.801761444494
 21
217.3939312383892
 31
0.0
 11
127.4644555057395
 21
217.5281519107804
 31
0.0
 11
128.2130417788413
 21
217.6031895910987
 31
0.0
  0
LINE
  5
41A
330
1F
100
AcDbEntity
  8
0
  6
ByBlock
370
    40
100
AcDbLine
 10
128.2130417788413
 20
217.6031895910953
 30
0.0
 11
129.2416547688985
 21
217.6031895910953
 31
0.0
  0
LINE
  5
41B
330
1F
100
AcDbEntity
  8
0
  6
ByBlock
370
    40
100
AcDbLine
 10
129.2416547688985
 20
217.6031895910953
 30
0.0
 11
129.2416547688985
 21
219.0210834346683
 31
0.0
  0
LINE
  5
41C
330
1F
100
AcDbEntity
  8
0
  6
ByBlock
370
    40
100
AcDbLine
 10
129.2416547688985
 20
219.0210834346683
 30
0.0
 11
119.8882305466873
 21
219.0210834346683
 31
0.0
  0
LINE
  5
41D
330
1F
100
AcDbEntity
  8
0
  6
ByBlock
370
    40
100
AcDbLine
 10
119.8882305466873
 20
219.0210834346683
 30
0.0
 11
119.8882305466873
 21
217.6094255723651
 31
0.0
  0
LINE
  5
41E
330
1F
100
AcDbEntity
  8
0
  6
ByBlock
370
    40
100
AcDbLine
 10
119.8882305466873
 20
217.6094255723651
 30
0.0
 11
121.0984167302775
 21
217.6094255723651
 31
0.0
  0
LINE
  5
41F
330
1F
100
AcDbEntity
  8
0
  6
ByBlock
370
    40
100
AcDbLine
 10
117.463840823089
 20
219.0210834346683
 30
0.0
 11
117.463840823089
 21
217.6043661913348
 31
0.0
  0
LINE
  5
420
330
1F
100
AcDbEntity
  8
0
  6
ByBlock
370
    40
100
AcDbLine
 10
117.463840823089
 20
217.6043661913348
 30
0.0
 11
116.4863218167516
 21
217.6043661913348
 31
0.0
  0
SPLINE
  5
421
330
1F
100
AcDbEntity
  8
0
  6
ByBlock
370
    40
100
AcDbSpline
210
0.0
220
0.0
230
1.0
 70
  1064
 71
     3
 72
    16
 73
    12
 74
    10
 42
0.000000001
 43
0.0000000001
 44
0.00001
 40
0.0
 40
0.0
 40
0.0
 40
0.0
 40
0.2546617000404427
 40
0.6118183474886762
 40
0.9827816050035716
 40
1.336494144631255
 40
1.661977847973225
 40
1.950808829225261
 40
2.304032227940671
 40
2.577681382850223
 40
2.718833234212556
 40
2.718833234212556
 40
2.718833234212556
 40
2.718833234212556
 10
116.4863218167695
 20
217.6043661913359
 30
0.0
 10
116.4013649669298
 20
217.6027181194364
 30
0.0
 10
116.1972589409545
 20
217.5987422285766
 30
0.0
 10
115.8732958388651
 20
217.5419609565186
 30
0.0
 10
115.5246583339343
 20
217.4496874525849
 30
0.0
 10
115.2034738974579
 20
217.2971979291398
 30
0.0
 10
114.9763525017665
 20
217.0588856505408
 30
0.0
 10
114.8202230253928
 20
216.775443158421
 30
0.0
 10
114.7139227472359
 20
216.4864053994234
 30
0.0
 10
114.6827524535573
 20
216.2312928622836
 30
0.0
 10
114.6707602530633
 20
216.0936068568512
 30
0.0
 10
114.6666856900627
 20
216.0467533784325
 30
0.0
 11
116.4863218167695
 21
217.6043661913359
 31
0.0
 11
116.231870382887
 21
217.5939826942155
 31
0.0
 11
115.8791351730227
 21
217.5379471077783
 31
0.0
 11
115.5222128593091
 21
217.4368477321458
 31
0.0
 11
115.207953739073
 21
217.274506314012
 31
0.0
 11
114.9803789854338
 21
217.0418042015167
 31
0.0
 11
114.8364897267523
 21
216.7913648404038
 31
0.0
 11
114.7197034782349
 21
216.4580045773648
 31
0.0
 11
114.6794733316037
 21
216.1873276921206
 31
0.0
 11
114.6666856900627
 21
216.0467533784325
 31
0.0
  0
LINE
  5
422
330
1F
100
AcDbEntity
  8
0
  6
ByBlock
370
    40
100
AcDbLine
 10
114.6666856900447
 20
216.0467533784291
 30
0.0
 11
114.6666856900447
 21
206.129542934364
 31
0.0
  0
LINE
  5
423
330
1F
100
AcDbEntity
  8
0
  6
ByBlock
370
    40
100
AcDbLine
 10
114.6666856900447
 20
206.129542934364
 30
0.0
 11
122.2547363884116
 21
215.6144998652105
 31
0.0
  0
SPLINE
  5
424
330
1F
100
AcDbEntity
  8
0
  6
ByBlock
370
    40
100
AcDbSpline
210
0.0
220
0.0
230
1.0
 70
  1064
 71
     3
 72
    19
 73
    15
 74
    13
 42
0.000000001
 43
0.0000000001
 44
0.00001
 40
0.0
 40
0.0
 40
0.0
 40
0.0
 40
0.5356775724679582
 40
0.9462287692584016
 40
1.225931060793951
 40
1.393286395626065
 40
1.507963431177293
 40
1.640283827044509
 40
1.742201739737793
 40
1.897495100645028
 40
2.194527368347543
 40
2.661483097738042
 40
3.276569131297267
 40
3.704799616610513
 40
3.704799616610513
 40
3.704799616610513
 40
3.704799616610513
 10
122.2547363884116
 20
215.6144998652128
 30
0.0
 10
122.3697146337192
 20
215.7511000758172
 30
0.0
 10
122.5728059288503
 20
215.9923991323525
 30
0.0
 10
122.803413866577
 20
216.3320233881821
 30
0.0
 10
122.9269542894749
 20
216.589597957831
 30
0.0
 10
122.9934319354444
 20
216.7667245318509
 30
0.0
 10
123.0036210488749
 20
216.9048504916631
 30
0.0
 10
123.0033864823105
 20
217.0228481017343
 30
0.0
 10
122.9530180189234
 20
217.1450409428981
 30
0.0
 10
122.8261509271168
 20
217.2863630898582
 30
0.0
 10
122.5295448300123
 20
217.392137421893
 30
0.0
 10
122.0880521138454
 20
217.5063693376023
 30
0.0
 10
121.588709898675
 20
217.5914414895671
 30
0.0
 10
121.2410957119057
 20
217.6041962400323
 30
0.0
 10
121.0984167302865
 20
217.6094255723673
 30
0.0
 11
122.2547363884116
 21
215.6144998652128
 31
0.0
 11
122.5916285025435
 21
216.0309869352134
 31
0.0
 11
122.8172794516759
 21
216.3739659052146
 31
0.0
 11
122.9386488814491
 21
216.6259642616483
 31
0.0
 11
122.9903652724958
 21
216.7851288591319
 31
0.0
 11
123.0018515168933
 21
216.8992296674145
 31
0.0
 11
122.9937602215955
 21
217.0313030443737
 31
0.0
 11
122.9559065392764
 21
217.1259311186843
 31
0.0
 11
122.8536054068859
 21
217.2427675225316
 31
0.0
 11
122.5846688569215
 21
217.3688696532741
 31
0.0
 11
122.1333669586474
 21
217.4887652177422
 31
0.0
 11
121.5260105674781
 21
217.5859818125815
 31
0.0
 11
121.0984167302865
 21
217.6094255723673
 31
0.0
  0
LINE
  5
425
330
1F
100
AcDbEntity
  8
0
  6
ByBlock
370
    40
100
AcDbLine
 10
111.3106087727474
 20
201.6846707921769
 30
0.0
 11
111.3106087727474
 21
200.3147551325853
 31
0.0
  0
LINE
  5
426
330
1F
100
AcDbEntity
  8
0
  6
ByBlock
370
    40
100
AcDbLine
 10
111.3106087727474
 20
201.6846707921769
 30
0.0
 11
114.6741545780244
 21
201.1902524187283
 31
0.0
  0
LINE
  5
427
330
1F
100
AcDbEntity
  8
0
  6
ByBlock
370
    40
100
AcDbLine
 10
114.6741545780244
 20
201.1902524187283
 30
0.0
 11
114.6741545780244
 21
199.8001301716796
 31
0.0
  0
LINE
  5
428
330
1F
100
AcDbEntity
  8
0
  6
ByBlock
370
    40
100
AcDbLine
 10
114.6741545780244
 20
198.3701290856933
 30
0.0
 11
114.6741545780244
 21
197.6854948209642
 31
0.0
  0
LINE
  5
429
330
1F
100
AcDbEntity
  8
0
  6
ByBlock
370
    40
100
AcDbLine
 10
111.3106087727474
 20
198.8715961080427
 30
0.0
 11
111.3106087727474
 21
197.8096849763064
 31
0.0
  0
SPLINE
  5
42A
330
1F
100
AcDbEntity
  8
0
  6
ByBlock
370
    40
100
AcDbSpline
210
0.0
220
0.0
230
1.0
 70
  1064
 71
     3
 72
     9
 73
     5
 74
     3
 42
0.000000001
 43
0.0000000001
 44
0.00001
 40
0.0
 40
0.0
 40
0.0
 40
0.0
 40
1.615967003350461
 40
3.402909260206196
 40
3.402909260206196
 40
3.402909260206196
 40
3.402909260206196
 10
111.3106087727565
 20
200.3147551325876
 30
0.0
 10
111.8416057449469
 20
200.2239981269947
 30
0.0
 10
112.9597842903142
 20
200.0329014872943
 30
0.0
 10
114.0838706445318
 20
199.8802699331834
 30
0.0
 10
114.6741545780244
 20
199.8001301716818
 30
0.0
 11
111.3106087727565
 21
200.3147551325876
 31
0.0
 11
112.9049334452209
 21
200.0511672637887
 31
0.0
 11
114.6741545780244
 21
199.8001301716818
 31
0.0
  0
SPLINE
  5
42B
330
1F
100
AcDbEntity
  8
0
  6
ByBlock
370
    40
100
AcDbSpline
210
0.0
220
0.0
230
1.0
 70
  1064
 71
     3
 72
    12
 73
     8
 74
     6
 42
0.000000001
 43
0.0000000001
 44
0.00001
 40
0.0
 40
0.0
 40
0.0
 40
0.0
 40
0.6148668034870194
 40
1.449441780356923
 40
2.431697298032627
 40
3.102005889378337
 40
3.401272560359429
 40
3.401272560359429
 40
3.401272560359429
 40
3.401272560359429
 10
111.3106087727565
 20
198.8715961080461
 30
0.0
 10
111.5120548158834
 20
198.8336622730448
 30
0.0
 10
111.9869260470694
 20
198.7442241307922
 30
0.0
 10
112.7906623237814
 20
198.6372131852289
 30
0.0
 10
113.609858691165
 20
198.5105617911168
 30
0.0
 10
114.2534452755698
 20
198.4138751016796
 30
0.0
 10
114.5749273905518
 20
198.3804517006618
 30
0.0
 10
114.6741545780244
 20
198.3701290856956
 30
0.0
 11
111.3106087727565
 21
198.8715961080461
 31
0.0
 11
111.9157018645291
 21
198.7624076057612
 31
0.0
 11
112.7414100643368
 21
198.6410707059906
 31
0.0
 11
113.7128181623275
 21
198.4954958412852
 31
0.0
 11
114.3766438732759
 21
198.4024855923005
 31
0.0
 11
114.6741545780244
 21
198.3701290856956
 31
0.0
  0
SPLINE
  5
42C
330
1F
100
AcDbEntity
  8
0
  6
ByBlock
370
    40
100
AcDbSpline
210
0.0
220
0.0
230
1.0
 70
  1064
 71
     3
 72
    15
 73
    11
 74
     9
 42
0.000000001
 43
0.0000000001
 44
0.00001
 40
0.0
 40
0.0
 40
0.0
 40
0.0
 40
0.3576008155349326
 40
0.6918537616936183
 40
1.031779612933587
 40
1.398716321011784
 40
1.790141701254006
 40
2.176226800873925
 40
2.576037466584087
 40
2.827233967402097
 40
2.827233967402097
 40
2.827233967402097
 40
2.827233967402097
 10
111.3106087727565
 20
197.8096849763087
 30
0.0
 10
111.3001006887633
 20
197.6903969219072
 30
0.0
 10
111.2797575491467
 20
197.4596111198558
 30
0.0
 10
111.1430498549613
 20
197.1369721244178
 30
0.0
 10
110.926522626577
 20
196.8645770999698
 30
0.0
 10
110.6577052205471
 20
196.6076962250068
 30
0.0
 10
110.2980769261509
 20
196.4660566630764
 30
0.0
 10
109.9259015631528
 20
196.3407585815179
 30
0.0
 10
109.5803235203332
 20
196.30206520739
 30
0.0
 10
109.3640094557955
 20
196.2869995740577
 30
0.0
 10
109.2805423852954
 20
196.2811930193516
 30
0.0
 11
111.3106087727565
 21
197.8096849763087
 31
0.0
 11
111.2600240313945
 21
197.4556753790583
 31
0.0
 11
111.1312988786021
 21
197.1472002111032
 31
0.0
 11
110.926130788956
 21
196.876170345783
 31
0.0
 11
110.6513662430637
 21
196.6329670761435
 31
0.0
 11
110.2960282388944
 21
196.4688019276426
 31
0.0
 11
109.9269972734201
 21
196.3553188344823
 31
0.0
 11
109.5310330452313
 21
196.2999892081903
 31
0.0
 11
109.2805423852954
 21
196.2811930193516
 31
0.0
  0
LINE
  5
42D
330
1F
100
AcDbEntity
  8
0
  6
ByBlock
370
    40
100
AcDbLine
 10
109.2805423852774
 20
196.2811930193493
 30
0.0
 11
108.7127937334302
 21
196.2811930193493
 31
0.0
  0
LINE
  5
42E
330
1F
100
AcDbEntity
  8
0
  6
ByBlock
370
    40
100
AcDbLine
 10
108.7127937334302
 20
196.2811930193493
 30
0.0
 11
108.7127937334302
 21
194.9073357489492
 31
0.0
  0
LINE
  5
42F
330
1F
100
AcDbEntity
  8
0
  6
ByBlock
370
    40
100
AcDbLine
 10
108.7127937334302
 20
194.9073357489492
 30
0.0
 11
117.4598234666803
 21
194.9073357489492
 31
0.0
  0
LINE
  5
430
330
1F
100
AcDbEntity
  8
0
  6
ByBlock
370
    40
100
AcDbLine
 10
117.4598234666803
 20
194.9073357489492
 30
0.0
 11
117.4598234666803
 21
196.2873113405952
 31
0.0
  0
LINE
  5
431
330
1F
100
AcDbEntity
  8
0
  6
ByBlock
370
    40
100
AcDbLine
 10
117.4598234666803
 20
196.2873113405952
 30
0.0
 11
116.8195926518629
 21
196.2873113405952
 31
0.0
  0
SPLINE
  5
432
330
1F
100
AcDbEntity
  8
0
  6
ByBlock
370
    40
100
AcDbSpline
210
0.0
220
0.0
230
1.0
 70
  1064
 71
     3
 72
    15
 73
    11
 74
     9
 42
0.000000001
 43
0.0000000001
 44
0.00001
 40
0.0
 40
0.0
 40
0.0
 40
0.0
 40
0.2685973783458353
 40
0.5553261831425656
 40
0.8661750066043031
 40
1.164841758019445
 40
1.612982856685215
 40
1.904802935504682
 40
2.495408872809568
 40
2.853868645368542
 40
2.853868645368542
 40
2.853868645368542
 40
2.853868645368542
 10
114.6741545780244
 20
197.6854948209675
 30
0.0
 10
114.6812859893103
 20
197.5957723013216
 30
0.0
 10
114.6960436218959
 20
197.4102724739525
 30
0.0
 10
114.8031150808624
 20
197.1391444107801
 30
0.0
 10
114.9609448491587
 20
196.8803520181012
 30
0.0
 10
115.2406680844197
 20
196.6602693354745
 30
0.0
 10
115.5436469953217
 20
196.4832206288324
 30
0.0
 10
115.9781771438342
 20
196.3856230980169
 30
0.0
 10
116.3826883079497
 20
196.290817419023
 30
0.0
 10
116.6998146009978
 20
196.2882683657957
 30
0.0
 10
116.8195926518629
 20
196.2873113405985
 30
0.0
 11
114.6741545780244
 21
197.6854948209675
 31
0.0
 11
114.7081606513662
 21
197.4190536965857
 31
0.0
 11
114.8073497471032
 21
197.1500240516762
 31
0.0
 11
114.9770972013306
 21
196.8896130035264
 31
0.0
 11
115.2043890425237
 21
196.695856358984
 31
0.0
 11
115.5987123786609
 21
196.4829211305213
 31
0.0
 11
115.8805497351445
 21
196.4072363200787
 31
0.0
 11
116.4613689409967
 21
196.3001656982227
 31
0.0
 11
116.8195926518629
 21
196.2873113405985
 31
0.0
  0
SPLINE
  5
433
330
1F
100
AcDbEntity
  8
0
  6
ByBlock
370
    40
100
AcDbSpline
210
0.0
220
0.0
230
1.0
 70
  1064
 71
     3
 72
    13
 73
     9
 74
     7
 42
0.000000001
 43
0.0000000001
 44
0.00001
 40
0.0
 40
0.0
 40
0.0
 40
0.0
 40
0.4535098702943482
 40
1.13959435768711
 40
1.826331368811624
 40
2.772748058615756
 40
3.555510486006554
 40
4.003512871179614
 40
4.003512871179614
 40
4.003512871179614
 40
4.003512871179614
 10
125.5092700147157
 20
200.2954004965173
 30
0.0
 10
125.3581952538983
 20
200.3007021433394
 30
0.0
 10
124.9785701952251
 20
200.3140402222948
 30
0.0
 10
124.3699377497818
 20
200.3304109368344
 30
0.0
 10
123.5983997386044
 20
200.3807061587323
 30
0.0
 10
122.793872987712
 20
200.4163688801081
 30
0.0
 10
122.069282720099
 20
200.4571676054478
 30
0.0
 10
121.6597555041012
 20
200.4815827442531
 30
0.0
 10
121.5106867404958
 20
200.4904780012984
 30
0.0
 11
125.5092700147157
 21
200.2954004965173
 31
0.0
 11
125.0560220428432
 21
200.3108135217837
 31
0.0
 11
124.3703554927937
 21
200.3347573366701
 31
0.0
 11
123.6846889427261
 21
200.3730850894939
 31
0.0
 11
122.7394785351716
 21
200.4208550592419
 31
0.0
 11
121.9579046734704
 21
200.4639774580452
 31
0.0
 11
121.5106867404958
 21
200.4904780012984
 31
0.0
  0
LINE
  5
434
330
1F
100
AcDbEntity
  8
0
  6
ByBlock
370
    40
100
AcDbLine
 10
122.4570583036642
 20
199.0222672006047
 30
0.0
 11
126.4260553224347
 21
198.8550058073757
 31
0.0
  0
LINE
  5
435
330
1F
100
AcDbEntity
  8
0
  6
ByBlock
370
    40
100
AcDbLine
 10
120.6798195081838
 20
194.9073357489481
 30
0.0
 11
137.6560926568626
 21
194.9073357489481
 31
0.0
  0
LINE
  5
436
330
1F
100
AcDbEntity
  8
0
  6
ByBlock
370
    40
100
AcDbLine
 10
120.6798195081838
 20
194.9073357489492
 30
0.0
 11
120.6798195081838
 21
196.2845463300374
 31
0.0
  0
LINE
  5
437
330
1F
100
AcDbEntity
  8
0
  6
ByBlock
370
    40
100
AcDbLine
 10
120.6798195081838
 20
196.2845463300374
 30
0.0
 11
121.6064708607496
 21
196.2845463300374
 31
0.0
  0
LINE
  5
438
330
1F
100
AcDbEntity
  8
0
  6
ByBlock
370
    40
100
AcDbLine
 10
137.6560926568626
 20
194.9073357489492
 30
0.0
 11
137.6560926568626
 21
196.2869289455194
 31
0.0
  0
LINE
  5
439
330
1F
100
AcDbEntity
  8
0
  6
ByBlock
370
    40
100
AcDbLine
 10
137.6560926568626
 20
196.2869289455194
 30
0.0
 11
137.0165408318615
 21
196.2869289455194
 31
0.0
  0
SPLINE
  5
43A
330
1F
100
AcDbEntity
  8
0
  6
ByBlock
370
    40
100
AcDbSpline
210
0.0
220
0.0
230
1.0
 70
  1064
 71
     3
 72
    18
 73
    14
 74
    12
 42
0.000000001
 43
0.0000000001
 44
0.00001
 40
0.0
 40
0.0
 40
0.0
 40
0.0
 40
0.2013834335703955
 40
0.667542462377346
 40
1.270455648723427
 40
1.805364703236461
 40
2.049418723063194
 40
2.14994267602634
 40
2.254819417315142
 40
2.426192356898213
 40
2.626744357141835
 40
2.889994967358393
 40
3.089645675560025
 40
3.089645675560025
 40
3.089645675560025
 40
3.089645675560025
 10
121.6064708607496
 20
196.2845463300397
 30
0.0
 10
121.6736099594297
 20
196.284195251706
 30
0.0
 10
121.8961614839427
 20
196.2830487863234
 30
0.0
 10
122.3189935657764
 20
196.3145347316503
 30
0.0
 10
122.8505198458716
 20
196.3677575453277
 30
0.0
 10
123.305315503508
 20
196.4574738302628
 30
0.0
 10
123.5767353574213
 20
196.5725656089067
 30
0.0
 10
123.6923320170598
 20
196.6773565303574
 30
0.0
 10
123.7140776138442
 20
196.8076918089624
 30
0.0
 10
123.684866957768
 20
196.9638866461894
 30
0.0
 10
123.6264268631977
 20
197.16937544932
 30
0.0
 10
123.5024269603084
 20
197.3549344101491
 30
0.0
 10
123.4337697371794
 20
197.4930570040944
 30
0.0
 10
123.404152983386
 20
197.552627238847
 30
0.0
 11
121.6064708607496
 21
196.2845463300397
 31
0.0
 11
121.8078479239348
 21
196.2851052151467
 31
0.0
 11
122.27318227844
 21
196.3128435658101
 31
0.0
 11
122.8723342093332
 21
196.3801450995464
 31
0.0
 11
123.3935154762634
 21
196.5005701341216
 31
0.0
 11
123.6121501973028
 21
196.6090232612582
 31
0.0
 11
123.6814071586049
 21
196.6818842311288
 31
0.0
 11
123.7055112971206
 21
196.7839543019631
 31
0.0
 11
123.6842362828486
 21
196.9540024516678
 31
0.0
 11
123.6239759365994
 21
197.1452882357098
 31
0.0
 11
123.4963258510297
 21
197.3755194876989
 31
0.0
 11
123.404152983386
 21
197.552627238847
 31
0.0
  0
SPLINE
  5
43B
330
1F
100
AcDbEntity
  8
0
  6
ByBlock
370
    40
100
AcDbSpline
210
0.0
220
0.0
230
1.0
 70
  1064
 71
     3
 72
    10
 73
     6
 74
     4
 42
0.000000001
 43
0.0000000001
 44
0.00001
 40
0.0
 40
0.0
 40
0.0
 40
0.0
 40
1.348995584752597
 40
2.92624939366831
 40
4.013311983912919
 40
4.013311983912919
 40
4.013311983912919
 40
4.013311983912919
 10
123.4041529833949
 20
197.552627238847
 30
0.0
 10
123.8531881644233
 20
197.5285423777195
 30
0.0
 10
124.8272387349396
 20
197.4763109618275
 30
0.0
 10
126.1646611482682
 20
197.4400410364567
 30
0.0
 10
127.0526422697442
 20
197.4256530555821
 30
0.0
 10
127.4149458316004
 20
197.4197890717329
 30
0.0
 11
123.4041529833949
 21
197.552627238847
 31
0.0
 11
124.7514951099925
 21
197.4858551752202
 31
0.0
 11
126.3280528822539
 21
197.4389970706563
 31
0.0
 11
127.4149458316004
 21
197.4197890717329
 31
0.0
  0
SPLINE
  5
43C
330
1F
100
AcDbEntity
  8
0
  6
ByBlock
370
    40
100
AcDbSpline
210
0.0
220
0.0
230
1.0
 70
  1064
 71
     3
 72
    21
 73
    17
 74
    15
 42
0.000000001
 43
0.0000000001
 44
0.00001
 40
0.0
 40
0.0
 40
0.0
 40
0.0
 40
0.1679253709186467
 40
0.5197640662061418
 40
0.8577260179766446
 40
1.337588207287473
 40
1.968556529127314
 40
2.735200837536833
 40
3.326567355450467
 40
3.871457983117588
 40
4.540819748857899
 40
5.02207563676428
 40
5.320099632960737
 40
5.650921842121383
 40
5.958956092321966
 40
6.185481094044829
 40
6.185481094044829
 40
6.185481094044829
 40
6.185481094044829
 10
127.4149458316004
 20
197.4197890717329
 30
0.0
 10
127.4457810905607
 20
197.3728244797543
 30
0.0
 10
127.5412359492062
 20
197.2274692846998
 30
0.0
 10
127.7650781428834
 20
197.0446057241014
 30
0.0
 10
128.0419085471725
 20
196.7693724484366
 30
0.0
 10
128.4752665457826
 20
196.537476953441
 30
0.0
 10
129.0873392400104
 20
196.3908946777886
 30
0.0
 10
129.7476427825806
 20
196.3245678475619
 30
0.0
 10
130.3804219204243
 20
196.282302464375
 30
0.0
 10
130.9832415418547
 20
196.2736293273941
 30
0.0
 10
131.5457557056433
 20
196.3514840048752
 30
0.0
 10
132.0082915492316
 20
196.509667327086
 30
0.0
 10
132.311923703053
 20
196.7279612576496
 30
0.0
 10
132.5122092583327
 20
196.9720821052372
 30
0.0
 10
132.6290355061071
 20
197.2425585855011
 30
0.0
 10
132.6432969896272
 20
197.4209199393315
 30
0.0
 10
132.6493349122911
 20
197.496503407388
 30
0.0
 11
127.4149458316004
 21
197.4197890717329
 31
0.0
 11
127.5116452980197
 21
197.282509238712
 31
0.0
 11
127.7643426748632
 21
197.0376881437499
 31
0.0
 11
128.0170400517157
 21
196.8132810629448
 31
0.0
 11
128.4356372738093
 21
196.5786669750629
 31
0.0
 11
129.044804304507
 21
196.4142370915033
 31
0.0
 11
129.8060650541713
 21
196.3235506279943
 31
0.0
 11
130.3962769524918
 21
196.2866347954655
 31
0.0
 11
130.9411662805045
 21
196.2866347954655
 31
0.0
 11
131.6032945169121
 21
196.3847632554913
 31
0.0
 11
132.0531818530822
 21
196.5556644403671
 31
0.0
 11
132.2945061504887
 21
196.7305366510622
 31
0.0
 11
132.5035784316102
 21
196.9869178433864
 31
0.0
 11
132.6208173399782
 21
197.2717727615235
 31
0.0
 11
132.6493349122911
 21
197.496503407388
 31
0.0
  0
LINE
  5
43D
330
1F
100
AcDbEntity
  8
0
  6
ByBlock
370
    40
100
AcDbLine
 10
132.6493349122821
 20
197.4965034073868
 30
0.0
 11
135.3321368436735
 21
197.7057617600952
 31
0.0
  0
SPLINE
  5
43E
330
1F
100
AcDbEntity
  8
0
  6
ByBlock
370
    40
100
AcDbSpline
210
0.0
220
0.0
230
1.0
 70
  1064
 71
     3
 72
    14
 73
    10
 74
     8
 42
0.000000001
 43
0.0000000001
 44
0.00001
 40
0.0
 40
0.0
 40
0.0
 40
0.0
 40
0.3492556551719005
 40
0.7486254132059189
 40
1.063017851681197
 40
1.40595506756672
 40
1.821839177459925
 40
2.275258125412651
 40
2.585221229008496
 40
2.585221229008496
 40
2.585221229008496
 40
2.585221229008496
 10
135.3321368436825
 20
197.7057617600975
 30
0.0
 10
135.3294693568344
 20
197.5893634287905
 30
0.0
 10
135.3237655169294
 20
197.3398651216411
 30
0.0
 10
135.3896274537221
 20
196.9852955432868
 30
0.0
 10
135.5755137172689
 20
196.6769233675508
 30
0.0
 10
135.8747874767028
 20
196.4621348748716
 30
0.0
 10
136.2713182432654
 20
196.3657648119376
 30
0.0
 10
136.6582695925895
 20
196.2946384464314
 30
0.0
 10
136.9130782244244
 20
196.289150443746
 30
0.0
 10
137.0165408318705
 20
196.2869289455206
 30
0.0
 11
135.3321368436825
 21
197.7057617600975
 31
0.0
 11
135.335475210284
 21
197.3565173938201
 31
0.0
 11
135.4203489373976
 21
196.9662685091751
 31
0.0
 11
135.5859658702198
 21
196.6990331796307
 31
0.0
 11
135.8619186482952
 21
196.4954225080763
 31
0.0
 11
136.2592408561528
 21
196.3725560279857
 31
0.0
 11
136.7068648928903
 21
196.3002833582488
 31
0.0
 11
137.0165408318705
 21
196.2869289455206
 31
0.0
  0
LINE
  5
43F
330
1F
100
AcDbEntity
  8
0
  6
ByBlock
370
    40
100
AcDbLine
 10
132.6771734947788
 20
198.9012464340894
 30
0.0
 11
132.6771734947788
 21
200.3229619192615
 31
0.0
  0
LINE
  5
440
330
1F
100
AcDbEntity
  8
0
  6
ByBlock
370
    40
100
AcDbLine
 10
132.6771734947788
 20
201.754619676455
 30
0.0
 11
132.6771734947788
 21
207.9523614413957
 31
0.0
  0
LINE
  5
441
330
1F
100
AcDbEntity
  8
0
  6
ByBlock
370
    40
100
AcDbLine
 10
135.2976781104721
 20
199.1344191866834
 30
0.0
 11
135.2976781104721
 21
200.5496633705302
 31
0.0
  0
LINE
  5
442
330
1F
100
AcDbEntity
  8
0
  6
ByBlock
370
    40
100
AcDbLine
 10
135.2976781104721
 20
201.9898220644595
 30
0.0
 11
135.2976781104721
 21
206.0525050336417
 31
0.0
  0
LINE
  5
443
330
1F
100
AcDbEntity
  8
0
  6
ByBlock
370
    40
100
AcDbLine
 10
135.2976781104721
 20
208.2015653722527
 30
0.0
 11
135.2976781104721
 21
211.6089408376887
 31
0.0
  0
LINE
  5
444
330
1F
100
AcDbEntity
  8
0
  6
ByBlock
370
    40
100
AcDbLine
 10
135.2976781104721
 20
211.6089408376887
 30
0.0
 11
130.2459938730083
 21
209.7865047257328
 31
0.0
  0
LINE
  5
445
330
1F
100
AcDbEntity
  8
0
  6
ByBlock
370
    40
100
AcDbLine
 10
130.2459938730083
 20
209.7865047257328
 30
0.0
 11
130.6446174779912
 21
208.856814045986
 31
0.0
  0
LINE
  5
446
330
1F
100
AcDbEntity
  8
0
  6
ByBlock
370
    40
100
AcDbLine
 10
132.6771734947788
 20
198.9012464340894
 30
0.0
 11
135.2976781104721
 21
199.1344191866834
 31
0.0
  0
LINE
  5
447
330
1F
100
AcDbEntity
  8
0
  6
ByBlock
370
    40
100
AcDbLine
 10
132.6771734947698
 20
200.3229619192615
 30
0.0
 11
135.2976781104721
 21
200.5496633705302
 31
0.0
  0
LINE
  5
448
330
1F
100
AcDbEntity
  8
0
  6
ByBlock
370
    40
100
AcDbLine
 10
132.6771734947788
 20
201.754619676455
 30
0.0
 11
135.2976781104721
 21
201.9898220644595
 31
0.0
  0
SPLINE
  5
449
330
1F
100
AcDbEntity
  8
0
  6
ByBlock
370
    40
100
AcDbSpline
210
0.0
220
0.0
230
1.0
 70
  1064
 71
     3
 72
    15
 73
    11
 74
     9
 42
0.000000001
 43
0.0000000001
 44
0.00001
 40
0.0
 40
0.0
 40
0.0
 40
0.0
 40
0.401458541190404
 40
0.8168473358614949
 40
1.270008946656593
 40
1.617602954722864
 40
1.866432009967434
 40
2.082349848895668
 40
2.293723523158041
 40
2.522090291870855
 40
2.522090291870855
 40
2.522090291870855
 40
2.522090291870855
 10
130.6446174780093
 20
208.8568140459894
 30
0.0
 10
130.7784797884462
 20
208.8552141332658
 30
0.0
 10
131.0508492722803
 20
208.8519561774566
 30
0.0
 10
131.4731557034863
 20
208.8359434859731
 30
0.0
 10
131.8807110925161
 20
208.808936731526
 30
0.0
 10
132.214847652182
 20
208.705942054337
 30
0.0
 10
132.4637441095763
 20
208.5788376178172
 30
0.0
 10
132.5841143455836
 20
208.3810722586479
 30
0.0
 10
132.6652435569188
 20
208.176442259814
 30
0.0
 10
132.6730994919043
 20
208.0289553390712
 30
0.0
 10
132.6771734947788
 20
207.9523614413968
 30
0.0
 11
130.6446174780093
 21
208.8568140459894
 31
0.0
 11
131.0460136247468
 21
208.8503133296621
 31
0.0
 11
131.4611027327623
 21
208.8345174714387
 31
0.0
 11
131.9117822237183
 21
208.7871298967655
 31
0.0
 11
132.2438648266466
 21
208.6844421108089
 31
0.0
 11
132.4567281342382
 21
208.5555749695053
 31
0.0
 11
132.5790028837574
 21
208.3776141831885
 31
0.0
 11
132.6523903664647
 21
208.1793864577294
 31
0.0
 11
132.6771734947788
 21
207.9523614413968
 31
0.0
  0
SPLINE
  5
44A
330
1F
100
AcDbEntity
  8
0
  6
ByBlock
370
    40
100
AcDbSpline
210
0.0
220
0.0
230
1.0
 70
  1064
 71
     3
 72
    47
 73
    43
 74
    41
 42
0.000000001
 43
0.0000000001
 44
0.00001
 40
0.0
 40
0.0
 40
0.0
 40
0.0
 40
0.7860317073339483
 40
1.671371443009369
 40
2.587349425084192
 40
3.315569337657326
 40
3.905253912306475
 40
4.423006125147152
 40
4.627186618630964
 40
4.825343598081508
 40
4.964820583094513
 40
5.279823377827112
 40
5.701182094903226
 40
6.246690281122625
 40
6.614328885285002
 40
7.006885434542539
 40
7.29596524969935
 40
7.542273357804343
 40
7.957368737501097
 40
8.322386894926163
 40
8.785215448781432
 40
9.235213072382752
 40
9.650083764454603
 40
10.11931136086757
 40
10.60101325803159
 40
11.15700321271914
 40
11.65363307292525
 40
12.05426572529015
 40
12.61722863976764
 40
13.05962480145899
 40
13.40663261725153
 40
13.80876493148311
 40
14.21760670409041
 40
14.76980541217865
 40
15.52454301323309
 40
16.07584203616373
 40
16.72765952310855
 40
17.35750804148542
 40
18.29748674142371
 40
19.15240511186654
 40
19.87844023561171
 40
20.06644402395208
 40
20.06644402395208
 40
20.06644402395208
 40
20.06644402395208
 10
135.2976781104811
 20
206.0525050336452
 30
0.0
 10
135.4696032809429
 20
206.2502792215696
 30
0.0
 10
135.8351700661535
 20
206.6708187419065
 30
0.0
 10
136.4182914505678
 20
207.305563175824
 30
0.0
 10
136.9844101462826
 20
207.9333273496619
 30
0.0
 10
137.5836980486939
 20
208.3835263949043
 30
0.0
 10
138.1260868603026
 20
208.6689043032722
 30
0.0
 10
138.5145426116548
 20
208.8674119583917
 30
0.0
 10
138.8131004354356
 20
208.9578539543394
 30
0.0
 10
138.9939775477818
 20
208.9389644873954
 30
0.0
 10
139.2149486259237
 20
208.9318593905621
 30
0.0
 10
139.4559192898103
 20
208.7398654074088
 30
0.0
 10
139.7941165766639
 20
208.4908572620839
 30
0.0
 10
140.1683079422964
 20
208.2439078648526
 30
0.0
 10
140.5709795145378
 20
208.0706084438305
 30
0.0
 10
140.9216059124054
 20
208.0238394880444
 30
0.0
 10
141.2306003978655
 20
208.0276366466727
 30
0.0
 10
141.5480477692049
 20
208.0462460283213
 30
0.0
 10
141.8778151331738
 20
208.1456103060805
 30
0.0
 10
142.2620802653385
 20
208.3102386496079
 30
0.0
 10
142.5754657252254
 20
208.6093664914256
 30
0.0
 10
142.8465288735009
 20
208.9601616273246
 30
0.0
 10
143.0308455881242
 20
209.3726805661306
 30
0.0
 10
143.0722167881361
 20
209.8311132811286
 30
0.0
 10
143.0267723962915
 20
210.3370859337266
 30
0.0
 10
142.7974517823179
 20
210.8063097962682
 30
0.0
 10
142.4841425063261
 20
211.1800454653559
 30
0.0
 10
142.0966226305447
 20
211.4798226007121
 30
0.0
 10
141.6464018330586
 20
211.6511398903398
 30
0.0
 10
141.1934867995196
 20
211.6600670045434
 30
0.0
 10
140.795778944772
 20
211.6646012217848
 30
0.0
 10
140.4141581356941
 20
211.5975548806868
 30
0.0
 10
139.9690128663715
 20
211.5067230283716
 30
0.0
 10
139.4229674906396
 20
211.3326773583052
 30
0.0
 10
138.8510140505722
 20
211.0915552879293
 30
0.0
 10
138.2781828210622
 20
210.7781538801669
 30
0.0
 10
137.7540722013019
 20
210.4628732191706
 30
0.0
 10
137.1602443543731
 20
210.0191052394691
 30
0.0
 10
136.5431181439508
 20
209.4959213141961
 30
0.0
 10
135.9410303142326
 20
208.9100478493579
 30
0.0
 10
135.52561533222
 20
208.4897639950007
 30
0.0
 10
135.3365647430802
 20
208.2507296198005
 30
0.0
 10
135.2976781104811
 20
208.201565372255
 30
0.0
 11
135.2976781104811
 21
206.0525050336452
 31
0.0
 11
135.8159170882072
 21
206.6435113342673
 31
0.0
 11
136.4107121677743
 21
207.2992894781055
 31
0.0
 11
137.0491323430815
 21
207.9561265621661
 31
0.0
 11
137.6318187709151
 21
208.3929099863078
 31
0.0
 11
138.1475681193146
 21
208.6787944296606
 31
0.0
 11
138.6179383149442
 21
208.8951712138209
 31
0.0
 11
138.8160335940171
 21
208.9446472539166
 31
0.0
 11
139.0141288730899
 21
208.9397055329101
 31
0.0
 11
139.1528125431796
 21
208.9248509548729
 31
0.0
 11
139.4251440422344
 21
208.7665393925671
 31
0.0
 11
139.7644126207235
 21
208.5166589165669
 31
0.0
 11
140.2273139283734
 21
208.2280388776571
 31
0.0
 11
140.5678839040059
 21
208.0895824444002
 31
0.0
 11
140.9559265843465
 21
208.0302229622904
 31
0.0
 11
141.2450064988711
 21
208.0302229622904
 31
0.0
 11
141.4905179001539
 21
208.0500192613307
 31
0.0
 11
141.891235057075
 21
208.1583253134346
 31
0.0
 11
142.2215636029823
 21
208.3136365451271
 31
0.0
 11
142.5689800592673
 21
208.6194349475429
 31
0.0
 11
142.8382561041398
 21
208.979974676126
 31
0.0
 11
143.0023453098888
 21
209.3610166639002
 31
0.0
 11
143.0578527274145
 21
209.8269503589922
 31
0.0
 11
143.0023453098888
 21
210.3054442616524
 31
0.0
 11
142.7691688902694
 21
210.8101763496637
 31
0.0
 11
142.4497694269918
 21
211.1904733442902
 31
0.0
 11
142.1305789675126
 21
211.4325978767001
 31
0.0
 11
141.603173627275
 21
211.6295019268883
 31
0.0
 11
141.1618302463072
 21
211.6600052881084
 31
0.0
 11
140.8148664499087
 21
211.6544752669872
 31
0.0
 11
140.4169784172222
 21
211.5962041400894
 31
0.0
 11
140.0172797450166
 21
211.5102240775438
 31
0.0
 11
139.4898744047609
 21
211.3466178141453
 31
0.0
 11
138.795041492182
 21
211.0519382840061
 31
0.0
 11
138.3092808606884
 21
210.7912330858012
 31
0.0
 11
137.753980355465
 21
210.4499013561348
 31
0.0
 11
137.2463788848704
 21
210.0770073250305
 31
0.0
 11
136.5291958908146
 21
209.4693815460138
 31
0.0
 11
135.9121073122508
 21
208.8776987002507
 31
0.0
 11
135.4154262612247
 21
208.3481403471742
 31
0.0
 11
135.2976781104811
 21
208.201565372255
 31
0.0
  0
SPLINE
  5
44B
330
1F
100
AcDbEntity
  8
0
  6
ByBlock
370
    40
100
AcDbSpline
210
0.0
220
0.0
230
1.0
 70
  1065
 71
     3
 72
    35
 73
    31
 74
    29
 42
0.000000001
 43
0.0000000001
 44
0.00001
 40
0.0
 40
0.0
 40
0.0
 40
0.0
 40
0.3392252747141883
 40
1.000396200169799
 40
1.577069547364402
 40
2.139485226041622
 40
2.694544151970613
 40
3.276709317740634
 40
3.7504449964987
 40
4.050744296767343
 40
4.405568098457739
 40
4.899219820665257
 40
5.26970248617817
 40
5.820797072683862
 40
6.350374159049999
 40
6.792071409626592
 40
7.287809500973977
 40
7.799873483037833
 40
8.336561066938795
 40
8.868203156377187
 40
9.365086057850975
 40
9.969982502390564
 40
10.64365542764523
 40
11.40561902393064
 40
11.84892468803793
 40
12.5271459139121
 40
12.93591814459759
 40
13.09329932963081
 40
13.3058340906082
 40
13.45511224322487
 40
13.45511224322487
 40
13.45511224322487
 40
13.45511224322487
 10
148.2396766797656
 20
218.2028144884782
 30
0.0
 10
148.1874527488887
 20
218.1024690940388
 30
0.0
 10
148.0334521511213
 20
217.8065384914816
 30
0.0
 10
147.7440890990577
 20
217.3667813015212
 30
0.0
 10
147.415750052401
 20
216.8646523726213
 30
0.0
 10
147.0944970091923
 20
216.4002785895656
 30
0.0
 10
146.8003816076728
 20
215.9146421889089
 30
0.0
 10
146.5903762346167
 20
215.4186836514043
 30
0.0
 10
146.4811365360548
 20
214.9754346647349
 30
0.0
 10
146.4766250565425
 20
214.5988245394294
 30
0.0
 10
146.4900944584171
 20
214.2126168118833
 30
0.0
 10
146.6688428536222
 20
213.8338213456838
 30
0.0
 10
146.9682981125805
 20
213.4681213166051
 30
0.0
 10
147.3519696810725
 20
213.1637846587288
 30
0.0
 10
147.8241193839522
 20
212.9600154162517
 30
0.0
 10
148.3169352349099
 20
212.9027533484664
 30
0.0
 10
148.7981244782519
 20
213.0081966683467
 30
0.0
 10
149.249253980964
 20
213.2702002606583
 30
0.0
 10
149.6262755519589
 20
213.6440405911521
 30
0.0
 10
149.9184879331672
 20
214.0817350683261
 30
0.0
 10
150.0680676963056
 20
214.6215666223268
 30
0.0
 10
149.9522326093995
 20
215.2136564979324
 30
0.0
 10
149.7545563040298
 20
215.8656445896228
 30
0.0
 10
149.4227865401053
 20
216.4034488033391
 30
0.0
 10
149.068482002445
 20
216.9208235970744
 30
0.0
 10
148.7737518973782
 20
217.3369984497712
 30
0.0
 10
148.533608198198
 20
217.676227156337
 30
0.0
 10
148.4108773566921
 20
217.9051363500634
 30
0.0
 10
148.3212856433302
 20
218.0532494531255
 30
0.0
 10
148.2635157156613
 20
218.1591315265456
 30
0.0
 10
148.2396766797656
 20
218.2028144884782
 30
0.0
 11
148.2396766797656
 21
218.2028144884782
 31
0.0
 11
148.0796048304345
 21
217.9037227074319
 31
0.0
 11
147.7289631725264
 21
217.34319035303
 31
0.0
 11
147.4110261907807
 21
216.862078514838
 31
0.0
 11
147.0977855552601
 21
216.3949682195031
 31
0.0
 11
146.8166271885928
 21
215.9163860718256
 31
0.0
 11
146.5922210541235
 21
215.3792092321854
 31
0.0
 11
146.489354096877
 21
214.9167759228084
 31
0.0
 11
146.4789995021645
 21
214.6166546165541
 31
0.0
 11
146.5084789767128
 21
214.2630568293861
 31
0.0
 11
146.7052162761529
 21
213.8103010569809
 31
0.0
 11
146.9379400358857
 21
213.5220339981415
 31
0.0
 11
147.3705131317124
 21
213.1805846084613
 31
0.0
 11
147.8588199750127
 21
212.9756208466272
 31
0.0
 11
148.297956639055
 21
212.9281156119323
 31
0.0
 11
148.7829816982339
 21
213.0306269078452
 31
0.0
 11
149.2286819305186
 21
213.2827429243039
 31
0.0
 11
149.6134994092272
 21
213.656842970662
 31
0.0
 11
149.8988448797619
 21
214.1054218122089
 31
0.0
 11
150.0230434337608
 21
214.5865336504076
 31
0.0
 11
149.9476755640937
 21
215.1867174329031
 31
0.0
 11
149.7379242931738
 21
215.8269056235603
 31
0.0
 11
149.3609717798423
 21
216.4890962387153
 31
0.0
 11
149.1118956820282
 21
216.8558131185606
 31
0.0
 11
148.7217028672693
 21
217.4105507167782
 31
0.0
 11
148.495542675761
 21
217.7510588262778
 31
0.0
 11
148.4185790636966
 21
217.8883382657227
 31
0.0
 11
148.3119890952771
 21
218.0722118618214
 31
0.0
 11
148.2396766797656
 21
218.2028144884782
 31
0.0
  0
SPLINE
  5
44C
330
1F
100
AcDbEntity
  8
0
  6
ByBlock
370
    40
100
AcDbSpline
210
0.0
220
0.0
230
1.0
 70
  1065
 71
     3
 72
    35
 73
    31
 74
    29
 42
0.000000001
 43
0.0000000001
 44
0.00001
 40
0.0
 40
0.0
 40
0.0
 40
0.0
 40
0.339225274714242
 40
1.000396200179379
 40
1.57706954736903
 40
2.139485226046187
 40
2.694544151970686
 40
3.276709317747631
 40
3.750444996505697
 40
4.05074429677403
 40
4.405568098465172
 40
4.899219820669156
 40
5.269702486182069
 40
5.820797072680711
 40
6.350374159038462
 40
6.792071409632914
 40
7.287809500989085
 40
7.799873483045223
 40
8.336561066946185
 40
8.868203156389398
 40
9.365086057860914
 40
9.969982502400503
 40
10.64365542765793
 40
11.40561902393889
 40
11.84892468804114
 40
12.52714591392569
 40
12.93591814460623
 40
13.0932993296394
 40
13.30583409061679
 40
13.45511224322911
 40
13.45511224322911
 40
13.45511224322911
 40
13.45511224322911
 10
153.8099959723529
 20
218.2028144884782
 30
0.0
 10
153.7577720414765
 20
218.1024690940384
 30
0.0
 10
153.6037714437095
 20
217.8065384914773
 30
0.0
 10
153.3144083916222
 20
217.36678130153
 30
0.0
 10
152.9860693449825
 20
216.8646523726172
 30
0.0
 10
152.6648163017669
 20
216.4002785895695
 30
0.0
 10
152.3707009002661
 20
215.9146421889015
 30
0.0
 10
152.160695527183
 20
215.4186836514086
 30
0.0
 10
152.0514558286208
 20
214.975434664735
 30
0.0
 10
152.0469443491213
 20
214.5988245394286
 30
0.0
 10
152.0604137510094
 20
214.212616811886
 30
0.0
 10
152.2391621461983
 20
213.8338213456817
 30
0.0
 10
152.538617405159
 20
213.468121316608
 30
0.0
 10
152.9222889736406
 20
213.1637846587291
 30
0.0
 10
153.3944386765209
 20
212.9600154162476
 30
0.0
 10
153.8872545274849
 20
212.9027533484676
 30
0.0
 10
154.3684437708346
 20
213.0081966683424
 30
0.0
 10
154.8195732735443
 20
213.2702002606611
 30
0.0
 10
155.1965948445352
 20
213.6440405911547
 30
0.0
 10
155.4888072257591
 20
214.0817350683218
 30
0.0
 10
155.6383869888788
 20
214.6215666223288
 30
0.0
 10
155.5225519019816
 20
215.2136564979338
 30
0.0
 10
155.3248755965954
 20
215.8656445896194
 30
0.0
 10
154.9931058326803
 20
216.4034488033361
 30
0.0
 10
154.6388012950359
 20
216.9208235970833
 30
0.0
 10
154.3440711899429
 20
217.3369984497618
 30
0.0
 10
154.103927490776
 20
217.6762271563389
 30
0.0
 10
153.9811966492709
 20
217.9051363500636
 30
0.0
 10
153.8916049359065
 20
218.0532494531228
 30
0.0
 10
153.8338350082451
 20
218.1591315265453
 30
0.0
 10
153.8099959723529
 20
218.2028144884782
 30
0.0
 11
153.8099959723529
 21
218.2028144884782
 31
0.0
 11
153.6499241230217
 21
217.9037227074319
 31
0.0
 11
153.2992824650956
 21
217.34319035303
 31
0.0
 11
152.9813454833589
 21
216.862078514838
 31
0.0
 11
152.6681048478384
 21
216.3949682195031
 31
0.0
 11
152.38694648118
 21
215.9163860718256
 31
0.0
 11
152.1625403466928
 21
215.3792092321854
 31
0.0
 11
152.0596733894462
 21
214.9167759228084
 31
0.0
 11
152.0493187947427
 21
214.6166546165541
 31
0.0
 11
152.0787982693
 21
214.2630568293861
 31
0.0
 11
152.2755355687312
 21
213.8103010569809
 31
0.0
 11
152.5082593284641
 21
213.5220339981415
 31
0.0
 11
152.9408324242818
 21
213.1805846084613
 31
0.0
 11
153.4291392675729
 21
212.9756208466272
 31
0.0
 11
153.8682759316332
 21
212.9281156119323
 31
0.0
 11
154.3533009908211
 21
213.0306269078452
 31
0.0
 11
154.7990012230969
 21
213.2827429243039
 31
0.0
 11
155.1838187018055
 21
213.656842970662
 31
0.0
 11
155.4691641723492
 21
214.1054218122089
 31
0.0
 11
155.593362726339
 21
214.5865336504076
 31
0.0
 11
155.5179948566719
 21
215.1867174329031
 31
0.0
 11
155.3082435857431
 21
215.8269056235603
 31
0.0
 11
154.9312910724206
 21
216.4890962387153
 31
0.0
 11
154.6822149746156
 21
216.8558131185606
 31
0.0
 11
154.2920221598385
 21
217.4105507167782
 31
0.0
 11
154.0658619683393
 21
217.7510588262778
 31
0.0
 11
153.9888983562749
 21
217.8883382657227
 31
0.0
 11
153.8823083878554
 21
218.0722118618214
 31
0.0
 11
153.8099959723529
 21
218.2028144884782
 31
0.0
  0
LINE
  5
44D
330
1F
100
AcDbEntity
  8
0
  6
ByBlock
370
    40
100
AcDbLine
 10
153.9803092514092
 20
207.4224501082422
 30
0.0
 11
153.9803092514092
 21
204.9365291208703
 31
0.0
  0
LINE
  5
44E
330
1F
100
AcDbEntity
  8
0
  6
ByBlock
370
    40
100
AcDbLine
 10
153.9803092514092
 20
203.494164301488
 30
0.0
 11
153.9803092514092
 21
202.1116001893122
 31
0.0
  0
LINE
  5
44F
330
1F
100
AcDbEntity
  8
0
  6
ByBlock
370
    40
100
AcDbLine
 10
153.9803092514092
 20
200.6597931530024
 30
0.0
 11
153.9803092514092
 21
198.0017355505056
 31
0.0
  0
LINE
  5
450
330
1F
100
AcDbEntity
  8
0
  6
ByBlock
370
    40
100
AcDbLine
 10
156.644608710301
 20
197.0631615389507
 30
0.0
 11
156.644608710301
 21
201.0951058268484
 31
0.0
  0
LINE
  5
451
330
1F
100
AcDbEntity
  8
0
  6
ByBlock
370
    40
100
AcDbLine
 10
156.644608710301
 20
202.5288226344668
 30
0.0
 11
156.644608710301
 21
203.9260060046311
 31
0.0
  0
LINE
  5
452
330
1F
100
AcDbEntity
  8
0
  6
ByBlock
370
    40
100
AcDbLine
 10
156.644608710301
 20
205.3629878779146
 30
0.0
 11
156.644608710301
 21
206.9511922970554
 31
0.0
  0
LINE
  5
453
330
1F
100
AcDbEntity
  8
0
  6
ByBlock
370
    40
100
AcDbLine
 10
153.9803092514092
 20
204.9365291208703
 30
0.0
 11
156.644608710301
 21
205.3629878779146
 31
0.0
  0
LINE
  5
454
330
1F
100
AcDbEntity
  8
0
  6
ByBlock
370
    40
100
AcDbLine
 10
156.644608710301
 20
203.9260060046311
 30
0.0
 11
153.9803092514092
 21
203.4941643014902
 31
0.0
  0
LINE
  5
455
330
1F
100
AcDbEntity
  8
0
  6
ByBlock
370
    40
100
AcDbLine
 10
153.9803092514092
 20
202.1116001893122
 30
0.0
 11
156.644608710301
 21
202.5288226344691
 31
0.0
  0
LINE
  5
456
330
1F
100
AcDbEntity
  8
0
  6
ByBlock
370
    40
100
AcDbLine
 10
153.9803092514092
 20
200.6597931530035
 30
0.0
 11
156.644608710301
 21
201.0951058268484
 31
0.0
  0
SPLINE
  5
457
330
1F
100
AcDbEntity
  8
0
  6
ByBlock
370
    40
100
AcDbSpline
210
0.0
220
0.0
230
1.0
 70
  1064
 71
     3
 72
    57
 73
    53
 74
    51
 42
0.000000001
 43
0.0000000001
 44
0.00001
 40
0.0
 40
0.0
 40
0.0
 40
0.0
 40
0.3465476642818099
 40
0.8040616590153939
 40
1.43953262646207
 40
1.887659733433499
 40
2.464824495149204
 40
2.959537988472122
 40
3.42352165384579
 40
4.004018546717806
 40
4.567155213592989
 40
5.10689461588741
 40
5.785064162038976
 40
6.256758220488394
 40
6.696184488323562
 40
7.197548786824103
 40
7.6547804003189
 40
8.038020206716117
 40
8.593723286238754
 40
9.014335098661502
 40
9.438518935892183
 40
9.930162241649719
 40
10.31366724078436
 40
10.75584450859207
 40
11.2390204706438
 40
11.69349075090068
 40
12.04965912592538
 40
12.40646195211745
 40
12.85795030558716
 40
13.31201658159372
 40
13.49277212427536
 40
13.73821971533837
 40
14.06187390383163
 40
14.54358307907341
 40
14.9956353205452
 40
15.66429766421627
 40
16.32638439865313
 40
16.96461243588974
 40
17.66508280967972
 40
18.39281523870636
 40
19.22007163598952
 40
20.06552429122262
 40
21.03638125556606
 40
22.048892758663
 40
23.04345062009489
 40
24.293676499161
 40
25.59073818390196
 40
26.80125752028107
 40
27.35263495739237
 40
28.07403097638801
 40
29.00152926717674
 40
29.61419763588564
 40
29.61419763588564
 40
29.61419763588564
 40
29.61419763588564
 10
153.9803092514182
 20
207.4224501082444
 30
0.0
 10
153.9702697295138
 20
207.5377584479937
 30
0.0
 10
153.9469907639649
 20
207.8052990971699
 30
0.0
 10
153.8181910727128
 20
208.2688945305813
 30
0.0
 10
153.6251811302779
 20
208.7515614653408
 30
0.0
 10
153.273744943187
 20
209.1848531807461
 30
0.0
 10
152.8962946728912
 20
209.5260491997791
 30
0.0
 10
152.4481194195471
 20
209.7855266394077
 30
0.0
 10
151.9493422692809
 20
209.9174877306086
 30
0.0
 10
151.4163924530868
 20
209.9937721025733
 30
0.0
 10
150.8547031054283
 20
209.9627045790403
 30
0.0
 10
150.2611084963667
 20
209.9317801609541
 30
0.0
 10
149.7121287834599
 20
209.7768649735896
 30
0.0
 10
149.2422153075443
 20
209.5265938013375
 30
0.0
 10
148.8715728131874
 20
209.2326918196385
 30
0.0
 10
148.5626162101754
 20
208.8788101215079
 30
0.0
 10
148.3431237993404
 20
208.4872511217842
 30
0.0
 10
148.1477058804836
 20
208.0644801437962
 30
0.0
 10
148.0041058449234
 20
207.6339350513482
 30
0.0
 10
147.7909469972968
 20
207.2158117070361
 30
0.0
 10
147.5258116798179
 20
206.8579083877913
 30
0.0
 10
147.2332208718561
 20
206.5306358880561
 30
0.0
 10
146.8399366084975
 20
206.321668941794
 30
0.0
 10
146.4128402263003
 20
206.2130952861082
 30
0.0
 10
145.9481535689761
 20
206.221602613489
 30
0.0
 10
145.5247189731484
 20
206.321830491581
 30
0.0
 10
145.1753136025033
 20
206.5003171459156
 30
0.0
 10
144.8805806161592
 20
206.7623948298542
 30
0.0
 10
144.6771396104007
 20
207.1365854997615
 30
0.0
 10
144.5726928892911
 20
207.4917388574028
 30
0.0
 10
144.5870234064885
 20
207.7858206021601
 30
0.0
 10
144.5733541992295
 20
208.0359587991466
 30
0.0
 10
144.6182400458264
 20
208.3838879032577
 30
0.0
 10
144.719133072584
 20
208.7982389749322
 30
0.0
 10
145.0402703535961
 20
209.2343368419403
 30
0.0
 10
145.450372604034
 20
209.6648481073749
 30
0.0
 10
145.9787951802573
 20
210.0598220560892
 30
0.0
 10
146.5621853097026
 20
210.3853535869347
 30
0.0
 10
147.1942045127691
 20
210.6611973735126
 30
0.0
 10
147.9035335263122
 20
210.91275634267
 30
0.0
 10
148.6820261938586
 20
211.1040180263277
 30
0.0
 10
149.5527765818383
 20
211.2410774692144
 30
0.0
 10
150.4916069475248
 20
211.3429444052469
 30
0.0
 10
151.4853893416623
 20
211.3364518467589
 30
0.0
 10
152.5708801098673
 20
211.2905271659417
 30
0.0
 10
153.7358434891843
 20
211.0335689172592
 30
0.0
 10
154.8571276600421
 20
210.4493089978081
 30
0.0
 10
155.6358644629849
 20
209.7634926669172
 30
0.0
 10
156.0848156434479
 20
209.0638644602197
 30
0.0
 10
156.4011903333196
 20
208.40159565976
 30
0.0
 10
156.6213407232238
 20
207.6702252233414
 30
0.0
 10
156.6379830160231
 20
207.1558193206768
 30
0.0
 10
156.6446087103099
 20
206.9511922970577
 30
0.0
 11
153.9803092514182
 21
207.4224501082444
 31
0.0
 11
153.9411541719827
 21
207.7667821685174
 31
0.0
 11
153.8272536301982
 21
208.2098898189583
 31
0.0
 11
153.5695204122124
 21
208.79074794251
 31
0.0
 11
153.293850546574
 21
209.144051579614
 31
0.0
 11
152.8622959354718
 21
209.5272996928356
 31
0.0
 11
152.4309110718282
 21
209.769473437266
 31
0.0
 11
151.9855503344336
 21
209.8996054238207
 31
0.0
 11
151.4099932996805
 21
209.975172574244
 31
0.0
 11
150.8469975765296
 21
209.9625829516762
 31
0.0
 11
150.3092376415793
 21
209.9164013922477
 31
0.0
 11
149.6567284275608
 21
209.7316163245318
 31
0.0
 11
149.2407905822613
 21
209.5091506341312
 31
0.0
 11
148.8963164151714
 21
209.2363264534504
 31
0.0
 11
148.5679116737437
 21
208.857490591127
 31
0.0
 11
148.3368853885607
 21
208.4629177005955
 31
0.0
 11
148.177209616645
 21
208.1145263694903
 31
0.0
 11
147.9750969811453
 21
207.5968810938441
 31
0.0
 11
147.781811213276
 21
207.2233105175977
 31
0.0
 11
147.5339233476361
 21
206.8790961173452
 31
0.0
 11
147.1886004432803
 21
206.5291457909192
 31
0.0
 11
146.8525004839251
 21
206.3444489682285
 31
0.0
 11
146.4240013270145
 21
206.2353192959511
 31
0.0
 11
145.9408434898079
 21
206.2395256418126
 31
0.0
 11
145.4996698563077
 21
206.3486553140879
 31
0.0
 11
145.1837132615397
 21
206.5130557826397
 31
0.0
 11
144.9190203979231
 21
206.7523174414686
 31
0.0
 11
144.6921812165984
 21
207.142683986143
 31
0.0
 11
144.5829204385859
 21
207.5834090210953
 31
0.0
 11
144.5833165159742
 21
207.764164232982
 31
0.0
 11
144.5812229640271
 21
208.0096030430822
 31
0.0
 11
144.6163606870718
 21
208.331344378746
 31
0.0
 11
144.7513664956428
 21
208.7937482731211
 31
0.0
 11
145.0022532329672
 21
209.1697897098656
 31
0.0
 11
145.4647584632376
 21
209.6526958634261
 31
0.0
 11
145.9930125407412
 21
210.0518280798916
 31
0.0
 11
146.5483696284718
 21
210.366333324081
 31
0.0
 11
147.188826773219
 21
210.6500116419775
 31
0.0
 11
147.8755683904823
 21
210.8908028811195
 31
0.0
 11
148.6781909365168
 21
211.0911779020197
 31
0.0
 11
149.5124430914909
 21
211.2283400750146
 31
0.0
 11
150.4786456008805
 21
211.3232917143936
 31
0.0
 11
151.4911325828043
 21
211.3303219008236
 31
0.0
 11
152.4837591125598
 21
211.2683738981817
 31
0.0
 11
153.7016970965757
 21
210.9860780855635
 31
0.0
 11
154.8535467383874
 21
210.3897476688602
 31
0.0
 11
155.7422878261899
 21
209.567862986111
 31
0.0
 11
156.045230449469
 21
209.1071651620849
 31
0.0
 11
156.3568867754271
 21
208.4565640593019
 31
0.0
 11
156.6036429913552
 21
207.5624949518208
 31
0.0
 11
156.6446087103099
 21
206.9511922970577
 31
0.0
  0
SPLINE
  5
458
330
1F
100
AcDbEntity
  8
0
  6
ByBlock
370
    40
100
AcDbSpline
210
0.0
220
0.0
230
1.0
 70
  1064
 71
     3
 72
    27
 73
    23
 74
    21
 42
0.000000001
 43
0.0000000001
 44
0.00001
 40
0.0
 40
0.0
 40
0.0
 40
0.0
 40
0.6424442534731289
 40
1.299935723103147
 40
2.071144119574004
 40
2.697614454821452
 40
3.342082031911882
 40
4.073865155865883
 40
4.590104809312824
 40
5.038942433491017
 40
5.576534787225525
 40
6.088329110748652
 40
6.45301792940485
 40
6.815620968158518
 40
7.227492898859457
 40
7.638677958734474
 40
8.016716942503487
 40
8.395268605244005
 40
8.739156734298305
 40
9.153076315424824
 40
9.561476738119067
 40
9.766446820641101
 40
9.766446820641101
 40
9.766446820641101
 40
9.766446820641101
 10
153.9803092514182
 20
198.0017355505067
 30
0.0
 10
153.8199114970612
 20
197.859707436403
 30
0.0
 10
153.4953496950647
 20
197.5723357417931
 30
0.0
 10
152.9322147691361
 20
197.1701456373323
 30
0.0
 10
152.3279693337635
 20
196.843272682562
 30
0.0
 10
151.6980306320167
 20
196.5835811073413
 30
0.0
 10
151.0605059419507
 20
196.3812460519415
 30
0.0
 10
150.436871044646
 20
196.2728564886201
 30
0.0
 10
149.8728905210706
 20
196.2294559847211
 30
0.0
 10
149.3714597850854
 20
196.2132329149072
 30
0.0
 10
148.8736440210928
 20
196.2631152618524
 30
0.0
 10
148.409927675111
 20
196.3663341885225
 30
0.0
 10
148.0379947584509
 20
196.5516424579361
 30
0.0
 10
147.7251100542122
 20
196.7688183435892
 30
0.0
 10
147.4389438939969
 20
197.0437987473722
 30
0.0
 10
147.1940750498723
 20
197.3631880618261
 30
0.0
 10
147.0231482602298
 20
197.71619417834
 30
0.0
 10
146.934533833019
 20
198.0743793552837
 30
0.0
 10
146.8944407365802
 20
198.4511752043175
 30
0.0
 10
146.8901657864573
 20
198.8423660893335
 30
0.0
 10
146.9655815799182
 20
199.1782565788259
 30
0.0
 10
147.0181024018408
 20
199.3757294539831
 30
0.0
 10
147.0356579870116
 20
199.4417177544036
 30
0.0
 11
153.9803092514182
 21
198.0017355505067
 31
0.0
 11
153.4920589906072
 21
197.5841895402848
 31
0.0
 11
152.9564491900754
 21
197.2028534024602
 31
0.0
 11
152.2792700127211
 21
196.8338127371413
 31
0.0
 11
151.700544358816
 21
196.5939333631824
 31
0.0
 11
151.0849269248723
 21
196.4032652942615
 31
0.0
 11
150.3646318941447
 21
196.2741040029017
 31
0.0
 11
149.8501273603995
 21
196.2318052242708
 31
0.0
 11
149.4013716739412
 21
196.2231866275124
 31
0.0
 11
148.8662711157761
 21
196.2748982080665
 31
0.0
 11
148.3699861421205
 21
196.39994139859
 31
0.0
 11
148.0420340605793
 21
196.559458976144
 31
0.0
 11
147.744297025883
 21
196.7664229583843
 31
0.0
 11
147.4465034087157
 21
197.0509543114553
 31
0.0
 11
147.1996340278001
 21
197.3797846635656
 31
0.0
 11
147.0356579870116
 21
197.7204104330935
 31
0.0
 11
146.9407125776313
 21
198.0868625778813
 31
0.0
 11
146.9018404106147
 21
198.4285472876192
 31
0.0
 11
146.9061972619497
 21
198.8424458370945
 31
0.0
 11
146.9838284310044
 21
199.2434017839272
 31
0.0
 11
147.0356579870116
 21
199.4417177544036
 31
0.0
  0
LINE
  5
459
330
1F
100
AcDbEntity
  8
0
  6
ByBlock
370
    40
100
AcDbLine
 10
147.0356579870116
 20
199.4417177544003
 30
0.0
 11
144.0246776441313
 21
198.9445159079287
 31
0.0
  0
SPLINE
  5
45A
330
1F
100
AcDbEntity
  8
0
  6
ByBlock
370
    40
100
AcDbSpline
210
0.0
220
0.0
230
1.0
 70
  1064
 71
     3
 72
    22
 73
    18
 74
    16
 42
0.000000001
 43
0.0000000001
 44
0.00001
 40
0.0
 40
0.0
 40
0.0
 40
0.0
 40
0.6179872673369088
 40
1.358766529164505
 40
2.145457964291125
 40
3.161745458376029
 40
4.280059201772303
 40
5.440507830070098
 40
6.475487499413342
 40
7.30927705574019
 40
8.045389392290463
 40
8.948810340322317
 40
9.813649197259339
 40
10.66085677271436
 40
11.30434647212492
 40
12.3771544467899
 40
13.28609883332239
 40
13.28609883332239
 40
13.28609883332239
 40
13.28609883332239
 10
144.0246776441494
 20
198.9445159079298
 30
0.0
 10
144.0116614832308
 20
198.7385151737476
 30
0.0
 10
143.9830552932557
 20
198.2855817509535
 30
0.0
 10
144.0800058771811
 20
197.5731029655711
 30
0.0
 10
144.3006914892612
 20
196.749986303172
 30
0.0
 10
144.8112831180794
 20
195.9006871049446
 30
0.0
 10
145.6319819062078
 20
195.154404298139
 30
0.0
 10
146.6131492107107
 20
194.6140871406012
 30
0.0
 10
147.6113731786126
 20
194.407963449026
 30
0.0
 10
148.4783589183666
 20
194.349351525464
 30
0.0
 10
149.3028375257248
 20
194.3604651445243
 30
0.0
 10
150.1385271975953
 20
194.418614559091
 30
0.0
 10
150.9857614545983
 20
194.6386088736814
 30
0.0
 10
151.7251631452395
 20
194.9042337168126
 30
0.0
 10
152.5056373623707
 20
195.2540338711788
 30
0.0
 10
153.2589020017409
 20
195.7071266641772
 30
0.0
 10
153.7760895395911
 20
196.1186083678844
 30
0.0
 10
154.0132968400266
 20
196.3073429596876
 30
0.0
 11
144.0246776441494
 21
198.9445159079298
 31
0.0
 11
144.0042513671701
 21
198.3268596118653
 31
0.0
 11
144.0928595382466
 21
197.5913962167585
 31
0.0
 11
144.3109850169194
 21
196.8355482224945
 31
0.0
 11
144.829393742086
 21
195.9614224890896
 31
0.0
 11
145.647293558997
 21
195.1987502134265
 31
0.0
 11
146.6708141254227
 21
194.6518958368157
 31
0.0
 11
147.6795666633476
 21
194.420370324561
 31
0.0
 11
148.5111028590835
 21
194.3590988670601
 31
0.0
 11
149.2471844030273
 21
194.3658937334435
 31
0.0
 11
150.1469024928515
 21
194.4476086201181
 31
0.0
 11
150.987095808741
 21
194.6526017969621
 31
0.0
 11
151.7845693486638
 21
194.9386039003343
 31
0.0
 11
152.3707073080503
 21
195.2041625745306
 31
0.0
 11
153.2908516748807
 21
195.7557527671102
 31
0.0
 11
154.0132968400266
 21
196.3073429596876
 31
0.0
  0
SPLINE
  5
45B
330
1F
100
AcDbEntity
  8
0
  6
ByBlock
370
    40
100
AcDbSpline
210
0.0
220
0.0
230
1.0
 70
  1064
 71
     3
 72
    19
 73
    15
 74
    13
 42
0.000000001
 43
0.0000000001
 44
0.00001
 40
0.0
 40
0.0
 40
0.0
 40
0.0
 40
0.2089924005042164
 40
0.8101285909283182
 40
1.426738449005221
 40
1.970536096553242
 40
2.680696405633519
 40
3.366982829896032
 40
4.153764871660255
 40
4.790645266058835
 40
5.48559278787058
 40
6.099785650159765
 40
6.693913666845251
 40
7.092308217342246
 40
7.092308217342246
 40
7.092308217342246
 40
7.092308217342246
 10
154.0132968400266
 20
196.3073429596876
 30
0.0
 10
154.0266501914677
 20
196.2389633344949
 30
0.0
 10
154.0784320287439
 20
195.9739035422804
 30
0.0
 10
154.1830316420518
 20
195.5103120020924
 30
0.0
 10
154.4547172229329
 20
194.969958037716
 30
0.0
 10
154.9626316449598
 20
194.5877211580595
 30
0.0
 10
155.5790666397619
 20
194.346939856722
 30
0.0
 10
156.3132588358613
 20
194.3630794276684
 30
0.0
 10
157.0210355046844
 20
194.4064821304277
 30
0.0
 10
157.6797512036545
 20
194.6856303680824
 30
0.0
 10
158.2228258216535
 20
195.0470139812055
 30
0.0
 10
158.6734764249303
 20
195.4963518976834
 30
0.0
 10
159.0347165754281
 20
195.8917001995892
 30
0.0
 10
159.2433370126265
 20
196.1485763666548
 30
0.0
 10
159.3270711468021
 20
196.2516897683284
 30
0.0
 11
154.0132968400266
 21
196.3073429596876
 31
0.0
 11
154.053866481584
 21
196.1023203678438
 31
0.0
 11
154.2059036180706
 21
195.5207268691438
 31
0.0
 11
154.5043762250814
 21
194.9811674140227
 31
0.0
 11
154.9283487832165
 21
194.6406298895143
 31
0.0
 11
155.593362726348
 21
194.3914553736626
 31
0.0
 11
156.2791990238831
 21
194.3665408635813
 31
0.0
 11
157.0606597205969
 21
194.4579038722234
 31
0.0
 11
157.6520032685932
 21
194.6944005204911
 31
0.0
 11
158.2297670202629
 21
195.0805901343107
 31
0.0
 11
158.6745053503124
 21
195.5041956357676
 31
0.0
 11
159.0735250327018
 21
195.9443912006127
 31
0.0
 11
159.3270711468021
 21
196.2516897683284
 31
0.0
  0
LINE
  5
45C
330
1F
100
AcDbEntity
  8
0
  6
ByBlock
370
    40
100
AcDbLine
 10
159.3270711467932
 20
196.2516897683273
 30
0.0
 11
158.6793148614979
 21
196.9805936170927
 31
0.0
  0
SPLINE
  5
45D
330
1F
100
AcDbEntity
  8
0
  6
ByBlock
370
    40
100
AcDbSpline
210
0.0
220
0.0
230
1.0
 70
  1064
 71
     3
 72
    19
 73
    15
 74
    13
 42
0.000000001
 43
0.0000000001
 44
0.00001
 40
0.0
 40
0.0
 40
0.0
 40
0.0
 40
0.2440291892602325
 40
0.5650617299219311
 40
0.9487690195865068
 40
1.301212772042526
 40
1.572142217691933
 40
1.75832346446232
 40
1.960397410067902
 40
2.091269356235021
 40
2.299994442788493
 40
2.505650725377525
 40
2.771485644948897
 40
2.984999814321982
 40
2.984999814321982
 40
2.984999814321982
 40
2.984999814321982
 10
158.679314861507
 20
196.9805936170949
 30
0.0
 10
158.6158973545522
 20
196.9296202802804
 30
0.0
 10
158.4690410223376
 20
196.8116013801345
 30
0.0
 10
158.2211435404671
 20
196.6159758897143
 30
0.0
 10
157.9452770366282
 20
196.3932264463286
 30
0.0
 10
157.6423034135666
 20
196.2482066378743
 30
0.0
 10
157.3874385786368
 20
196.1467820938817
 30
0.0
 10
157.1683567147154
 20
196.1398779942893
 30
0.0
 10
156.9899976192905
 20
196.1142349960826
 30
0.0
 10
156.8261887991223
 20
196.2141252942913
 30
0.0
 10
156.7541788253862
 20
196.3892353099311
 30
0.0
 10
156.6950115131233
 20
196.6061229130354
 30
0.0
 10
156.6556430599697
 20
196.8324493125103
 30
0.0
 10
156.6480059107796
 20
196.992064565367
 30
0.0
 10
156.6446087103099
 20
197.0631615389529
 30
0.0
 11
158.679314861507
 21
196.9805936170949
 31
0.0
 11
158.4889148003616
 21
196.8279591509474
 31
0.0
 11
158.2375754031508
 21
196.6282312601793
 31
0.0
 11
157.9291442788517
 21
196.399970813592
 31
0.0
 11
157.614998323585
 21
196.2401885009783
 31
0.0
 11
157.3579440954156
 21
196.1545908335117
 31
0.0
 11
157.1726364578927
 21
196.1365594348345
 31
0.0
 11
156.9705804048913
 21
196.1393832754075
 31
0.0
 11
156.8583207551585
 21
196.2066553941384
 31
0.0
 11
156.7585092520854
 21
196.3899697115553
 31
0.0
 11
156.7028886695903
 21
196.5879621169645
 31
0.0
 11
156.6587543314927
 21
196.8501086504653
 31
0.0
 11
156.6446087103099
 21
197.0631615389529
 31
0.0
  0
LINE
  5
45E
330
1F
100
AcDbEntity
  8
0
  6
ByBlock
370
    40
100
AcDbLine
 10
153.0062983591317
 20
203.3183213955922
 30
0.0
 11
146.1473695591047
 21
202.1413387603841
 31
0.0
  0
LINE
  5
45F
330
1F
100
AcDbEntity
  8
0
  6
ByBlock
370
    40
100
AcDbLine
 10
144.5998951839852
 20
200.487627122871
 30
0.0
 11
148.192656634953
 21
201.09863562757
 31
0.0
  0
SPLINE
  5
460
330
1F
100
AcDbEntity
  8
0
  6
ByBlock
370
    40
100
AcDbSpline
210
0.0
220
0.0
230
1.0
 70
  1064
 71
     3
 72
    13
 73
     9
 74
     7
 42
0.000000001
 43
0.0000000001
 44
0.00001
 40
0.0
 40
0.0
 40
0.0
 40
0.0
 40
0.3586948044774501
 40
0.8712785083385091
 40
1.382686206539751
 40
1.695740550317005
 40
2.003356687916926
 40
2.280680706785163
 40
2.280680706785163
 40
2.280680706785163
 40
2.280680706785163
 10
146.1473695591047
 20
202.1413387603874
 30
0.0
 10
146.0549789323849
 20
202.0654374709659
 30
0.0
 10
145.830562313634
 20
201.881068434411
 30
0.0
 10
145.4809936969786
 20
201.5807386069229
 30
0.0
 10
145.16131768707
 20
201.2686610568853
 30
0.0
 10
144.9211163360408
 20
200.9776972694743
 30
0.0
 10
144.73549107778
 20
200.7416580140583
 30
0.0
 10
144.6435009269547
 20
200.5693323250899
 30
0.0
 10
144.5998951839942
 20
200.4876271228732
 30
0.0
 11
146.1473695591047
 21
202.1413387603874
 31
0.0
 11
145.8709075386805
 21
201.9128135787415
 31
0.0
 11
145.4842228379816
 21
201.5763353250755
 31
0.0
 11
145.1224344305572
 21
201.2148837313016
 31
0.0
 11
144.9208310374333
 21
200.9753867524229
 31
0.0
 11
144.7372208744602
 21
200.7285654370467
 31
0.0
 11
144.5998951839942
 21
200.4876271228732
 31
0.0
  0
SPLINE
  5
461
330
1F
100
AcDbEntity
  8
0
  6
ByBlock
370
    40
100
AcDbSpline
210
0.0
220
0.0
230
1.0
 70
  1064
 71
     3
 72
    19
 73
    15
 74
    13
 42
0.000000001
 43
0.0000000001
 44
0.00001
 40
0.0
 40
0.0
 40
0.0
 40
0.0
 40
0.3547663043872101
 40
0.8271200577849599
 40
1.287265597919918
 40
1.668093725010409
 40
2.24468177449549
 40
2.766457362025481
 40
3.23525620108396
 40
3.77329459274266
 40
4.363888190528109
 40
4.755425970518667
 40
5.086152890487623
 40
5.354838085853943
 40
5.354838085853943
 40
5.354838085853943
 40
5.354838085853943
 10
148.1926566349621
 20
201.0986356275712
 30
0.0
 10
148.2804590226868
 20
201.1778856636075
 30
0.0
 10
148.4851764028207
 20
201.3626412800883
 30
0.0
 10
148.8299372687192
 20
201.619928597739
 30
0.0
 10
149.2060192189121
 20
201.8442729031211
 30
0.0
 10
149.6049672125135
 20
202.0978784654005
 30
0.0
 10
150.0463884563869
 20
202.3193567136328
 30
0.0
 10
150.5235383876378
 20
202.5321837558716
 30
0.0
 10
150.9995101212056
 20
202.7145503521849
 30
0.0
 10
151.5029768973672
 20
202.8884310776439
 30
0.0
 10
151.9909609664645
 20
203.0259743987097
 30
0.0
 10
152.414513480439
 20
203.1354182482244
 30
0.0
 10
152.734769872385
 20
203.2178002485125
 30
0.0
 10
152.9222558736111
 20
203.2872135250067
 30
0.0
 10
153.0062983591407
 20
203.3183213955956
 30
0.0
 11
148.1926566349621
 21
201.0986356275712
 31
0.0
 11
148.4591601380799
 21
201.3328084903688
 31
0.0
 11
148.8376403784937
 21
201.6154278680542
 31
0.0
 11
149.2274936983626
 21
201.8598665679394
 31
0.0
 11
149.5524469082014
 21
202.0584472734723
 31
0.0
 11
150.0645749775625
 21
202.3233588175387
 31
0.0
 11
150.5415653239148
 21
202.5348527106977
 31
0.0
 11
150.9787781834865
 21
202.7040184102315
 31
0.0
 11
151.4879073811722
 21
202.8780081707379
 31
0.0
 11
152.0554297030987
 21
203.0414673590935
 31
0.0
 11
152.4342494384207
 21
203.1404488542916
 31
0.0
 11
152.7529219924808
 21
203.228929192351
 31
0.0
 11
153.0062983591407
 21
203.3183213955956
 31
0.0
  0
LINE
  5
462
330
1F
100
AcDbEntity
  8
0
  6
ByBlock
370
    40
100
AcDbLine
 10
164.5069147121844
 20
211.4246264100693
 30
0.0
 11
164.5069147121844
 21
206.3404191123995
 31
0.0
  0
LINE
  5
463
330
1F
100
AcDbEntity
  8
0
  6
ByBlock
370
    40
100
AcDbLine
 10
164.5069147121844
 20
204.9175858570067
 30
0.0
 11
164.5069147121844
 21
203.509342444589
 31
0.0
  0
LINE
  5
464
330
1F
100
AcDbEntity
  8
0
  6
ByBlock
370
    40
100
AcDbLine
 10
164.5069147121844
 20
202.0823616733489
 30
0.0
 11
164.5069147121844
 21
198.1657242089741
 31
0.0
  0
LINE
  5
465
330
1F
100
AcDbEntity
  8
0
  6
ByBlock
370
    40
100
AcDbLine
 10
161.9086470129987
 20
198.2590286080184
 30
0.0
 11
161.9086470129987
 21
201.8189797095911
 31
0.0
  0
LINE
  5
466
330
1F
100
AcDbEntity
  8
0
  6
ByBlock
370
    40
100
AcDbLine
 10
161.9086470129987
 20
203.2573735031596
 30
0.0
 11
161.9086470129987
 21
204.6616164747626
 31
0.0
  0
LINE
  5
467
330
1F
100
AcDbEntity
  8
0
  6
ByBlock
370
    40
100
AcDbLine
 10
161.9086470129987
 20
206.1057461945023
 30
0.0
 11
161.9086470129987
 21
207.8771766860493
 31
0.0
  0
LINE
  5
468
330
1F
100
AcDbEntity
  8
0
  6
ByBlock
370
    40
100
AcDbLine
 10
164.5069147121844
 20
211.4246264100693
 30
0.0
 11
159.5648307476683
 21
210.046121568719
 31
0.0
  0
LINE
  5
469
330
1F
100
AcDbEntity
  8
0
  6
ByBlock
370
    40
100
AcDbLine
 10
159.5648307476683
 20
210.046121568719
 30
0.0
 11
159.8183202792885
 21
209.0481586600443
 31
0.0
  0
LINE
  5
46A
330
1F
100
AcDbEntity
  8
0
  6
ByBlock
370
    40
100
AcDbLine
 10
159.8183202792885
 20
209.0481586600443
 30
0.0
 11
160.4409539413524
 21
209.0481586600443
 31
0.0
  0
SPLINE
  5
46B
330
1F
100
AcDbEntity
  8
0
  6
ByBlock
370
    40
100
AcDbSpline
210
0.0
220
0.0
230
1.0
 70
  1064
 71
     3
 72
    14
 73
    10
 74
     8
 42
0.000000001
 43
0.0000000001
 44
0.00001
 40
0.0
 40
0.0
 40
0.0
 40
0.0
 40
0.3858158511460226
 40
0.8564462215569314
 40
1.115257819033853
 40
1.359557171882028
 40
1.653226043207871
 40
1.906574624397276
 40
2.149541616047819
 40
2.149541616047819
 40
2.149541616047819
 40
2.149541616047819
 10
160.4409539413614
 20
209.0481586600466
 30
0.0
 10
160.5694025117899
 20
209.0382221867041
 30
0.0
 10
160.8545351881739
 20
209.0161493494263
 30
0.0
 10
161.2166432638054
 20
208.9331494104584
 30
0.0
 10
161.5263585910545
 20
208.8174290496628
 30
0.0
 10
161.7112698014246
 20
208.6162827085775
 30
0.0
 10
161.8294140661239
 20
208.3794132368008
 30
0.0
 10
161.907612621719
 20
208.1247958133253
 30
0.0
 10
161.9083113768271
 20
207.9585575656674
 30
0.0
 10
161.9086470129987
 20
207.8771766860515
 30
0.0
 11
160.4409539413614
 21
209.0481586600466
 31
0.0
 11
160.8248661003058
 21
209.0098897372325
 31
0.0
 11
161.2834105566478
 21
208.903907470602
 31
0.0
 11
161.5195292654352
 21
208.7979252039738
 31
0.0
 11
161.6906346992864
 21
208.6235530483849
 31
0.0
 11
161.8275077298838
 21
208.3637303003575
 31
0.0
 11
161.8960291188982
 21
208.1198210705694
 31
0.0
 11
161.9086470129987
 21
207.8771766860515
 31
0.0
  0
LINE
  5
46C
330
1F
100
AcDbEntity
  8
0
  6
ByBlock
370
    40
100
AcDbLine
 10
161.9086470129987
 20
206.1057461945023
 30
0.0
 11
164.5069147121844
 21
206.3404191124006
 31
0.0
  0
LINE
  5
46D
330
1F
100
AcDbEntity
  8
0
  6
ByBlock
370
    40
100
AcDbLine
 10
161.9086470129987
 20
204.6616164747626
 30
0.0
 11
164.5069147121844
 21
204.9175858570067
 31
0.0
  0
LINE
  5
46E
330
1F
100
AcDbEntity
  8
0
  6
ByBlock
370
    40
100
AcDbLine
 10
161.9086470129987
 20
203.2573735031596
 30
0.0
 11
164.5069147121844
 21
203.509342444589
 31
0.0
  0
LINE
  5
46F
330
1F
100
AcDbEntity
  8
0
  6
ByBlock
370
    40
100
AcDbLine
 10
161.9086470129987
 20
201.8189797095911
 30
0.0
 11
164.5069147121844
 21
202.0823616733466
 31
0.0
  0
SPLINE
  5
470
330
1F
100
AcDbEntity
  8
0
  6
ByBlock
370
    40
100
AcDbSpline
210
0.0
220
0.0
230
1.0
 70
  1064
 71
     3
 72
    23
 73
    19
 74
    17
 42
0.000000001
 43
0.0000000001
 44
0.00001
 40
0.0
 40
0.0
 40
0.0
 40
0.0
 40
0.7350859281719741
 40
1.690843434898246
 40
2.443628109762934
 40
2.961489389777094
 40
3.644154961788188
 40
4.659412657065146
 40
5.603579757938544
 40
6.14105473320162
 40
6.775179795477561
 40
7.521462923054987
 40
8.663555274683599
 40
9.732864447681274
 40
10.46652239050886
 40
11.12487423957285
 40
11.73216934508569
 40
12.21119812366759
 40
12.21119812366759
 40
12.21119812366759
 40
12.21119812366759
 10
161.9086470129987
 20
198.2590286080206
 30
0.0
 10
161.9412788955306
 20
198.0158680155168
 30
0.0
 10
162.0163518607959
 20
197.4565526193398
 30
0.0
 10
162.2761825841454
 20
196.6778743637926
 30
0.0
 10
162.6422914198184
 20
196.0250627142545
 30
0.0
 10
163.0793220837556
 20
195.5396154422874
 30
0.0
 10
163.6267081862769
 20
195.0402228066772
 30
0.0
 10
164.4097342440418
 20
194.6107713159728
 30
0.0
 10
165.2249648367868
 20
194.4047501977076
 30
0.0
 10
165.9288698087484
 20
194.35876634056
 30
0.0
 10
166.5702728348195
 20
194.339097521825
 30
0.0
 10
167.4008828871524
 20
194.492850269227
 30
0.0
 10
168.3528404413536
 20
194.7632283669384
 30
0.0
 10
169.2333939980056
 20
195.2040243413169
 30
0.0
 10
169.9554089781245
 20
195.5941150796805
 30
0.0
 10
170.5116194775796
 20
195.9618676833544
 30
0.0
 10
170.9949177669918
 20
196.286203878309
 30
0.0
 10
171.2749145354291
 20
196.5161298665291
 30
0.0
 10
171.3983784409423
 20
196.617524197995
 30
0.0
 11
161.9086470129987
 21
198.2590286080206
 31
0.0
 11
162.0263385812532
 21
197.5334192399259
 31
0.0
 11
162.3288285446728
 21
196.6267899248846
 31
0.0
 11
162.7073653675577
 21
195.9761005770831
 31
0.0
 11
163.0476524307892
 21
195.5857340324131
 31
0.0
 11
163.5580830256185
 21
195.1324193748931
 31
0.0
 11
164.4466543659533
 21
194.6413064346564
 31
0.0
 11
165.3614799792135
 21
194.4077512869867
 31
0.0
 11
165.8971463622255
 21
194.3636876079939
 31
0.0
 11
166.5312662686958
 21
194.3609814274435
 31
0.0
 11
167.2683662973911
 21
194.4777001712659
 31
0.0
 11
168.3627847171794
 21
194.8042361529116
 31
0.0
 11
169.3301754587792
 21
195.2598451808986
 31
0.0
 11
169.9716510882599
 21
195.615884413565
 31
0.0
 11
170.5254238663921
 21
195.9719236462315
 31
0.0
 11
171.0239155569463
 21
196.3187853970202
 31
0.0
 11
171.3983784409423
 21
196.617524197995
 31
0.0
  0
LINE
  5
471
330
1F
100
AcDbEntity
  8
0
  6
ByBlock
370
    40
100
AcDbLine
 10
171.3983784409242
 20
196.6175241979928
 30
0.0
 11
171.3983784409242
 21
194.69845979132
 31
0.0
  0
LINE
  5
472
330
1F
100
AcDbEntity
  8
0
  6
ByBlock
370
    40
100
AcDbLine
 10
171.3983784409242
 20
198.2239953358674
 30
0.0
 11
171.3983784409242
 21
202.2254068475453
 31
0.0
  0
LINE
  5
473
330
1F
100
AcDbEntity
  8
0
  6
ByBlock
370
    40
100
AcDbLine
 10
171.3983784409242
 20
203.6498579282675
 30
0.0
 11
171.3983784409242
 21
205.0672199925478
 31
0.0
  0
LINE
  5
474
330
1F
100
AcDbEntity
  8
0
  6
ByBlock
370
    40
100
AcDbLine
 10
171.3983784409242
 20
206.4801698059265
 30
0.0
 11
171.3983784409242
 21
208.174209416673
 31
0.0
  0
SPLINE
  5
475
330
1F
100
AcDbEntity
  8
0
  6
ByBlock
370
    40
100
AcDbSpline
210
0.0
220
0.0
230
1.0
 70
  1064
 71
     3
 72
    20
 73
    16
 74
    14
 42
0.000000001
 43
0.0000000001
 44
0.00001
 40
0.0
 40
0.0
 40
0.0
 40
0.0
 40
0.28604856162979
 40
0.7779091762060249
 40
1.787056735496485
 40
2.480069517006283
 40
3.183830943364807
 40
3.683926166764411
 40
4.411304807071194
 40
5.127991042720683
 40
5.785383486799197
 40
6.649423802739795
 40
7.306045579795152
 40
7.914891166851276
 40
8.440619175147347
 40
8.440619175147347
 40
8.440619175147347
 40
8.440619175147347
 10
164.5069147121935
 20
198.1657242089763
 30
0.0
 10
164.5077530365482
 20
198.0700252664174
 30
0.0
 10
164.5100427574052
 20
197.8097726834991
 30
0.0
 10
164.6801690590654
 20
197.2341476195962
 30
0.0
 10
165.1411330438926
 20
196.5938681273409
 30
0.0
 10
165.9317892791219
 20
196.353889036753
 30
0.0
 10
166.5595336119523
 20
196.2905038549332
 30
0.0
 10
167.2050424842154
 20
196.2938991055176
 30
0.0
 10
167.8481719900608
 20
196.3839691405154
 30
0.0
 10
168.53237544012
 20
196.544297280296
 30
0.0
 10
169.2232697300818
 20
196.8307135242855
 30
0.0
 10
169.8698523608598
 20
197.1636792156407
 30
0.0
 10
170.4636667026284
 20
197.5535099444542
 30
0.0
 10
170.9568441615609
 20
197.8901775813795
 30
0.0
 10
171.258570417439
 20
198.1182904550283
 30
0.0
 10
171.3983784409423
 20
198.2239953358696
 30
0.0
 11
164.5069147121935
 21
198.1657242089763
 31
0.0
 11
164.5191365288965
 21
197.8799280106463
 31
0.0
 11
164.6494459912603
 21
197.4056404538444
 31
0.0
 11
165.2784734740992
 21
196.6165240877891
 31
0.0
 11
165.9290588836111
 21
196.3777624840576
 31
0.0
 11
166.6283052300233
 21
196.2981654778131
 31
0.0
 11
167.128381230131
 21
196.3025777287135
 31
0.0
 11
167.8498079105614
 21
196.3954409026656
 31
0.0
 11
168.545376395446
 21
196.5681364029133
 31
0.0
 11
169.156127735715
 21
196.8113396725527
 31
0.0
 11
169.9225940739802
 21
197.2102071539584
 31
0.0
 11
170.4758010272745
 21
197.5639226011537
 31
0.0
 11
170.976669182186
 21
197.9100783917983
 31
0.0
 11
171.3983784409423
 21
198.2239953358696
 31
0.0
  0
LINE
  5
476
330
1F
100
AcDbEntity
  8
0
  6
ByBlock
370
    40
100
AcDbLine
 10
174.0036623682392
 20
211.4267442905038
 30
0.0
 11
169.0678590595107
 21
210.0409445276638
 31
0.0
  0
LINE
  5
477
330
1F
100
AcDbEntity
  8
0
  6
ByBlock
370
    40
100
AcDbLine
 10
169.0678590595107
 20
210.0409445276638
 30
0.0
 11
169.3387194139545
 21
209.0566301817703
 31
0.0
  0
LINE
  5
478
330
1F
100
AcDbEntity
  8
0
  6
ByBlock
370
    40
100
AcDbLine
 10
169.3387194139545
 20
209.0566301817703
 30
0.0
 11
169.987098106586
 21
209.0468938147832
 31
0.0
  0
LINE
  5
479
330
1F
100
AcDbEntity
  8
0
  6
ByBlock
370
    40
100
AcDbLine
 10
174.0036623682392
 20
211.4267442905038
 30
0.0
 11
174.0036623682392
 21
206.319004988031
 31
0.0
  0
LINE
  5
47A
330
1F
100
AcDbEntity
  8
0
  6
ByBlock
370
    40
100
AcDbLine
 10
174.0036623682392
 20
204.8896416013033
 30
0.0
 11
174.0036623682392
 21
203.478868498371
 31
0.0
  0
LINE
  5
47B
330
1F
100
AcDbEntity
  8
0
  6
ByBlock
370
    40
100
AcDbLine
 10
174.0036623682392
 20
202.0484167564144
 30
0.0
 11
174.0036623682392
 21
198.0748024254163
 31
0.0
  0
LINE
  5
47C
330
1F
100
AcDbEntity
  8
0
  6
ByBlock
370
    40
100
AcDbLine
 10
176.3032877129826
 20
195.0737070229087
 30
0.0
 11
176.3032877129826
 21
196.3215798225913
 31
0.0
  0
LINE
  5
47D
330
1F
100
AcDbEntity
  8
0
  6
ByBlock
370
    40
100
AcDbLine
 10
171.3983784409242
 20
206.4801698059265
 30
0.0
 11
174.0036623682392
 21
206.319004988031
 31
0.0
  0
LINE
  5
47E
330
1F
100
AcDbEntity
  8
0
  6
ByBlock
370
    40
100
AcDbLine
 10
171.3983784409242
 20
205.0672199925478
 30
0.0
 11
174.0036623682392
 21
204.8896416013033
 31
0.0
  0
LINE
  5
47F
330
1F
100
AcDbEntity
  8
0
  6
ByBlock
370
    40
100
AcDbLine
 10
171.3983784409242
 20
203.6498579282675
 30
0.0
 11
174.0036623682392
 21
203.478868498371
 31
0.0
  0
LINE
  5
480
330
1F
100
AcDbEntity
  8
0
  6
ByBlock
370
    40
100
AcDbLine
 10
171.3983784409242
 20
202.2254068475453
 30
0.0
 11
174.0036623682392
 21
202.0484167564144
 31
0.0
  0
SPLINE
  5
481
330
1F
100
AcDbEntity
  8
0
  6
ByBlock
370
    40
100
AcDbSpline
210
0.0
220
0.0
230
1.0
 70
  1064
 71
     3
 72
    14
 73
    10
 74
     8
 42
0.000000001
 43
0.0000000001
 44
0.00001
 40
0.0
 40
0.0
 40
0.0
 40
0.0
 40
0.3401864044837987
 40
0.76500520220146
 40
1.061111748024496
 40
1.284044982661076
 40
1.513976566364035
 40
1.718355648660866
 40
1.842632966500741
 40
1.842632966500741
 40
1.842632966500741
 40
1.842632966500741
 10
169.987098106595
 20
209.0468938147854
 30
0.0
 10
170.1005119993298
 20
209.0388592574089
 30
0.0
 10
170.3555543101972
 20
209.0207824503446
 30
0.0
 10
170.6973880695513
 20
208.9304019002712
 30
0.0
 10
171.0053160171903
 20
208.8493133392503
 30
0.0
 10
171.2064722408847
 20
208.690333032354
 30
0.0
 10
171.3229536445187
 20
208.5023591026447
 30
0.0
 10
171.3897376927156
 20
208.3254933507711
 30
0.0
 10
171.396011669411
 20
208.2157196052959
 30
0.0
 10
171.3983784409423
 20
208.1742094166741
 30
0.0
 11
169.987098106595
 21
209.0468938147854
 31
0.0
 11
170.3256311127875
 21
209.0134783679672
 31
0.0
 11
170.7398714835461
 21
208.9192621037365
 31
0.0
 11
171.019445540642
 21
208.8216925288189
 31
0.0
 11
171.1945683309109
 21
208.6837361506682
 31
0.0
 11
171.3204643594415
 21
208.4913325963954
 31
0.0
 11
171.3865527016366
 21
208.2979289319256
 31
0.0
 11
171.3983784409423
 21
208.1742094166741
 31
0.0
  0
SPLINE
  5
482
330
1F
100
AcDbEntity
  8
0
  6
ByBlock
370
    40
100
AcDbSpline
210
0.0
220
0.0
230
1.0
 70
  1064
 71
     3
 72
    15
 73
    11
 74
     9
 42
0.000000001
 43
0.0000000001
 44
0.00001
 40
0.0
 40
0.0
 40
0.0
 40
0.0
 40
0.443665967541166
 40
0.8241915333113945
 40
1.206684753980341
 40
1.554344938171022
 40
1.982849620069379
 40
2.419161939179229
 40
2.924701649869979
 40
3.341824517717266
 40
3.341824517717266
 40
3.341824517717266
 40
3.341824517717266
 10
174.0036623682482
 20
198.0748024254163
 30
0.0
 10
174.0100942423668
 20
197.9262439485813
 30
0.0
 10
174.0220551351897
 20
197.65027036471
 30
0.0
 10
174.1501728712398
 20
197.2660546830501
 30
0.0
 10
174.312633203804
 20
196.9295110926855
 30
0.0
 10
174.5928714975451
 20
196.6523717266256
 30
0.0
 10
174.9603053901738
 20
196.4739472331003
 30
0.0
 10
175.4018107395818
 20
196.3452582009267
 30
0.0
 10
175.8572621528594
 20
196.3312286063939
 30
0.0
 10
176.1644239764838
 20
196.3245789428526
 30
0.0
 10
176.3032877129917
 20
196.3215798225935
 30
0.0
 11
174.0036623682482
 21
198.0748024254163
 31
0.0
 11
174.0448544171418
 21
197.6330478652605
 31
0.0
 11
174.1575667267342
 21
197.2695960510781
 31
0.0
 11
174.3368766208614
 21
196.9317352921259
 31
0.0
 11
174.5828406820218
 21
196.6860317469795
 31
0.0
 11
174.9619999122699
 21
196.4863921012355
 31
0.0
 11
175.3821248614458
 21
196.3686438322007
 31
0.0
 11
175.8862748004785
 21
196.3311691145491
 31
0.0
 11
176.3032877129917
 21
196.3215798225935
 31
0.0
  0
SPLINE
  5
483
330
1F
100
AcDbEntity
  8
0
  6
ByBlock
370
    40
100
AcDbSpline
210
0.0
220
0.0
230
1.0
 70
  1064
 71
     3
 72
    12
 73
     8
 74
     6
 42
0.000000001
 43
0.0000000001
 44
0.00001
 40
0.0
 40
0.0
 40
0.0
 40
0.0
 40
0.8690030375497478
 40
1.931553613948557
 40
3.08307472674662
 40
4.045177319232187
 40
4.920032377460255
 40
4.920032377460255
 40
4.920032377460255
 40
4.920032377460255
 10
171.3983784409423
 20
194.6984597913211
 30
0.0
 10
171.6862699794876
 20
194.7306154086131
 30
0.0
 10
172.3261754747772
 20
194.8020671957241
 30
0.0
 10
173.3506894459628
 20
194.8845229221304
 30
0.0
 10
174.4067380375951
 20
194.9589854478917
 30
0.0
 10
175.4001747222984
 20
195.0338781465384
 30
0.0
 10
176.0119350027946
 20
195.0608647283548
 30
0.0
 10
176.3032877129917
 20
195.0737070229098
 30
0.0
 11
171.3983784409423
 21
194.6984597913211
 31
0.0
 11
172.262449565382
 21
194.7909111551921
 31
0.0
 11
173.3212210198128
 21
194.880450433467
 31
0.0
 11
174.4696757125429
 21
194.9644302756009
 31
0.0
 11
175.4294844011756
 21
195.0308493591629
 31
0.0
 11
176.3032877129917
 21
195.0737070229098
 31
0.0
  0
LINE
  5
484
330
1F
100
AcDbEntity
  8
0
  6
ByBlock
370
    40
100
AcDbLine
 10
190.1719942173312
 20
205.7784160077008
 30
0.0
 11
191.2325763112631
 21
206.2525859044779
 31
0.0
  0
LINE
  5
485
330
1F
100
AcDbEntity
  8
0
  6
ByBlock
370
    40
100
AcDbLine
 10
191.2325763112631
 20
206.2525859044779
 30
0.0
 11
189.0654671457822
 21
211.4756614454869
 31
0.0
  0
LINE
  5
486
330
1F
100
AcDbEntity
  8
0
  6
ByBlock
370
    40
100
AcDbLine
 10
189.0654671457822
 20
211.4756614454869
 30
0.0
 11
187.4783850313497
 21
210.7518463927607
 31
0.0
  0
LINE
  5
487
330
1F
100
AcDbEntity
  8
0
  6
ByBlock
370
    40
100
AcDbLine
 10
179.3877121210594
 20
205.7038489674812
 30
0.0
 11
183.5608401179837
 21
205.0472177884629
 31
0.0
  0
SPLINE
  5
488
330
1F
100
AcDbEntity
  8
0
  6
ByBlock
370
    40
100
AcDbSpline
210
0.0
220
0.0
230
1.0
 70
  1064
 71
     3
 72
    28
 73
    24
 74
    22
 42
0.000000001
 43
0.0000000001
 44
0.00001
 40
0.0
 40
0.0
 40
0.0
 40
0.0
 40
0.1301406216805657
 40
0.3479826439663058
 40
0.7767471989006655
 40
1.442303892901354
 40
2.045627840349821
 40
2.702283073206714
 40
3.250718787279327
 40
3.829485988362995
 40
4.393622953692564
 40
5.138892059334341
 40
5.983615366213011
 40
6.79590409203234
 40
7.567817472815267
 40
8.291870686032906
 40
8.902429124720669
 40
9.467564755360182
 40
10.14315567657567
 40
10.62289822490453
 40
11.27867124938735
 40
11.86574713131733
 40
12.26697551080011
 40
12.26697551080011
 40
12.26697551080011
 40
12.26697551080011
 10
187.4783850313587
 20
210.7518463927618
 30
0.0
 10
187.4353279652639
 20
210.7469492059458
 30
0.0
 10
187.3201995780324
 20
210.7338372638478
 30
0.0
 10
187.0585594099416
 20
210.7273661325855
 30
0.0
 10
186.6429337348207
 20
210.8853359531674
 30
0.0
 10
186.1004098209589
 20
211.0361053414593
 30
0.0
 10
185.4846980039598
 20
211.2222074858751
 30
0.0
 10
184.8871822757721
 20
211.3162262973342
 30
0.0
 10
184.292998193624
 20
211.3455566020856
 30
0.0
 10
183.7284675559167
 20
211.3432914772797
 30
0.0
 10
183.1021544415194
 20
211.2769790586116
 30
0.0
 10
182.392447234436
 20
211.1538415246918
 30
0.0
 10
181.637660636041
 20
210.8767527038437
 30
0.0
 10
180.9115382757202
 20
210.5113942649694
 30
0.0
 10
180.2996534542086
 20
210.0390848769734
 30
0.0
 10
179.8062427451924
 20
209.5342838840782
 30
0.0
 10
179.4655320803673
 20
208.9953637034029
 30
0.0
 10
179.2259074691248
 20
208.4254619451086
 30
0.0
 10
179.0883058230029
 20
207.8618315643706
 30
0.0
 10
179.0971220471999
 20
207.255910063149
 30
0.0
 10
179.1352741488663
 20
206.6831761854636
 30
0.0
 10
179.2350290663805
 20
206.1415412929492
 30
0.0
 10
179.3436222610542
 20
205.8302320932858
 30
0.0
 10
179.3877121210773
 20
205.7038489674824
 30
0.0
 11
187.4783850313587
 21
210.7518463927618
 31
0.0
 11
187.3489243062697
 21
210.7385802250531
 31
0.0
 11
187.131081740025
 21
210.7385802250531
 31
0.0
 11
186.7174637765845
 21
210.8515338481095
 31
0.0
 11
186.0804581634172
 21
211.0443786274599
 31
0.0
 11
185.4986770553297
 21
211.2041609400726
 31
0.0
 11
184.850468110148
 21
211.3091430965028
 31
0.0
 11
184.302919405341
 21
211.3403230028626
 31
0.0
 11
183.7241937514451
 21
211.3333810614465
 31
0.0
 11
183.1627823378476
 21
211.2779926051461
 31
0.0
 11
182.430548402845
 21
211.139212606823
 31
0.0
 11
181.6340367651846
 21
210.8579169044085
 31
0.0
 11
180.9135719870164
 21
210.4827579178382
 31
0.0
 11
180.2992559501891
 21
210.0153534724459
 31
0.0
 11
179.8012169195215
 21
209.4897955601774
 31
0.0
 11
179.4732082555001
 21
208.9748270500795
 31
0.0
 11
179.2529326424181
 21
208.4543873488589
 31
0.0
 11
179.1061576769947
 21
207.7949323292675
 31
0.0
 11
179.0997638562377
 21
207.3152324113614
 31
0.0
 11
179.1501222676338
 21
206.6613956579187
 31
0.0
 11
179.2634569845893
 21
206.0853615953474
 31
0.0
 11
179.3877121210773
 21
205.7038489674824
 31
0.0
  0
SPLINE
  5
489
330
1F
100
AcDbEntity
  8
0
  6
ByBlock
370
    40
100
AcDbSpline
210
0.0
220
0.0
230
1.0
 70
  1064
 71
     3
 72
    33
 73
    29
 74
    27
 42
0.000000001
 43
0.0000000001
 44
0.00001
 40
0.0
 40
0.0
 40
0.0
 40
0.0
 40
0.5769265419398046
 40
1.458207335591207
 40
2.391949557955467
 40
3.331563138345978
 40
4.182952086495644
 40
5.04970773223707
 40
5.892897832576762
 40
6.719148204499369
 40
7.201569832674135
 40
7.874513057394285
 40
8.364056546444464
 40
8.948718235829772
 40
9.235515109345559
 40
9.715278843589363
 40
10.15355817587286
 40
10.50845958075666
 40
10.88881776037497
 40
11.26886143937528
 40
11.66454441797933
 40
12.108664165132
 40
12.57973005842499
 40
12.94305111493174
 40
13.43656731899349
 40
13.97316376922104
 40
14.79542220582004
 40
15.21453589031286
 40
15.21453589031286
 40
15.21453589031286
 40
15.21453589031286
 10
190.1719942173401
 20
205.7784160077031
 30
0.0
 10
190.0710328744029
 20
205.9420637728939
 30
0.0
 10
189.8158350981697
 20
206.3556822135232
 30
0.0
 10
189.3492274498936
 20
207.0050932964985
 30
0.0
 10
188.7102661273498
 20
207.6669069633127
 30
0.0
 10
188.0422758676747
 20
208.2840017110683
 30
0.0
 10
187.3258420494289
 20
208.8070858138164
 30
0.0
 10
186.6081516427653
 20
209.271380600697
 30
0.0
 10
185.8421615793112
 20
209.6363250293355
 30
0.0
 10
185.1519016795627
 20
209.8427203693521
 30
0.0
 10
184.4979521612494
 20
209.9460123041965
 30
0.0
 10
183.9481532415101
 20
209.9507132051966
 30
0.0
 10
183.365518442756
 20
209.9006099081214
 30
0.0
 10
182.9321580253577
 20
209.7492078263414
 30
0.0
 10
182.5301993344717
 20
209.5479351825733
 30
0.0
 10
182.1802762565904
 20
209.3420316098283
 30
0.0
 10
181.894205088547
 20
209.0234001636513
 30
0.0
 10
181.6617801487043
 20
208.7083968490729
 30
0.0
 10
181.5026470142543
 20
208.3676622420887
 30
0.0
 10
181.429482850126
 20
207.9877100995756
 30
0.0
 10
181.3807327398919
 20
207.5829958963895
 30
0.0
 10
181.4161167608974
 20
207.1446586638506
 30
0.0
 10
181.5232429089572
 20
206.7288848035267
 30
0.0
 10
181.7239751423304
 20
206.3317952681264
 30
0.0
 10
182.0080343561129
 20
205.9601814160441
 30
0.0
 10
182.48210704236
 20
205.5564919370461
 30
0.0
 10
183.0202379128116
 20
205.2961429471629
 30
0.0
 10
183.4045923346172
 20
205.1437573248464
 30
0.0
 10
183.5343595151287
 20
205.0923109926716
 30
0.0
 11
190.1719942173401
 21
205.7784160077031
 31
0.0
 11
189.8645249952674
 21
206.2665874473362
 31
0.0
 11
189.3436832232454
 21
206.9774893124286
 31
0.0
 11
188.705489377886
 21
207.6590938315447
 31
0.0
 11
188.0086194958489
 21
208.289369165178
 31
0.0
 11
187.3254991575882
 21
208.7975133938859
 31
0.0
 11
186.5919638254241
 21
209.2592407431244
 31
0.0
 11
185.8290621837262
 21
209.6183391364127
 31
0.0
 11
185.0367942324043
 21
209.8528649792795
 31
0.0
 11
184.5599736335106
 21
209.9261671742436
 31
0.0
 11
183.8871513074732
 21
209.9389627018536
 31
0.0
 11
183.400598521221
 21
209.8849273358238
 31
0.0
 11
182.8455243459273
 21
209.7012894533442
 31
0.0
 11
182.5883569527884
 21
209.574334287434
 31
0.0
 11
182.1846975066631
 21
209.315041009514
 31
0.0
 11
181.8819246308335
 21
208.9981531498347
 31
0.0
 11
181.6763038812919
 21
208.7088859807984
 31
0.0
 11
181.5177031765538
 21
208.3631714152426
 31
0.0
 11
181.4348098364358
 21
207.9922776045401
 31
0.0
 11
181.3951455146066
 21
207.5985871641929
 31
0.0
 11
181.4276238608572
 21
207.1556560037944
 31
0.0
 11
181.5501815228044
 21
206.7008117659623
 31
0.0
 11
181.7124035065539
 21
206.3757171196114
 31
0.0
 11
182.0115551033631
 21
205.9832032794958
 31
0.0
 11
182.418892410998
 21
205.6339000832021
 31
0.0
 11
183.1460339223781
 21
205.2500048398573
 31
0.0
 11
183.5343595151287
 21
205.0923109926716
 31
0.0
  0
LINE
  5
48A
330
1F
100
AcDbEntity
  8
0
  6
ByBlock
370
    40
100
AcDbLine
 10
183.5608401179837
 20
205.0472177884629
 30
0.0
 11
183.5343595151197
 21
205.0923109926705
 31
0.0
  0
LINE
  5
48B
330
1F
100
AcDbEntity
  8
0
  6
ByBlock
370
    40
100
AcDbLine
 10
180.7014442517214
 20
204.0634917426863
 30
0.0
 11
189.986912909747
 21
202.5588553555972
 31
0.0
  0
SPLINE
  5
48C
330
1F
100
AcDbEntity
  8
0
  6
ByBlock
370
    40
100
AcDbSpline
210
0.0
220
0.0
230
1.0
 70
  1064
 71
     3
 72
    22
 73
    18
 74
    16
 42
0.000000001
 43
0.0000000001
 44
0.00001
 40
0.0
 40
0.0
 40
0.0
 40
0.0
 40
0.2282614504163619
 40
0.5469806607322429
 40
0.9626804529743298
 40
1.775454275014045
 40
2.337905397496576
 40
3.226081089518108
 40
4.106239042764948
 40
5.065141322157868
 40
5.830009289257302
 40
6.678045444289557
 40
7.414887577643154
 40
8.835665453850786
 40
10.18824921034667
 40
10.83481805765996
 40
11.15109962394534
 40
11.15109962394534
 40
11.15109962394534
 40
11.15109962394534
 10
180.7014442517304
 20
204.0634917426863
 30
0.0
 10
180.7533642659672
 20
204.0076169085879
 30
0.0
 10
180.8777680751974
 20
203.8737131303047
 30
0.0
 10
181.144887473892
 20
203.6920637704894
 30
0.0
 10
181.5896046260634
 20
203.432303614571
 30
0.0
 10
182.1168057576764
 20
203.1501279209837
 30
0.0
 10
182.807202321381
 20
202.8455575713217
 30
0.0
 10
183.5296934747562
 20
202.557972934599
 30
0.0
 10
184.4008204328218
 20
202.2954486295494
 30
0.0
 10
185.2403180009014
 20
202.0753215086909
 30
0.0
 10
186.0706551462016
 20
201.8615557735595
 30
0.0
 10
186.8361553423613
 20
201.6956479186171
 30
0.0
 10
187.8142191827001
 20
201.4770852476391
 30
0.0
 10
188.9737828759789
 20
201.3137794372586
 30
0.0
 10
190.1033013577418
 20
201.1594370625652
 30
0.0
 10
190.8571413061824
 20
200.9849712926877
 30
0.0
 10
191.1772264589311
 20
200.9580772515612
 30
0.0
 10
191.2823688978664
 20
200.9492368120733
 30
0.0
 11
180.7014442517304
 21
204.0634917426863
 31
0.0
 11
180.8619687609391
 21
203.9012091545645
 31
0.0
 11
181.1193624840077
 21
203.7132472661974
 31
0.0
 11
181.47645454518
 21
203.5004296977687
 31
0.0
 11
182.1956179262226
 21
203.1217409104846
 31
0.0
 11
182.7089342277668
 21
202.8918332235627
 31
0.0
 11
183.5363964845777
 21
202.5690917776861
 31
0.0
 11
184.3769292953755
 21
202.3079747693898
 31
0.0
 11
185.3031279880637
 21
202.0596827037158
 31
0.0
 11
186.0448677805219
 21
201.8730150756164
 31
0.0
 11
186.8722168723634
 21
201.6868475026223
 31
0.0
 11
187.5929079804523
 21
201.5334188313111
 31
0.0
 11
188.9962667669604
 21
201.3116296860468
 31
0.0
 11
190.3321792316407
 21
201.0999298878389
 31
0.0
 11
190.9676571177347
 21
200.9806814535042
 31
0.0
 11
191.2823688978664
 21
200.9492368120733
 31
0.0
  0
SPLINE
  5
48D
330
1F
100
AcDbEntity
  8
0
  6
ByBlock
370
    40
100
AcDbSpline
210
0.0
220
0.0
230
1.0
 70
  1064
 71
     3
 72
    12
 73
     8
 74
     6
 42
0.000000001
 43
0.0000000001
 44
0.00001
 40
0.0
 40
0.0
 40
0.0
 40
0.0
 40
0.2433079419172747
 40
0.7421265017728703
 40
1.213103041745547
 40
1.724558606403003
 40
2.087334474594369
 40
2.087334474594369
 40
2.087334474594369
 40
2.087334474594369
 10
191.2823688978664
 20
200.9492368120733
 30
0.0
 10
191.2517341079459
 20
201.024527540991
 30
0.0
 10
191.1582722443198
 20
201.2541660099958
 30
0.0
 10
190.918020110822
 20
201.583579905685
 30
0.0
 10
190.6242900018137
 20
201.9794965522555
 30
0.0
 10
190.3112675547157
 20
202.3039801654383
 30
0.0
 10
190.0820398964966
 20
202.4841129181743
 30
0.0
 10
189.9869129097651
 20
202.5588553555994
 30
0.0
 11
191.2823688978664
 21
200.9492368120733
 31
0.0
 11
191.1847075291937
 21
201.1720848975565
 31
0.0
 11
190.9124326126369
 21
201.5900427178607
 31
0.0
 11
190.6245409302774
 21
201.962789673947
 31
0.0
 11
190.2678449464936
 21
202.3293300637576
 31
0.0
 11
189.9869129097651
 21
202.5588553555994
 31
0.0
  0
LINE
  5
48E
330
1F
100
AcDbEntity
  8
0
  6
ByBlock
370
    40
100
AcDbLine
 10
182.4130078325718
 20
194.9988752476304
 30
0.0
 11
180.6905238321619
 21
194.3362728224011
 31
0.0
  0
LINE
  5
48F
330
1F
100
AcDbEntity
  8
0
  6
ByBlock
370
    40
100
AcDbLine
 10
180.6905238321619
 20
194.3362728224011
 30
0.0
 11
178.4639464752085
 21
199.8855901949906
 31
0.0
  0
LINE
  5
490
330
1F
100
AcDbEntity
  8
0
  6
ByBlock
370
    40
100
AcDbLine
 10
178.4639464752085
 20
199.8855901949906
 30
0.0
 11
179.3556298522061
 21
200.2649849424289
 31
0.0
  0
LINE
  5
491
330
1F
100
AcDbEntity
  8
0
  6
ByBlock
370
    40
100
AcDbLine
 10
191.6704681606692
 20
199.4879287288353
 30
0.0
 11
189.2451731173158
 21
199.870441466904
 31
0.0
  0
SPLINE
  5
492
330
1F
100
AcDbEntity
  8
0
  6
ByBlock
370
    40
100
AcDbSpline
210
0.0
220
0.0
230
1.0
 70
  1064
 71
     3
 72
    26
 73
    22
 74
    20
 42
0.000000001
 43
0.0000000001
 44
0.00001
 40
0.0
 40
0.0
 40
0.0
 40
0.0
 40
0.8228877070617283
 40
1.740551824095599
 40
3.259813240937919
 40
4.667810343307319
 40
5.724784852405127
 40
6.843747915637981
 40
7.670400280719277
 40
8.346884672229437
 40
8.897761922287378
 40
9.81705369850589
 40
10.38661059178485
 40
11.11816936131592
 40
11.75082152784549
 40
12.37004876817827
 40
12.89809072660233
 40
13.38781043504232
 40
13.93388961851796
 40
14.30412470065999
 40
14.40176472075897
 40
14.40176472075897
 40
14.40176472075897
 40
14.40176472075897
 10
179.3556298522151
 20
200.2649849424289
 30
0.0
 10
179.5239015148012
 20
200.0483143203954
 30
0.0
 10
179.8798371648423
 20
199.5900270840964
 30
0.0
 10
180.5878036748124
 20
198.7654415100522
 30
0.0
 10
181.4818154738078
 20
197.8431103983978
 30
0.0
 10
182.5292095933041
 20
197.0205654360249
 30
0.0
 10
183.5542284303401
 20
196.3986294323084
 30
0.0
 10
184.4951488148033
 20
196.0430802532262
 30
0.0
 10
185.3513941453305
 20
195.8479927298535
 30
0.0
 10
186.0363061430497
 20
195.8168100818733
 30
0.0
 10
186.7544543361005
 20
195.810024898349
 30
0.0
 10
187.4181573048245
 20
196.0159516538272
 30
0.0
 10
188.0670112072095
 20
196.3744183248494
 30
0.0
 10
188.5688054262763
 20
196.7877075395072
 30
0.0
 10
188.9876902359005
 20
197.3044272820407
 30
0.0
 10
189.256655221493
 20
197.8395744450155
 30
0.0
 10
189.3875078717692
 20
198.3729783209072
 30
0.0
 10
189.4283258700788
 20
198.8936227455578
 30
0.0
 10
189.3980459117153
 20
199.3655529204686
 30
0.0
 10
189.3014717335967
 20
199.6905860379165
 30
0.0
 10
189.2548964186585
 20
199.8393891332937
 30
0.0
 10
189.2451731173158
 20
199.8704414669073
 30
0.0
 11
179.3556298522151
 21
200.2649849424289
 31
0.0
 11
179.8653814572281
 21
199.6190019955885
 31
0.0
 11
180.462439836192
 21
198.9221310883563
 31
0.0
 11
181.5316224678156
 21
197.8427768580687
 31
0.0
 11
182.6400733438442
 21
196.9745635408663
 31
0.0
 11
183.5505421057693
 21
196.4376808512913
 31
0.0
 11
184.5952245214977
 21
196.0367837344661
 31
0.0
 11
185.4035618984639
 21
195.8637352541469
 31
0.0
 11
186.0785909414088
 21
195.8193774250968
 31
0.0
 11
186.6293082653765
 21
195.8326730078132
 31
0.0
 11
187.5131266769881
 21
196.0855832294265
 31
0.0
 11
188.0115052025639
 21
196.3612900807012
 31
0.0
 11
188.5755194104394
 21
196.8271943607845
 31
0.0
 11
188.9713138911786
 21
197.3207487465208
 31
0.0
 11
189.2466442619269
 21
197.8753980997222
 31
0.0
 11
189.3758220745878
 21
198.3873956942201
 31
0.0
 11
189.4158258912893
 21
198.875478888837
 31
0.0
 11
189.3702769910787
 21
199.419656499903
 31
0.0
 11
189.2742565144667
 21
199.7772253128814
 31
0.0
 11
189.2451731173158
 21
199.8704414669073
 31
0.0
  0
SPLINE
  5
493
330
1F
100
AcDbEntity
  8
0
  6
ByBlock
370
    40
100
AcDbSpline
210
0.0
220
0.0
230
1.0
 70
  1064
 71
     3
 72
    27
 73
    23
 74
    21
 42
0.000000001
 43
0.0000000001
 44
0.00001
 40
0.0
 40
0.0
 40
0.0
 40
0.0
 40
0.376921480004285
 40
1.072339856619123
 40
1.809789742044632
 40
2.598081160680283
 40
3.192659361091445
 40
3.99522786777255
 40
4.879341426312512
 40
5.774409163548737
 40
6.574176110889263
 40
7.536031263981438
 40
8.048361456247283
 40
8.672693032769684
 40
9.12325268311841
 40
10.32278759382227
 40
11.08330020408257
 40
11.57725154066593
 40
11.80194113170959
 40
12.06534010069727
 40
12.23371566336542
 40
12.38459388839527
 40
12.38459388839527
 40
12.38459388839527
 40
12.38459388839527
 10
191.6704681606782
 20
199.4879287288376
 30
0.0
 10
191.6745909798152
 20
199.3623704570549
 30
0.0
 10
191.6863076903714
 20
199.0051574428319
 30
0.0
 10
191.6685529958037
 20
198.4005965184548
 30
0.0
 10
191.5240540671089
 20
197.6698801283554
 30
0.0
 10
191.2505048205394
 20
197.0130280975168
 30
0.0
 10
190.8578709919852
 20
196.3953445550906
 30
0.0
 10
190.3250071620795
 20
195.8471425970576
 30
0.0
 10
189.6565855637067
 20
195.3011538970873
 30
0.0
 10
188.8994958977583
 20
194.8834023745462
 30
0.0
 10
188.0689316730418
 20
194.5723850464066
 30
0.0
 10
187.3252534678577
 20
194.4009204382363
 30
0.0
 10
186.6263829043733
 20
194.3600162262446
 30
0.0
 10
186.0964313836134
 20
194.349484754611
 30
0.0
 10
185.3416904370614
 20
194.435195519055
 30
0.0
 10
184.5594948278888
 20
194.6279828684443
 30
0.0
 10
183.7728881377637
 20
194.851837611035
 30
0.0
 10
183.2972147226324
 20
194.9803892767109
 30
0.0
 10
182.9782099291668
 20
195.0570791958513
 30
0.0
 10
182.7576986971567
 20
195.063799023302
 30
0.0
 10
182.5642930147381
 20
195.0404425629568
 30
0.0
 10
182.4615605399282
 20
195.0122107184782
 30
0.0
 10
182.4130078325808
 20
194.9988752476326
 30
0.0
 11
191.6704681606782
 21
199.4879287288376
 31
0.0
 11
191.6800871830852
 21
199.1111225019325
 31
0.0
 11
191.6503247961179
 21
198.4163400601317
 31
0.0
 11
191.5045683154099
 21
197.6934368725862
 31
0.0
 11
191.2027573418068
 21
196.9652095689595
 31
0.0
 11
190.881595158456
 21
196.4648309018311
 31
0.0
 11
190.3343859485483
 21
195.8777367970096
 31
0.0
 11
189.6441927996871
 21
195.3252053242372
 31
0.0
 11
188.8625057730346
 21
194.8891866902527
 31
0.0
 11
188.1143721598014
 21
194.6064790675511
 31
0.0
 11
187.1744805058262
 21
194.4021036058338
 31
0.0
 11
186.6634840861589
 21
194.3651583582963
 31
0.0
 11
186.0391529495363
 21
194.3643935681391
 31
0.0
 11
185.5911328353925
 21
194.4121635378848
 31
0.0
 11
184.4199319837612
 21
194.6713391557845
 31
0.0
 11
183.6869624764712
 21
194.8741556221831
 31
0.0
 11
183.2095194702502
 21
195.0007872230261
 31
0.0
 11
182.9896399345475
 21
195.047027612461
 31
0.0
 11
182.72641821556
 21
195.0566757344318
 31
0.0
 11
182.5593867206069
 21
195.0354381000968
 31
0.0
 11
182.4130078325808
 21
194.9988752476326
 31
0.0
  0
CIRCLE
  5
494
330
1F
100
AcDbEntity
  8
0
  6
ByBlock
370
    40
100
AcDbCircle
 10
194.7732252937958
 20
212.5679141559142
 30
0.0
 40
3.020534359052351
  0
CIRCLE
  5
495
330
1F
100
AcDbEntity
  8
0
  6
ByBlock
370
    40
100
AcDbCircle
 10
194.7732252937958
 20
212.5679141559142
 30
0.0
 40
2.665619359052351
  0
LINE
  5
496
330
1F
100
AcDbEntity
  8
0
  6
ByBlock
370
    40
100
AcDbLine
 10
194.9421721058443
 20
214.073369015542
 30
0.0
 11
193.5711388928875
 21
214.073369015542
 31
0.0
  0
LINE
  5
497
330
1F
100
AcDbEntity
  8
0
  6
ByBlock
370
    40
100
AcDbLine
 10
193.5711388928875
 20
214.073369015542
 30
0.0
 11
193.5711388928875
 21
211.1433858607965
 31
0.0
  0
LINE
  5
498
330
1F
100
AcDbEntity
  8
0
  6
ByBlock
370
    40
100
AcDbLine
 10
193.5711388928875
 20
211.1433858607965
 30
0.0
 11
194.2045147396862
 21
211.1433858607965
 31
0.0
  0
LINE
  5
499
330
1F
100
AcDbEntity
  8
0
  6
ByBlock
370
    40
100
AcDbLine
 10
194.2045147396862
 20
211.1433858607965
 30
0.0
 11
194.2045147396862
 21
212.3603861409319
 31
0.0
  0
LINE
  5
49A
330
1F
100
AcDbEntity
  8
0
  6
ByBlock
370
    40
100
AcDbLine
 10
194.9999032150281
 20
212.8601132656711
 30
0.0
 11
194.2049985199185
 21
212.8601132656711
 31
0.0
  0
LINE
  5
49B
330
1F
100
AcDbEntity
  8
0
  6
ByBlock
370
    40
100
AcDbLine
 10
194.2049985199185
 20
212.8601132656711
 30
0.0
 11
194.2049985199185
 21
213.5456976350994
 31
0.0
  0
LINE
  5
49C
330
1F
100
AcDbEntity
  8
0
  6
ByBlock
370
    40
100
AcDbLine
 10
194.2049985199185
 20
213.5456976350994
 30
0.0
 11
194.9140590983038
 21
213.5456976350994
 31
0.0
  0
SPLINE
  5
49D
330
1F
100
AcDbEntity
  8
0
  6
ByBlock
370
    40
100
AcDbSpline
210
0.0
220
0.0
230
1.0
 70
  1064
 71
     3
 72
    16
 73
    12
 74
    10
 42
0.000000001
 43
0.0000000001
 44
0.00001
 40
0.0
 40
0.0
 40
0.0
 40
0.0
 40
0.0991064001189362
 40
0.2020503829982556
 40
0.383749036789438
 40
0.5039781983905148
 40
0.6624606493177997
 40
0.8217877776198454
 40
0.9952578975289544
 40
1.063724882777538
 40
1.143395170781553
 40
1.143395170781553
 40
1.143395170781553
 40
1.143395170781553
 10
194.9140590983129
 20
213.5456976350994
 30
0.0
 10
194.9470808657238
 20
213.5450044898373
 30
0.0
 10
195.0144024550848
 20
213.5435779701938
 30
0.0
 10
195.1418237291862
 20
213.5226850580514
 30
0.0
 10
195.2582268937089
 20
213.4370669437127
 30
0.0
 10
195.326625224614
 20
213.2969177763509
 30
0.0
 10
195.3437539348024
 20
213.1484363647673
 30
0.0
 10
195.2896581003814
 20
212.9846588550537
 30
0.0
 10
195.1763060719533
 20
212.9026775470302
 30
0.0
 10
195.0768280009691
 20
212.8596251508284
 30
0.0
 10
195.0268062395489
 20
212.8599390953563
 30
0.0
 10
194.9999032150371
 20
212.8601132656722
 30
0.0
 11
194.9140590983129
 21
213.5456976350994
 31
0.0
 11
195.013072788362
 21
213.5413103869552
 31
0.0
 11
195.1140215993761
 21
213.5211346343349
 31
0.0
 11
195.2607145201848
 21
213.4139125252028
 31
0.0
 11
195.3152741810976
 21
213.3067742488399
 31
0.0
 11
195.3319377228423
 21
213.1491686466715
 31
0.0
 11
195.2780768556243
 21
212.999219770565
 31
0.0
 11
195.1433171808526
 21
212.8899856750236
 31
0.0
 11
195.0794044352103
 21
212.8654226742591
 31
0.0
 11
194.9999032150371
 21
212.8601132656722
 31
0.0
  0
SPLINE
  5
49E
330
1F
100
AcDbEntity
  8
0
  6
ByBlock
370
    40
100
AcDbSpline
210
0.0
220
0.0
230
1.0
 70
  1064
 71
     3
 72
    16
 73
    12
 74
    10
 42
0.000000001
 43
0.0000000001
 44
0.00001
 40
0.0
 40
0.0
 40
0.0
 40
0.0
 40
0.3647369407281398
 40
0.7398895721124746
 40
1.142371207800635
 40
1.609537077825959
 40
1.874717501746367
 40
2.196199062639276
 40
2.48246805106432
 40
2.648431411824913
 40
2.712781220893606
 40
2.712781220893606
 40
2.712781220893606
 40
2.712781220893606
 10
194.9421721058534
 20
214.0733690155443
 30
0.0
 10
195.0636033962943
 20
214.0686489426117
 30
0.0
 10
195.3099324892213
 20
214.0590603439189
 30
0.0
 10
195.685407315059
 20
213.9458782217467
 30
0.0
 10
195.9718858228446
 20
213.6011635155096
 30
0.0
 10
195.9777936464729
 20
213.2087400820104
 30
0.0
 10
195.9353987069802
 20
212.8545550317471
 30
0.0
 10
195.7390815347021
 20
212.618276007361
 30
0.0
 10
195.5109909650031
 20
212.490510309755
 30
0.0
 10
195.3404052428817
 20
212.4533479113004
 30
0.0
 10
195.2635808251356
 20
212.4531988371401
 30
0.0
 10
195.2421158574572
 20
212.4531610698712
 30
0.0
 11
194.9421721058534
 21
214.0733690155443
 31
0.0
 11
195.3057060829236
 21
214.0437201602454
 31
0.0
 11
195.6585968946151
 21
213.9164061312576
 31
0.0
 11
195.9151079309351
 21
213.6062528372112
 31
0.0
 11
195.965313569632
 21
213.1417913631625
 31
0.0
 11
195.9155379578152
 21
212.881322955753
 31
0.0
 11
195.7192844386163
 21
212.6266948977833
 31
0.0
 11
195.4691162988472
 21
212.4875325043856
 31
0.0
 11
195.3064586299615
 21
212.4545582826516
 31
0.0
 11
195.2421158574572
 21
212.4531610698712
 31
0.0
  0
SPLINE
  5
49F
330
1F
100
AcDbEntity
  8
0
  6
ByBlock
370
    40
100
AcDbSpline
210
0.0
220
0.0
230
1.0
 70
  1064
 71
     3
 72
    12
 73
     8
 74
     6
 42
0.000000001
 43
0.0000000001
 44
0.00001
 40
0.0
 40
0.0
 40
0.0
 40
0.0
 40
0.1178351442264631
 40
0.3755046921835122
 40
0.7409222532445974
 40
1.341157895916429
 40
1.641990183238639
 40
1.641990183238639
 40
1.641990183238639
 40
1.641990183238639
 10
195.2421158574572
 20
212.4531610698712
 30
0.0
 10
195.2743361356812
 20
212.4307028845137
 30
0.0
 10
195.3770009525211
 20
212.3591194360237
 30
0.0
 10
195.5620855958973
 20
212.1927680606779
 30
0.0
 10
195.795468505376
 20
211.8560334886809
 30
0.0
 10
196.0219075394449
 20
211.5002038281839
 30
0.0
 10
196.1683977516296
 20
211.2378902597852
 30
0.0
 10
196.2173093236797
 20
211.1503160362151
 30
0.0
 11
195.2421158574572
 21
212.4531610698712
 31
0.0
 11
195.3379043458743
 21
212.3845299778602
 31
0.0
 11
195.528890035736
 21
212.2115550350585
 31
0.0
 11
195.7490100469908
 21
211.9198728940245
 31
0.0
 11
196.0689500486847
 21
211.4120139908722
 31
0.0
 11
196.2173093236797
 21
211.1503160362151
 31
0.0
  0
SPLINE
  5
4A0
330
1F
100
AcDbEntity
  8
0
  6
ByBlock
370
    40
100
AcDbSpline
210
0.0
220
0.0
230
1.0
 70
  1064
 71
     3
 72
    16
 73
    12
 74
    10
 42
0.000000001
 43
0.0000000001
 44
0.00001
 40
0.0
 40
0.0
 40
0.0
 40
0.0
 40
0.3382944212733243
 40
0.7452983086057467
 40
0.9770231958890274
 40
1.191998770143729
 40
1.353903543249605
 40
1.527108702595367
 40
1.652239811749769
 40
1.775548038538742
 40
1.857733682224892
 40
1.857733682224892
 40
1.857733682224892
 40
1.857733682224892
 10
195.461483321656
 20
211.1503160362151
 30
0.0
 10
195.401019652758
 20
211.2455358117171
 30
0.0
 10
195.2678210632469
 20
211.4553210750305
 30
0.0
 10
195.0772682096675
 20
211.7194292110244
 30
0.0
 10
194.9307131837733
 20
211.9643469694
 30
0.0
 10
194.8054328873645
 20
212.1227939653497
 30
0.0
 10
194.6969916662113
 20
212.2747652623862
 30
0.0
 10
194.5501631209021
 20
212.3395164362062
 30
0.0
 10
194.4106766944327
 20
212.3565978325463
 30
0.0
 10
194.3003965887587
 20
212.360260255396
 30
0.0
 10
194.2319067444715
 20
212.360354560615
 30
0.0
 10
194.2045147396952
 20
212.3603861409319
 30
0.0
 11
195.461483321656
 21
211.1503160362151
 31
0.0
 11
195.2775930753921
 21
211.4342576184124
 31
0.0
 11
195.0491412932515
 21
211.7710976766594
 31
0.0
 11
194.9237347032001
 21
211.9659529716803
 31
0.0
 11
194.7955866917578
 21
212.1385646391565
 31
0.0
 11
194.6896925715734
 21
212.2610443119108
 31
0.0
 11
194.5336465660443
 21
212.3362143597471
 31
0.0
 11
194.4099063301701
 21
212.3548252340463
 31
0.0
 11
194.2867036279073
 21
212.3599390328382
 31
0.0
 11
194.2045147396952
 21
212.3603861409319
 31
0.0
  0
LINE
  5
4A1
330
1F
100
AcDbEntity
  8
0
  6
ByBlock
370
    40
100
AcDbLine
 10
195.461483321656
 20
211.1503160362117
 30
0.0
 11
196.2173093236616
 21
211.1503160362117
 31
0.0
  0
LINE
  5
4A2
330
1F
100
AcDbEntity
  8
0
  6
ByBlock
370
    -3
100
AcDbLine
 10
92.73550888871659
 20
232.0390905639826
 30
0.0
 11
341.2106305266236
 21
232.0390905639826
 31
0.0
  0
LINE
  5
4A3
330
1F
100
AcDbEntity
  8
0
  6
ByBlock
370
    -3
100
AcDbLine
 10
215.5591587774134
 20
232.0390905639826
 30
0.0
 11
215.5591587774134
 21
184.1395560196313
 31
0.0
  0
MTEXT
  5
4A4
330
1F
100
AcDbEntity
  8
0
  6
ByBlock
370
    -3
100
AcDbMText
 10
230.2497667093979
 20
212.7252878684158
 30
0.0
 40
12.375
 41
143.2278001120339
 46
0.0
 71
     1
 72
     5
  1
KHU123-32
 73
     1
 44
1.0
1001
ACAD
1000
ACAD_MTEXT_COLUMN_INFO_BEGIN
1070
    75
1070
     2
1070
    79
1070
     0
1070
    76
1070
     1
1070
    78
1070
     0
1070
    48
1040
143.2278001120339
1070
    49
1040
12.5
1070
    50
1070
     1
1040
0.0
1000
ACAD_MTEXT_COLUMN_INFO_END
  0
LINE
  5
4A5
330
1F
100
AcDbEntity
  8
0
  6
ByBlock
370
    -3
100
AcDbLine
 10
92.73550888871659
 20
184.1395560196317
 30
0.0
 11
341.2106305266242
 21
184.1395560196317
 31
0.0
  0
LINE
  5
4A6
330
1F
100
AcDbEntity
  8
0
  6
ByBlock
370
    -3
100
AcDbLine
 10
92.73550888871659
 20
121.9547556533849
 30
0.0
 11
341.2106305266236
 21
121.9547556533849
 31
0.0
  0
MTEXT
  5
4A7
330
1F
100
AcDbEntity
  8
0
  6
ByBlock
370
    -3
100
AcDbMText
 10
108.0516286646426
 20
173.9661381246416
 30
0.0
 40
9.9
 41
219.9649646738635
 46
0.0
 71
     1
 72
     5
  1
32 inch Undermount 60/40 Double Bowl 16 gauge Stainless Steel Kitchen Sink 
 73
     1
 44
1.0
1001
ACAD
1000
ACAD_MTEXT_COLUMN_INFO_BEGIN
1070
    75
1070
     2
1070
    79
1070
     0
1070
    76
1070
     1
1070
    78
1070
     0
1070
    48
1040
219.9649646738635
1070
    49
1040
12.5
1070
    50
1070
     1
1040
0.0
1000
ACAD_MTEXT_COLUMN_INFO_END
  0
MTEXT
  5
4A8
330
1F
100
AcDbEntity
  8
0
  6
ByBlock
370
    -3
100
AcDbMText
 10
109.1333155256068
 20
109.5637854788346
 30
0.0
 40
10.725
 41
266.9781062566162
 46
0.0
 71
     1
 72
     5
  1
www.kraususa.com
 73
     1
 44
1.0
1001
ACAD
1000
ACAD_MTEXT_COLUMN_INFO_BEGIN
1070
    75
1070
     2
1070
    79
1070
     0
1070
    76
1070
     1
1070
    78
1070
     0
1070
    48
1040
266.9781062566162
1070
    49
1040
12.5
1070
    50
1070
     1
1040
0.0
1000
ACAD_MTEXT_COLUMN_INFO_END
  0
LINE
  5
4A9
330
1F
100
AcDbEntity
  8
0
  6
ByBlock
370
    -3
100
AcDbLine
 10
92.73550888871659
 20
88.2322882272822
 30
0.0
 11
341.2106305266236
 21
88.2322882272822
 31
0.0
  0
LINE
  5
4AA
330
1F
100
AcDbEntity
  8
0
  6
ByBlock
370
    -3
100
AcDbLine
 10
92.73550888871659
 20
232.0390905639826
 30
0.0
 11
92.73550888871659
 21
88.2322882272822
 31
0.0
  0
LINE
  5
4AB
330
1F
100
AcDbEntity
  8
0
  6
ByBlock
370
    -3
100
AcDbLine
 10
341.2106305266236
 20
232.0390905639826
 30
0.0
 11
341.2106305266236
 21
88.2322882272822
 31
0.0
  0
MTEXT
  5
4AC
330
1F
100
AcDbEntity
  8
note
  6
ByBlock
 62
     2
370
    -3
100
AcDbMText
 10
94.02717170953804
 20
279.6818886808214
 30
0.0
 40
13.6125
 41
161.4225667888031
 46
0.0
 71
     1
 72
     5
  1
Unit: mm
 73
     1
 44
1.0
1001
ACAD
1000
ACAD_MTEXT_COLUMN_INFO_BEGIN
1070
    75
1070
     2
1070
    79
1070
     0
1070
    76
1070
     1
1070
    78
1070
     0
1070
    48
1040
161.4225667888031
1070
    49
1040
12.5
1070
    50
1070
     1
1040
0.0
1000
ACAD_MTEXT_COLUMN_INFO_END
  0
LWPOLYLINE
  5
4AD
102
{ACAD_REACTORS
330
4BD
330
4C6
330
4CF
102
}
330
1F
100
AcDbEntity
  8
0
 48
5.0
370
     5
100
AcDbPolyline
 90
       12
 70
     1
 43
0.0
 10
466.3293515905648
 20
388.6794760921327
 10
466.3293515905357
 20
825.8794760921734
 42
-0.4142135623730951
 10
476.3293515905356
 20
835.8794760921735
 10
843.1872159706367
 20
835.8794760921735
 42
-0.1989123673796596
 10
850.2582837825023
 20
832.950543904039
 10
920.6004194062829
 20
762.6084082802393
 42
0.1989123673796596
 10
927.6714872181488
 20
759.6794760921036
 10
1218.329351590608
 20
759.6794760921036
 42
-0.4142135623730951
 10
1228.329351590608
 20
749.6794760921036
 10
1228.329351590579
 20
388.6794760920454
 42
-0.4142135623730951
 10
1218.329351590579
 20
378.6794760920454
 10
476.3293515905636
 20
378.6794760921288
 42
-0.4142135623730951
  0
LWPOLYLINE
  5
4AE
102
{ACAD_REACTORS
330
4BA
330
4C9
330
4CC
102
}
330
1F
100
AcDbEntity
  8
0
  6
New Line1
 62
    30
 48
4.0
370
     5
100
AcDbPolyline
 90
       12
 70
     1
 43
0.0
 10
469.5293515905645
 20
388.6794760921327
 10
469.5293515905355
 20
825.8794760921734
 42
-0.4142135623730951
 10
476.3293515905356
 20
832.6794760921734
 10
843.1872159706367
 20
832.6794760921737
 42
-0.1989123673796596
 10
847.9955420827055
 20
830.687802204242
 10
919.2749360066887
 20
759.4084082802389
 42
0.1989123673796596
 10
926.3460038185543
 20
756.4794760921038
 10
1218.329351590608
 20
756.4794760921038
 42
-0.4142135623730951
 10
1225.129351590608
 20
749.6794760921036
 10
1225.129351590579
 20
388.6794760920459
 42
-0.4142135623730951
 10
1218.329351590579
 20
381.8794760920455
 10
476.3293515905647
 20
381.8794760921326
 42
-0.4142135623730951
  0
LWPOLYLINE
  5
4AF
102
{ACAD_REACTORS
330
4B4
330
4C0
330
4C3
330
4D2
102
}
330
1F
100
AcDbEntity
  8
0
  6
New Line1
 62
     3
 48
7.0
370
     5
100
AcDbPolyline
 90
       12
 70
     1
 43
0.0
 10
456.7293515905644
 20
388.6794760921323
 10
456.7293515905353
 20
825.879476092173
 42
-0.4142135623730951
 10
476.3293515905356
 20
845.4794760921735
 10
843.1872159706367
 20
845.4794760921734
 42
-0.198912367379658
 10
857.0465088818933
 20
839.7387690034298
 10
924.5768696050658
 20
772.2084082802386
 42
0.198912367379658
 10
931.6479374169317
 20
769.2794760921035
 10
1218.329351590608
 20
769.2794760921035
 42
-0.4142135623730951
 10
1237.929351590608
 20
749.6794760921036
 10
1237.92935159058
 20
388.6794760920445
 42
-0.4142135623730951
 10
1218.329351590579
 20
369.0794760920455
 10
476.3293515905629
 20
369.0794760921288
 42
-0.4142135623730951
  0
MULTILEADER
  5
4B0
330
1F
100
AcDbEntity
  8
note
160
               452
310
C4010000170000000C00000016000000000000C00C00000033000000000000000C00000013000000993A00000C00000033000000000000000C00000010000000030000000C00000016000000020000C30C00000017000000050000000C00000012000000FF7F00000C00000013000000010000000C00000014000000010000
310
0054000000070000000300000092975F3978F87D40479664B497E08440000000000000000092975F3978587D409CEBB909EDED8440000000000000000092975F3978F87D40F1400F5F42FB844000000000000000000C00000013000000891300003C000000060000000200000092975F3978F87D409CEBB909EDED84400000
310
00000000000048E01ADA6E5C82409CEBB909EDED844000000000000000000C00000013000000112700003C000000060000000200000048E01ADA6E5C82409CEBB909EDED844000000000000000005FADCC839F0184409CEBB909EDED844000000000000000000C00000016000000020000C30C00000012000000FF7F00000C
310
00000017000000000000000C000000130000009A3A00000C00000016000000000000C00C00000012000000FF7F00000C00000017000000FDFFFFFF0C0000003300000000000000
370
    -3
100
AcDbMLeader
270
     2
300
CONTEXT_DATA{
 40
1.0
 10
640.202888106385
 20
669.7407412076022
 30
0.0
 41
4.0
140
10.0
145
2.0
174
     1
175
     1
176
     0
177
     0
290
     1
304

 11
0.0
 21
0.0
 31
1.0
340
11
 12
642.2028881063852
 22
671.7407412076022
 32
0.0
 13
1.0
 23
0.0
 33
0.0
 42
0.0
 43
0.0
 44
0.0
 45
1.0
170
     1
 90
-1073741824
171
     1
172
     5
 91
-1073741824
141
0.0
 92
        0
291
     0
292
     0
173
     0
293
     0
142
0.0
143
0.0
294
     0
295
     0
296
     0
110
469.5293515905442
120
669.7407412076022
130
0.0
111
1.0
121
0.0
131
0.0
112
0.0
122
1.0
132
0.0
297
     0
302
LEADER{
290
     1
291
     1
 10
587.5541269397444
 20
669.7407412076022
 30
0.0
 11
1.0
 21
0.0
 31
0.0
 90
        0
 40
52.64876116664061
304
LEADER_LINE{
 10
469.5293515905442
 20
669.7407412076022
 30
0.0
 91
        0
305
}
271
     0
303
}
272
     9
273
     9
301
}
340
2C7
 90
   279680
170
     1
 91
-1023410174
341
14
171
     5
290
     1
291
     1
 41
8.0
 42
10.0
172
     2
343
11
173
     1
 95
        1
174
     1
175
     0
 92
-1056964608
292
     0
 93
-1056964608
 10
1.0
 20
1.0
 30
1.0
 43
0.0
176
     0
293
     0
294
     0
178
     0
179
     1
 45
1.0
271
     0
272
     9
273
     9
  0
MULTILEADER
  5
4B1
330
1F
100
AcDbEntity
  8
note
160
               452
310
C4010000170000000C00000016000000000000C00C00000033000000000000000C00000013000000993A00000C00000033000000000000000C00000010000000030000000C00000016000000020000C30C00000017000000050000000C00000012000000FF7F00000C00000013000000010000000C00000014000000010000
310
0054000000070000000300000020642C0645C57D40F9148CDA76708740000000000000000020642C0645257D404E6AE12FCC7D8740000000000000000020642C0645C57D40A3BF3685218B874000000000000000000C00000013000000891300003C000000060000000200000020642C0645C57D404E6AE12FCC7D87400000
310
00000000000090468140D54282404E6AE12FCC7D874000000000000000000C00000013000000112700003C000000060000000200000090468140D54282404E6AE12FCC7D87400000000000000000803AD5E862BE82404E6AE12FCC7D874000000000000000000C00000016000000020000C30C00000012000000FF7F00000C
310
00000017000000000000000C000000130000009A3A00000C00000016000000000000C00C00000012000000FF7F00000C00000017000000FDFFFFFF0C0000003300000000000000
370
    -3
100
AcDbMLeader
270
     2
300
CONTEXT_DATA{
 40
1.0
 10
599.7982956560591
 20
751.7247006998602
 30
0.0
 41
4.0
140
10.0
145
2.0
174
     1
175
     1
176
     0
177
     0
290
     1
304

 11
0.0
 21
0.0
 31
1.0
340
11
 12
601.798295656059
 22
753.7247006998602
 32
0.0
 13
1.0
 23
0.0
 33
0.0
 42
0.0
 43
0.0
 44
0.0
 45
1.0
170
     1
 90
-1073741824
171
     1
172
     5
 91
-1073741824
141
0.0
 92
        0
291
     0
292
     0
173
     0
293
     0
142
0.0
143
0.0
294
     0
295
     0
296
     0
110
466.3293515905406
120
751.7247006998602
130
0.0
111
1.0
121
0.0
131
0.0
112
0.0
122
1.0
132
0.0
297
     0
302
LEADER{
290
     1
291
     1
 10
584.354126939741
 20
751.7247006998602
 30
0.0
 11
1.0
 21
0.0
 31
0.0
 90
        0
 40
15.44416871631802
304
LEADER_LINE{
 10
466.3293515905406
 20
751.7247006998602
 30
0.0
 91
        0
305
}
271
     0
303
}
272
     9
273
     9
301
}
340
2C7
 90
   279680
170
     1
 91
-1023410174
341
14
171
     5
290
     1
291
     1
 41
8.0
 42
10.0
172
     2
343
11
173
     1
 95
        1
174
     1
175
     0
 92
-1056964608
292
     0
 93
-1056964608
 10
1.0
 20
1.0
 30
1.0
 43
0.0
176
     0
293
     0
294
     0
178
     0
179
     1
 45
1.0
271
     0
272
     9
273
     9
  0
MULTILEADER
  5
4B2
102
{ACAD_XDICTIONARY
360
4B3
102
}
102
{ACAD_REACTORS
330
4B4
102
}
330
1F
100
AcDbEntity
  8
note
160
               452
310
C4010000170000000C00000016000000000000C00C00000033000000000000000C00000013000000993A00000C00000033000000000000000C00000010000000030000000C00000016000000020000C30C00000017000000050000000C00000012000000FF7F00000C00000013000000010000000C00000014000000010000
310
00540000000700000003000000F98A6B4C66AB8440CBB88FF7D5BB8A400000000000000000A43516F7109E8440CBB88FF7D56B8A4000000000000000004FE0C0A1BB908440CBB88FF7D5BB8A4000000000000000000C00000013000000891300003C0000000600000002000000A43516F7109E8440CBB88FF7D5BB8A400000
310
000000000000A43516F7109E84405C72C766098A8B4000000000000000000C00000013000000112700003C0000000600000002000000A43516F7109E84405C72C766098A8B4000000000000000009CF695F1D2F080405C72C766098A8B4000000000000000000C00000016000000020000C30C00000012000000FF7F00000C
310
00000017000000000000000C000000130000009A3A00000C00000016000000000000C00C00000012000000FF7F00000C00000017000000FDFFFFFF0C0000003300000000000000
370
    -3
100
AcDbMLeader
270
     2
300
CONTEXT_DATA{
 40
1.0
 10
538.1029998508343
 20
881.2545905668043
 30
0.0
 41
4.0
140
10.0
145
2.0
174
     1
175
     1
176
     2
177
     0
290
     1
304

 11
0.0
 21
0.0
 31
1.0
340
11
 12
540.1029998508342
 22
883.2545905668043
 32
0.0
 13
1.0
 23
0.0
 33
0.0
 42
0.0
 43
0.0
 44
0.0
 45
1.0
170
     1
 90
-1073741824
171
     3
172
     5
 91
-1073741824
141
0.0
 92
        0
291
     0
292
     0
173
     0
293
     0
142
0.0
143
0.0
294
     0
295
     0
296
     0
110
659.7582837805862
120
845.4794760921734
130
0.0
111
1.0
121
0.0
131
0.0
112
0.0
122
1.0
132
0.0
297
     0
302
LEADER{
290
     1
291
     1
 10
659.7582837805862
 20
881.2545905668043
 30
0.0
 11
-1.0
 21
0.0
 31
0.0
 90
        0
 40
117.6552839297519
304
LEADER_LINE{
 10
659.7582837805862
 20
845.4794760921735
 30
0.0
 91
        0
305
}
271
     0
303
}
272
     9
273
     9
301
}
340
2C7
 90
   279680
170
     1
 91
-1023410174
341
14
171
     5
290
     1
291
     1
 41
8.0
 42
10.0
172
     2
343
11
173
     1
 95
        1
174
     1
175
     2
 92
-1056964608
292
     0
 93
-1056964608
 10
1.0
 20
1.0
 30
1.0
 43
0.0
176
     0
293
     0
294
     0
178
     0
179
     3
 45
1.0
271
     0
272
     9
273
     9
  0
MTEXT
  5
4B5
330
1F
100
AcDbEntity
  8
note
 62
     2
370
    -3
100
AcDbMText
 10
541.8720137274108
 20
899.3047396525467
 30
0.0
 40
10.0
 41
201.1158221863448
 46
0.0
 71
     1
 72
     5
  1
\A1;3/8" Positive Reveal
 73
     1
 44
1.0
1001
ACAD
1000
ACAD_MTEXT_COLUMN_INFO_BEGIN
1070
    75
1070
     2
1070
    79
1070
     0
1070
    76
1070
     1
1070
    78
1070
     0
1070
    48
1040
201.1158221863448
1070
    49
1040
12.5
1070
    50
1070
     1
1040
30.41614051781163
1000
ACAD_MTEXT_COLUMN_INFO_END
  0
MTEXT
  5
4B6
330
1F
100
AcDbEntity
  8
note
 62
     2
370
    -3
100
AcDbMText
 10
525.0023290660815
 20
769.0102962209161
 30
0.0
 40
10.0
 41
201.1158221863448
 46
0.0
 71
     1
 72
     5
  1
\A1;Zero Reveal
 73
     1
 44
1.0
1001
ACAD
1000
ACAD_MTEXT_COLUMN_INFO_BEGIN
1070
    75
1070
     2
1070
    79
1070
     0
1070
    76
1070
     1
1070
    78
1070
     0
1070
    48
1040
201.1158221863448
1070
    49
1040
12.5
1070
    50
1070
     1
1040
30.41614051781163
1000
ACAD_MTEXT_COLUMN_INFO_END
  0
MTEXT
  5
4B7
330
1F
100
AcDbEntity
  8
note
 62
     2
370
    -3
100
AcDbMText
 10
508.3471548059196
 20
689.1287462800443
 30
0.0
 40
10.0
 41
201.1158221863448
 46
0.0
 71
     1
 72
     5
  1
\A1;1/8" Negative Reveal
 73
     1
 44
1.0
1001
ACAD
1000
ACAD_MTEXT_COLUMN_INFO_BEGIN
1070
    75
1070
     2
1070
    79
1070
     0
1070
    76
1070
     1
1070
    78
1070
     0
1070
    48
1040
201.1158221863448
1070
    49
1040
12.5
1070
    50
1070
     1
1040
30.41614051781163
1000
ACAD_MTEXT_COLUMN_INFO_END
  0
DIMENSION
  5
4B8
102
{ACAD_XDICTIONARY
360
4B9
102
}
102
{ACAD_REACTORS
330
4BA
102
}
330
1F
100
AcDbEntity
  8
dimensions
 62
     6
370
    -3
100
AcDbDimension
280
     0
  2
*D10
 10
1225.129351590579
 20
321.2353701659858
 30
0.0
 11
847.3293515905719
 21
321.2353701659858
 31
0.0
 70
    32
 71
     5
 42
755.6000000000149
 73
     0
 74
     0
 75
     0
  3
dimensions
100
AcDbAlignedDimension
 13
469.5293515905645
 23
388.6794760921327
 33
0.0
 14
1225.129351590579
 24
388.6794760920724
 34
0.0
100
AcDbRotatedDimension
  0
DIMENSION
  5
4BB
102
{ACAD_XDICTIONARY
360
4BC
102
}
102
{ACAD_REACTORS
330
4BD
102
}
330
1F
100
AcDbEntity
  8
dimensions
 62
     6
370
    -3
100
AcDbDimension
280
     0
  2
*D11
 10
1228.329351590579
 20
276.1698416948442
 30
0.0
 11
847.3293515905719
 21
276.1698416948442
 31
0.0
 70
    32
 71
     5
 42
762.0000000000145
 73
     0
 74
     0
 75
     0
  3
dimensions
100
AcDbAlignedDimension
 13
466.3293515905648
 23
388.6794760921295
 33
0.0
 14
1228.329351590579
 24
388.6794760920444
 34
0.0
100
AcDbRotatedDimension
  0
DIMENSION
  5
4BE
102
{ACAD_XDICTIONARY
360
4BF
102
}
102
{ACAD_REACTORS
330
4C0
102
}
330
1F
100
AcDbEntity
  8
dimensions
 62
     6
370
    -3
100
AcDbDimension
280
     0
  2
*D12
 10
1237.92935159058
 20
230.1121142195877
 30
0.0
 11
847.3293515905719
 21
230.1121142195877
 31
0.0
 70
    32
 71
     5
 42
781.2000000000153
 73
     0
 74
     0
 75
     0
  3
dimensions
100
AcDbAlignedDimension
 13
456.7293515905644
 23
388.6794760921285
 33
0.0
 14
1237.92935159058
 24
388.6794760920665
 34
0.0
100
AcDbRotatedDimension
  0
DIMENSION
  5
4C1
102
{ACAD_XDICTIONARY
360
4C2
102
}
102
{ACAD_REACTORS
330
4C3
102
}
330
1F
100
AcDbEntity
  8
dimensions
 62
     6
370
    -3
100
AcDbDimension
280
     0
  2
*D13
 10
206.0379880797679
 20
845.4794760921737
 30
0.0
 11
206.0379880797677
 21
607.2794760921513
 31
0.0
 70
   160
 71
     5
 42
476.4000000000448
 73
     0
 74
     0
 75
     0
  3
dimensions
100
AcDbAlignedDimension
 13
476.3293515905629
 23
369.0794760921288
 33
0.0
 14
476.3293515905631
 24
845.4794760921735
 34
0.0
 50
90.0
100
AcDbRotatedDimension
  0
DIMENSION
  5
4C4
102
{ACAD_XDICTIONARY
360
4C5
102
}
102
{ACAD_REACTORS
330
4C6
102
}
330
1F
100
AcDbEntity
  8
dimensions
 62
     6
370
    -3
100
AcDbDimension
280
     0
  2
*D14
 10
293.4028965450116
 20
378.6794760921288
 30
0.0
 11
293.4028965450116
 21
607.2794760921513
 31
0.0
 70
   160
 71
     5
 42
457.2000000000447
 73
     0
 74
     0
 75
     0
  3
dimensions
100
AcDbAlignedDimension
 13
476.3293515905356
 23
835.8794760921735
 33
0.0
 14
476.3293515905669
 24
378.6794760921288
 34
0.0
 50
90.0
100
AcDbRotatedDimension
  0
DIMENSION
  5
4C7
102
{ACAD_XDICTIONARY
360
4C8
102
}
102
{ACAD_REACTORS
330
4C9
102
}
330
1F
100
AcDbEntity
  8
dimensions
 62
     6
370
    -3
100
AcDbDimension
280
     0
  2
*D15
 10
381.1408110512316
 20
381.8794760921326
 30
0.0
 11
381.1408110512316
 21
607.2794760921531
 31
0.0
 70
    32
 71
     5
 42
450.8000000000408
 73
     0
 74
     0
 75
     0
  3
dimensions
100
AcDbAlignedDimension
 13
476.3293515905356
 23
832.6794760921734
 33
0.0
 14
476.3293515905647
 24
381.8794760921326
 34
0.0
 50
90.0
100
AcDbRotatedDimension
  0
DIMENSION
  5
4CA
102
{ACAD_XDICTIONARY
360
4CB
102
}
102
{ACAD_REACTORS
330
4CC
102
}
330
1F
100
AcDbEntity
  8
dimensions
 62
     6
370
    -3
100
AcDbDimension
280
     0
  2
*D16
 10
1308.269896156292
 20
756.4794760921037
 30
0.0
 11
1308.269896156292
 21
569.1794760920747
 31
0.0
 70
    32
 71
     5
 42
374.6000000000583
 73
     0
 74
     0
 75
     0
  3
dimensions
100
AcDbAlignedDimension
 13
1218.329351590579
 23
381.8794760920455
 33
0.0
 14
1218.329351590579
 24
756.4794760921038
 34
0.0
 50
90.0
100
AcDbRotatedDimension
  0
DIMENSION
  5
4CD
102
{ACAD_XDICTIONARY
360
4CE
102
}
102
{ACAD_REACTORS
330
4CF
102
}
330
1F
100
AcDbEntity
  8
dimensions
 62
     6
370
    -3
100
AcDbDimension
280
     0
  2
*D17
 10
1385.876553605334
 20
378.6794760920454
 30
0.0
 11
1385.876553605334
 21
569.1794760920746
 31
0.0
 70
    32
 71
     5
 42
381.0000000000581
 73
     0
 74
     0
 75
     0
  3
dimensions
100
AcDbAlignedDimension
 13
1218.329351590608
 23
759.6794760921036
 33
0.0
 14
1218.329351590565
 24
378.6794760920454
 34
0.0
 50
90.0
100
AcDbRotatedDimension
  0
DIMENSION
  5
4D0
102
{ACAD_XDICTIONARY
360
4D1
102
}
102
{ACAD_REACTORS
330
4D2
102
}
330
1F
100
AcDbEntity
  8
dimensions
 62
     6
370
    -3
100
AcDbDimension
280
     0
  2
*D18
 10
1460.910888735575
 20
769.2794760921034
 30
0.0
 11
1460.910888735575
 21
569.1794760920746
 31
0.0
 70
    32
 71
     5
 42
400.2000000000579
 73
     0
 74
     0
 75
     0
  3
dimensions
100
AcDbAlignedDimension
 13
1218.329351590579
 23
369.0794760920455
 33
0.0
 14
1218.32935159061
 24
769.2794760921035
 34
0.0
 50
90.0
100
AcDbRotatedDimension
  0
LINE
  5
4D3
330
1F
100
AcDbEntity
  8
0
370
     5
100
AcDbLine
 10
1714.316952004582
 20
351.2352610550797
 30
0.0
 11
1710.186729073416
 21
430.044609152234
 31
0.0
  0
LINE
  5
4D4
330
1F
100
AcDbEntity
  8
0
370
     5
100
AcDbLine
 10
1712.419022871409
 20
349.2352610550797
 30
0.0
 11
1708.288799940242
 21
428.0446091522341
 31
0.0
  0
LINE
  5
4D5
330
1F
100
AcDbEntity
  8
0
370
     5
100
AcDbLine
 10
1765.427237864331
 20
346.8257276778599
 30
0.0
 11
1765.427237864331
 21
348.8257276778627
 31
0.0
  0
ARC
  5
4D6
330
1F
100
AcDbEntity
  8
0
370
     5
100
AcDbCircle
 10
2103.092499456201
 20
570.879653719428
 30
0.0
 40
407.7454318089715
100
AcDbArc
 50
212.5938397801198
 51
212.9966235360785
  0
ARC
  5
4D7
330
1F
100
AcDbEntity
  8
0
370
     5
100
AcDbCircle
 10
2103.092499456201
 20
570.879653719428
 30
0.0
 40
409.7454318089716
100
AcDbArc
 50
212.7471028189234
 51
213.1486111216679
  0
LINE
  5
4D8
330
1F
100
AcDbEntity
  8
0
370
     5
100
AcDbLine
 10
1714.316952004582
 20
351.2352610550797
 30
0.0
 11
1759.562765761729
 21
351.2352610550797
 31
0.0
  0
LINE
  5
4D9
330
1F
100
AcDbEntity
  8
0
370
     5
100
AcDbLine
 10
1712.419022871409
 20
349.2352610550797
 30
0.0
 11
1758.469397954324
 21
349.2352610550797
 31
0.0
  0
LINE
  5
4DA
330
1F
100
AcDbEntity
  8
0
370
     5
100
AcDbLine
 10
1761.115320260556
 20
348.8257276778599
 30
0.0
 11
1791.499627960714
 21
348.8257276778599
 31
0.0
  0
LINE
  5
4DB
330
1F
100
AcDbEntity
  8
0
370
     5
100
AcDbLine
 10
1760.031051441884
 20
346.8257276778599
 30
0.0
 11
1792.583896779386
 21
346.8257276778599
 31
0.0
  0
HATCH
  5
4DC
330
1F
100
AcDbEntity
  8
0
 62
     2
370
    -3
100
AcDbHatch
 10
0.0
 20
0.0
 30
0.0
210
0.0
220
0.0
230
1.0
  2
ANSI31
 70
     0
 71
     1
 91
        2
 92
        7
 72
     1
 73
     1
 93
        5
 10
1658.704523146172
 20
440.2523485264833
 42
0.0
 10
1658.704523146172
 20
430.0446091522359
 42
0.0
 10
1710.186729073416
 20
430.044609152234
 42
0.0
 10
1710.186729073416
 20
437.2523485264806
 42
0.4142135623730788
 10
1707.186729073416
 20
440.2523485264805
 42
0.0
 97
        5
330
4E1
330
4E0
330
4DD
330
4DF
330
4DE
 92
        7
 72
     1
 73
     1
 93
        6
 10
1859.573044081574
 20
430.044609152234
 42
0.0
 10
1893.910425075097
 20
430.0446091522359
 42
0.0
 10
1893.910425075097
 20
440.2523485264833
 42
0.0
 10
1845.428219147853
 20
440.2523485264805
 42
0.4142135623730784
 10
1842.428219147853
 20
437.2523485264805
 42
0.0
 10
1842.428219147853
 20
430.044609152234
 42
0.0
 97
        6
330
4EC
330
4ED
330
4EA
330
4EE
330
4EB
330
4E9
 75
     1
 76
     1
 52
0.0
 41
1.0
 77
     0
 78
     1
 53
45.0
 43
39.89389298485276
 44
44.30468969169533
 45
-2.245064030267287
 46
2.245064030267288
 79
     0
 47
0.3964580164686978
 98
        2
 10
1696.892694779451
 20
436.6432186700722
 10
1855.584816316443
 20
433.8680136727955
1001
GradientColor1ACI
1070
     5
1001
GradientColor2ACI
1070
     2
1001
ACAD
1010
0.0
1020
0.0
1030
0.0
  0
LINE
  5
4DD
102
{ACAD_REACTORS
330
4DC
102
}
330
1F
100
AcDbEntity
  8
0
370
     5
100
AcDbLine
 10
1658.704523146172
 20
440.2523485264833
 30
0.0
 11
1658.704523146172
 21
430.0446091522359
 31
0.0
  0
LINE
  5
4DE
102
{ACAD_REACTORS
330
4DC
102
}
330
1F
100
AcDbEntity
  8
0
370
     5
100
AcDbLine
 10
1710.186729073416
 20
430.044609152234
 30
0.0
 11
1710.186729073416
 21
437.2523485264805
 31
0.0
  0
LINE
  5
4DF
102
{ACAD_REACTORS
330
4DC
102
}
330
1F
100
AcDbEntity
  8
0
370
     5
100
AcDbLine
 10
1658.704523146172
 20
430.0446091522359
 30
0.0
 11
1710.186729073416
 21
430.044609152234
 31
0.0
  0
LINE
  5
4E0
102
{ACAD_REACTORS
330
4DC
102
}
330
1F
100
AcDbEntity
  8
0
370
     5
100
AcDbLine
 10
1707.186729073416
 20
440.2523485264805
 30
0.0
 11
1658.704523146172
 21
440.2523485264833
 31
0.0
  0
ARC
  5
4E1
102
{ACAD_REACTORS
330
4DC
102
}
330
1F
100
AcDbEntity
  8
0
370
     5
100
AcDbCircle
 10
1707.186729073416
 20
437.2523485264805
 30
0.0
 40
3.0
100
AcDbArc
 50
0.0
 51
89.99999999999349
  0
LINE
  5
4E2
330
1F
100
AcDbEntity
  8
0
370
     5
100
AcDbLine
 10
1693.041904139695
 20
430.044609152234
 30
0.0
 11
1710.186729073416
 21
430.044609152234
 31
0.0
  0
LINE
  5
4E3
330
1F
100
AcDbEntity
  8
0
370
     5
100
AcDbLine
 10
1693.041904139695
 20
428.0446091522341
 30
0.0
 11
1708.288799940242
 21
428.0446091522341
 31
0.0
  0
LINE
  5
4E4
330
1F
100
AcDbEntity
  8
0
370
    -3
100
AcDbLine
 10
1693.041904139695
 20
428.0446091522341
 30
0.0
 11
1693.041904139695
 21
430.044609152234
 31
0.0
  0
LINE
  5
4E5
330
1F
100
AcDbEntity
  8
0
370
     5
100
AcDbLine
 10
1838.297996216687
 20
351.2352610550797
 30
0.0
 11
1842.428219147853
 21
430.044609152234
 31
0.0
  0
LINE
  5
4E6
330
1F
100
AcDbEntity
  8
0
370
     5
100
AcDbLine
 10
1840.195925349861
 20
349.2352610550797
 30
0.0
 11
1844.326148281027
 21
428.0446091522341
 31
0.0
  0
LINE
  5
4E7
330
1F
100
AcDbEntity
  8
0
370
     5
100
AcDbLine
 10
1838.297996216687
 20
351.2352610550797
 30
0.0
 11
1793.05218245954
 21
351.2352610550797
 31
0.0
  0
LINE
  5
4E8
330
1F
100
AcDbEntity
  8
0
370
     5
100
AcDbLine
 10
1840.195925349861
 20
349.2352610550797
 30
0.0
 11
1794.145550266945
 21
349.2352610550797
 31
0.0
  0
LINE
  5
4E9
102
{ACAD_REACTORS
330
4DC
102
}
330
1F
100
AcDbEntity
  8
0
370
     5
100
AcDbLine
 10
1893.910425075097
 20
440.2523485264833
 30
0.0
 11
1893.910425075097
 21
430.0446091522359
 31
0.0
  0
LINE
  5
4EA
102
{ACAD_REACTORS
330
4DC
102
}
330
1F
100
AcDbEntity
  8
0
370
     5
100
AcDbLine
 10
1842.428219147853
 20
430.044609152234
 30
0.0
 11
1842.428219147853
 21
437.2523485264805
 31
0.0
  0
LINE
  5
4EB
102
{ACAD_REACTORS
330
4DC
102
}
330
1F
100
AcDbEntity
  8
0
370
     5
100
AcDbLine
 10
1893.910425075097
 20
430.0446091522359
 30
0.0
 11
1842.428219147853
 21
430.044609152234
 31
0.0
  0
LINE
  5
4EC
102
{ACAD_REACTORS
330
4DC
102
}
330
1F
100
AcDbEntity
  8
0
370
     5
100
AcDbLine
 10
1845.428219147853
 20
440.2523485264805
 30
0.0
 11
1893.910425075097
 21
440.2523485264833
 31
0.0
  0
ARC
  5
4ED
102
{ACAD_REACTORS
330
4DC
102
}
330
1F
100
AcDbEntity
  8
0
370
     5
100
AcDbCircle
 10
1845.428219147853
 20
437.2523485264805
 30
0.0
 40
3.0
100
AcDbArc
 50
90.0
 51
180.0
  0
LINE
  5
4EE
102
{ACAD_REACTORS
330
4DC
102
}
330
1F
100
AcDbEntity
  8
0
370
     5
100
AcDbLine
 10
1859.573044081574
 20
430.044609152234
 30
0.0
 11
1842.428219147853
 21
430.044609152234
 31
0.0
  0
LINE
  5
4EF
330
1F
100
AcDbEntity
  8
0
370
     5
100
AcDbLine
 10
1859.573044081574
 20
428.0446091522341
 30
0.0
 11
1844.326148281027
 21
428.0446091522341
 31
0.0
  0
LINE
  5
4F0
330
1F
100
AcDbEntity
  8
0
370
    -3
100
AcDbLine
 10
1859.573044081574
 20
428.0446091522341
 30
0.0
 11
1859.573044081574
 21
430.044609152234
 31
0.0
  0
LINE
  5
4F1
330
1F
100
AcDbEntity
  8
0
370
     5
100
AcDbLine
 10
1787.187710356938
 20
346.8257276778599
 30
0.0
 11
1787.187710356938
 21
348.8257276778627
 31
0.0
  0
ARC
  5
4F2
330
1F
100
AcDbEntity
  8
0
370
     5
100
AcDbCircle
 10
1449.522448765069
 20
570.879653719428
 30
0.0
 40
407.7454318089715
100
AcDbArc
 50
327.0033764639233
 51
327.4061602198777
  0
ARC
  5
4F3
330
1F
100
AcDbEntity
  8
0
370
     5
100
AcDbCircle
 10
1449.522448765069
 20
570.879653719428
 30
0.0
 40
409.7454318089716
100
AcDbArc
 50
326.8513888783321
 51
327.252897181081
  0
LINE
  5
4F4
330
1F
100
AcDbEntity
  8
0
370
     5
100
AcDbLine
 10
1714.953403718649
 20
555.9781236669355
 30
0.0
 11
1710.823180787484
 21
634.7874717640898
 31
0.0
  0
LINE
  5
4F5
330
1F
100
AcDbEntity
  8
0
370
     5
100
AcDbLine
 10
1713.055474585476
 20
553.9781236669354
 30
0.0
 11
1708.92525165431
 21
632.7874717640899
 31
0.0
  0
LINE
  5
4F6
330
1F
100
AcDbEntity
  8
0
370
     5
100
AcDbLine
 10
1766.063689578398
 20
551.5685902897157
 30
0.0
 11
1766.063689578398
 21
553.5685902897184
 31
0.0
  0
ARC
  5
4F7
330
1F
100
AcDbEntity
  8
0
370
     5
100
AcDbCircle
 10
2103.728951170269
 20
775.6225163312838
 30
0.0
 40
407.7454318089715
100
AcDbArc
 50
212.5938397801198
 51
212.9966235360785
  0
ARC
  5
4F8
330
1F
100
AcDbEntity
  8
0
370
     5
100
AcDbCircle
 10
2103.728951170269
 20
775.6225163312838
 30
0.0
 40
409.7454318089716
100
AcDbArc
 50
212.7471028189234
 51
213.1486111216679
  0
LINE
  5
4F9
330
1F
100
AcDbEntity
  8
0
370
     5
100
AcDbLine
 10
1714.953403718649
 20
555.9781236669355
 30
0.0
 11
1760.199217475797
 21
555.9781236669355
 31
0.0
  0
LINE
  5
4FA
330
1F
100
AcDbEntity
  8
0
370
     5
100
AcDbLine
 10
1713.055474585476
 20
553.9781236669354
 30
0.0
 11
1759.105849668392
 21
553.9781236669354
 31
0.0
  0
LINE
  5
4FB
330
1F
100
AcDbEntity
  8
0
370
     5
100
AcDbLine
 10
1761.751771974623
 20
553.5685902897157
 30
0.0
 11
1792.136079674781
 21
553.5685902897157
 31
0.0
  0
LINE
  5
4FC
330
1F
100
AcDbEntity
  8
0
370
     5
100
AcDbLine
 10
1760.667503155951
 20
551.5685902897157
 30
0.0
 11
1793.220348493453
 21
551.5685902897157
 31
0.0
  0
HATCH
  5
4FD
330
1F
100
AcDbEntity
  8
0
 62
     2
370
    -3
100
AcDbHatch
 10
0.0
 20
0.0
 30
0.0
210
0.0
220
0.0
230
1.0
  2
ANSI31
 70
     0
 71
     1
 91
        2
 92
        7
 72
     1
 73
     1
 93
        5
 10
1652.850783110803
 20
644.9952111383391
 42
0.0
 10
1652.850783110803
 20
634.7874717640917
 42
0.0
 10
1704.332989038047
 20
634.7874717640898
 42
0.0
 10
1704.332989038047
 20
641.9952111383363
 42
0.4142135623730788
 10
1701.332989038047
 20
644.9952111383363
 42
0.0
 97
        5
330
502
330
4FE
330
501
330
4FF
330
500
 92
        7
 72
     1
 73
     1
 93
        5
 10
1852.554862611357
 20
644.9952111383363
 42
0.4142135623730784
 10
1849.554862611357
 20
641.9952111383363
 42
0.0
 10
1849.554862611357
 20
634.7874717640898
 42
0.0
 10
1901.037068538601
 20
634.7874717640917
 42
0.0
 10
1901.037068538601
 20
644.9952111383391
 42
0.0
 97
        5
330
513
330
514
330
511
330
512
330
510
 75
     1
 76
     1
 52
0.0
 41
1.0
 77
     0
 78
     1
 53
45.0
 43
39.89389298485276
 44
44.30468969169533
 45
-2.245064030267287
 46
2.245064030267288
 79
     0
 47
0.2478031236227961
 98
        2
 10
1691.353030938197
 20
641.7489286338552
 10
1857.743126010046
 20
641.7489286338552
1001
GradientColor1ACI
1070
     5
1001
GradientColor2ACI
1070
     2
1001
ACAD
1010
0.0
1020
0.0
1030
0.0
  0
LINE
  5
4FE
102
{ACAD_REACTORS
330
4FD
102
}
330
1F
100
AcDbEntity
  8
0
370
     5
100
AcDbLine
 10
1652.850783110803
 20
644.9952111383391
 30
0.0
 11
1652.850783110803
 21
634.7874717640917
 31
0.0
  0
LINE
  5
4FF
102
{ACAD_REACTORS
330
4FD
102
}
330
1F
100
AcDbEntity
  8
0
370
     5
100
AcDbLine
 10
1704.332989038047
 20
634.7874717640898
 30
0.0
 11
1704.332989038047
 21
641.9952111383363
 31
0.0
  0
ARC
  5
500
102
{ACAD_REACTORS
330
4FD
102
}
330
1F
100
AcDbEntity
  8
0
370
     5
100
AcDbCircle
 10
1701.332989038047
 20
641.9952111383363
 30
0.0
 40
3.0
100
AcDbArc
 50
0.0
 51
89.99999999999349
  0
LINE
  5
501
102
{ACAD_REACTORS
330
4FD
102
}
330
1F
100
AcDbEntity
  8
0
370
     5
100
AcDbLine
 10
1652.850783110803
 20
634.7874717640917
 30
0.0
 11
1704.332989038047
 21
634.7874717640898
 31
0.0
  0
LINE
  5
502
102
{ACAD_REACTORS
330
4FD
102
}
330
1F
100
AcDbEntity
  8
0
370
     5
100
AcDbLine
 10
1701.332989038047
 20
644.9952111383363
 30
0.0
 11
1652.850783110803
 21
644.9952111383391
 31
0.0
  0
LINE
  5
503
330
1F
100
AcDbEntity
  8
0
370
     5
100
AcDbLine
 10
1693.678355853762
 20
634.7874717640898
 30
0.0
 11
1710.823180787484
 21
634.7874717640898
 31
0.0
  0
LINE
  5
504
330
1F
100
AcDbEntity
  8
0
370
     5
100
AcDbLine
 10
1693.678355853762
 20
632.7874717640899
 30
0.0
 11
1708.92525165431
 21
632.7874717640899
 31
0.0
  0
LINE
  5
505
330
1F
100
AcDbEntity
  8
0
370
    -3
100
AcDbLine
 10
1693.678355853762
 20
632.7874717640899
 30
0.0
 11
1693.678355853762
 21
634.7874717640898
 31
0.0
  0
LINE
  5
506
330
1F
100
AcDbEntity
  8
0
370
     5
100
AcDbLine
 10
1838.934447930754
 20
555.9781236669355
 30
0.0
 11
1843.06467086192
 21
634.7874717640898
 31
0.0
  0
LINE
  5
507
330
1F
100
AcDbEntity
  8
0
370
     5
100
AcDbLine
 10
1840.832377063928
 20
553.9781236669354
 30
0.0
 11
1844.962599995094
 21
632.7874717640899
 31
0.0
  0
LINE
  5
508
330
1F
100
AcDbEntity
  8
0
370
     5
100
AcDbLine
 10
1838.934447930754
 20
555.9781236669355
 30
0.0
 11
1793.688634173607
 21
555.9781236669355
 31
0.0
  0
LINE
  5
509
330
1F
100
AcDbEntity
  8
0
370
     5
100
AcDbLine
 10
1840.832377063928
 20
553.9781236669354
 30
0.0
 11
1794.782001981013
 21
553.9781236669354
 31
0.0
  0
LINE
  5
50A
330
1F
100
AcDbEntity
  8
0
370
     5
100
AcDbLine
 10
1860.209495795641
 20
634.7874717640898
 30
0.0
 11
1843.06467086192
 21
634.7874717640898
 31
0.0
  0
LINE
  5
50B
330
1F
100
AcDbEntity
  8
0
370
     5
100
AcDbLine
 10
1860.209495795641
 20
632.7874717640899
 30
0.0
 11
1844.962599995094
 21
632.7874717640899
 31
0.0
  0
LINE
  5
50C
330
1F
100
AcDbEntity
  8
0
370
    -3
100
AcDbLine
 10
1860.209495795641
 20
632.7874717640899
 30
0.0
 11
1860.209495795641
 21
634.7874717640898
 31
0.0
  0
LINE
  5
50D
330
1F
100
AcDbEntity
  8
0
370
     5
100
AcDbLine
 10
1787.824162071006
 20
551.5685902897157
 30
0.0
 11
1787.824162071006
 21
553.5685902897184
 31
0.0
  0
ARC
  5
50E
330
1F
100
AcDbEntity
  8
0
370
     5
100
AcDbCircle
 10
1450.158900479136
 20
775.6225163312838
 30
0.0
 40
407.7454318089715
100
AcDbArc
 50
327.0033764639233
 51
327.4061602198777
  0
ARC
  5
50F
330
1F
100
AcDbEntity
  8
0
370
     5
100
AcDbCircle
 10
1450.158900479136
 20
775.6225163312838
 30
0.0
 40
409.7454318089716
100
AcDbArc
 50
326.8513888783321
 51
327.252897181081
  0
LINE
  5
510
102
{ACAD_REACTORS
330
4FD
102
}
330
1F
100
AcDbEntity
  8
0
370
     5
100
AcDbLine
 10
1901.037068538601
 20
644.9952111383391
 30
0.0
 11
1901.037068538601
 21
634.7874717640917
 31
0.0
  0
LINE
  5
511
102
{ACAD_REACTORS
330
4FD
102
}
330
1F
100
AcDbEntity
  8
0
370
     5
100
AcDbLine
 10
1849.554862611357
 20
634.7874717640898
 30
0.0
 11
1849.554862611357
 21
641.9952111383363
 31
0.0
  0
LINE
  5
512
102
{ACAD_REACTORS
330
4FD
102
}
330
1F
100
AcDbEntity
  8
0
370
     5
100
AcDbLine
 10
1901.037068538601
 20
634.7874717640917
 30
0.0
 11
1849.554862611357
 21
634.7874717640898
 31
0.0
  0
LINE
  5
513
102
{ACAD_REACTORS
330
4FD
102
}
330
1F
100
AcDbEntity
  8
0
370
     5
100
AcDbLine
 10
1852.554862611357
 20
644.9952111383363
 30
0.0
 11
1901.037068538601
 21
644.9952111383391
 31
0.0
  0
ARC
  5
514
102
{ACAD_REACTORS
330
4FD
102
}
330
1F
100
AcDbEntity
  8
0
370
     5
100
AcDbCircle
 10
1852.554862611357
 20
641.9952111383363
 30
0.0
 40
3.0
100
AcDbArc
 50
90.0
 51
180.0
  0
LINE
  5
515
330
1F
100
AcDbEntity
  8
0
370
     5
100
AcDbLine
 10
1714.316952004582
 20
141.8805239163548
 30
0.0
 11
1710.186729073416
 21
220.6898720135092
 31
0.0
  0
LINE
  5
516
330
1F
100
AcDbEntity
  8
0
370
     5
100
AcDbLine
 10
1712.419022871409
 20
139.8805239163548
 30
0.0
 11
1708.288799940242
 21
218.6898720135092
 31
0.0
  0
LINE
  5
517
330
1F
100
AcDbEntity
  8
0
370
     5
100
AcDbLine
 10
1765.427237864331
 20
137.4709905391351
 30
0.0
 11
1765.427237864331
 21
139.4709905391378
 31
0.0
  0
ARC
  5
518
330
1F
100
AcDbEntity
  8
0
370
     5
100
AcDbCircle
 10
2103.092499456201
 20
361.5249165807031
 30
0.0
 40
407.7454318089715
100
AcDbArc
 50
212.5938397801198
 51
212.9966235360785
  0
ARC
  5
519
330
1F
100
AcDbEntity
  8
0
370
     5
100
AcDbCircle
 10
2103.092499456201
 20
361.5249165807031
 30
0.0
 40
409.7454318089716
100
AcDbArc
 50
212.7471028189234
 51
213.1486111216679
  0
LINE
  5
51A
330
1F
100
AcDbEntity
  8
0
370
     5
100
AcDbLine
 10
1714.316952004582
 20
141.8805239163548
 30
0.0
 11
1759.562765761729
 21
141.8805239163548
 31
0.0
  0
LINE
  5
51B
330
1F
100
AcDbEntity
  8
0
370
     5
100
AcDbLine
 10
1712.419022871409
 20
139.8805239163548
 30
0.0
 11
1758.469397954324
 21
139.8805239163548
 31
0.0
  0
LINE
  5
51C
330
1F
100
AcDbEntity
  8
0
370
     5
100
AcDbLine
 10
1761.115320260556
 20
139.470990539135
 30
0.0
 11
1791.499627960714
 21
139.470990539135
 31
0.0
  0
LINE
  5
51D
330
1F
100
AcDbEntity
  8
0
370
     5
100
AcDbLine
 10
1760.031051441884
 20
137.470990539135
 30
0.0
 11
1792.583896779386
 21
137.470990539135
 31
0.0
  0
HATCH
  5
51E
330
1F
100
AcDbEntity
  8
0
 62
     2
370
    -3
100
AcDbHatch
 10
0.0
 20
0.0
 30
0.0
210
0.0
220
0.0
230
1.0
  2
ANSI31
 70
     0
 71
     1
 91
        2
 92
        7
 72
     1
 73
     1
 93
        5
 10
1714.490181496063
 20
227.8976113877558
 42
0.4142135623730792
 10
1711.490181496063
 20
230.8976113877557
 42
0.0
 10
1663.007975568819
 20
230.8976113877584
 42
0.0
 10
1663.007975568819
 20
220.689872013511
 42
0.0
 10
1714.490181496063
 20
220.6898720135092
 42
0.0
 97
        5
330
523
330
522
330
51F
330
521
330
520
 92
        7
 72
     1
 73
     1
 93
        5
 10
1889.60697265245
 20
220.689872013511
 42
0.0
 10
1889.60697265245
 20
230.8976113877584
 42
0.0
 10
1841.124766725206
 20
230.8976113877557
 42
0.4142135623730784
 10
1838.124766725207
 20
227.8976113877557
 42
0.0
 10
1838.124766725207
 20
220.6898720135092
 42
0.0
 97
        5
330
534
330
535
330
532
330
533
330
531
 75
     1
 76
     1
 52
0.0
 41
1.0
 77
     0
 78
     1
 53
45.0
 43
39.89389298485276
 44
44.30468969169533
 45
-2.245064030267287
 46
2.245064030267288
 79
     0
 47
0.2487134224183104
 98
        2
 10
1710.250699029841
 20
226.4968225192549
 10
1853.856902085228
 20
222.2686941697414
1001
GradientColor1ACI
1070
     5
1001
GradientColor2ACI
1070
     2
1001
ACAD
1010
0.0
1020
0.0
1030
0.0
  0
LINE
  5
51F
102
{ACAD_REACTORS
330
51E
102
}
330
1F
100
AcDbEntity
  8
0
370
     5
100
AcDbLine
 10
1663.007975568819
 20
230.8976113877584
 30
0.0
 11
1663.007975568819
 21
220.689872013511
 31
0.0
  0
LINE
  5
520
102
{ACAD_REACTORS
330
51E
102
}
330
1F
100
AcDbEntity
  8
0
370
     5
100
AcDbLine
 10
1714.490181496063
 20
220.6898720135092
 30
0.0
 11
1714.490181496063
 21
227.8976113877557
 31
0.0
  0
LINE
  5
521
102
{ACAD_REACTORS
330
51E
102
}
330
1F
100
AcDbEntity
  8
0
370
     5
100
AcDbLine
 10
1663.007975568819
 20
220.689872013511
 30
0.0
 11
1714.490181496063
 21
220.6898720135092
 31
0.0
  0
LINE
  5
522
102
{ACAD_REACTORS
330
51E
102
}
330
1F
100
AcDbEntity
  8
0
370
     5
100
AcDbLine
 10
1711.490181496063
 20
230.8976113877557
 30
0.0
 11
1663.007975568819
 21
230.8976113877584
 31
0.0
  0
ARC
  5
523
102
{ACAD_REACTORS
330
51E
102
}
330
1F
100
AcDbEntity
  8
0
370
     5
100
AcDbCircle
 10
1711.490181496063
 20
227.8976113877557
 30
0.0
 40
3.0
100
AcDbArc
 50
0.0
 51
89.99999999999349
  0
LINE
  5
524
330
1F
100
AcDbEntity
  8
0
370
     5
100
AcDbLine
 10
1693.041904139695
 20
220.6898720135092
 30
0.0
 11
1710.186729073416
 21
220.6898720135092
 31
0.0
  0
LINE
  5
525
330
1F
100
AcDbEntity
  8
0
370
     5
100
AcDbLine
 10
1693.041904139695
 20
218.6898720135092
 30
0.0
 11
1708.288799940242
 21
218.6898720135092
 31
0.0
  0
LINE
  5
526
330
1F
100
AcDbEntity
  8
0
370
    -3
100
AcDbLine
 10
1693.041904139695
 20
218.6898720135092
 30
0.0
 11
1693.041904139695
 21
220.6898720135092
 31
0.0
  0
LINE
  5
527
330
1F
100
AcDbEntity
  8
0
370
     5
100
AcDbLine
 10
1838.297996216687
 20
141.8805239163548
 30
0.0
 11
1842.428219147853
 21
220.6898720135092
 31
0.0
  0
LINE
  5
528
330
1F
100
AcDbEntity
  8
0
370
     5
100
AcDbLine
 10
1840.195925349861
 20
139.8805239163548
 30
0.0
 11
1844.326148281027
 21
218.6898720135092
 31
0.0
  0
LINE
  5
529
330
1F
100
AcDbEntity
  8
0
370
     5
100
AcDbLine
 10
1838.297996216687
 20
141.8805239163548
 30
0.0
 11
1793.05218245954
 21
141.8805239163548
 31
0.0
  0
LINE
  5
52A
330
1F
100
AcDbEntity
  8
0
370
     5
100
AcDbLine
 10
1840.195925349861
 20
139.8805239163548
 30
0.0
 11
1794.145550266945
 21
139.8805239163548
 31
0.0
  0
LINE
  5
52B
330
1F
100
AcDbEntity
  8
0
370
     5
100
AcDbLine
 10
1859.573044081574
 20
220.6898720135092
 30
0.0
 11
1842.428219147853
 21
220.6898720135092
 31
0.0
  0
LINE
  5
52C
330
1F
100
AcDbEntity
  8
0
370
     5
100
AcDbLine
 10
1859.573044081574
 20
218.6898720135092
 30
0.0
 11
1844.326148281027
 21
218.6898720135092
 31
0.0
  0
LINE
  5
52D
330
1F
100
AcDbEntity
  8
0
370
    -3
100
AcDbLine
 10
1859.573044081574
 20
218.6898720135092
 30
0.0
 11
1859.573044081574
 21
220.6898720135092
 31
0.0
  0
LINE
  5
52E
330
1F
100
AcDbEntity
  8
0
370
     5
100
AcDbLine
 10
1787.187710356938
 20
137.4709905391351
 30
0.0
 11
1787.187710356938
 21
139.4709905391378
 31
0.0
  0
ARC
  5
52F
330
1F
100
AcDbEntity
  8
0
370
     5
100
AcDbCircle
 10
1449.522448765069
 20
361.5249165807031
 30
0.0
 40
407.7454318089715
100
AcDbArc
 50
327.0033764639233
 51
327.4061602198777
  0
ARC
  5
530
330
1F
100
AcDbEntity
  8
0
370
     5
100
AcDbCircle
 10
1449.522448765069
 20
361.5249165807031
 30
0.0
 40
409.7454318089716
100
AcDbArc
 50
326.8513888783321
 51
327.252897181081
  0
LINE
  5
531
102
{ACAD_REACTORS
330
51E
102
}
330
1F
100
AcDbEntity
  8
0
370
     5
100
AcDbLine
 10
1889.60697265245
 20
230.8976113877584
 30
0.0
 11
1889.60697265245
 21
220.689872013511
 31
0.0
  0
LINE
  5
532
102
{ACAD_REACTORS
330
51E
102
}
330
1F
100
AcDbEntity
  8
0
370
     5
100
AcDbLine
 10
1838.124766725207
 20
220.6898720135092
 30
0.0
 11
1838.124766725207
 21
227.8976113877557
 31
0.0
  0
LINE
  5
533
102
{ACAD_REACTORS
330
51E
102
}
330
1F
100
AcDbEntity
  8
0
370
     5
100
AcDbLine
 10
1889.60697265245
 20
220.689872013511
 30
0.0
 11
1838.124766725207
 21
220.6898720135092
 31
0.0
  0
LINE
  5
534
102
{ACAD_REACTORS
330
51E
102
}
330
1F
100
AcDbEntity
  8
0
370
     5
100
AcDbLine
 10
1841.124766725206
 20
230.8976113877557
 30
0.0
 11
1889.60697265245
 21
230.8976113877584
 31
0.0
  0
ARC
  5
535
102
{ACAD_REACTORS
330
51E
102
}
330
1F
100
AcDbEntity
  8
0
370
     5
100
AcDbCircle
 10
1841.124766725207
 20
227.8976113877557
 30
0.0
 40
3.0
100
AcDbArc
 50
90.0
 51
180.0
  0
MTEXT
  5
536
330
1F
100
AcDbEntity
  8
note
370
    -3
100
AcDbMText
 10
1652.603728004064
 20
330.6333624698218
 30
0.0
 40
8.0
 41
233.6010130528989
 46
0.0
 71
     1
 72
     5
  1
{\fCalibri|b0|i0|c0|p34;The countertop meets the edge of the sink fitting flush with the wall of the bowl}
 73
     1
 44
1.0
1001
ACAD
1000
ACAD_MTEXT_COLUMN_INFO_BEGIN
1070
    75
1070
     2
1070
    79
1070
     0
1070
    76
1070
     1
1070
    78
1070
     0
1070
    48
1040
233.6010130528989
1070
    49
1040
12.5
1070
    50
1070
     1
1040
35.89923947831051
1000
ACAD_MTEXT_COLUMN_INFO_END
  0
MTEXT
  5
537
330
1F
100
AcDbEntity
  8
note
370
    -3
100
AcDbMText
 10
1652.603728004064
 20
125.3867724561164
 30
0.0
 40
8.0
 41
244.6985338073505
 46
0.0
 71
     1
 72
     5
  1
{\fCalibri|b0|i0|c0|p34;The countertop extends over the edge of the sink by approximately 1/8"}
 73
     1
 44
1.0
1001
ACAD
1000
ACAD_MTEXT_COLUMN_INFO_BEGIN
1070
    75
1070
     2
1070
    79
1070
     0
1070
    76
1070
     1
1070
    78
1070
     0
1070
    48
1040
244.6985338073505
1070
    49
1040
12.5
1070
    50
1070
     1
1040
30.24120512822353
1000
ACAD_MTEXT_COLUMN_INFO_END
  0
MTEXT
  5
538
330
1F
100
AcDbEntity
  8
note
370
    -3
100
AcDbMText
 10
1644.308135704666
 20
671.417871883719
 30
0.0
 40
8.0
 41
237.1240077337111
 46
0.0
 71
     1
 72
     5
  1
{\fCalibri|b1|i0|c0|p34;3/8" Positive Reveal}
 73
     1
 44
1.0
1001
ACAD
1000
ACAD_MTEXT_COLUMN_INFO_BEGIN
1070
    75
1070
     2
1070
    79
1070
     0
1070
    76
1070
     1
1070
    78
1070
     0
1070
    48
1040
237.1240077337111
1070
    49
1040
12.5
1070
    50
1070
     1
1040
49.41104810070462
1000
ACAD_MTEXT_COLUMN_INFO_END
  0
LWPOLYLINE
  5
539
330
1F
100
AcDbEntity
  8
0
370
    -3
100
AcDbPolyline
 90
        4
 70
     1
 43
0.0
 10
1630.828536174303
 20
684.5884170973358
 10
1917.90242851319
 20
684.5884170973358
 10
1917.90242851319
 20
499.3438041231889
 10
1630.828536174303
 20
499.3438041231889
  0
MTEXT
  5
53A
330
1F
100
AcDbEntity
  8
note
370
    -3
100
AcDbMText
 10
1646.561128672123
 20
464.136378075662
 30
0.0
 40
8.0
 41
233.6010130528989
 46
0.0
 71
     1
 72
     5
  1
{\fCalibri|b1|i0|c0|p34;Zero Reveal}
 73
     1
 44
1.0
1001
ACAD
1000
ACAD_MTEXT_COLUMN_INFO_BEGIN
1070
    75
1070
     2
1070
    79
1070
     0
1070
    76
1070
     1
1070
    78
1070
     0
1070
    48
1040
233.6010130528989
1070
    49
1040
12.5
1070
    50
1070
     1
1040
51.40105957113622
1000
ACAD_MTEXT_COLUMN_INFO_END
  0
LWPOLYLINE
  5
53B
330
1F
100
AcDbEntity
  8
0
370
    -3
100
AcDbPolyline
 90
        4
 70
     1
 43
0.0
 10
1630.828536174303
 20
476.754432854042
 10
1917.90242851319
 20
476.754432854042
 10
1917.90242851319
 20
291.5098198798951
 10
1630.828536174303
 20
291.5098198798951
  0
MTEXT
  5
53C
330
1F
100
AcDbEntity
  8
note
370
    -3
100
AcDbMText
 10
1644.944587418726
 20
538.4308650404086
 30
0.0
 40
8.0
 41
237.1240077337111
 46
0.0
 71
     1
 72
     5
  1
{\fCalibri|b0|i0|c0|p34;The countertop edge sits approximately 3/8" back from the edge of the sink}
 73
     1
 44
1.0
1001
ACAD
1000
ACAD_MTEXT_COLUMN_INFO_BEGIN
1070
    75
1070
     2
1070
    79
1070
     0
1070
    76
1070
     1
1070
    78
1070
     0
1070
    48
1040
237.1240077337111
1070
    49
1040
12.5
1070
    50
1070
     1
1040
49.41104810070462
1000
ACAD_MTEXT_COLUMN_INFO_END
  0
LWPOLYLINE
  5
53D
330
1F
100
AcDbEntity
  8
0
370
    -3
100
AcDbPolyline
 90
        4
 70
     1
 43
0.0
 10
1630.828536174303
 20
270.4771145171008
 10
1917.90242851319
 20
270.4771145171008
 10
1917.90242851319
 20
85.23250154295373
 10
1630.828536174303
 20
85.23250154295373
  0
MTEXT
  5
53E
330
1F
100
AcDbEntity
  8
note
370
    -3
100
AcDbMText
 10
1650.278018066657
 20
255.6667786397188
 30
0.0
 40
8.0
 41
177.9117880023291
 46
0.0
 71
     1
 72
     5
  1
{\fCalibri|b1|i0|c0|p34;1/8" Negative Reveal}
 73
     1
 44
1.0
1001
ACAD
1000
ACAD_MTEXT_COLUMN_INFO_BEGIN
1070
    75
1070
     2
1070
    79
1070
     0
1070
    76
1070
     1
1070
    78
1070
     0
1070
    48
1040
177.9117880023291
1070
    49
1040
12.5
1070
    50
1070
     1
1040
24.69815819178072
1000
ACAD_MTEXT_COLUMN_INFO_END
  0
ENDSEC
  0
SECTION
  2
OBJECTS
  0
DICTIONARY
  5
C
330
0
100
AcDbDictionary
281
     1
  3
ACAD_CIP_PREVIOUS_PRODUCT_INFO
350
216
  3
ACAD_COLOR
350
6B
  3
ACAD_DETAILVIEWSTYLE
350
21B
  3
ACAD_GROUP
350
D
  3
ACAD_LAYOUT
350
1A
  3
ACAD_MATERIAL
350
6A
  3
ACAD_MLEADERSTYLE
350
12D
  3
ACAD_MLINESTYLE
350
17
  3
ACAD_PLOTSETTINGS
350
19
  3
ACAD_PLOTSTYLENAME
350
E
  3
ACAD_SCALELIST
350
10C
  3
ACAD_SECTIONVIEWSTYLE
350
219
  3
ACAD_TABLESTYLE
350
7E
  3
ACAD_VISUALSTYLE
350
EF
  3
ACDB_RECOMPOSE_DATA
350
6AA
  3
AcDbVariableDictionary
350
5E
  3
AcDsDecomposeData
350
6B0
  0
DICTIONARY
  5
1FF
330
2
100
AcDbDictionary
280
     1
281
     1
  3
ACAD_LAYERSTATES
360
200
  0
DICTIONARY
  5
13C
330
10
100
AcDbDictionary
280
     1
281
     1
  0
DICTIONARY
  5
1CE
330
1F
100
AcDbDictionary
280
     1
281
     1
  0
DICTIONARY
  5
4B3
330
4B2
100
AcDbDictionary
280
     1
281
     1
  3
ACAD_DIMASSOC
360
4B4
  0
DICTIONARY
  5
4B9
330
4B8
100
AcDbDictionary
280
     1
281
     1
  3
ACAD_DIMASSOC
360
4BA
  0
DICTIONARY
  5
4BC
330
4BB
100
AcDbDictionary
280
     1
281
     1
  3
ACAD_DIMASSOC
360
4BD
  0
DICTIONARY
  5
4BF
330
4BE
100
AcDbDictionary
280
     1
281
     1
  3
ACAD_DIMASSOC
360
4C0
  0
DICTIONARY
  5
4C2
330
4C1
100
AcDbDictionary
280
     1
281
     1
  3
ACAD_DIMASSOC
360
4C3
  0
DICTIONARY
  5
4C5
330
4C4
100
AcDbDictionary
280
     1
281
     1
  3
ACAD_DIMASSOC
360
4C6
  0
DICTIONARY
  5
4C8
330
4C7
100
AcDbDictionary
280
     1
281
     1
  3
ACAD_DIMASSOC
360
4C9
  0
DICTIONARY
  5
4CB
330
4CA
100
AcDbDictionary
280
     1
281
     1
  3
ACAD_DIMASSOC
360
4CC
  0
DICTIONARY
  5
4CE
330
4CD
100
AcDbDictionary
280
     1
281
     1
  3
ACAD_DIMASSOC
360
4CF
  0
DICTIONARY
  5
4D1
330
4D0
100
AcDbDictionary
280
     1
281
     1
  3
ACAD_DIMASSOC
360
4D2
  0
XRECORD
  5
216
102
{ACAD_REACTORS
330
C
102
}
330
C
100
AcDbXrecord
280
     1
300
ACD
300
2014
300
ACD_F_S
  0
DICTIONARY
  5
6B
102
{ACAD_REACTORS
330
C
102
}
330
C
100
AcDbDictionary
281
     1
  0
DICTIONARY
  5
21B
102
{ACAD_REACTORS
330
C
102
}
330
C
100
AcDbDictionary
281
     1
  3
Metric50
350
21C
  0
DICTIONARY
  5
D
102
{ACAD_REACTORS
330
C
102
}
330
C
100
AcDbDictionary
281
     1
  0
DICTIONARY
  5
1A
102
{ACAD_REACTORS
330
C
102
}
330
C
100
AcDbDictionary
281
     1
  3
Model
350
22
  3
布局1
350
D3
  3
布局2
350
D7
  0
DICTIONARY
  5
6A
102
{ACAD_REACTORS
330
C
102
}
330
C
100
AcDbDictionary
281
     1
  3
ByBlock
350
ED
  3
ByLayer
350
EC
  3
Global
350
EE
  0
DICTIONARY
  5
12D
102
{ACAD_REACTORS
330
C
102
}
330
C
100
AcDbDictionary
281
     1
  3
Annotative
350
13B
  3
leader
350
2C7
  3
Standard
350
12E
  0
DICTIONARY
  5
17
102
{ACAD_REACTORS
330
C
102
}
330
C
100
AcDbDictionary
281
     1
  3
Standard
350
18
  0
DICTIONARY
  5
19
102
{ACAD_REACTORS
330
C
102
}
330
C
100
AcDbDictionary
281
     1
  0
ACDBDICTIONARYWDFLT
  5
E
102
{ACAD_REACTORS
330
C
102
}
330
C
100
AcDbDictionary
281
     1
  3
Normal
350
F
100
AcDbDictionaryWithDefault
340
F
  0
DICTIONARY
  5
10C
102
{ACAD_REACTORS
330
C
102
}
330
C
100
AcDbDictionary
281
     1
  3
A0
350
10D
  3
A1
350
1BE
  3
A2
350
1BF
  3
A3
350
1C0
  3
A4
350
1C1
  3
A5
350
1C2
  3
A6
350
1C3
  3
A7
350
1C4
  3
A8
350
1C5
  3
A9
350
1C6
  3
B0
350
1C7
  3
B1
350
1C8
  3
B2
350
1C9
  3
B3
350
1CA
  3
B4
350
1CB
  3
B5
350
1CC
  3
B6
350
1CD
  0
DICTIONARY
  5
219
102
{ACAD_REACTORS
330
C
102
}
330
C
100
AcDbDictionary
281
     1
  3
Metric50
350
21A
  0
DICTIONARY
  5
7E
102
{ACAD_REACTORS
330
C
102
}
330
C
100
AcDbDictionary
281
     1
  3
Standard
350
7F
  0
DICTIONARY
  5
EF
102
{ACAD_REACTORS
330
C
102
}
330
C
100
AcDbDictionary
281
     1
  3
2dWireframe
350
F5
  3
Basic
350
F4
  3
Brighten
350
FB
  3
ColorChange
350
FF
  3
Conceptual
350
F8
  3
Dim
350
FA
  3
EdgeColorOff
350
1E6
  3
Facepattern
350
FE
  3
Flat
350
F0
  3
FlatWithEdges
350
F1
  3
Gouraud
350
F2
  3
GouraudWithEdges
350
F3
  3
Hidden
350
F7
  3
JitterOff
350
1E4
  3
Linepattern
350
FD
  3
OverhangOff
350
1E5
  3
Realistic
350
F9
  3
Shaded
350
1F3
  3
Shaded with edges
350
1F2
  3
Shades of Gray
350
1EF
  3
Sketchy
350
1F0
  3
Thicken
350
FC
  3
Wireframe
350
F6
  3
X-Ray
350
1F1
  0
XRECORD
  5
6AA
102
{ACAD_REACTORS
330
C
102
}
330
C
100
AcDbXrecord
280
     1
 90
        1
330
7F
330
4A4
330
4A7
330
4A8
330
4AC
330
4B5
330
4B6
330
4B7
330
536
330
537
330
538
330
53A
330
53C
330
53E
  0
DICTIONARY
  5
5E
102
{ACAD_REACTORS
330
C
102
}
330
C
100
AcDbDictionary
281
     1
  3
CANNOSCALE
350
146
  3
CMLEADERSTYLE
350
145
  3
CTABLESTYLE
350
84
  3
CVIEWDETAILSTYLE
350
227
  3
CVIEWSECTIONSTYLE
350
228
  3
DIMASSOC
350
5F
  3
HIDETEXT
350
63
  3
LAYEREVAL
350
1AE
  3
LAYERNOTIFY
350
1AF
  0
DICTIONARY
  5
6B0
102
{ACAD_REACTORS
330
C
102
}
330
C
100
AcDbDictionary
281
     1
  3
AcDsRecords
350
6B2
  3
AcDsSchemas
350
6B1
1001
ACAD
1070
     2
  0
DICTIONARY
  5
200
102
{ACAD_REACTORS
330
1FF
102
}
330
1FF
100
AcDbDictionary
281
     1
  0
DIMASSOC
  5
4B4
102
{ACAD_REACTORS
330
4B3
102
}
330
4B3
100
AcDbDimAssoc
330
4B2
 90
        1
 70
     0
 71
     0
  1
AcDbOsnapPointRef
 72
     2
331
4AF
 73
     2
 91
        3
 40
0.5
 10
0.0
 20
0.0
 30
0.0
 75
     0
  0
DIMASSOC
  5
4BA
102
{ACAD_REACTORS
330
4B9
102
}
330
4B9
100
AcDbDimAssoc
330
4B8
 90
        3
 70
     0
 71
     0
  1
AcDbOsnapPointRef
 72
    13
331
4AE
 73
     2
 91
        1
 40
0.0
 10
0.0
 20
0.0
 30
2.000000000000000E+50
 75
     0
  1
AcDbOsnapPointRef
 72
     8
331
4AE
 73
     2
 91
        9
 40
0.9999999999999268
 10
0.0
 20
0.0
 30
0.0
 75
     1
  1
AcDbOsnapPointRef
 72
    13
331
4AE
 73
     2
 91
        1
 40
0.0
 10
0.0
 20
0.0
 30
2.000000000000000E+50
 75
     0
  0
DIMASSOC
  5
4BD
102
{ACAD_REACTORS
330
4BC
102
}
330
4BC
100
AcDbDimAssoc
330
4BB
 90
        3
 70
     0
 71
     0
  1
AcDbOsnapPointRef
 72
     6
331
4AD
 73
     2
 91
        1
 40
0.0
 10
0.0
 20
0.0
 30
0.0
332
4AD
 74
     2
 92
       12
 75
     0
  1
AcDbOsnapPointRef
 72
     8
331
4AD
 73
     2
 91
       10
 40
6.283185307179475
 10
0.0
 20
0.0
 30
0.0
 75
     1
  1
AcDbOsnapPointRef
 72
     6
331
4AD
 73
     2
 91
        1
 40
0.0
 10
0.0
 20
0.0
 30
0.0
332
4AD
 74
     2
 92
       12
 75
     0
  0
DIMASSOC
  5
4C0
102
{ACAD_REACTORS
330
4BF
102
}
330
4BF
100
AcDbDimAssoc
330
4BE
 90
        3
 70
     0
 71
     0
  1
AcDbOsnapPointRef
 72
     6
331
4AF
 73
     2
 91
        1
 40
0.0
 10
0.0
 20
0.0
 30
0.0
332
4AF
 74
     2
 92
       12
 75
     0
  1
AcDbOsnapPointRef
 72
     8
331
4AF
 73
     2
 91
        9
 40
0.9999999999999392
 10
0.0
 20
0.0
 30
0.0
 75
     1
  1
AcDbOsnapPointRef
 72
     6
331
4AF
 73
     2
 91
        1
 40
0.0
 10
0.0
 20
0.0
 30
0.0
332
4AF
 74
     2
 92
       12
 75
     0
  0
DIMASSOC
  5
4C3
102
{ACAD_REACTORS
330
4C2
102
}
330
4C2
100
AcDbDimAssoc
330
4C1
 90
        3
 70
     0
 71
     0
  1
AcDbOsnapPointRef
 72
    13
331
4AF
 73
     2
 91
       12
 40
4.712388980384561
 10
0.0
 20
0.0
 30
2.000000000000000E+50
 75
     0
  1
AcDbOsnapPointRef
 72
     8
331
4AF
 73
     2
 91
        3
 40
0.0
 10
0.0
 20
0.0
 30
0.0
 75
     1
  1
AcDbOsnapPointRef
 72
    13
331
4AF
 73
     2
 91
       12
 40
4.712388980384561
 10
0.0
 20
0.0
 30
2.000000000000000E+50
 75
     0
  0
DIMASSOC
  5
4C6
102
{ACAD_REACTORS
330
4C5
102
}
330
4C5
100
AcDbDimAssoc
330
4C4
 90
        3
 70
     0
 71
     0
  1
AcDbOsnapPointRef
 72
     1
331
4AD
 73
     2
 91
        2
 40
1.570796326794896
 10
0.0
 20
0.0
 30
2.000000000000000E+50
 75
     0
  1
AcDbOsnapPointRef
 72
     8
331
4AD
 73
     2
 91
       12
 40
4.712388980384758
 10
0.0
 20
0.0
 30
0.0
 75
     1
  1
AcDbOsnapPointRef
 72
     1
331
4AD
 73
     2
 91
        2
 40
1.570796326794896
 10
0.0
 20
0.0
 30
2.000000000000000E+50
 75
     0
  0
DIMASSOC
  5
4C9
102
{ACAD_REACTORS
330
4C8
102
}
330
4C8
100
AcDbDimAssoc
330
4C7
 90
        3
 70
     0
 71
     0
  1
AcDbOsnapPointRef
 72
    13
331
4AE
 73
     2
 91
        3
 40
0.0
 10
0.0
 20
0.0
 30
2.000000000000000E+50
 75
     0
  1
AcDbOsnapPointRef
 72
     1
331
4AE
 73
     2
 91
       11
 40
1.0
 10
0.0
 20
0.0
 30
2.000000000000000E+50
 75
     0
  0
DIMASSOC
  5
4CC
102
{ACAD_REACTORS
330
4CB
102
}
330
4CB
100
AcDbDimAssoc
330
4CA
 90
        3
 70
     0
 71
     0
  1
AcDbOsnapPointRef
 72
    13
331
4AE
 73
     2
 91
       11
 40
0.0
 10
0.0
 20
0.0
 30
2.000000000000000E+50
 75
     0
  1
AcDbOsnapPointRef
 72
     8
331
4AE
 73
     2
 91
        7
 40
0.9999999999999003
 10
0.0
 20
0.0
 30
0.0
 75
     1
  1
AcDbOsnapPointRef
 72
    13
331
4AE
 73
     2
 91
       11
 40
0.0
 10
0.0
 20
0.0
 30
2.000000000000000E+50
 75
     0
  0
DIMASSOC
  5
4CF
102
{ACAD_REACTORS
330
4CE
102
}
330
4CE
100
AcDbDimAssoc
330
4CD
 90
        3
 70
     0
 71
     0
  1
AcDbOsnapPointRef
 72
     1
331
4AD
 73
     2
 91
        7
 40
1.0
 10
0.0
 20
0.0
 30
2.000000000000000E+50
 75
     0
  1
AcDbOsnapPointRef
 72
     8
331
4AD
 73
     2
 91
       11
 40
0.0
 10
0.0
 20
0.0
 30
0.0
 75
     1
  1
AcDbOsnapPointRef
 72
     1
331
4AD
 73
     2
 91
        7
 40
1.0
 10
0.0
 20
0.0
 30
2.000000000000000E+50
 75
     0
  0
DIMASSOC
  5
4D2
102
{ACAD_REACTORS
330
4D1
102
}
330
4D1
100
AcDbDimAssoc
330
4D0
 90
        3
 70
     0
 71
     0
  1
AcDbOsnapPointRef
 72
    13
331
4AF
 73
     2
 91
       11
 40
0.0
 10
0.0
 20
0.0
 30
2.000000000000000E+50
 75
     0
  1
AcDbOsnapPointRef
 72
     8
331
4AF
 73
     2
 91
        8
 40
1.570796326794815
 10
0.0
 20
0.0
 30
0.0
 75
     1
  1
AcDbOsnapPointRef
 72
    13
331
4AF
 73
     2
 91
       11
 40
0.0
 10
0.0
 20
0.0
 30
2.000000000000000E+50
 75
     0
  0
ACDBDETAILVIEWSTYLE
  5
21C
102
{ACAD_XDICTIONARY
360
236
102
}
102
{ACAD_REACTORS
330
21B
102
}
330
21B
100
AcDbModelDocViewStyle
 70
     0
  3
Metric50
290
     0
100
AcDbDetailViewStyle
 70
     0
 71
     0
 90
        3
 71
     1
340
11
 62
   256
 40
5.0
340
0
 62
   256
 40
5.0
300

 40
0.0
280
     1
 71
     2
340
16
 90
       25
 62
   256
 71
     3
340
11
 62
   256
 40
5.0
 90
        0
 40
15.0
 90
        1
300
%<\AcVar ViewDetailId>% (%<\AcVar ViewScale \f "%sn">%)
 71
     4
340
16
 90
       25
 62
   256
340
16
 90
       25
 62
   256
280
     0
  0
LAYOUT
  5
22
102
{ACAD_XDICTIONARY
360
205
102
}
102
{ACAD_REACTORS
330
1A
102
}
330
1A
100
AcDbPlotSettings
  1

  2
none_device
  4
ISO_A4_(210.00_x_297.00_MM)
  6

 40
7.5
 41
20.0
 42
7.5
 43
20.0
 44
210.0
 45
297.0
 46
11.54999923706054
 47
-13.65000009536743
 48
0.0
 49
0.0
140
0.0
141
0.0
142
1.0
143
8.704084754739808
 70
 11952
 72
     1
 73
     0
 74
     0
  7

 75
     0
147
0.1148885871608098
 76
     0
 77
     2
 78
   300
148
0.0
149
0.0
100
AcDbLayout
  1
Model
 70
     1
 71
     0
 10
0.0
 20
0.0
 11
12.0
 21
9.0
 12
0.0
 22
0.0
 32
0.0
 14
0.0
 24
0.0
 34
0.0
 15
0.0
 25
0.0
 35
0.0
146
0.0
 13
0.0
 23
0.0
 33
0.0
 16
1.0
 26
0.0
 36
0.0
 17
0.0
 27
1.0
 37
0.0
 76
     0
330
1F
331
EA
1001
ACAD_PSEXT
1000
None
1000
None
1000
Not applicable
1000
The layout will not be plotted unless a new plotter configuration name is selected.
1070
     0
  0
LAYOUT
  5
D3
102
{ACAD_REACTORS
330
1A
102
}
330
1A
100
AcDbPlotSettings
  1

  2
C:\Documents and Settings\basas\Application Data\Autodesk\AutoCAD 2005\R16.1\enu\plotters\Default Windows System Printer.pc3
  4

  6

 40
0.0
 41
0.0
 42
0.0
 43
0.0
 44
0.0
 45
0.0
 46
0.0
 47
0.0
 48
0.0
 49
0.0
140
0.0
141
0.0
142
1.0
143
1.0
 70
   688
 72
     0
 73
     0
 74
     5
  7

 75
    16
147
1.0
 76
     0
 77
     2
 78
   300
148
0.0
149
0.0
100
AcDbLayout
  1
布局1
 70
     1
 71
     1
 10
0.0
 20
0.0
 11
12.0
 21
9.0
 12
0.0
 22
0.0
 32
0.0
 14
0.0
 24
0.0
 34
0.0
 15
0.0
 25
0.0
 35
0.0
146
0.0
 13
0.0
 23
0.0
 33
0.0
 16
1.0
 26
0.0
 36
0.0
 17
0.0
 27
1.0
 37
0.0
 76
     0
330
D2
  0
LAYOUT
  5
D7
102
{ACAD_REACTORS
330
1A
102
}
330
1A
100
AcDbPlotSettings
  1

  2
C:\Documents and Settings\basas\Application Data\Autodesk\AutoCAD 2005\R16.1\enu\plotters\Default Windows System Printer.pc3
  4

  6

 40
0.0
 41
0.0
 42
0.0
 43
0.0
 44
0.0
 45
0.0
 46
0.0
 47
0.0
 48
0.0
 49
0.0
140
0.0
141
0.0
142
1.0
143
1.0
 70
   688
 72
     0
 73
     0
 74
     5
  7

 75
    16
147
1.0
 76
     0
 77
     2
 78
   300
148
0.0
149
0.0
100
AcDbLayout
  1
布局2
 70
     1
 71
     2
 10
0.0
 20
0.0
 11
12.0
 21
9.0
 12
0.0
 22
0.0
 32
0.0
 14
0.0
 24
0.0
 34
0.0
 15
0.0
 25
0.0
 35
0.0
146
0.0
 13
0.0
 23
0.0
 33
0.0
 16
1.0
 26
0.0
 36
0.0
 17
0.0
 27
1.0
 37
0.0
 76
     0
330
D6
  0
MATERIAL
  5
ED
102
{ACAD_XDICTIONARY
360
1F9
102
}
102
{ACAD_REACTORS
330
6A
102
}
330
6A
100
AcDbMaterial
  1
ByBlock
 94
       63
  0
MATERIAL
  5
EC
102
{ACAD_XDICTIONARY
360
1F7
102
}
102
{ACAD_REACTORS
330
6A
102
}
330
6A
100
AcDbMaterial
  1
ByLayer
 94
       63
  0
MATERIAL
  5
EE
102
{ACAD_XDICTIONARY
360
173
102
}
102
{ACAD_REACTORS
330
6A
102
}
330
6A
100
AcDbMaterial
  1
Global
 43
0.0007999999797903
 43
0.0
 43
0.0
 43
0.0
 43
0.0
 43
0.0007999999797903
 43
0.0
 43
0.0
 43
0.0
 43
0.0
 43
1.0
 43
0.0
 43
0.0
 43
0.0
 43
0.0
 43
1.0
 49
0.0007999999797903
 49
0.0
 49
0.0
 49
0.0
 49
0.0
 49
0.0007999999797903
 49
0.0
 49
0.0
 49
0.0
 49
0.0
 49
1.0
 49
0.0
 49
0.0
 49
0.0
 49
0.0
 49
1.0
142
0.0007999999797903
142
0.0
142
0.0
142
0.0
142
0.0
142
0.0007999999797903
142
0.0
142
0.0
142
0.0
142
0.0
142
1.0
142
0.0
142
0.0
142
0.0
142
0.0
142
1.0
144
0.0007999999797903
144
0.0
144
0.0
144
0.0
144
0.0
144
0.0007999999797903
144
0.0
144
0.0
144
0.0
144
0.0
144
1.0
144
0.0
144
0.0
144
0.0
144
0.0
144
1.0
 94
       63
1001
ACAD
1070
    -1
1070
     3
1070
     0
1000

1071
        0
1070
     0
  0
MLEADERSTYLE
  5
13B
102
{ACAD_REACTORS
330
12D
102
}
330
12D
100
AcDbMLeaderStyle
179
     2
170
     2
171
     1
172
     0
 90
        2
 40
0.0
 41
0.0
173
     1
 91
-1056964608
340
14
 92
       -2
290
     1
 42
2.0
291
     1
 43
8.0
  3
Standard
 44
4.0
300

342
11
174
     1
178
     1
175
     1
176
     0
 93
-1056964608
 45
4.0
292
     0
297
     0
 46
4.0
 94
-1056964608
 47
1.0
 49
1.0
140
1.0
293
     1
141
0.0
294
     1
177
     0
142
1.0
295
     0
296
     1
143
3.75
271
     0
272
     9
273
     9
  0
MLEADERSTYLE
  5
2C7
102
{ACAD_REACTORS
330
12D
330
4B0
330
4B1
330
4B2
102
}
330
12D
100
AcDbMLeaderStyle
179
     2
170
     2
171
     1
172
     0
 90
        2
 40
0.0
 41
0.0
173
     1
 91
-1023410174
340
14
 92
        5
290
     1
 42
2.0
291
     1
 43
8.0
  3
Standard
 44
10.0
300

342
11
174
     1
178
     1
175
     1
176
     0
 93
-1056964608
 45
4.0
292
     0
297
     0
 46
4.0
 94
-1056964608
 47
1.0
 49
1.0
140
1.0
293
     1
141
0.0
294
     1
177
     0
142
1.0
295
     0
296
     0
143
3.75
271
     0
272
     9
273
     9
  0
MLEADERSTYLE
  5
12E
102
{ACAD_REACTORS
330
12D
102
}
330
12D
100
AcDbMLeaderStyle
179
     2
170
     2
171
     1
172
     0
 90
        2
 40
0.0
 41
0.0
173
     1
 91
-1056964608
340
14
 92
       -2
290
     1
 42
2.0
291
     1
 43
8.0
  3
Standard
 44
4.0
300

342
11
174
     1
178
     1
175
     1
176
     0
 93
-1056964608
 45
4.0
292
     0
297
     0
 46
4.0
 94
-1056964608
 47
1.0
 49
1.0
140
1.0
293
     1
141
0.0
294
     1
177
     0
142
1.0
295
     0
296
     0
143
3.75
271
     0
272
     9
273
     9
  0
MLINESTYLE
  5
18
102
{ACAD_REACTORS
330
17
102
}
330
17
100
AcDbMlineStyle
  2
STANDARD
 70
     0
  3

 62
   256
 51
90.0
 52
90.0
 71
     2
 49
0.5
 62
   256
  6
BYLAYER
 49
-0.5
 62
   256
  6
BYLAYER
  0
ACDBPLACEHOLDER
  5
F
102
{ACAD_REACTORS
330
E
102
}
330
E
  0
SCALE
  5
10D
102
{ACAD_REACTORS
330
10C
102
}
330
10C
100
AcDbScale
 70
     0
300
1:1
140
1.0
141
1.0
290
     1
  0
SCALE
  5
1BE
102
{ACAD_REACTORS
330
10C
102
}
330
10C
100
AcDbScale
 70
     0
300
1:2
140
1.0
141
2.0
290
     0
  0
SCALE
  5
1BF
102
{ACAD_REACTORS
330
10C
102
}
330
10C
100
AcDbScale
 70
     0
300
1:4
140
1.0
141
4.0
290
     0
  0
SCALE
  5
1C0
102
{ACAD_REACTORS
330
10C
102
}
330
10C
100
AcDbScale
 70
     0
300
1:5
140
1.0
141
5.0
290
     0
  0
SCALE
  5
1C1
102
{ACAD_REACTORS
330
10C
102
}
330
10C
100
AcDbScale
 70
     0
300
1:8
140
1.0
141
8.0
290
     0
  0
SCALE
  5
1C2
102
{ACAD_REACTORS
330
10C
102
}
330
10C
100
AcDbScale
 70
     0
300
1:10
140
1.0
141
10.0
290
     0
  0
SCALE
  5
1C3
102
{ACAD_REACTORS
330
10C
102
}
330
10C
100
AcDbScale
 70
     0
300
1:16
140
1.0
141
16.0
290
     0
  0
SCALE
  5
1C4
102
{ACAD_REACTORS
330
10C
102
}
330
10C
100
AcDbScale
 70
     0
300
1:20
140
1.0
141
20.0
290
     0
  0
SCALE
  5
1C5
102
{ACAD_REACTORS
330
10C
102
}
330
10C
100
AcDbScale
 70
     0
300
1:30
140
1.0
141
30.0
290
     0
  0
SCALE
  5
1C6
102
{ACAD_REACTORS
330
10C
102
}
330
10C
100
AcDbScale
 70
     0
300
1:40
140
1.0
141
40.0
290
     0
  0
SCALE
  5
1C7
102
{ACAD_REACTORS
330
10C
102
}
330
10C
100
AcDbScale
 70
     0
300
1:50
140
1.0
141
50.0
290
     0
  0
SCALE
  5
1C8
102
{ACAD_REACTORS
330
10C
102
}
330
10C
100
AcDbScale
 70
     0
300
1:100
140
1.0
141
100.0
290
     0
  0
SCALE
  5
1C9
102
{ACAD_REACTORS
330
10C
102
}
330
10C
100
AcDbScale
 70
     0
300
2:1
140
2.0
141
1.0
290
     0
  0
SCALE
  5
1CA
102
{ACAD_REACTORS
330
10C
102
}
330
10C
100
AcDbScale
 70
     0
300
4:1
140
4.0
141
1.0
290
     0
  0
SCALE
  5
1CB
102
{ACAD_REACTORS
330
10C
102
}
330
10C
100
AcDbScale
 70
     0
300
8:1
140
8.0
141
1.0
290
     0
  0
SCALE
  5
1CC
102
{ACAD_REACTORS
330
10C
102
}
330
10C
100
AcDbScale
 70
     0
300
10:1
140
10.0
141
1.0
290
     0
  0
SCALE
  5
1CD
102
{ACAD_REACTORS
330
10C
102
}
330
10C
100
AcDbScale
 70
     0
300
100:1
140
100.0
141
1.0
290
     0
  0
ACDBSECTIONVIEWSTYLE
  5
21A
102
{ACAD_XDICTIONARY
360
234
102
}
102
{ACAD_REACTORS
330
219
102
}
330
219
100
AcDbModelDocViewStyle
 70
     0
  3
Metric50
290
     0
100
AcDbSectionViewStyle
 70
     0
 71
     0
 90
      102
 71
     1
340
11
 62
   256
 40
5.0
340
0
340
0
 62
   256
 40
5.0
300
I, O, Q, S, X, Z
 40
10.0
 90
        0
 40
2.5
 90
        0
 71
     2
340
16
 90
       25
 62
   256
340
16
 90
       50
 62
   256
 40
5.0
 40
2.5
 40
5.0
 71
     3
340
11
 62
   256
 40
5.0
 90
        0
 40
15.0
 90
        1
300
%<\AcVar ViewSectionStartId>%-%<\AcVar ViewSectionEndId>% (%<\AcVar ViewScale \f "%sn">%)
 71
     4
 62
   256
 62
   257
300
ANSI31
 40
1.0
 90
        0
290
     0
290
     0
 90
        6
 40
0.0
 40
1.570796326794896
 40
0.2617993877991494
 40
1.308996938995747
 40
-0.2617993877991494
 40
1.832595714594046
  0
TABLESTYLE
  5
7F
102
{ACAD_XDICTIONARY
360
162
102
}
102
{ACAD_REACTORS
330
7E
102
}
330
7E
100
AcDbTableStyle
280
     0
  3
Standard
 70
     0
 71
     0
 40
1.5
 41
1.5
280
     0
281
     0
  7
Standard
140
4.5
170
     2
 62
     0
 63
     7
283
     0
 90
      512
 91
        0
  1

274
    -2
284
     1
 64
     0
275
    -2
285
     1
 65
     0
276
    -2
286
     1
 66
     0
277
    -2
287
     1
 67
     0
278
    -2
288
     1
 68
     0
279
    -2
289
     1
 69
     0
  7
Standard
140
6.0
170
     5
 62
     0
 63
     7
283
     0
 90
      512
 91
        0
  1

274
    -2
284
     1
 64
     0
275
    -2
285
     1
 65
     0
276
    -2
286
     1
 66
     0
277
    -2
287
     1
 67
     0
278
    -2
288
     1
 68
     0
279
    -2
289
     1
 69
     0
  7
Standard
140
4.5
170
     5
 62
     0
 63
     7
283
     0
 90
      512
 91
        0
  1

274
    -2
284
     1
 64
     0
275
    -2
285
     1
 65
     0
276
    -2
286
     1
 66
     0
277
    -2
287
     1
 67
     0
278
    -2
288
     1
 68
     0
279
    -2
289
     1
 69
     0
  0
VISUALSTYLE
  5
F5
102
{ACAD_XDICTIONARY
360
6BD
102
}
102
{ACAD_REACTORS
330
EF
102
}
330
EF
100
AcDbVisualStyle
  2
2dWireframe
 70
     4
177
     2
291
     0
 71
     0
176
     1
 72
     2
176
     1
 73
     1
176
     1
 90
        0
176
     1
 40
0.6
176
     1
 41
30.0
176
     1
 63
     7
421
 16777215
176
     1
 74
     1
176
     1
 91
        4
176
     1
 64
     7
176
     1
 65
   257
176
     1
 75
     1
176
     1
175
     1
176
     1
 42
1.0
176
     1
 92
        0
176
     1
 66
   257
176
     1
 43
1.0
176
     1
 76
     1
176
     1
 77
     6
176
     1
 78
     2
176
     1
 67
     7
176
     1
 79
     5
176
     1
170
     0
176
     1
171
     0
176
     1
290
     0
176
     1
 93
        1
176
     1
 44
0.0
176
     1
173
     0
176
     1
1001
ACAD
1000
AcDbSavedByObjectVersion
1070
     0
  0
VISUALSTYLE
  5
F4
102
{ACAD_XDICTIONARY
360
6BB
102
}
102
{ACAD_REACTORS
330
EF
102
}
330
EF
100
AcDbVisualStyle
  2
Basic
 70
     7
177
     2
291
     1
 71
     1
176
     1
 72
     0
176
     1
 73
     1
176
     1
 90
        0
176
     1
 40
0.6
176
     1
 41
30.0
176
     1
 63
     7
421
 16777215
176
     1
 74
     0
176
     1
 91
        4
176
     1
 64
     7
176
     1
 65
   257
176
     1
 75
     1
176
     1
175
     1
176
     1
 42
1.0
176
     1
 92
        8
176
     1
 66
     7
176
     1
 43
1.0
176
     1
 76
     1
176
     1
 77
     6
176
     1
 78
     2
176
     1
 67
     7
176
     1
 79
     5
176
     1
170
     0
176
     1
171
     0
176
     1
290
     0
176
     1
 93
        1
176
     1
 44
0.0
176
     1
173
     0
176
     1
1001
ACAD
1000
AcDbSavedByObjectVersion
1070
     0
  0
VISUALSTYLE
  5
FB
102
{ACAD_XDICTIONARY
360
6C9
102
}
102
{ACAD_REACTORS
330
EF
102
}
330
EF
100
AcDbVisualStyle
  2
Brighten
 70
    12
177
     2
291
     1
 71
     2
176
     1
 72
     2
176
     1
 73
     1
176
     1
 90
        0
176
     1
 40
0.6
176
     1
 41
30.0
176
     1
 63
     7
421
 16777215
176
     1
 74
     1
176
     1
 91
        4
176
     1
 64
     7
176
     1
 65
   257
176
     1
 75
     1
176
     1
175
     1
176
     1
 42
1.0
176
     1
 92
        8
176
     1
 66
     7
176
     1
 43
1.0
176
     1
 76
     1
176
     1
 77
     6
176
     1
 78
     2
176
     1
 67
     7
176
     1
 79
     5
176
     1
170
     0
176
     1
171
     0
176
     1
290
     0
176
     1
 93
        1
176
     1
 44
50.0
176
     1
173
     0
176
     1
1001
ACAD
1000
AcDbSavedByObjectVersion
1070
     0
  0
VISUALSTYLE
  5
FF
102
{ACAD_XDICTIONARY
360
6D1
102
}
102
{ACAD_REACTORS
330
EF
102
}
330
EF
100
AcDbVisualStyle
  2
ColorChange
 70
    16
177
     2
291
     1
 71
     2
176
     1
 72
     2
176
     1
 73
     3
176
     1
 90
        0
176
     1
 40
0.6
176
     1
 41
30.0
176
     1
 63
     8
421
  8421504
176
     1
 74
     1
176
     1
 91
        4
176
     1
 64
     7
176
     1
 65
   257
176
     1
 75
     1
176
     1
175
     1
176
     1
 42
1.0
176
     1
 92
        8
176
     1
 66
     8
424
  8421504
176
     1
 43
1.0
176
     1
 76
     1
176
     1
 77
     6
176
     1
 78
     2
176
     1
 67
     7
176
     1
 79
     5
176
     1
170
     0
176
     1
171
     0
176
     1
290
     0
176
     1
 93
        1
176
     1
 44
0.0
176
     1
173
     0
176
     1
1001
ACAD
1000
AcDbSavedByObjectVersion
1070
     0
  0
VISUALSTYLE
  5
F8
102
{ACAD_XDICTIONARY
360
6C3
102
}
102
{ACAD_REACTORS
330
EF
102
}
330
EF
100
AcDbVisualStyle
  2
Conceptual
 70
     9
177
     2
291
     0
 71
     3
176
     1
 72
     2
176
     1
 73
     1
176
     1
 90
        0
176
     1
 40
0.6
176
     1
 41
30.0
176
     1
 63
     7
421
 16777215
176
     1
 74
     2
176
     1
 91
        2
176
     1
 64
     7
176
     1
 65
   257
176
     1
 75
     1
176
     1
175
     1
176
     1
 42
40.0
176
     1
 92
        8
176
     1
 66
     7
176
     1
 43
1.0
176
     1
 76
     1
176
     1
 77
     6
176
     1
 78
     2
176
     1
 67
     7
176
     1
 79
     3
176
     1
170
     0
176
     1
171
     0
176
     1
290
     0
176
     1
 93
        1
176
     1
 44
0.0
176
     1
173
     0
176
     1
1001
ACAD
1000
AcDbSavedByObjectVersion
1070
     0
  0
VISUALSTYLE
  5
FA
102
{ACAD_XDICTIONARY
360
6C7
102
}
102
{ACAD_REACTORS
330
EF
102
}
330
EF
100
AcDbVisualStyle
  2
Dim
 70
    11
177
     2
291
     1
 71
     2
176
     1
 72
     2
176
     1
 73
     1
176
     1
 90
        0
176
     1
 40
0.6
176
     1
 41
30.0
176
     1
 63
     7
421
 16777215
176
     1
 74
     1
176
     1
 91
        4
176
     1
 64
     7
176
     1
 65
   257
176
     1
 75
     1
176
     1
175
     1
176
     1
 42
1.0
176
     1
 92
        8
176
     1
 66
     7
176
     1
 43
1.0
176
     1
 76
     1
176
     1
 77
     6
176
     1
 78
     2
176
     1
 67
     7
176
     1
 79
     5
176
     1
170
     0
176
     1
171
     0
176
     1
290
     0
176
     1
 93
        1
176
     1
 44
-50.0
176
     1
173
     0
176
     1
1001
ACAD
1000
AcDbSavedByObjectVersion
1070
     0
  0
VISUALSTYLE
  5
1E6
102
{ACAD_XDICTIONARY
360
6D7
102
}
102
{ACAD_REACTORS
330
EF
102
}
330
EF
100
AcDbVisualStyle
  2
EdgeColorOff
 70
    22
177
     2
291
     1
 71
     2
176
     0
 72
     2
176
     0
 73
     0
176
     0
 90
        0
176
     0
 40
0.6
176
     0
 41
30.0
176
     0
 63
     7
421
 16777215
176
     0
 74
     1
176
     0
 91
        4
176
     0
 64
     7
176
     0
 65
   257
176
     0
 75
     1
176
     0
175
     1
176
     0
 42
1.0
176
     0
 92
        8
176
     2
 66
     7
176
     0
 43
1.0
176
     0
 76
     1
176
     0
 77
     6
176
     0
 78
     2
176
     0
 67
     7
176
     0
 79
     5
176
     0
170
     0
176
     0
171
     0
176
     0
290
     0
176
     0
 93
        1
176
     0
 44
0.0
176
     0
173
     0
176
     0
1001
ACAD
1000
AcDbSavedByObjectVersion
1070
     0
  0
VISUALSTYLE
  5
FE
102
{ACAD_XDICTIONARY
360
6CF
102
}
102
{ACAD_REACTORS
330
EF
102
}
330
EF
100
AcDbVisualStyle
  2
Facepattern
 70
    15
177
     2
291
     1
 71
     2
176
     1
 72
     2
176
     1
 73
     1
176
     1
 90
        0
176
     1
 40
0.6
176
     1
 41
30.0
176
     1
 63
     7
421
 16777215
176
     1
 74
     1
176
     1
 91
        4
176
     1
 64
     7
176
     1
 65
   257
176
     1
 75
     1
176
     1
175
     1
176
     1
 42
1.0
176
     1
 92
        8
176
     1
 66
     7
176
     1
 43
1.0
176
     1
 76
     1
176
     1
 77
     6
176
     1
 78
     2
176
     1
 67
     7
176
     1
 79
     5
176
     1
170
     0
176
     1
171
     0
176
     1
290
     0
176
     1
 93
        1
176
     1
 44
0.0
176
     1
173
     0
176
     1
1001
ACAD
1000
AcDbSavedByObjectVersion
1070
     0
  0
VISUALSTYLE
  5
F0
102
{ACAD_XDICTIONARY
360
6B3
102
}
102
{ACAD_REACTORS
330
EF
102
}
330
EF
100
AcDbVisualStyle
  2
Flat
 70
     0
177
     2
291
     1
 71
     2
176
     1
 72
     1
176
     1
 73
     1
176
     1
 90
        2
176
     1
 40
0.6
176
     1
 41
30.0
176
     1
 63
     7
421
 16777215
176
     1
 74
     0
176
     1
 91
        0
176
     1
 64
     7
176
     1
 65
   257
176
     1
 75
     1
176
     1
175
     1
176
     1
 42
1.0
176
     1
 92
        8
176
     1
 66
     7
176
     1
 43
1.0
176
     1
 76
     1
176
     1
 77
     6
176
     1
 78
     2
176
     1
 67
     7
176
     1
 79
     5
176
     1
170
     0
176
     1
171
     0
176
     1
290
     0
176
     1
 93
       13
176
     1
 44
0.0
176
     1
173
     0
176
     1
1001
ACAD
1000
AcDbSavedByObjectVersion
1070
     0
  0
VISUALSTYLE
  5
F1
102
{ACAD_XDICTIONARY
360
6B5
102
}
102
{ACAD_REACTORS
330
EF
102
}
330
EF
100
AcDbVisualStyle
  2
FlatWithEdges
 70
     1
177
     2
291
     1
 71
     2
176
     1
 72
     1
176
     1
 73
     1
176
     1
 90
        2
176
     1
 40
0.6
176
     1
 41
30.0
176
     1
 63
     7
421
 16777215
176
     1
 74
     1
176
     1
 91
        0
176
     1
 64
     7
176
     1
 65
   257
176
     1
 75
     1
176
     1
175
     1
176
     1
 42
1.0
176
     1
 92
        0
176
     1
 66
   257
176
     1
 43
1.0
176
     1
 76
     1
176
     1
 77
     6
176
     1
 78
     2
176
     1
 67
     7
176
     1
 79
     5
176
     1
170
     0
176
     1
171
     0
176
     1
290
     0
176
     1
 93
       13
176
     1
 44
0.0
176
     1
173
     0
176
     1
1001
ACAD
1000
AcDbSavedByObjectVersion
1070
     0
  0
VISUALSTYLE
  5
F2
102
{ACAD_XDICTIONARY
360
6B7
102
}
102
{ACAD_REACTORS
330
EF
102
}
330
EF
100
AcDbVisualStyle
  2
Gouraud
 70
     2
177
     2
291
     1
 71
     2
176
     1
 72
     2
176
     1
 73
     1
176
     1
 90
        2
176
     1
 40
0.6
176
     1
 41
30.0
176
     1
 63
     7
421
 16777215
176
     1
 74
     0
176
     1
 91
        0
176
     1
 64
     7
176
     1
 65
   257
176
     1
 75
     1
176
     1
175
     1
176
     1
 42
1.0
176
     1
 92
        0
176
     1
 66
     7
176
     1
 43
1.0
176
     1
 76
     1
176
     1
 77
     6
176
     1
 78
     2
176
     1
 67
     7
176
     1
 79
     5
176
     1
170
     0
176
     1
171
     0
176
     1
290
     0
176
     1
 93
       13
176
     1
 44
0.0
176
     1
173
     0
176
     1
1001
ACAD
1000
AcDbSavedByObjectVersion
1070
     0
  0
VISUALSTYLE
  5
F3
102
{ACAD_XDICTIONARY
360
6B9
102
}
102
{ACAD_REACTORS
330
EF
102
}
330
EF
100
AcDbVisualStyle
  2
GouraudWithEdges
 70
     3
177
     2
291
     1
 71
     2
176
     1
 72
     2
176
     1
 73
     1
176
     1
 90
        2
176
     1
 40
0.6
176
     1
 41
30.0
176
     1
 63
     7
421
 16777215
176
     1
 74
     1
176
     1
 91
        0
176
     1
 64
     7
176
     1
 65
   257
176
     1
 75
     1
176
     1
175
     1
176
     1
 42
1.0
176
     1
 92
        0
176
     1
 66
   257
176
     1
 43
1.0
176
     1
 76
     1
176
     1
 77
     6
176
     1
 78
     2
176
     1
 67
     7
176
     1
 79
     5
176
     1
170
     0
176
     1
171
     0
176
     1
290
     0
176
     1
 93
       13
176
     1
 44
0.0
176
     1
173
     0
176
     1
1001
ACAD
1000
AcDbSavedByObjectVersion
1070
     0
  0
VISUALSTYLE
  5
F7
102
{ACAD_XDICTIONARY
360
6C1
102
}
102
{ACAD_REACTORS
330
EF
102
}
330
EF
100
AcDbVisualStyle
  2
Hidden
 70
     6
177
     2
291
     0
 71
     1
176
     1
 72
     2
176
     1
 73
     2
176
     1
 90
        0
176
     1
 40
0.6
176
     1
 41
30.0
176
     1
 63
     7
421
 16777215
176
     1
 74
     2
176
     1
 91
        2
176
     1
 64
     7
176
     1
 65
   257
176
     1
 75
     2
176
     1
175
     1
176
     1
 42
40.0
176
     1
 92
        0
176
     1
 66
   257
176
     1
 43
1.0
176
     1
 76
     1
176
     1
 77
     6
176
     1
 78
     2
176
     1
 67
     7
176
     1
 79
     3
176
     1
170
     0
176
     1
171
     0
176
     1
290
     0
176
     1
 93
        1
176
     1
 44
0.0
176
     1
173
     0
176
     1
1001
ACAD
1000
AcDbSavedByObjectVersion
1070
     0
  0
VISUALSTYLE
  5
1E4
102
{ACAD_XDICTIONARY
360
6D3
102
}
102
{ACAD_REACTORS
330
EF
102
}
330
EF
100
AcDbVisualStyle
  2
JitterOff
 70
    20
177
     2
291
     1
 71
     2
176
     0
 72
     2
176
     0
 73
     0
176
     0
 90
        0
176
     0
 40
0.6
176
     0
 41
30.0
176
     0
 63
     7
421
 16777215
176
     0
 74
     1
176
     0
 91
        4
176
     0
 64
     7
176
     0
 65
   257
176
     0
 75
     1
176
     0
175
     1
176
     0
 42
1.0
176
     0
 92
       10
176
     2
 66
     7
176
     0
 43
1.0
176
     0
 76
     1
176
     0
 77
     6
176
     0
 78
     2
176
     0
 67
     7
176
     0
 79
     5
176
     0
170
     0
176
     0
171
     0
176
     0
290
     0
176
     0
 93
        1
176
     0
 44
0.0
176
     0
173
     0
176
     0
1001
ACAD
1000
AcDbSavedByObjectVersion
1070
     0
  0
VISUALSTYLE
  5
FD
102
{ACAD_XDICTIONARY
360
6CD
102
}
102
{ACAD_REACTORS
330
EF
102
}
330
EF
100
AcDbVisualStyle
  2
Linepattern
 70
    14
177
     2
291
     1
 71
     2
176
     1
 72
     2
176
     1
 73
     1
176
     1
 90
        0
176
     1
 40
0.6
176
     1
 41
30.0
176
     1
 63
     7
421
 16777215
176
     1
 74
     1
176
     1
 91
        4
176
     1
 64
     7
176
     1
 65
   257
176
     1
 75
     7
176
     1
175
     7
176
     1
 42
1.0
176
     1
 92
        8
176
     1
 66
     7
176
     1
 43
1.0
176
     1
 76
     1
176
     1
 77
     6
176
     1
 78
     2
176
     1
 67
     7
176
     1
 79
     5
176
     1
170
     0
176
     1
171
     0
176
     1
290
     0
176
     1
 93
        1
176
     1
 44
0.0
176
     1
173
     0
176
     1
1001
ACAD
1000
AcDbSavedByObjectVersion
1070
     0
  0
VISUALSTYLE
  5
1E5
102
{ACAD_XDICTIONARY
360
6D5
102
}
102
{ACAD_REACTORS
330
EF
102
}
330
EF
100
AcDbVisualStyle
  2
OverhangOff
 70
    21
177
     2
291
     1
 71
     2
176
     0
 72
     2
176
     0
 73
     0
176
     0
 90
        0
176
     0
 40
0.6
176
     0
 41
30.0
176
     0
 63
     7
421
 16777215
176
     0
 74
     1
176
     0
 91
        4
176
     0
 64
     7
176
     0
 65
   257
176
     0
 75
     1
176
     0
175
     1
176
     0
 42
1.0
176
     0
 92
        9
176
     2
 66
     7
176
     0
 43
1.0
176
     0
 76
     1
176
     0
 77
     6
176
     0
 78
     2
176
     0
 67
     7
176
     0
 79
     5
176
     0
170
     0
176
     0
171
     0
176
     0
290
     0
176
     0
 93
        1
176
     0
 44
0.0
176
     0
173
     0
176
     0
1001
ACAD
1000
AcDbSavedByObjectVersion
1070
     0
  0
VISUALSTYLE
  5
F9
102
{ACAD_XDICTIONARY
360
6C5
102
}
102
{ACAD_REACTORS
330
EF
102
}
330
EF
100
AcDbVisualStyle
  2
Realistic
 70
     8
177
     2
291
     0
 71
     2
176
     1
 72
     3
176
     1
 73
     0
176
     1
 90
        2
176
     1
 40
0.6
176
     1
 41
30.0
176
     1
 63
     7
421
 16777215
176
     1
 74
     0
176
     1
 91
        0
176
     1
 64
     7
176
     1
 65
   257
176
     1
 75
     1
176
     1
175
     1
176
     1
 42
1.0
176
     1
 92
        8
176
     1
 66
   257
176
     1
 43
1.0
176
     1
 76
     1
176
     1
 77
     6
176
     1
 78
     2
176
     1
 67
     7
176
     1
 79
     3
176
     1
170
     0
176
     1
171
     0
176
     1
290
     0
176
     1
 93
       13
176
     1
 44
0.0
176
     1
173
     0
176
     1
1001
ACAD
1000
AcDbSavedByObjectVersion
1070
     0
  0
VISUALSTYLE
  5
1F3
102
{ACAD_XDICTIONARY
360
6E1
102
}
102
{ACAD_REACTORS
330
EF
102
}
330
EF
100
AcDbVisualStyle
  2
Shaded
 70
    27
177
     2
291
     0
 71
     2
176
     1
 72
     2
176
     1
 73
     1
176
     1
 90
        2
176
     1
 40
0.6
176
     1
 41
30.0
176
     1
 63
     7
421
 16777215
176
     1
 74
     0
176
     1
 91
        4
176
     1
 64
     7
176
     1
 65
   257
176
     1
 75
     1
176
     1
175
     1
176
     1
 42
1.0
176
     1
 92
        8
176
     1
 66
   257
176
     1
 43
1.0
176
     1
 76
     1
176
     1
 77
     6
176
     1
 78
     2
176
     1
 67
     8
425
  7895160
176
     1
 79
     3
176
     1
170
     0
176
     1
171
     0
176
     1
290
     0
176
     1
 93
        5
176
     1
 44
0.0
176
     1
173
     0
176
     1
1001
ACAD
1000
AcDbSavedByObjectVersion
1070
     0
  0
VISUALSTYLE
  5
1F2
102
{ACAD_XDICTIONARY
360
6DF
102
}
102
{ACAD_REACTORS
330
EF
102
}
330
EF
100
AcDbVisualStyle
  2
Shaded with edges
 70
    26
177
     2
291
     0
 71
     2
176
     1
 72
     2
176
     1
 73
     1
176
     1
 90
        2
176
     1
 40
0.6
176
     1
 41
30.0
176
     1
 63
     7
421
 16777215
176
     1
 74
     1
176
     1
 91
       10
176
     1
 64
     7
176
     1
 65
   257
176
     1
 75
     2
176
     1
175
     1
176
     1
 42
1.0
176
     1
 92
        8
176
     1
 66
   257
176
     1
 43
1.0
176
     1
 76
     1
176
     1
 77
     6
176
     1
 78
     2
176
     1
 67
     7
176
     1
 79
     3
176
     1
170
     0
176
     1
171
     0
176
     1
290
     0
176
     1
 93
        5
176
     1
 44
0.0
176
     1
173
     0
176
     1
1001
ACAD
1000
AcDbSavedByObjectVersion
1070
     0
  0
VISUALSTYLE
  5
1EF
102
{ACAD_XDICTIONARY
360
6D9
102
}
102
{ACAD_REACTORS
330
EF
102
}
330
EF
100
AcDbVisualStyle
  2
Shades of Gray
 70
    23
177
     2
291
     0
 71
     2
176
     1
 72
     2
176
     1
 73
     3
176
     1
 90
        0
176
     1
 40
0.6
176
     1
 41
30.0
176
     1
 63
     7
421
 16777215
176
     1
 74
     2
176
     1
 91
        2
176
     1
 64
     7
176
     1
 65
     7
176
     1
 75
     1
176
     1
175
     1
176
     1
 42
40.0
176
     1
 92
        8
176
     1
 66
     7
176
     1
 43
1.0
176
     1
 76
     1
176
     1
 77
     6
176
     1
 78
     2
176
     1
 67
     7
176
     1
 79
     3
176
     1
170
     0
176
     1
171
     0
176
     1
290
     0
176
     1
 93
        1
176
     1
 44
0.0
176
     1
173
     0
176
     1
1001
ACAD
1000
AcDbSavedByObjectVersion
1070
     0
  0
VISUALSTYLE
  5
1F0
102
{ACAD_XDICTIONARY
360
6DB
102
}
102
{ACAD_REACTORS
330
EF
102
}
330
EF
100
AcDbVisualStyle
  2
Sketchy
 70
    24
177
     2
291
     0
 71
     1
176
     1
 72
     2
176
     1
 73
     2
176
     1
 90
        0
176
     1
 40
0.6
176
     1
 41
30.0
176
     1
 63
     7
421
 16777215
176
     1
 74
     2
176
     1
 91
        2
176
     1
 64
     7
176
     1
 65
     7
176
     1
 75
     1
176
     1
175
     1
176
     1
 42
40.0
176
     1
 92
       11
176
     1
 66
     7
176
     1
 43
1.0
176
     1
 76
     1
176
     1
 77
     6
176
     1
 78
     2
176
     1
 67
     7
176
     1
 79
     6
176
     1
170
     0
176
     1
171
     0
176
     1
290
     0
176
     1
 93
        1
176
     1
 44
0.0
176
     1
173
     0
176
     1
1001
ACAD
1000
AcDbSavedByObjectVersion
1070
     0
  0
VISUALSTYLE
  5
FC
102
{ACAD_XDICTIONARY
360
6CB
102
}
102
{ACAD_REACTORS
330
EF
102
}
330
EF
100
AcDbVisualStyle
  2
Thicken
 70
    13
177
     2
291
     1
 71
     2
176
     1
 72
     2
176
     1
 73
     1
176
     1
 90
        0
176
     1
 40
0.6
176
     1
 41
30.0
176
     1
 63
     7
421
 16777215
176
     1
 74
     1
176
     1
 91
        4
176
     1
 64
     7
176
     1
 65
   257
176
     1
 75
     1
176
     1
175
     1
176
     1
 42
1.0
176
     1
 92
       12
176
     1
 66
     7
176
     1
 43
1.0
176
     1
 76
     1
176
     1
 77
     6
176
     1
 78
     2
176
     1
 67
     7
176
     1
 79
     5
176
     1
170
     0
176
     1
171
     0
176
     1
290
     0
176
     1
 93
        1
176
     1
 44
0.0
176
     1
173
     0
176
     1
1001
ACAD
1000
AcDbSavedByObjectVersion
1070
     0
  0
VISUALSTYLE
  5
F6
102
{ACAD_XDICTIONARY
360
6BF
102
}
102
{ACAD_REACTORS
330
EF
102
}
330
EF
100
AcDbVisualStyle
  2
Wireframe
 70
     5
177
     2
291
     0
 71
     0
176
     1
 72
     2
176
     1
 73
     0
176
     1
 90
        0
176
     1
 40
0.6
176
     1
 41
30.0
176
     1
 63
     7
421
 16777215
176
     1
 74
     1
176
     1
 91
        4
176
     1
 64
     7
176
     1
 65
   257
176
     1
 75
     1
176
     1
175
     1
176
     1
 42
1.0
176
     1
 92
        0
176
     1
 66
   257
176
     1
 43
1.0
176
     1
 76
     1
176
     1
 77
     6
176
     1
 78
     2
176
     1
 67
     7
176
     1
 79
     3
176
     1
170
     0
176
     1
171
     0
176
     1
290
     0
176
     1
 93
        1
176
     1
 44
0.0
176
     1
173
     0
176
     1
1001
ACAD
1000
AcDbSavedByObjectVersion
1070
     0
  0
VISUALSTYLE
  5
1F1
102
{ACAD_XDICTIONARY
360
6DD
102
}
102
{ACAD_REACTORS
330
EF
102
}
330
EF
100
AcDbVisualStyle
  2
X-Ray
 70
    25
177
     2
291
     0
 71
     2
176
     1
 72
     2
176
     1
 73
     1
176
     1
 90
        1
176
     1
 40
0.5
176
     1
 41
30.0
176
     1
 63
     7
421
 16777215
176
     1
 74
     1
176
     1
 91
        0
176
     1
 64
     7
176
     1
 65
   257
176
     1
 75
     1
176
     1
175
     1
176
     1
 42
1.0
176
     1
 92
        8
176
     1
 66
     7
176
     1
 43
1.0
176
     1
 76
     1
176
     1
 77
     6
176
     1
 78
     2
176
     1
 67
     7
176
     1
 79
     3
176
     1
170
     0
176
     1
171
     0
176
     1
290
     0
176
     1
 93
       13
176
     1
 44
0.0
176
     1
173
     0
176
     1
1001
ACAD
1000
AcDbSavedByObjectVersion
1070
     0
  0
DICTIONARYVAR
  5
146
102
{ACAD_REACTORS
330
5E
102
}
330
5E
100
DictionaryVariables
280
     0
  1
1:1
  0
DICTIONARYVAR
  5
145
102
{ACAD_REACTORS
330
5E
102
}
330
5E
100
DictionaryVariables
280
     0
  1
STANDARD
  0
DICTIONARYVAR
  5
84
102
{ACAD_REACTORS
330
5E
102
}
330
5E
100
DictionaryVariables
280
     0
  1
STANDARD
  0
DICTIONARYVAR
  5
227
102
{ACAD_REACTORS
330
5E
102
}
330
5E
100
DictionaryVariables
280
     0
  1
Metric50
  0
DICTIONARYVAR
  5
228
102
{ACAD_REACTORS
330
5E
102
}
330
5E
100
DictionaryVariables
280
     0
  1
Metric50
  0
DICTIONARYVAR
  5
5F
102
{ACAD_REACTORS
330
5E
102
}
330
5E
100
DictionaryVariables
280
     0
  1
2
  0
DICTIONARYVAR
  5
63
102
{ACAD_REACTORS
330
5E
102
}
330
5E
100
DictionaryVariables
280
     0
  1
1
  0
DICTIONARYVAR
  5
1AE
102
{ACAD_REACTORS
330
5E
102
}
330
5E
100
DictionaryVariables
280
     0
  1
0
  0
DICTIONARYVAR
  5
1AF
102
{ACAD_REACTORS
330
5E
102
}
330
5E
100
DictionaryVariables
280
     0
  1
0
  0
DICTIONARY
  5
6B2
102
{ACAD_REACTORS
330
6B0
102
}
330
6B0
100
AcDbDictionary
281
     1
  0
DICTIONARY
  5
6B1
102
{ACAD_REACTORS
330
6B0
102
}
330
6B0
100
AcDbDictionary
281
     1
  3
140695215163440
350
6AB
  3
140695215163456
350
6AC
  3
140695215163472
350
6AD
  3
140695215163488
350
6AE
  3
140695215163504
350
6AF
  0
DICTIONARY
  5
236
330
21C
100
AcDbDictionary
280
     1
281
     1
  3
ACAD_XREC_ROUNDTRIP
360
6E4
  0
DICTIONARY
  5
205
330
22
100
AcDbDictionary
280
     1
281
     1
  0
DICTIONARY
  5
1F9
330
ED
100
AcDbDictionary
280
     1
281
     1
  3
FBXASSET
360
1FA
  0
DICTIONARY
  5
1F7
330
EC
100
AcDbDictionary
280
     1
281
     1
  3
FBXASSET
360
1F8
  0
DICTIONARY
  5
173
330
EE
100
AcDbDictionary
280
     1
281
     1
  3
BUMPTILE
360
175
  3
DIFFUSETILE
360
174
  3
FBXASSET
360
1FB
  3
OPACITYTILE
360
176
  3
REFLECTIONTILE
360
177
  0
DICTIONARY
  5
234
330
21A
100
AcDbDictionary
280
     1
281
     1
  3
ACAD_XREC_ROUNDTRIP
360
6E3
  0
DICTIONARY
  5
162
330
7F
100
AcDbDictionary
280
     1
281
     1
  3
ACAD_ROUNDTRIP_2008_TABLESTYLE_CELLSTYLEMAP
360
6A9
  0
DICTIONARY
  5
6BD
330
F5
100
AcDbDictionary
280
     1
281
     1
  3
ACAD_XREC_ROUNDTRIP
360
6BE
  0
DICTIONARY
  5
6BB
330
F4
100
AcDbDictionary
280
     1
281
     1
  3
ACAD_XREC_ROUNDTRIP
360
6BC
  0
DICTIONARY
  5
6C9
330
FB
100
AcDbDictionary
280
     1
281
     1
  3
ACAD_XREC_ROUNDTRIP
360
6CA
  0
DICTIONARY
  5
6D1
330
FF
100
AcDbDictionary
280
     1
281
     1
  3
ACAD_XREC_ROUNDTRIP
360
6D2
  0
DICTIONARY
  5
6C3
330
F8
100
AcDbDictionary
280
     1
281
     1
  3
ACAD_XREC_ROUNDTRIP
360
6C4
  0
DICTIONARY
  5
6C7
330
FA
100
AcDbDictionary
280
     1
281
     1
  3
ACAD_XREC_ROUNDTRIP
360
6C8
  0
DICTIONARY
  5
6D7
330
1E6
100
AcDbDictionary
280
     1
281
     1
  3
ACAD_XREC_ROUNDTRIP
360
6D8
  0
DICTIONARY
  5
6CF
330
FE
100
AcDbDictionary
280
     1
281
     1
  3
ACAD_XREC_ROUNDTRIP
360
6D0
  0
DICTIONARY
  5
6B3
330
F0
100
AcDbDictionary
280
     1
281
     1
  3
ACAD_XREC_ROUNDTRIP
360
6B4
  0
DICTIONARY
  5
6B5
330
F1
100
AcDbDictionary
280
     1
281
     1
  3
ACAD_XREC_ROUNDTRIP
360
6B6
  0
DICTIONARY
  5
6B7
330
F2
100
AcDbDictionary
280
     1
281
     1
  3
ACAD_XREC_ROUNDTRIP
360
6B8
  0
DICTIONARY
  5
6B9
330
F3
100
AcDbDictionary
280
     1
281
     1
  3
ACAD_XREC_ROUNDTRIP
360
6BA
  0
DICTIONARY
  5
6C1
330
F7
100
AcDbDictionary
280
     1
281
     1
  3
ACAD_XREC_ROUNDTRIP
360
6C2
  0
DICTIONARY
  5
6D3
330
1E4
100
AcDbDictionary
280
     1
281
     1
  3
ACAD_XREC_ROUNDTRIP
360
6D4
  0
DICTIONARY
  5
6CD
330
FD
100
AcDbDictionary
280
     1
281
     1
  3
ACAD_XREC_ROUNDTRIP
360
6CE
  0
DICTIONARY
  5
6D5
330
1E5
100
AcDbDictionary
280
     1
281
     1
  3
ACAD_XREC_ROUNDTRIP
360
6D6
  0
DICTIONARY
  5
6C5
330
F9
100
AcDbDictionary
280
     1
281
     1
  3
ACAD_XREC_ROUNDTRIP
360
6C6
  0
DICTIONARY
  5
6E1
330
1F3
100
AcDbDictionary
280
     1
281
     1
  3
ACAD_XREC_ROUNDTRIP
360
6E2
  0
DICTIONARY
  5
6DF
330
1F2
100
AcDbDictionary
280
     1
281
     1
  3
ACAD_XREC_ROUNDTRIP
360
6E0
  0
DICTIONARY
  5
6D9
330
1EF
100
AcDbDictionary
280
     1
281
     1
  3
ACAD_XREC_ROUNDTRIP
360
6DA
  0
DICTIONARY
  5
6DB
330
1F0
100
AcDbDictionary
280
     1
281
     1
  3
ACAD_XREC_ROUNDTRIP
360
6DC
  0
DICTIONARY
  5
6CB
330
FC
100
AcDbDictionary
280
     1
281
     1
  3
ACAD_XREC_ROUNDTRIP
360
6CC
  0
DICTIONARY
  5
6BF
330
F6
100
AcDbDictionary
280
     1
281
     1
  3
ACAD_XREC_ROUNDTRIP
360
6C0
  0
DICTIONARY
  5
6DD
330
1F1
100
AcDbDictionary
280
     1
281
     1
  3
ACAD_XREC_ROUNDTRIP
360
6DE
  0
XRECORD
  5
6AB
102
{ACAD_REACTORS
330
6B1
102
}
330
6B1
100
AcDbXrecord
280
     1
  1
AcDb_Thumbnail_Schema
102
{ATTRRECORD
341
6AC
  2
AcDbDs::TreatedAsObjectData
280
     1
291
     1
102
ATTRRECORD}
102
{ATTRRECORD
341
6AD
  2
AcDbDs::Legacy
280
     1
291
     1
102
ATTRRECORD}
  2
AcDbDs::ID
280
    10
 91
        8
102
{ATTRRECORD
341
6AE
  2
AcDs:Indexable
280
     1
291
     1
102
ATTRRECORD}
102
{ATTRRECORD
341
6AF
  2
AcDbDs::HandleAttribute
280
     7
282
     1
102
ATTRRECORD}
  2
Thumbnail_Data
280
    15
 91
        0
  0
XRECORD
  5
6AC
102
{ACAD_REACTORS
330
6B1
102
}
330
6B1
100
AcDbXrecord
280
     1
  1
AcDbDs::TreatedAsObjectDataSchema
  2
AcDbDs::TreatedAsObjectData
280
     1
 91
        0
  0
XRECORD
  5
6AD
102
{ACAD_REACTORS
330
6B1
102
}
330
6B1
100
AcDbXrecord
280
     1
  1
AcDbDs::LegacySchema
  2
AcDbDs::Legacy
280
     1
 91
        0
  0
XRECORD
  5
6AE
102
{ACAD_REACTORS
330
6B1
102
}
330
6B1
100
AcDbXrecord
280
     1
  1
AcDbDs::IndexedPropertySchema
  2
AcDs:Indexable
280
     1
 91
        0
  0
XRECORD
  5
6AF
102
{ACAD_REACTORS
330
6B1
102
}
330
6B1
100
AcDbXrecord
280
     1
  1
AcDbDs::HandleAttributeSchema
  2
AcDbDs::HandleAttribute
280
     7
 91
        1
284
     1
  0
XRECORD
  5
6E4
102
{ACAD_REACTORS
330
236
102
}
330
236
100
AcDbXrecord
280
     1
102
DISPLAYNAME
  1
Metric50
102
FLAGS
 90
        0
  0
XRECORD
  5
1FA
102
{ACAD_REACTORS
330
1F9
102
}
330
1F9
100
AcDbXrecord
280
     1
 70
     1
 90
429727718
  1
D62C5603-E3A1-4AEA-B7FB-FE5D8D0755AF
310
504B03040A0000080000CC70623B3DEE336E79000000790000001B0000006175746F6465736B2D64657369676E2D7061636B6167652E786D6C3C3F786D6C2076657273696F6E3D22312E302220656E636F64696E673D227574662D3822203F3E3C666F726D6174733E3C666F726D61743E687474703A2F2F736368656D612E
310
6175746F6465736B2E636F6D2F64657369676E2D7061636B6167652F323030393C2F666F726D61743E3C2F666F726D6174733E504B0304140006080800CC70623BD486FD9CA0000000F4000000130000005B436F6E74656E745F54797065735D2E786D6C7D8EC10E82300C865F65E91D8A1E8C310C0EEA1BF002731658846E
310
D98AC1B77784ABF1D8FE5FBFBF75BBCE937A534CCEB38643598122B6FEE978D0B0485F9C41B54DDD7D022595594E1A469170414C76A4D9A4D207E29CF43ECE46F218070CC6BECC4078ACAA135ACF422C856C0E68EA1BF5669944DDD7BCDE7B1F8E415D77AECB980613C2E4AC91FC167A2B244592486606FC29C8FD7F045B9A
310
EF7053A7E60B504B0304140006080800CC70623B853B8169EB0000007C01000008000000636F72652E786D6C8D90416EC3201045AF62CDB6C206821CC7C244919D9CA01740401C94182C03558F5F9C3852BBEB6A467FFE9B197D7EFC9E1EC5975982F5AE035262288C535E5B377690E21535501C055FBC8FBF6C503839990E
310
5619041F179FE64D52DE45E362569DD7661365082642A11EB9E920A89B99642953CC8E702F67A9EE7234257977194EC9EAE275C4EABCCF5EAD5940D4AC6F0E35A568B8F43562CD7046CD199FD07E60174276A7BE677B5EADB0E0D14EEFFB6A31321A0D82627C4084204C3F096B71DD52F6819B16635EADF63F509AF53FA164
310
5DDCD1EDDD17164090FCC8732078B56691CB33A85CD7DCC40F504B0304140006080800CC70623B55019EA25F0000007C00000007000000636E782E786D6C4DCB3B0E80201045D1AD90E915ED2CF8AC45050C11660C8261F98AB1B07AC9C97D42D718D865D3E909258CFD00CCE24AC6E326A164D74DC0B4128928FF32603847
310
2BA13128B1252AC747C6BAB984FC68F0B87FE8960A5C09FE86CFB69FBA01504B0304140006080800CC70623BDBABAAF470010000D40300000C0000006662782F636F72652E786D6CC553D16E823014FD95A6AF4B694182CC941A83FA05FB810A9511A125A5257EFE2E82712ECEB8A7F100CD39F7F69E734AF9FADC366850B6
310
AF8DCE7018308C942E4C59EB2AC3DE1D498AD15A706B8CFB56869196ADCAF00863C12B6B7C374385D14E6907A836A59A41D9F7CA615434B0C8705F7CAA5606D23BA8E84F41278B93AC54100640439DE0BDB320004D43C63716C7C399D30917DCFBBA9CD9BA8469F5B156168B24CED3F7248AC8769F27244EB73B92EED8862C
310
B7F13E0C179B3C8F979C8ECD82BBBABDAA2BAC924E9558448CBD9330242CFA08E3154B5651FCC6D215639C8EE5774DBE2B5F6CF2B5768B68963BB5F5588420E442FC700B1139D4CB01F450C1E918227C2E09DF070D8140C84E1E9AAB8F1340832A9CB13130A5F1376A908D57309505ECF2A0DF179C4E9D30F5B239B87E3823
310
7A79C6F31DE1A8A5AEC08474B03C7837EAE4938639B44E5932B833D2C6B6B279CDC613877FA26EE21F4A2A4C63EC7F29A2F301D1F9F7A0E37D145F504B0304140006080800CC70623B9C113CC27E0000009D0000000B0000006662782F636E782E786D6C4DCCDF0A83201C86E15B91DFB94BFB330DD428C8FB886521330DA7
310
6397BF1A1DECE883878F57749FCDA1B7892F1BBC047A23808C7F84D9FA55424E0BE6803A256208E9EF06C84F9B91703228B1C690F78B66B34CD9A5439DF5CF0BFBF65E35BCA1B8D6A5C6F540381E886698B5741C695F9503EBA150A2F8958E3DC3EA0B504B0304140006080800CC70623B7DF2F77C2A010000120200003100
310
00006662782F41393633353835312D344632462D344230382D423046372D3739314545314133324237412F636F72652E786D6C8D51DB8EC22014FC15C2939B0D2DB4B45643319AE817EC0F6041255A68B86CFCFC856D4D76DF7CE190393373060EDB3DC707F856CE6B6B7A480A0C81328395DA5C7B18C3057510EC3873D686
310
3F34088C18550F330C39BB3A1BA7051AAC09CA84841A2BD5020AEF55806078A44B0FFD7053A328440C89E1EFC52486BBB8AA8214A99D789CF9E05200300FC927E4FB4D5B375D43103D5527440FB843077C5AA3F5861C8F645F5787F59E95B390B318B55CE45AA638FAA2957BD7248B390B7A7CC51F9C124149C82B8C378810
310
84AB2F42B7B8DD56F413775B8C5999E9FF4471926F8AA236A1AE96B8B3CC434E5839373893369E1FAF30EA395917409EB7F26AF8801C171837A4A6AC9C89E9F9C9B1A58BA30FD6A5EF5DDDCF894B9AD9B6A59C957943A9FCAE2FD5BC4DFE03504B0304140006080800CC70623BAD7543B64E01000033030000300000006662
310
782F41393633353835312D344632462D344230382D423046372D3739314545314133324237412F636E782E786D6CD593CD6EC32010845F0571AD6CE3D48AD20813A9873E410FBD12D82434182C7EAAE6EDBB2424CD25871E7B41D6EC30B3FA84F9E67BB2E40B4234DE8DB46F1925E094D7C6ED479AD3AE5951B2113C789FEE
310
6C943839C1488B4C05DF079FE72A69D8C96C13AAD6B8631503449F83828872B949AC57D26200B826A308D316B4064D6E46FCDA41C05550DC9E483A00797BFD207EFB092A45DE9514C1BBD22178396BD39D891265658C238DEA00936C654E5E433CB65A26D9F6EDB5EBC14EBF49A45CB856E66048291F6939A9A81BB5C89177
310
38143CA680F4AA299D66A042CEB3354A2684DC9D8D178FE0D9B8B41CAAD720F880EE7EF93C0C18769E099ECC04D5A102C8049A8A05632F4DDF376CF1DE0F6BB65C2F8627B65A33C6BB62177CEBBDAD973006829F89F22E814B54F4BC2BE347F8AA8F681390B50FA73F804400B5F542E796F19FF974E7F78DB802FE05E20750
310
4B0304140006080800CC70623BE75B7789680500003C100000340000006662782F41393633353835312D344632462D344230382D423046372D3739314545314133324237412F6F626A656374732E786D6CAD575B8F9B3818FD2B887D06C22499CB8AA1CA655245D5B455A356FB305264C061D8018C6C3393D95FBFC7600890
310
A4CD5EF210B0B1BFEBF98E3F7B1FF6596ABC522E1296DF9BAE3D320D9A872C4AF2F8DE2CE5CEBA358D0FBEC719939D65A691938CDE9B6ADAF4BD98B3B2D05311DD91329583D9D5FC0F438434A7A611A644887B5384CF34233629258BA878B12322891DEFF6B66BD70BFB62634E8AE781D082709A4B588AF91C528CDA28B73F
310
1C998EEF39EABBEFA97FBD6A7C7E9553F9D3D79FE442923C3C523610337627CB87ABE99D359D4CC6D6E4FACAB5E6ABF9D2726FC6A3C5F56271377BB88362213924694B38DD99FE47C48627A1E7D49F5A8BB5E1A74C0A599ED3B0F21F1E56366B89112D681E218F0915D0D6F17AD41FBA2A369DCF6335D62ABBD39779D5DDD1
310
11D4D8DE3CBB96B2E04FB8202E41051754A1AA8E8F76B4C6DFE810B580B1547F4B84911149794252234D024EF8BBE963A95AE27B3D310A9D5C215C7960FAEE415ED75694C6AFB17BCACA5D99A60A9AA65F217B0BFC53292ACB92BF283FAD0D3621576592CB5BED907C2FA8E9DF794E35E97BEA31BED21FEB401ABB94C44839
310
DCACBF0E1C5DA8DA5B2F4DFFD32AD86F543D9E565E7056502E157C00AD2671CD534549AB752FCA9CDA00677A313F04E51B22FF19E57B300579E3C97EB29F682D92935CEC18CF901B7B54FD8C51F362B56FC72FE0B3C1EAE335EDCCBF5AEC39ADB17DC238973F804BA5E6F6BFE7AF1FB32E523BE9F3BD571418E3631DCA4D48
310
5250CF639223210A9446CA30052EDF057BD35F8329C1ECD84552BF0DC8D18BE7BCE23BFE6BD960AB4A7DE79923A103BEBD80F911CBAA2C60DB19B01CF164A5583B772EE6D3FFA56666CBCDA74DC97724A48F9A58967497E489C4D979006FD7A05E227A1EBDD0F737C623387A9C844D3709995625106D157315F8B8392CD4E0
310
A0B9A720C4BE9829CEF37EA1E13111214D53925356365ADA634861B52519DD27A00AEB808EAF0628E6F435519D446F45CF2C9CF5214F0A15B2F6D06B79DA3EE3CBF7F56780D2F4E7EF73A0F5E5B02A38D07DC852C6B7C1FBB6664213E0C39E3EBA7FF4E1AD23EA2829407C85E586727488B751B2DB9502BC7B228A3FD68B6E
310
A65A22397E690AA8D158D7E404EC8CDA235CC3B7D1898680131CEC2CDF2638C65196279577750F15884AEE19F94199155B92B13297978469D4F8D358DF0AEF7631E28DC8F0D9F437D5D39A83B2231A1D52D543813A824EF8D44BCFF2FA6A31BD1E8DAD87F1CCB526B3879935BF59CDADD5C37479BB1CDD4CA7B3556B516589
310
EF352754B706114D9C885EC9131DE6EFEB43D99AFE2391C2F958179413D7CFEF6B1B6DB1E7600F00DE6E5C67454A339A4BA2E0FBA85ED26F045D454F463DBFCE484C2F90F2E5E3666003662ED8F755951A7D1BECD5B30B550B2785C8E7320B7292A4838DDA71BBC863ED7613CAF659337A3354231D4FF4A182A54904C2898C
310
98B28C4AD0CE056CCF332A80986E571EE9DBC305BB5FEB7E509220A58D25CF042D712A806AC0AD0C657FDEF80D2D9CEAA2EE4D1C76F60BFE74219A06527D6F82DF6412526107381E55E353090704D085B52408A8913C4ED159D79BDA71BB4BC506F4831350EB6F975CD22D69BF7AC49B91A2C0A9DDA3D5CA36AD20FC478E37
310
E61844E2352865EBCB61A275A65283CAAA9DD27703B4102F5AF51EF5F573B75CBB5AD38BC845F7A49F82A0966A49C2E3EA5EA0ECD326CD965F1DB402C6FA8B51A4658C5C5E2EC9E214602E55810345408596591009A82E7E7FFACA19EEA299B14A0081A705CB3296EBC14CDF658DCD336EA6D1136881AAEB87B81AB9EE53D5
310
F5EB8BC8362082DA24122F98680A4E7930C01A0079749CEA14382A0783E5EBA5A10F8C098456A03D6A4AEB6BB881E2513747552A5DB22C7EDAF83BD5528081A365F7FF06504B0304140006080000CC70623B000000000000000000000000350000006662782F41393633353835312D344632462D344230382D423046372D37
310
39314545314133324237412F76657274696365732E62696E504B0304140006080800CC70623BF270F1330600000004000000360000006662782F41393633353835312D344632462D344230382D423046372D3739314545314133324237412F747269616E676C65732E62696E636660600000504B0304140006080000CC7062
310
3B000000000000000000000000370000006662782F41393633353835312D344632462D344230382D423046372D3739314545314133324237412F617474726962757465732E62696E504B0304140006080800CC70623B08DA0BD19000000041010000360000006662782F41393633353835312D344632462D344230382D4230
310
46372D3739314545314133324237412F6469726563746F72792E786D6C858F410AC3201045AF22B36F53E9A60B35CBEEBAE80D244E44489C6234F4F835464A48035D0DF398FF9F8AF63D0E6CC63039F212F8F9020C7D47C6792B21C5FE7403D62A1188E2E60C98D7234A5830286103A55745067B9D86B8A3CF9C7F90C11DE6
310
07FB144396D7B6A82D282E9A152AD114D5EF2CB866EEE831B8EEA07A7BB5A8D7D61A2BAAEB7FD5F70921FF497D00504B0304140006080800CC70623BEDD1DC58FD000000A00100003B0000006662782F41393633353835312D344632462D344230382D423046372D3739314545314133324237412F7265736F75726365732F
310
636F72652E786D6C8D504B6E833010BD0A9A6D65B00922041947112427E8052C33A156828DFCA97AFC9A40A576D7CDCCE87D344F8F9FBFE667F689CE6B6B3A6039850C8DB2A336530731DC4903D95970676DF82583CCC8193B5861107C72362E3BA4AC096842428D1D7107A5F7182053CF7474E0D507CE32973124857FE48B
310
540F3961CEF244279DE03EB81420DB9EAC1384436FA353E879B1B182C7A8C75DA3C7F453DF353A1075D537A7BA6464B8F535A99AE14A9A2BBD90E350DD183B5CFABE3AF262350B1EF4FC9351399401471025A527C218A1E53BAB5A5AB765F5469B96525EACF23FA6B88CFF34456DC2A1DCE36E360F82A5202F42F062ED2BAD
310
579969AFDD8A6F504B010214000A0000080000CC70623B3DEE336E79000000790000001B00000000000000000000000000000000006175746F6465736B2D64657369676E2D7061636B6167652E786D6C504B01021400140006080800CC70623BD486FD9CA0000000F40000001300000000000000000000000000B20000005B
310
436F6E74656E745F54797065735D2E786D6C504B01021400140006080800CC70623B853B8169EB0000007C010000080000000000000000000000000083010000636F72652E786D6C504B01021400140006080800CC70623B55019EA25F0000007C000000070000000000000000000000000094020000636E782E786D6C504B
310
01021400140006080800CC70623BDBABAAF470010000D40300000C00000000000000000000000000180300006662782F636F72652E786D6C504B01021400140006080800CC70623B9C113CC27E0000009D0000000B00000000000000000000000000B20400006662782F636E782E786D6C504B01021400140006080800CC70
310
623B7DF2F77C2A010000120200003100000000000000000000000000590500006662782F41393633353835312D344632462D344230382D423046372D3739314545314133324237412F636F72652E786D6C504B01021400140006080800CC70623BAD7543B64E010000330300003000000000000000000000000000D2060000
310
6662782F41393633353835312D344632462D344230382D423046372D3739314545314133324237412F636E782E786D6C504B01021400140006080800CC70623BE75B7789680500003C10000034000000000000000000000000006E0800006662782F41393633353835312D344632462D344230382D423046372D3739314545
310
314133324237412F6F626A656374732E786D6C504B01021400140006080000CC70623B0000000000000000000000003500000000000000000000000000280E00006662782F41393633353835312D344632462D344230382D423046372D3739314545314133324237412F76657274696365732E62696E504B01021400140006
310
080800CC70623BF270F133060000000400000036000000000000000000000000007B0E00006662782F41393633353835312D344632462D344230382D423046372D3739314545314133324237412F747269616E676C65732E62696E504B01021400140006080000CC70623B0000000000000000000000003700000000000000
310
000000000000D50E00006662782F41393633353835312D344632462D344230382D423046372D3739314545314133324237412F617474726962757465732E62696E504B01021400140006080800CC70623B08DA0BD1900000004101000036000000000000000000000000002A0F00006662782F41393633353835312D344632
310
462D344230382D423046372D3739314545314133324237412F6469726563746F72792E786D6C504B01021400140006080800CC70623BEDD1DC58FD000000A00100003B000000000000000000000000000E1000006662782F41393633353835312D344632462D344230382D423046372D3739314545314133324237412F7265
310
736F75726365732F636F72652E786D6C504B0506000000000E000E0080040000641100000000
  0
XRECORD
  5
1F8
102
{ACAD_REACTORS
330
1F7
102
}
330
1F7
100
AcDbXrecord
280
     1
 70
     1
 90
429727718
  1
30362254-06B7-45E0-A893-8CFA70E3D6BC
310
504B03040A0000080000CC70623B3DEE336E79000000790000001B0000006175746F6465736B2D64657369676E2D7061636B6167652E786D6C3C3F786D6C2076657273696F6E3D22312E302220656E636F64696E673D227574662D3822203F3E3C666F726D6174733E3C666F726D61743E687474703A2F2F736368656D612E
310
6175746F6465736B2E636F6D2F64657369676E2D7061636B6167652F323030393C2F666F726D61743E3C2F666F726D6174733E504B0304140006080800CC70623BD486FD9CA0000000F4000000130000005B436F6E74656E745F54797065735D2E786D6C7D8EC10E82300C865F65E91D8A1E8C310C0EEA1BF002731658846E
310
D98AC1B77784ABF1D8FE5FBFBF75BBCE937A534CCEB38643598122B6FEE978D0B0485F9C41B54DDD7D022595594E1A469170414C76A4D9A4D207E29CF43ECE46F218070CC6BECC4078ACAA135ACF422C856C0E68EA1BF5669944DDD7BCDE7B1F8E415D77AECB980613C2E4AC91FC167A2B244592486606FC29C8FD7F045B9A
310
EF7053A7E60B504B0304140006080800CC70623B1EC5D7A3EB0000007C01000008000000636F72652E786D6C8D90416EC3201045AF82665B6103C6756C6122AB4D4ED00B204C5C94182C03558F5F9C3852BBEB6A467FFE9B197D71FC9E6FE8CBACC17AD7032D0820E3B41FAD9B7A48F1820F808E52ACDEC75F36404ECDA687
310
4D0629A6D5A76597B477D1B89855E747B38B2A041301E95B6E7A08FAD3CCAA50296647B8168BD2573599823EBB0CA76447F43862C7BCCF5EAC59410E4DDD9C7973C2755553CCCFA4C603E3040F1565ED3B1FDE4E432BCA0D9622DAF9795FAF464533826484B498524CD807E51D79ED187F21878E10516EF63F505AC67F42C9
310
BA58B1FDDD071640D2FCC87D2045B96591CB3DA85CB7DCE40F504B0304140006080800CC70623B55019EA25F0000007C00000007000000636E782E786D6C4DCB3B0E80201045D1AD90E915ED2CF8AC45050C11660C8261F98AB1B07AC9C97D42D718D865D3E909258CFD00CCE24AC6E326A164D74DC0B4128928FF32603847
310
2BA13128B1252AC747C6BAB984FC68F0B87FE8960A5C09FE86CFB69FBA01504B0304140006080800CC70623B8C9102E971010000D40300000C0000006662782F636F72652E786D6CC5535B6E833010BC8AE5DF0A6C08340F1947A84D4ED00B38C6A128602363A31CBFCB234A53A551FA553EC09AD9F5CE8C31DB9E9B1AF5CA
310
7695D1198E428A91D2D214952E33ECDD315861B4E5CC1AE3BE9561A445A3323CC098B3D21ADFCE9034DA29ED00D5A6503328BA4E398C640D8B0C77F253352214DE4145770A5B214FA2546114020D759C75CE8200340D19DE981F0F6746269C33EFAB6266AB02A655C74A59CCF365BADC27CB5D902ED22848F6340DF238A141
310
BE88E2F57B92BFEDF23523433367AE6A2EEAA455C2A902F398D2751045018D3FA264435F3771F242571B4A1919CA6F9A7C5B3CD9E42BED16F12C776AEB308F40C848FC700B1139D4891EF410CEC810227CC6846F8386402064270EF5C5C709A05E49676C024C61FC95EA45ED154CA5211D1FF4FB8291A913A68E9B83EBBB33
310
E2A7673CDE118E5AE8124C0807CB8377834E366998436B950D7A7746DAD846D4CFD978E0F04FD455FC5D49D2D4C6FE9722321F10997F0F32DC47FE05504B0304140006080800CC70623BFFEA85907E0000009D0000000B0000006662782F636E782E786D6C4DCCD10A83201886E15B91FFDC95D95A811AB6F23E625948A6C3
310
E9D8E5AF46073BFAE0E1E365ED67B3E8ADC3CB78C7815C7240DA3DFC64DCC221C519D7805AC182F7F1EF06C88D9BE6703008B6049F9E274D7A1E938DBB5AE3D6131B2589BA0D3D965551E0B2EA732C9B9A624AAEB41E3A557677029960D9AFB4EF11165F504B0304140006080800CC70623B4FEEA4082C0100001202000031
310
0000006662782F39464131463745442D413632322D343644302D413938332D3331353338454246344243312F636F72652E786D6C8D515B6EC32010BC0AE2AB55850DD871ED0813254D72825EC00192A2C460F1A872FC42ED48ED5F7E00CDCECCCEB26C731F6FE05B39AFADE921293004CA082BB5B9F43086336A21D870E6AC
310
0D7F68109861543DCC30E4ECE26C9C164858139409093556AA051CBC570102714B8F1E7AF1A5C6A11862480C7F2DA6415C878B2A4891CA89C7990F2E050073937C42DE1DB7E4F87ED8A36D4329AA9B3D46DBAEAD504556557BD81DEBDD0761E52CE42C462D17B996298E3E6BE59E35C962CE821E1FF18553435012728A7187
310
0841987E927A8D9B35ADDF70BBC6989599FE4F1427F9A4286A132ABAC49D651EF234CD5CE04CDA78BA3DC2A8FB645D00B9DF8B57E215725C60BCA2A463E54C4CE327C7A65E1C7DB02E7DEFCBF594B864C5CA6CDBD49C957943E9FA5D5FBAF336F90F504B0304140006080800CC70623BAD7543B64E01000033030000300000
310
006662782F39464131463745442D413632322D343644302D413938332D3331353338454246344243312F636E782E786D6CD593CD6EC32010845F0571AD6CE3D48AD20813A9873E410FBD12D82434182C7EAAE6EDBB2424CD25871E7B41D6EC30B3FA84F9E67BB2E40B4234DE8DB46F1925E094D7C6ED479AD3AE5951B2113C
310
789FEE6C943839C1488B4C05DF079FE72A69D8C96C13AAD6B8631503449F83828872B949AC57D26200B826A308D316B4064D6E46FCDA41C05550DC9E483A00797BFD207EFB092A45DE9514C1BBD22178396BD39D891265658C238DEA00936C654E5E433CB65A26D9F6EDB5EBC14EBF49A45CB856E66048291F6939A9A81BB5
310
C8917738143CA680F4AA299D66A042CEB3354A2684DC9D8D178FE0D9B8B41CAAD720F880EE7EF93C0C18769E099ECC04D5A102C8049A8A05632F4DDF376CF1DE0F6BB65C2F8627B65A33C6BB62177CEBBDAD973006829F89F22E814B54F4BC2BE347F8AA8F681390B50FA73F804400B5F542E796F19FF974E7F78DB802FE05
310
E207504B0304140006080800CC70623B16AB87BA640500003C100000340000006662782F39464131463745442D413632322D343644302D413938332D3331353338454246344243312F6F626A656374732E786D6CAD575B6FA33818FD2B887DE6924B3BED8A326A92B68A663B534DD4D13E548A0C38942D60649B369D5FBFC7
310
600890A493BDE42160637FD7F31D7FF63E6FB3D478A55C242CBF3247B66B1A340F5994E4F19559CA8D75611A9F7D8F33263BCB4C232719BD32D5B4E97B316765A1A722BA21652A07B3B7B33F0D11D29C9A46981221AE4C113ED38CD8A4942CA2E2C58E882476BCD9DA23BB5ED8171B73523C0F841684D35CC252CCE79062D4
310
468DFA43D7747CCF51DF7D4FFDEB5593E3AB9CCA9FBEFE241792E4E19EB28198C968BAB8199F5D5A67D3E9C49A9E8F47D6EC76B6B0469F26EEFC7C3EBFBCBEB98462213924694B38DD98FE1D62C393D073EA4FADC5DAF04326852CCF6958F90F0F2B9BB5C48816348F90C7840A68EB78EDF68723159BCEE7891A6B95DDE9D3
310
BCEAEEE8086A6C6F9E5D4B59F0175C10A7A0820BAA5055C7473B5AE3CFDD452D602CD5DF12616444529E90D448938013FE6EFA58AA96F85E4F8C42275708571E98FE6827AF6B2B4AE3D7D83D64E5A64C53054DD3AF90BD06FEA9149565C94FCA0F6B834DC85599E4F2423B24DF0B6AFA979E534DFA9E7A4CC6FA631D486393
310
921829879BF5D781A373557BCB85E97FB90DB62B558F8795179C15944B051F40AB495CF35451D26A4727654E6D8033BD98EF82F21D91FF8AF2DD9982BCF1643BDD4EB516C9492E368C67C88DED563FC36D5EACF66DFF057C3658BDBFA69DF9578B3DA735B64F18C7F20770A9D45CFCF7FCF563D6456A277DBEF78A02637CA2
310
43B90A490AEAB94F72244481D24819A6C0E59B606BFA4B3025981DBB48EAB701D97BF19C577CC77F2D1B6C55A9EF3C732474C0B727303F625995056C3B02963D9EAC146BE78EC5FCEC7FA999EBC5EACBAAE41B12D27B4D2C0BBA49F244E2ECDC81B76B502F113D8F5EE8FB1BE3111CDD4FC2AA9B844CAB1288B68AB90A7CDC
310
1C166AB0D3DC5310625FCC14E779BFD0709F8890A629C9292B1B2DED31A4B0DA928CEE135085754027E3018A397D4D5427D15BD1330B677DC8934285AC3DF45A9EB68FF8F2B8FC0A509AFEECFD0FF2DE25CC6047F7214B195F07EFEB9A094D800F7BFAE8FED187B78EA8A3A400F115961BCAD1215E47C966530AF0EE8128FE
310
58CEBB996A8964FFA529A046635D9353B0336A8F700DDF46271A024E70B0B37C9DE01847591E54DED53D54202AB947E4076556AC49C6CA5C9E1226B7F1A7B1BE15DEED62C41B91E1B3E9AFAAA735036547343A925075041DF0A9979E893B391F8FCFA6967B3EFB644DCF6E5CEBFAE272625DCC6FAF3FB93793C5F90CE1EF57
310
407342756B10D1C489E8953CD1617E5CEECAD6F4EF8914CE5D5D504E5C3F1F9736DA62CFC11E00BCDDB8CC8A9466349744C1F75EBDA4DF09BA8A9E8C7A7E9991989E20E5DBDD6A6003664ED8F7A04A8DBE0DF6EAD9B9AA858342E47399053949D2C146EDB85DE4B176BB0965FBAC19BD19AA918E27FA50C1D22402E144464C
310
59462568E704B6E71915404CB72B8FF4EDE184DDAF753F284990D2C6926782963815403548A70C657FDEF80D2D9CEAA2AE4C1C76F60BFE74219A06527D6582DF6412526107381E55E353090704D085B52408D0933C4ED159D79BDA71BB4BC506F4831350EB6F979CD22D69BF7AC49B91A2C0A9DDA3D5CA36AD20FC478E37E6
310
1844E2352865EBCB6EA275A652E3836BE04EFB400BF1A2556F515F1FBB35B2AB35BD889C744FFA1004B5544B121E57F70215746DD2F5E2C1412B602CBF19455AC6C8E5E9922C4E01E65215385004546899059180EAFCF7A707CE7017CD8CDB0410789AB32C63B91E5CEBBBACB17AC6CD347A022D5075FD106377347AAABA7E
310
7D11590744509B44E205134DC1290F06580320F78E537D3D73540E06CB970B431F185308AD40BBD794D6D77003C5A36E8EAA54BA64597CD8F83BD552A080A365F7FF06504B0304140006080000CC70623B000000000000000000000000350000006662782F39464131463745442D413632322D343644302D413938332D3331
310
353338454246344243312F76657274696365732E62696E504B0304140006080800CC70623BF270F1330600000004000000360000006662782F39464131463745442D413632322D343644302D413938332D3331353338454246344243312F747269616E676C65732E62696E636660600000504B0304140006080000CC70623B
310
000000000000000000000000370000006662782F39464131463745442D413632322D343644302D413938332D3331353338454246344243312F617474726962757465732E62696E504B0304140006080800CC70623B08DA0BD19000000041010000360000006662782F39464131463745442D413632322D343644302D413938
310
332D3331353338454246344243312F6469726563746F72792E786D6C858F410AC3201045AF22B36F53E9A60B35CBEEBAE80D244E44489C6234F4F835464A48035D0DF398FF9F8AF63D0E6CC63039F212F8F9020C7D47C6792B21C5FE7403D62A1188E2E60C98D7234A5830286103A55745067B9D86B8A3CF9C7F90C11DE607
310
FB144396D7B6A82D282E9A152AD114D5EF2CB866EEE831B8EEA07A7BB5A8D7D61A2BAAEB7FD5F70921FF497D00504B0304140006080800CC70623B0D6EF93BFE000000A00100003B0000006662782F39464131463745442D413632322D343644302D413938332D3331353338454246344243312F7265736F75726365732F63
310
6F72652E786D6C8D50596E833010BD0A9ADFCA60B334011947A8694ED00B586642AC041B79A97AFC9A40A5F6AF3F33A3B7689E1E3F7DCD8FEC139DD7D6F4C0720A191A65476DA61E62B892236427C19DB5E1970C322367EC618541F0C9D9B8EC90B226A009093576C41D94DE63804C3DD2D18357379C652E63480A7FCF17A9
310
EE72C29CE5894E3AC17D702940B63D59270887DE46A7D0F36263058F518FBB468FE9A7BE6A7420864373B8D4873369AA8691FA421B3294352543C5CAF65C0F6FEF43CB8BD52C78D0F34F46E550061C419494B6843142CB0F5677F4B52BEB177AEC28E5C52AFF638ACBF84F53D42654E51E77B379102C05791282176B5F693D
310
CB4C7BED567C03504B010214000A0000080000CC70623B3DEE336E79000000790000001B00000000000000000000000000000000006175746F6465736B2D64657369676E2D7061636B6167652E786D6C504B01021400140006080800CC70623BD486FD9CA0000000F40000001300000000000000000000000000B20000005B
310
436F6E74656E745F54797065735D2E786D6C504B01021400140006080800CC70623B1EC5D7A3EB0000007C010000080000000000000000000000000083010000636F72652E786D6C504B01021400140006080800CC70623B55019EA25F0000007C000000070000000000000000000000000094020000636E782E786D6C504B
310
01021400140006080800CC70623B8C9102E971010000D40300000C00000000000000000000000000180300006662782F636F72652E786D6C504B01021400140006080800CC70623BFFEA85907E0000009D0000000B00000000000000000000000000B30400006662782F636E782E786D6C504B01021400140006080800CC70
310
623B4FEEA4082C0100001202000031000000000000000000000000005A0500006662782F39464131463745442D413632322D343644302D413938332D3331353338454246344243312F636F72652E786D6C504B01021400140006080800CC70623BAD7543B64E010000330300003000000000000000000000000000D5060000
310
6662782F39464131463745442D413632322D343644302D413938332D3331353338454246344243312F636E782E786D6C504B01021400140006080800CC70623B16AB87BA640500003C1000003400000000000000000000000000710800006662782F39464131463745442D413632322D343644302D413938332D3331353338
310
454246344243312F6F626A656374732E786D6C504B01021400140006080000CC70623B0000000000000000000000003500000000000000000000000000270E00006662782F39464131463745442D413632322D343644302D413938332D3331353338454246344243312F76657274696365732E62696E504B01021400140006
310
080800CC70623BF270F133060000000400000036000000000000000000000000007A0E00006662782F39464131463745442D413632322D343644302D413938332D3331353338454246344243312F747269616E676C65732E62696E504B01021400140006080000CC70623B0000000000000000000000003700000000000000
310
000000000000D40E00006662782F39464131463745442D413632322D343644302D413938332D3331353338454246344243312F617474726962757465732E62696E504B01021400140006080800CC70623B08DA0BD190000000410100003600000000000000000000000000290F00006662782F39464131463745442D413632
310
322D343644302D413938332D3331353338454246344243312F6469726563746F72792E786D6C504B01021400140006080800CC70623B0D6EF93BFE000000A00100003B000000000000000000000000000D1000006662782F39464131463745442D413632322D343644302D413938332D3331353338454246344243312F7265
310
736F75726365732F636F72652E786D6C504B0506000000000E000E0080040000641100000000
  0
XRECORD
  5
175
102
{ACAD_REACTORS
330
173
102
}
330
173
100
AcDbXrecord
280
     1
270
     1
271
     1
  0
XRECORD
  5
174
102
{ACAD_REACTORS
330
173
102
}
330
173
100
AcDbXrecord
280
     1
270
     1
271
     1
  0
XRECORD
  5
1FB
102
{ACAD_REACTORS
330
173
102
}
330
173
100
AcDbXrecord
280
     1
 70
     0
 90
1673772943
  1
ECE7A1D2-D628-4531-984C-D00F80459256
310
504B03040A0000080000CC70623B3DEE336E79000000790000001B0000006175746F6465736B2D64657369676E2D7061636B6167652E786D6C3C3F786D6C2076657273696F6E3D22312E302220656E636F64696E673D227574662D3822203F3E3C666F726D6174733E3C666F726D61743E687474703A2F2F736368656D612E
310
6175746F6465736B2E636F6D2F64657369676E2D7061636B6167652F323030393C2F666F726D61743E3C2F666F726D6174733E504B0304140006080800CC70623BD486FD9CA0000000F4000000130000005B436F6E74656E745F54797065735D2E786D6C7D8EC10E82300C865F65E91D8A1E8C310C0EEA1BF002731658846E
310
D98AC1B77784ABF1D8FE5FBFBF75BBCE937A534CCEB38643598122B6FEE978D0B0485F9C41B54DDD7D022595594E1A469170414C76A4D9A4D207E29CF43ECE46F218070CC6BECC4078ACAA135ACF422C856C0E68EA1BF5669944DDD7BCDE7B1F8E415D77AECB980613C2E4AC91FC167A2B244592486606FC29C8FD7F045B9A
310
EF7053A7E60B504B0304140006080800CC70623BD9DDAED0EC0000007C01000008000000636F72652E786D6C8D90416EC3201045AF82665B61836D9CD8C2444DD39CA01740405C94182C03558F5F9C3852BBEB6A467FFE9B197D7EF89E6EE8CB2CC17A37002D0820E394D7D68D03A478C17B4007C117EFE32F1B20272733C0
310
2A83E0E3E2D3BC49CABB685CCCAAF3DA6CA20CC14440EA969B0182FA34932C648AD911AEC52CD5558EA6A0CF2EC329598D1E47ACCEFBECC59A050463A7EA5833865FEBDD0E37353BE3EE8DBDE3F6786A48D375FBF6CC78B9C282473B3DEFABC5C86834888A900E538A49F5419B9EB47DD5BC907D4F082F57FB1F28CDFA9F50
310
B22ED6D5F6EE030B20687EE43E10BC5CB3C8E51E54AE6B6EE207504B0304140006080800CC70623B55019EA25F0000007C00000007000000636E782E786D6C4DCB3B0E80201045D1AD90E915ED2CF8AC45050C11660C8261F98AB1B07AC9C97D42D718D865D3E909258CFD00CCE24AC6E326A164D74DC0B4128928FF326038
310
472BA13128B1252AC747C6BAB984FC68F0B87FE8960A5C09FE86CFB69FBA01504B0304140006080800CC70623BA24EB22D72010000D40300000C0000006662782F636F72652E786D6CC5535B6E833010BC8AE5DF0A6C5E49888CA3A6694ED00B38E05014B091B1518EDFE511A5A9D228FD2A1F60CDEC7A67C6986DCE4D8D7A
310
69BA4AAB0C073EC548AA5C17952A33ECECD15B61B4E1CC686DBF9561A44423333CC098B3D268D7CE50AE9595CA02AA74216750749DB418E5352C32DCE59FB211BE70162ABA93DF8AFC244AE9073ED050C759670D0840D390E18DF9F1706664C23973AE2A66B62A605A75ACA4C13C4976E1364A12EF355A2EBD384AF65EFA96
310
BC7B8BED2EA6719AAE16FB8491A199335B351775B991C2CA02F390D2D40B028F861F41BCA68B7518BFD0D59A524686F29B26D7164F36B94AD9289CE54E6D1DE6010819891F6E21228B3AD1831EC219194284CF98F06DD01008846CC5A1BEF83801D4CBDC6A1303536877A57A513B0953A94FC707FDBE6064EA84A9E3E6E0FA
310
EE8CF0E9198F7784A316AA0413C2C2F2E0ECA0934D1AE6D05A69BCDE9E91D2A611F573361E38FC1375157F5752AE6B6DFE4B11990F88CCBF0719EE23FF02504B0304140006080800CC70623B408A7D3B7C0000009D0000000B0000006662782F636E782E786D6C4DCCD10A83201886E15B91FFDC552A92A0064DBC8F581632
310
D3703A76F9ABD1C18E3E78F878E5F0D9027ABBFCF2292AE86E2D20171F69F6715550CB827B40839639A5F2770314A7CD293819B45C73AAFB45B35BA61ACAA1C1C7E7855C58C15BC331339661262CC762340413D68D77DA5B42298546CBE6573AF60CEB2F504B0304140006080800CC70623B449FB9BD290100001202000031
310
0000006662782F36394639363044362D344446342D343946362D394244322D3234314243333846323333332F636F72652E786D6C8D515B6EC32010BC0AE22B55850D98B871848994463E412FE002495162B07854397EA176A4F62F3F2C9A9D991D587EB84F37F0AD7D30CEF6905418026DA553C65E7A98E219ED203808EE9D
310
8B7F6810D871D23D2C3014FCE25D9A57483A1BB58D19B54EE9151C43D0110279CB971E06F9A5A7B11A53CC8C70ADE6515EC78BAE4895DB992778883E0700CB907242D17643D7E2538BD869608875438BBAE38922CAC8F1BDD90DB4691A5E2F42C153326A951B95E398B3D1FE599322163C9AE9115F7A3D46ADA0A018778810
310
84E907617BDCEE297BC5BB3DC6BC2EF47FA234AB2745C9D8D8D035EE220B50105E2F0DC1954B9FB747187D9F9D8FA0CCDB042D5FA0C015C65B42DF78BD10F3F3B363CB56C7109DCFDFBBB97E662ED92EB62D13BC2E1BCAE5777DB9966D8A1F504B0304140006080800CC70623BAD7543B64E01000033030000300000006662
310
782F36394639363044362D344446342D343946362D394244322D3234314243333846323333332F636E782E786D6CD593CD6EC32010845F0571AD6CE3D48AD20813A9873E410FBD12D82434182C7EAAE6EDBB2424CD25871E7B41D6EC30B3FA84F9E67BB2E40B4234DE8DB46F1925E094D7C6ED479AD3AE5951B2113C789FEE
310
6C943839C1488B4C05DF079FE72A69D8C96C13AAD6B8631503449F83828872B949AC57D26200B826A308D316B4064D6E46FCDA41C05550DC9E483A00797BFD207EFB092A45DE9514C1BBD22178396BD39D891265658C238DEA00936C654E5E433CB65A26D9F6EDB5EBC14EBF49A45CB856E66048291F6939A9A81BB5C89177
310
38143CA680F4AA299D66A042CEB3354A2684DC9D8D178FE0D9B8B41CAAD720F880EE7EF93C0C18769E099ECC04D5A102C8049A8A05632F4DDF376CF1DE0F6BB65C2F8627B65A33C6BB62177CEBBDAD973006829F89F22E814B54F4BC2BE347F8AA8F681390B50FA73F804400B5F542E796F19FF974E7F78DB802FE05E20750
310
4B0304140006080800CC70623B8D05915C650500003B100000340000006662782F36394639363044362D344446342D343946362D394244322D3234314243333846323333332F6F626A656374732E786D6CAD575B6FA33814FE2B887D06429276DA1565D4266D158D3A339A6846FB502932E050B66023DB74D2FDF5FB190C01
310
9276B2973C046C8ECFF53B17071F77456EBD502133CEAE6CDF9DD81665314F32965ED995DA3A17B6F5310C04E7AA47665B8C14F4CAD6DB7618A48257A5D94AE89654B91AEDDEDDFC61C998326A5B714EA4BCB265FC440BE2924AF184CA6737218AB8E976E7FA6E4338649B0A523E8D98964450A6A029F619B8588D52FE7039
310
B1BD30F0F4F730D0FF866AF6369557DB33949F31A9088B0F848DD8CCFCF9F2767A76E99CCDE733677E3EF59D9BBB9BA5E37F984D16E78BC5E5F5ED25044B25C0C96822E8D60EEFE11B91C581D77CEA34368A1F5329E68CD1B8B61F16D63A1B8E092D294B10C78C4A48EB593D192E7DED9BDEE7995E1B91FDEDD3ACEA9FE831
310
6A756F9F7D4D79F4274C90A7A04248AA51D5F8C718DAE06FB2F75AC4796EBE65D22A88A22223B995679120E2D50E41AA49C260C046A35368846B0BECD0DFF3EBEB8AD4F835768F69B9ADF25C43D30E6B646F807FAA64AD59F61715C7A54127C4AACA98BA3006A9D792DAE165E0D59B61A01FB3A9F9D838D2DAE62445C86166
310
F37564E842E7DE6A69879FEEA2DD5AE7E371E1A5E025154AC307D06A03D73EB5978C58FFA4C8E9033066E0F3BD53BEC1F39F91BE7B55103791EDE6BBB991A2046172CB4581D8B893FA674DDA17A77B3B7C413D1B511FD2743BFF8A38F03A658705E3ADF8015C3A3417FF3D7E439FF591DA0B5F18BC20C1B8981957AE6392A3
310
F43C640C01D1A0B4728E2DD4F26DB4B3C3152A252A3B4E913CEC1C72F012782FF88EFF8637AA552DBEF76408E8A8DE9E50F9E1CB3A2DA0DB1B6039A893B56063DC5B3E3FFB5F72E67AB9FEB4AEC496C4F4C1149625DD662C53E89D7BF0F6151A046260D1337DFDC94502430F83B0EE07A130A224BCAD7DAE1D9FB6CD422FF6
310
920702629C4BB9AE79C12F243C6432A6794E18E5552BA56B431AAB5D91317302B2B071E86C3A42B1A02F999E24061403B5D0EB639195DA655DD3EBEAB4FB862DDF579F014AD0E73C22F99E28DA57FB98E75C6CA2D74D53086D600F4786E0FE3144B771A8A7B900F03594DB8A633CBC49B2EDB69228BB479CF863B5E807AAAB
310
23872F6DFEB4129B949CA33823F58830E86D65621E10047D9DB34D862E8EAC3C2ABC2F7B2C40D67CDFE01F5545B92105AF983AC54D93D69E56FB8E797F88913F898A9FEC705D3F9D1B54EC8426FB500D40A03BD0119B06E1B95DDC7EB8F6975367793EBD70E66733DFB9BC982F9CE564727731999F5D4ECFCE3B8D6A4DC2A0
310
6D50FD148437D110834A64C6CDDF57FBACB5C307A2A477DFE4939736CFEF2B175371E0E10CF0DD1D5C15654E0BCA14D1E87DD02FF93782A162C0A3D95F1524A52770F972BF1EE9809D13CE7DD599467F8ECE9ADD85CE85A34CD45355448C64F9E8A031DC2D596ACC6E5DD93D9B82DE2EF5CAF81363A8E47996A0DE24564A79
310
4115AACE09C55E14540231FDA13C319787134EBF34E3A022514E5B4D9E0826E25C02D5805B15ABE1BEF51B26383D445DD9E875EE33FE4C22DA16427D65A3BCA92CA6D28DD01DF5DC53330704308475351050232CCD31583787BA75774AFB06E5070DD0C8EF484E19968C5D83BA5B90B244D31E54D55A372320FE4786B7EA58
310
44E135AA5467CB7EA333A61683CC6A8C3257034C10CF46F40EF9F5BE59BE5BD30C3C72D235E95D10345C1D45445A5F0BB47E46A5EBE5570F9380B5FA629579952296A773720405982B9DE04011506178964401AA8BDF1FBF0A8EAB6861DD6580C0E38217056766716DAEB2D6FA0917D3E4116581EADB879C4E7CFFB11EFACD
310
3D641311495D92C8676CB409A72D18610D803CE8A626049E8EC1887CB5B44CC39883690DDA8399B4B9855B481E7D71D4A9D22F96E5BB73BF5793020C02137BF837504B0304140006080000CC70623B000000000000000000000000350000006662782F36394639363044362D344446342D343946362D394244322D32343142
310
43333846323333332F76657274696365732E62696E504B0304140006080800CC70623BF270F1330600000004000000360000006662782F36394639363044362D344446342D343946362D394244322D3234314243333846323333332F747269616E676C65732E62696E636660600000504B0304140006080000CC70623B0000
310
00000000000000000000370000006662782F36394639363044362D344446342D343946362D394244322D3234314243333846323333332F617474726962757465732E62696E504B0304140006080800CC70623B08DA0BD19000000041010000360000006662782F36394639363044362D344446342D343946362D394244322D
310
3234314243333846323333332F6469726563746F72792E786D6C858F410AC3201045AF22B36F53E9A60B35CBEEBAE80D244E44489C6234F4F835464A48035D0DF398FF9F8AF63D0E6CC63039F212F8F9020C7D47C6792B21C5FE7403D62A1188E2E60C98D7234A5830286103A55745067B9D86B8A3CF9C7F90C11DE607FB14
310
4396D7B6A82D282E9A152AD114D5EF2CB866EEE831B8EEA07A7BB5A8D7D61A2BAAEB7FD5F70921FF497D00504B0304140006080800CC70623BCA768048FE000000A00100003B0000006662782F36394639363044362D344446342D343946362D394244322D3234314243333846323333332F7265736F75726365732F636F72
310
652E786D6C8D50596E833010BD0A9ADFCA60D600328E9AA639412F609909B1126CE4A5EAF16B0295DABFFECC8CDEA2797AECF8353F924FB44E193D409E5248504B332A3D0D10FC95B4901C39B3C6F85F3248B49871801506CE266BC2B243D2688FDA47549B11775038871E12F988C7004EDE7016A9083E2ADC3D5D84BC8B09
310
D33C8D74D471E6BC8D0192EDC93A815B742658898E651BCB59086ADC356A8C3FD555A1055ED7E7E254D615792D0F075295F585746FF53B694EE78A565DD736979A65AB9933AFE69F8CD2A2F038022F28ED489E135A7CE4554F9BBEA85E68DB53CAB255FEC71496F19FA6A0B42F8B3DEE6673C0F318E4497096AD7DC5F52C33
310
EEB55BFE0D504B010214000A0000080000CC70623B3DEE336E79000000790000001B00000000000000000000000000000000006175746F6465736B2D64657369676E2D7061636B6167652E786D6C504B01021400140006080800CC70623BD486FD9CA0000000F40000001300000000000000000000000000B20000005B436F
310
6E74656E745F54797065735D2E786D6C504B01021400140006080800CC70623BD9DDAED0EC0000007C010000080000000000000000000000000083010000636F72652E786D6C504B01021400140006080800CC70623B55019EA25F0000007C000000070000000000000000000000000095020000636E782E786D6C504B0102
310
1400140006080800CC70623BA24EB22D72010000D40300000C00000000000000000000000000190300006662782F636F72652E786D6C504B01021400140006080800CC70623B408A7D3B7C0000009D0000000B00000000000000000000000000B50400006662782F636E782E786D6C504B01021400140006080800CC70623B
310
449FB9BD290100001202000031000000000000000000000000005A0500006662782F36394639363044362D344446342D343946362D394244322D3234314243333846323333332F636F72652E786D6C504B01021400140006080800CC70623BAD7543B64E010000330300003000000000000000000000000000D20600006662
310
782F36394639363044362D344446342D343946362D394244322D3234314243333846323333332F636E782E786D6C504B01021400140006080800CC70623B8D05915C650500003B10000034000000000000000000000000006E0800006662782F36394639363044362D344446342D343946362D394244322D32343142433338
310
46323333332F6F626A656374732E786D6C504B01021400140006080000CC70623B0000000000000000000000003500000000000000000000000000250E00006662782F36394639363044362D344446342D343946362D394244322D3234314243333846323333332F76657274696365732E62696E504B010214001400060808
310
00CC70623BF270F13306000000040000003600000000000000000000000000780E00006662782F36394639363044362D344446342D343946362D394244322D3234314243333846323333332F747269616E676C65732E62696E504B01021400140006080000CC70623B00000000000000000000000037000000000000000000
310
00000000D20E00006662782F36394639363044362D344446342D343946362D394244322D3234314243333846323333332F617474726962757465732E62696E504B01021400140006080800CC70623B08DA0BD190000000410100003600000000000000000000000000270F00006662782F36394639363044362D344446342D
310
343946362D394244322D3234314243333846323333332F6469726563746F72792E786D6C504B01021400140006080800CC70623BCA768048FE000000A00100003B000000000000000000000000000B1000006662782F36394639363044362D344446342D343946362D394244322D3234314243333846323333332F7265736F
310
75726365732F636F72652E786D6C504B0506000000000E000E0080040000621100000000
  0
XRECORD
  5
176
102
{ACAD_REACTORS
330
173
102
}
330
173
100
AcDbXrecord
280
     1
270
     1
271
     1
  0
XRECORD
  5
177
102
{ACAD_REACTORS
330
173
102
}
330
173
100
AcDbXrecord
280
     1
270
     1
271
     1
  0
XRECORD
  5
6E3
102
{ACAD_REACTORS
330
234
102
}
330
234
100
AcDbXrecord
280
     1
102
DISPLAYNAME
  1
Metric50
102
FLAGS
 90
        0
  0
CELLSTYLEMAP
  5
6A9
102
{ACAD_REACTORS
330
162
102
}
330
162
100
AcDbCellStyleMap
 90
        3
300
CELLSTYLE
  1
TABLEFORMAT_BEGIN
 90
        5
170
     1
 91
        0
 92
    32768
 62
   257
 93
        1
300
CONTENTFORMAT
  1
CONTENTFORMAT_BEGIN
 90
        0
 91
        0
 92
      512
 93
        0
300

 40
0.0
140
1.0
 94
        5
 62
     0
340
11
144
6.0
309
CONTENTFORMAT_END
171
     1
301
MARGIN
  1
CELLMARGIN_BEGIN
 40
1.5
 40
1.5
 40
1.5
 40
1.5
 40
4.5
 40
4.5
309
CELLMARGIN_END
 94
        6
 95
        1
302
GRIDFORMAT
  1
GRIDFORMAT_BEGIN
 90
        0
 91
        1
 62
     0
 92
       -2
340
14
 93
        0
 40
1.125
309
GRIDFORMAT_END
 95
        2
302
GRIDFORMAT
  1
GRIDFORMAT_BEGIN
 90
        0
 91
        1
 62
     0
 92
       -2
340
14
 93
        0
 40
1.125
309
GRIDFORMAT_END
 95
        4
302
GRIDFORMAT
  1
GRIDFORMAT_BEGIN
 90
        0
 91
        1
 62
     0
 92
       -2
340
14
 93
        0
 40
1.125
309
GRIDFORMAT_END
 95
        8
302
GRIDFORMAT
  1
GRIDFORMAT_BEGIN
 90
        0
 91
        1
 62
     0
 92
       -2
340
14
 93
        0
 40
1.125
309
GRIDFORMAT_END
 95
       16
302
GRIDFORMAT
  1
GRIDFORMAT_BEGIN
 90
        0
 91
        1
 62
     0
 92
       -2
340
14
 93
        0
 40
1.125
309
GRIDFORMAT_END
 95
       32
302
GRIDFORMAT
  1
GRIDFORMAT_BEGIN
 90
        0
 91
        1
 62
     0
 92
       -2
340
14
 93
        0
 40
1.125
309
GRIDFORMAT_END
309
TABLEFORMAT_END
  1
CELLSTYLE_BEGIN
 90
        1
 91
        1
300
_TITLE
309
CELLSTYLE_END
300
CELLSTYLE
  1
TABLEFORMAT_BEGIN
 90
        5
170
     1
 91
        0
 92
        0
 62
   257
 93
        1
300
CONTENTFORMAT
  1
CONTENTFORMAT_BEGIN
 90
        0
 91
        0
 92
      512
 93
        0
300

 40
0.0
140
1.0
 94
        5
 62
     0
340
11
144
4.5
309
CONTENTFORMAT_END
171
     1
301
MARGIN
  1
CELLMARGIN_BEGIN
 40
1.5
 40
1.5
 40
1.5
 40
1.5
 40
4.5
 40
4.5
309
CELLMARGIN_END
 94
        6
 95
        1
302
GRIDFORMAT
  1
GRIDFORMAT_BEGIN
 90
        0
 91
        1
 62
     0
 92
       -2
340
14
 93
        0
 40
1.125
309
GRIDFORMAT_END
 95
        2
302
GRIDFORMAT
  1
GRIDFORMAT_BEGIN
 90
        0
 91
        1
 62
     0
 92
       -2
340
14
 93
        0
 40
1.125
309
GRIDFORMAT_END
 95
        4
302
GRIDFORMAT
  1
GRIDFORMAT_BEGIN
 90
        0
 91
        1
 62
     0
 92
       -2
340
14
 93
        0
 40
1.125
309
GRIDFORMAT_END
 95
        8
302
GRIDFORMAT
  1
GRIDFORMAT_BEGIN
 90
        0
 91
        1
 62
     0
 92
       -2
340
14
 93
        0
 40
1.125
309
GRIDFORMAT_END
 95
       16
302
GRIDFORMAT
  1
GRIDFORMAT_BEGIN
 90
        0
 91
        1
 62
     0
 92
       -2
340
14
 93
        0
 40
1.125
309
GRIDFORMAT_END
 95
       32
302
GRIDFORMAT
  1
GRIDFORMAT_BEGIN
 90
        0
 91
        1
 62
     0
 92
       -2
340
14
 93
        0
 40
1.125
309
GRIDFORMAT_END
309
TABLEFORMAT_END
  1
CELLSTYLE_BEGIN
 90
        2
 91
        1
300
_HEADER
309
CELLSTYLE_END
300
CELLSTYLE
  1
TABLEFORMAT_BEGIN
 90
        5
170
     1
 91
        0
 92
        0
 62
   257
 93
        1
300
CONTENTFORMAT
  1
CONTENTFORMAT_BEGIN
 90
        0
 91
        0
 92
      512
 93
        0
300

 40
0.0
140
1.0
 94
        2
 62
     0
340
11
144
4.5
309
CONTENTFORMAT_END
171
     1
301
MARGIN
  1
CELLMARGIN_BEGIN
 40
1.5
 40
1.5
 40
1.5
 40
1.5
 40
4.5
 40
4.5
309
CELLMARGIN_END
 94
        6
 95
        1
302
GRIDFORMAT
  1
GRIDFORMAT_BEGIN
 90
        0
 91
        1
 62
     0
 92
       -2
340
14
 93
        0
 40
1.125
309
GRIDFORMAT_END
 95
        2
302
GRIDFORMAT
  1
GRIDFORMAT_BEGIN
 90
        0
 91
        1
 62
     0
 92
       -2
340
14
 93
        0
 40
1.125
309
GRIDFORMAT_END
 95
        4
302
GRIDFORMAT
  1
GRIDFORMAT_BEGIN
 90
        0
 91
        1
 62
     0
 92
       -2
340
14
 93
        0
 40
1.125
309
GRIDFORMAT_END
 95
        8
302
GRIDFORMAT
  1
GRIDFORMAT_BEGIN
 90
        0
 91
        1
 62
     0
 92
       -2
340
14
 93
        0
 40
1.125
309
GRIDFORMAT_END
 95
       16
302
GRIDFORMAT
  1
GRIDFORMAT_BEGIN
 90
        0
 91
        1
 62
     0
 92
       -2
340
14
 93
        0
 40
1.125
309
GRIDFORMAT_END
 95
       32
302
GRIDFORMAT
  1
GRIDFORMAT_BEGIN
 90
        0
 91
        1
 62
     0
 92
       -2
340
14
 93
        0
 40
1.125
309
GRIDFORMAT_END
309
TABLEFORMAT_END
  1
CELLSTYLE_BEGIN
 90
        3
 91
        2
300
_DATA
309
CELLSTYLE_END
  0
XRECORD
  5
6BE
102
{ACAD_REACTORS
330
6BD
102
}
330
6BD
100
AcDbXrecord
280
     1
102
RTVSPost2010Prop28
280
     1
102
RTVSPost2010PropOp28
 70
     1
102
RTVSPost2010Prop29
280
     1
102
RTVSPost2010PropOp29
 70
     1
102
RTVSPost2010Prop30
280
     0
102
RTVSPost2010PropOp30
 70
     1
102
RTVSPost2010Prop31
280
     0
102
RTVSPost2010PropOp31
 70
     1
102
RTVSPost2010Prop32
280
     0
102
RTVSPost2010PropOp32
 70
     1
102
RTVSPost2010Prop33
280
     0
102
RTVSPost2010PropOp33
 70
     1
102
RTVSPost2010Prop34
280
     0
102
RTVSPost2010PropOp34
 70
     1
102
RTVSPost2010Prop35
280
     0
102
RTVSPost2010PropOp35
 70
     1
102
RTVSPost2010Prop36
280
     0
102
RTVSPost2010PropOp36
 70
     1
102
RTVSPost2010Prop37
 90
       50
102
RTVSPost2010PropOp37
 70
     1
102
RTVSPost2010Prop38
140
0.0
102
RTVSPost2010PropOp38
 70
     1
102
RTVSPost2010Prop39
140
1.0
102
RTVSPost2010PropOp39
 70
     1
102
RTVSPost2010Prop40
 90
        0
102
RTVSPost2010PropOp40
 70
     1
102
RTVSPost2010Prop41ColorIndex
 90
       18
102
RTVSPost2010Prop41ColorRGB
 90
        0
102
RTVSPost2010PropOp41
 70
     1
102
RTVSPost2010Prop42
 90
       50
102
RTVSPost2010PropOp42
 70
     1
102
RTVSPost2010Prop43
 90
        3
102
RTVSPost2010PropOp43
 70
     1
102
RTVSPost2010Prop44ColorIndex
 90
        5
102
RTVSPost2010Prop44ColorRGB
 90
      255
102
RTVSPost2010PropOp44
 70
     1
102
RTVSPost2010Prop45
280
     0
102
RTVSPost2010PropOp45
 70
     1
102
RTVSPost2010Prop46
 90
       50
102
RTVSPost2010PropOp46
 70
     1
102
RTVSPost2010Prop47
 90
       50
102
RTVSPost2010PropOp47
 70
     1
102
RTVSPost2010Prop48
 90
       50
102
RTVSPost2010PropOp48
 70
     1
102
RTVSPost2010Prop49
280
     0
102
RTVSPost2010PropOp49
 70
     1
102
RTVSPost2010Prop50
 90
       50
102
RTVSPost2010PropOp50
 70
     1
102
RTVSPost2010Prop51ColorIndex
 90
      256
102
RTVSPost2010Prop51ColorRGB
 90
-16777216
102
RTVSPost2010PropOp51
 70
     0
102
RTVSPost2010Prop52
140
1.0
102
RTVSPost2010PropOp52
 70
     0
102
RTVSPost2010Prop53
 90
        2
102
RTVSPost2010PropOp53
 70
     1
102
RTVSPost2010Prop54
  1
strokes_ogs.tif
102
RTVSPost2010PropOp54
 70
     1
102
RTVSPost2010Prop55
280
     0
102
RTVSPost2010PropOp55
 70
     1
102
RTVSPost2010Prop56
140
1.0
102
RTVSPost2010PropOp56
 70
     1
102
RTVSPost2010Prop57
140
1.0
102
RTVSPost2010PropOp57
 70
     1
  0
XRECORD
  5
6BC
102
{ACAD_REACTORS
330
6BB
102
}
330
6BB
100
AcDbXrecord
280
     1
102
RTVSPost2010Prop28
280
     0
102
RTVSPost2010PropOp28
 70
     1
102
RTVSPost2010Prop29
280
     1
102
RTVSPost2010PropOp29
 70
     1
102
RTVSPost2010Prop30
280
     1
102
RTVSPost2010PropOp30
 70
     1
102
RTVSPost2010Prop31
280
     0
102
RTVSPost2010PropOp31
 70
     1
102
RTVSPost2010Prop32
280
     0
102
RTVSPost2010PropOp32
 70
     1
102
RTVSPost2010Prop33
280
     0
102
RTVSPost2010PropOp33
 70
     1
102
RTVSPost2010Prop34
280
     0
102
RTVSPost2010PropOp34
 70
     1
102
RTVSPost2010Prop35
280
     0
102
RTVSPost2010PropOp35
 70
     1
102
RTVSPost2010Prop36
280
     0
102
RTVSPost2010PropOp36
 70
     1
102
RTVSPost2010Prop37
 90
       50
102
RTVSPost2010PropOp37
 70
     1
102
RTVSPost2010Prop38
140
0.0
102
RTVSPost2010PropOp38
 70
     1
102
RTVSPost2010Prop39
140
1.0
102
RTVSPost2010PropOp39
 70
     1
102
RTVSPost2010Prop40
 90
        0
102
RTVSPost2010PropOp40
 70
     1
102
RTVSPost2010Prop41ColorIndex
 90
       18
102
RTVSPost2010Prop41ColorRGB
 90
        0
102
RTVSPost2010PropOp41
 70
     1
102
RTVSPost2010Prop42
 90
       50
102
RTVSPost2010PropOp42
 70
     1
102
RTVSPost2010Prop43
 90
        3
102
RTVSPost2010PropOp43
 70
     1
102
RTVSPost2010Prop44ColorIndex
 90
        5
102
RTVSPost2010Prop44ColorRGB
 90
      255
102
RTVSPost2010PropOp44
 70
     1
102
RTVSPost2010Prop45
280
     0
102
RTVSPost2010PropOp45
 70
     1
102
RTVSPost2010Prop46
 90
       50
102
RTVSPost2010PropOp46
 70
     1
102
RTVSPost2010Prop47
 90
       50
102
RTVSPost2010PropOp47
 70
     1
102
RTVSPost2010Prop48
 90
       50
102
RTVSPost2010PropOp48
 70
     1
102
RTVSPost2010Prop49
280
     0
102
RTVSPost2010PropOp49
 70
     1
102
RTVSPost2010Prop50
 90
       50
102
RTVSPost2010PropOp50
 70
     1
102
RTVSPost2010Prop51ColorIndex
 90
      256
102
RTVSPost2010Prop51ColorRGB
 90
-16777216
102
RTVSPost2010PropOp51
 70
     0
102
RTVSPost2010Prop52
140
1.0
102
RTVSPost2010PropOp52
 70
     0
102
RTVSPost2010Prop53
 90
        2
102
RTVSPost2010PropOp53
 70
     1
102
RTVSPost2010Prop54
  1
strokes_ogs.tif
102
RTVSPost2010PropOp54
 70
     1
102
RTVSPost2010Prop55
280
     0
102
RTVSPost2010PropOp55
 70
     1
102
RTVSPost2010Prop56
140
1.0
102
RTVSPost2010PropOp56
 70
     1
102
RTVSPost2010Prop57
140
1.0
102
RTVSPost2010PropOp57
 70
     1
  0
XRECORD
  5
6CA
102
{ACAD_REACTORS
330
6C9
102
}
330
6C9
100
AcDbXrecord
280
     1
102
RTVSPost2010Prop28
280
     0
102
RTVSPost2010PropOp28
 70
     1
102
RTVSPost2010Prop29
280
     1
102
RTVSPost2010PropOp29
 70
     1
102
RTVSPost2010Prop30
280
     1
102
RTVSPost2010PropOp30
 70
     1
102
RTVSPost2010Prop31
280
     0
102
RTVSPost2010PropOp31
 70
     1
102
RTVSPost2010Prop32
280
     0
102
RTVSPost2010PropOp32
 70
     1
102
RTVSPost2010Prop33
280
     0
102
RTVSPost2010PropOp33
 70
     1
102
RTVSPost2010Prop34
280
     0
102
RTVSPost2010PropOp34
 70
     1
102
RTVSPost2010Prop35
280
     0
102
RTVSPost2010PropOp35
 70
     1
102
RTVSPost2010Prop36
280
     0
102
RTVSPost2010PropOp36
 70
     1
102
RTVSPost2010Prop37
 90
       50
102
RTVSPost2010PropOp37
 70
     1
102
RTVSPost2010Prop38
140
0.0
102
RTVSPost2010PropOp38
 70
     1
102
RTVSPost2010Prop39
140
1.0
102
RTVSPost2010PropOp39
 70
     1
102
RTVSPost2010Prop40
 90
        0
102
RTVSPost2010PropOp40
 70
     1
102
RTVSPost2010Prop41ColorIndex
 90
       18
102
RTVSPost2010Prop41ColorRGB
 90
        0
102
RTVSPost2010PropOp41
 70
     1
102
RTVSPost2010Prop42
 90
       50
102
RTVSPost2010PropOp42
 70
     1
102
RTVSPost2010Prop43
 90
        3
102
RTVSPost2010PropOp43
 70
     1
102
RTVSPost2010Prop44ColorIndex
 90
        5
102
RTVSPost2010Prop44ColorRGB
 90
      255
102
RTVSPost2010PropOp44
 70
     1
102
RTVSPost2010Prop45
280
     0
102
RTVSPost2010PropOp45
 70
     1
102
RTVSPost2010Prop46
 90
       50
102
RTVSPost2010PropOp46
 70
     1
102
RTVSPost2010Prop47
 90
       50
102
RTVSPost2010PropOp47
 70
     1
102
RTVSPost2010Prop48
 90
       50
102
RTVSPost2010PropOp48
 70
     1
102
RTVSPost2010Prop49
280
     0
102
RTVSPost2010PropOp49
 70
     1
102
RTVSPost2010Prop50
 90
       50
102
RTVSPost2010PropOp50
 70
     1
102
RTVSPost2010Prop51ColorIndex
 90
      256
102
RTVSPost2010Prop51ColorRGB
 90
-16777216
102
RTVSPost2010PropOp51
 70
     0
102
RTVSPost2010Prop52
140
1.0
102
RTVSPost2010PropOp52
 70
     0
102
RTVSPost2010Prop53
 90
        2
102
RTVSPost2010PropOp53
 70
     1
102
RTVSPost2010Prop54
  1
strokes_ogs.tif
102
RTVSPost2010PropOp54
 70
     1
102
RTVSPost2010Prop55
280
     0
102
RTVSPost2010PropOp55
 70
     1
102
RTVSPost2010Prop56
140
1.0
102
RTVSPost2010PropOp56
 70
     1
102
RTVSPost2010Prop57
140
1.0
102
RTVSPost2010PropOp57
 70
     1
  0
XRECORD
  5
6D2
102
{ACAD_REACTORS
330
6D1
102
}
330
6D1
100
AcDbXrecord
280
     1
102
RTVSPost2010Prop28
280
     0
102
RTVSPost2010PropOp28
 70
     1
102
RTVSPost2010Prop29
280
     1
102
RTVSPost2010PropOp29
 70
     1
102
RTVSPost2010Prop30
280
     1
102
RTVSPost2010PropOp30
 70
     1
102
RTVSPost2010Prop31
280
     0
102
RTVSPost2010PropOp31
 70
     1
102
RTVSPost2010Prop32
280
     0
102
RTVSPost2010PropOp32
 70
     1
102
RTVSPost2010Prop33
280
     0
102
RTVSPost2010PropOp33
 70
     1
102
RTVSPost2010Prop34
280
     0
102
RTVSPost2010PropOp34
 70
     1
102
RTVSPost2010Prop35
280
     0
102
RTVSPost2010PropOp35
 70
     1
102
RTVSPost2010Prop36
280
     0
102
RTVSPost2010PropOp36
 70
     1
102
RTVSPost2010Prop37
 90
       50
102
RTVSPost2010PropOp37
 70
     1
102
RTVSPost2010Prop38
140
0.0
102
RTVSPost2010PropOp38
 70
     1
102
RTVSPost2010Prop39
140
1.0
102
RTVSPost2010PropOp39
 70
     1
102
RTVSPost2010Prop40
 90
        0
102
RTVSPost2010PropOp40
 70
     1
102
RTVSPost2010Prop41ColorIndex
 90
       18
102
RTVSPost2010Prop41ColorRGB
 90
        0
102
RTVSPost2010PropOp41
 70
     1
102
RTVSPost2010Prop42
 90
       50
102
RTVSPost2010PropOp42
 70
     1
102
RTVSPost2010Prop43
 90
        3
102
RTVSPost2010PropOp43
 70
     1
102
RTVSPost2010Prop44ColorIndex
 90
        5
102
RTVSPost2010Prop44ColorRGB
 90
      255
102
RTVSPost2010PropOp44
 70
     1
102
RTVSPost2010Prop45
280
     0
102
RTVSPost2010PropOp45
 70
     1
102
RTVSPost2010Prop46
 90
       50
102
RTVSPost2010PropOp46
 70
     1
102
RTVSPost2010Prop47
 90
       50
102
RTVSPost2010PropOp47
 70
     1
102
RTVSPost2010Prop48
 90
       50
102
RTVSPost2010PropOp48
 70
     1
102
RTVSPost2010Prop49
280
     0
102
RTVSPost2010PropOp49
 70
     1
102
RTVSPost2010Prop50
 90
       50
102
RTVSPost2010PropOp50
 70
     1
102
RTVSPost2010Prop51ColorIndex
 90
      256
102
RTVSPost2010Prop51ColorRGB
 90
-16777216
102
RTVSPost2010PropOp51
 70
     0
102
RTVSPost2010Prop52
140
1.0
102
RTVSPost2010PropOp52
 70
     0
102
RTVSPost2010Prop53
 90
        2
102
RTVSPost2010PropOp53
 70
     1
102
RTVSPost2010Prop54
  1
strokes_ogs.tif
102
RTVSPost2010PropOp54
 70
     1
102
RTVSPost2010Prop55
280
     0
102
RTVSPost2010PropOp55
 70
     1
102
RTVSPost2010Prop56
140
1.0
102
RTVSPost2010PropOp56
 70
     1
102
RTVSPost2010Prop57
140
1.0
102
RTVSPost2010PropOp57
 70
     1
  0
XRECORD
  5
6C4
102
{ACAD_REACTORS
330
6C3
102
}
330
6C3
100
AcDbXrecord
280
     1
102
RTVSPost2010Prop28
280
     0
102
RTVSPost2010PropOp28
 70
     1
102
RTVSPost2010Prop29
280
     1
102
RTVSPost2010PropOp29
 70
     1
102
RTVSPost2010Prop30
280
     1
102
RTVSPost2010PropOp30
 70
     1
102
RTVSPost2010Prop31
280
     0
102
RTVSPost2010PropOp31
 70
     1
102
RTVSPost2010Prop32
280
     0
102
RTVSPost2010PropOp32
 70
     1
102
RTVSPost2010Prop33
280
     0
102
RTVSPost2010PropOp33
 70
     1
102
RTVSPost2010Prop34
280
     0
102
RTVSPost2010PropOp34
 70
     1
102
RTVSPost2010Prop35
280
     0
102
RTVSPost2010PropOp35
 70
     1
102
RTVSPost2010Prop36
280
     0
102
RTVSPost2010PropOp36
 70
     1
102
RTVSPost2010Prop37
 90
       50
102
RTVSPost2010PropOp37
 70
     1
102
RTVSPost2010Prop38
140
0.0
102
RTVSPost2010PropOp38
 70
     1
102
RTVSPost2010Prop39
140
1.0
102
RTVSPost2010PropOp39
 70
     1
102
RTVSPost2010Prop40
 90
        0
102
RTVSPost2010PropOp40
 70
     1
102
RTVSPost2010Prop41ColorIndex
 90
       18
102
RTVSPost2010Prop41ColorRGB
 90
        0
102
RTVSPost2010PropOp41
 70
     1
102
RTVSPost2010Prop42
 90
       50
102
RTVSPost2010PropOp42
 70
     1
102
RTVSPost2010Prop43
 90
        3
102
RTVSPost2010PropOp43
 70
     1
102
RTVSPost2010Prop44ColorIndex
 90
        5
102
RTVSPost2010Prop44ColorRGB
 90
      255
102
RTVSPost2010PropOp44
 70
     1
102
RTVSPost2010Prop45
280
     0
102
RTVSPost2010PropOp45
 70
     1
102
RTVSPost2010Prop46
 90
       50
102
RTVSPost2010PropOp46
 70
     1
102
RTVSPost2010Prop47
 90
       50
102
RTVSPost2010PropOp47
 70
     1
102
RTVSPost2010Prop48
 90
       50
102
RTVSPost2010PropOp48
 70
     1
102
RTVSPost2010Prop49
280
     0
102
RTVSPost2010PropOp49
 70
     1
102
RTVSPost2010Prop50
 90
       50
102
RTVSPost2010PropOp50
 70
     1
102
RTVSPost2010Prop51ColorIndex
 90
      256
102
RTVSPost2010Prop51ColorRGB
 90
-16777216
102
RTVSPost2010PropOp51
 70
     0
102
RTVSPost2010Prop52
140
1.0
102
RTVSPost2010PropOp52
 70
     0
102
RTVSPost2010Prop53
 90
        2
102
RTVSPost2010PropOp53
 70
     1
102
RTVSPost2010Prop54
  1
strokes_ogs.tif
102
RTVSPost2010PropOp54
 70
     1
102
RTVSPost2010Prop55
280
     0
102
RTVSPost2010PropOp55
 70
     1
102
RTVSPost2010Prop56
140
1.0
102
RTVSPost2010PropOp56
 70
     1
102
RTVSPost2010Prop57
140
1.0
102
RTVSPost2010PropOp57
 70
     1
  0
XRECORD
  5
6C8
102
{ACAD_REACTORS
330
6C7
102
}
330
6C7
100
AcDbXrecord
280
     1
102
RTVSPost2010Prop28
280
     0
102
RTVSPost2010PropOp28
 70
     1
102
RTVSPost2010Prop29
280
     1
102
RTVSPost2010PropOp29
 70
     1
102
RTVSPost2010Prop30
280
     1
102
RTVSPost2010PropOp30
 70
     1
102
RTVSPost2010Prop31
280
     0
102
RTVSPost2010PropOp31
 70
     1
102
RTVSPost2010Prop32
280
     0
102
RTVSPost2010PropOp32
 70
     1
102
RTVSPost2010Prop33
280
     0
102
RTVSPost2010PropOp33
 70
     1
102
RTVSPost2010Prop34
280
     0
102
RTVSPost2010PropOp34
 70
     1
102
RTVSPost2010Prop35
280
     0
102
RTVSPost2010PropOp35
 70
     1
102
RTVSPost2010Prop36
280
     0
102
RTVSPost2010PropOp36
 70
     1
102
RTVSPost2010Prop37
 90
       50
102
RTVSPost2010PropOp37
 70
     1
102
RTVSPost2010Prop38
140
0.0
102
RTVSPost2010PropOp38
 70
     1
102
RTVSPost2010Prop39
140
1.0
102
RTVSPost2010PropOp39
 70
     1
102
RTVSPost2010Prop40
 90
        0
102
RTVSPost2010PropOp40
 70
     1
102
RTVSPost2010Prop41ColorIndex
 90
       18
102
RTVSPost2010Prop41ColorRGB
 90
        0
102
RTVSPost2010PropOp41
 70
     1
102
RTVSPost2010Prop42
 90
       50
102
RTVSPost2010PropOp42
 70
     1
102
RTVSPost2010Prop43
 90
        3
102
RTVSPost2010PropOp43
 70
     1
102
RTVSPost2010Prop44ColorIndex
 90
        5
102
RTVSPost2010Prop44ColorRGB
 90
      255
102
RTVSPost2010PropOp44
 70
     1
102
RTVSPost2010Prop45
280
     0
102
RTVSPost2010PropOp45
 70
     1
102
RTVSPost2010Prop46
 90
       50
102
RTVSPost2010PropOp46
 70
     1
102
RTVSPost2010Prop47
 90
       50
102
RTVSPost2010PropOp47
 70
     1
102
RTVSPost2010Prop48
 90
       50
102
RTVSPost2010PropOp48
 70
     1
102
RTVSPost2010Prop49
280
     0
102
RTVSPost2010PropOp49
 70
     1
102
RTVSPost2010Prop50
 90
       50
102
RTVSPost2010PropOp50
 70
     1
102
RTVSPost2010Prop51ColorIndex
 90
      256
102
RTVSPost2010Prop51ColorRGB
 90
-16777216
102
RTVSPost2010PropOp51
 70
     0
102
RTVSPost2010Prop52
140
1.0
102
RTVSPost2010PropOp52
 70
     0
102
RTVSPost2010Prop53
 90
        2
102
RTVSPost2010PropOp53
 70
     1
102
RTVSPost2010Prop54
  1
strokes_ogs.tif
102
RTVSPost2010PropOp54
 70
     1
102
RTVSPost2010Prop55
280
     0
102
RTVSPost2010PropOp55
 70
     1
102
RTVSPost2010Prop56
140
1.0
102
RTVSPost2010PropOp56
 70
     1
102
RTVSPost2010Prop57
140
1.0
102
RTVSPost2010PropOp57
 70
     1
  0
XRECORD
  5
6D8
102
{ACAD_REACTORS
330
6D7
102
}
330
6D7
100
AcDbXrecord
280
     1
102
RTVSPost2010Prop28
280
     0
102
RTVSPost2010PropOp28
 70
     1
102
RTVSPost2010Prop29
280
     1
102
RTVSPost2010PropOp29
 70
     1
102
RTVSPost2010Prop30
280
     1
102
RTVSPost2010PropOp30
 70
     1
102
RTVSPost2010Prop31
280
     0
102
RTVSPost2010PropOp31
 70
     1
102
RTVSPost2010Prop32
280
     0
102
RTVSPost2010PropOp32
 70
     1
102
RTVSPost2010Prop33
280
     0
102
RTVSPost2010PropOp33
 70
     1
102
RTVSPost2010Prop34
280
     0
102
RTVSPost2010PropOp34
 70
     1
102
RTVSPost2010Prop35
280
     0
102
RTVSPost2010PropOp35
 70
     1
102
RTVSPost2010Prop36
280
     0
102
RTVSPost2010PropOp36
 70
     1
102
RTVSPost2010Prop37
 90
       50
102
RTVSPost2010PropOp37
 70
     1
102
RTVSPost2010Prop38
140
0.0
102
RTVSPost2010PropOp38
 70
     1
102
RTVSPost2010Prop39
140
1.0
102
RTVSPost2010PropOp39
 70
     1
102
RTVSPost2010Prop40
 90
        0
102
RTVSPost2010PropOp40
 70
     1
102
RTVSPost2010Prop41ColorIndex
 90
       18
102
RTVSPost2010Prop41ColorRGB
 90
        0
102
RTVSPost2010PropOp41
 70
     1
102
RTVSPost2010Prop42
 90
       50
102
RTVSPost2010PropOp42
 70
     1
102
RTVSPost2010Prop43
 90
        3
102
RTVSPost2010PropOp43
 70
     1
102
RTVSPost2010Prop44ColorIndex
 90
        5
102
RTVSPost2010Prop44ColorRGB
 90
      255
102
RTVSPost2010PropOp44
 70
     1
102
RTVSPost2010Prop45
280
     0
102
RTVSPost2010PropOp45
 70
     1
102
RTVSPost2010Prop46
 90
       50
102
RTVSPost2010PropOp46
 70
     1
102
RTVSPost2010Prop47
 90
       50
102
RTVSPost2010PropOp47
 70
     1
102
RTVSPost2010Prop48
 90
       50
102
RTVSPost2010PropOp48
 70
     1
102
RTVSPost2010Prop49
280
     0
102
RTVSPost2010PropOp49
 70
     1
102
RTVSPost2010Prop50
 90
       50
102
RTVSPost2010PropOp50
 70
     1
102
RTVSPost2010Prop51ColorIndex
 90
      256
102
RTVSPost2010Prop51ColorRGB
 90
-16777216
102
RTVSPost2010PropOp51
 70
     0
102
RTVSPost2010Prop52
140
1.0
102
RTVSPost2010PropOp52
 70
     0
102
RTVSPost2010Prop53
 90
        2
102
RTVSPost2010PropOp53
 70
     1
102
RTVSPost2010Prop54
  1
strokes_ogs.tif
102
RTVSPost2010PropOp54
 70
     1
102
RTVSPost2010Prop55
280
     0
102
RTVSPost2010PropOp55
 70
     1
102
RTVSPost2010Prop56
140
1.0
102
RTVSPost2010PropOp56
 70
     1
102
RTVSPost2010Prop57
140
1.0
102
RTVSPost2010PropOp57
 70
     1
  0
XRECORD
  5
6D0
102
{ACAD_REACTORS
330
6CF
102
}
330
6CF
100
AcDbXrecord
280
     1
102
RTVSPost2010Prop28
280
     0
102
RTVSPost2010PropOp28
 70
     1
102
RTVSPost2010Prop29
280
     1
102
RTVSPost2010PropOp29
 70
     1
102
RTVSPost2010Prop30
280
     1
102
RTVSPost2010PropOp30
 70
     1
102
RTVSPost2010Prop31
280
     0
102
RTVSPost2010PropOp31
 70
     1
102
RTVSPost2010Prop32
280
     0
102
RTVSPost2010PropOp32
 70
     1
102
RTVSPost2010Prop33
280
     0
102
RTVSPost2010PropOp33
 70
     1
102
RTVSPost2010Prop34
280
     0
102
RTVSPost2010PropOp34
 70
     1
102
RTVSPost2010Prop35
280
     0
102
RTVSPost2010PropOp35
 70
     1
102
RTVSPost2010Prop36
280
     0
102
RTVSPost2010PropOp36
 70
     1
102
RTVSPost2010Prop37
 90
       50
102
RTVSPost2010PropOp37
 70
     1
102
RTVSPost2010Prop38
140
0.0
102
RTVSPost2010PropOp38
 70
     1
102
RTVSPost2010Prop39
140
1.0
102
RTVSPost2010PropOp39
 70
     1
102
RTVSPost2010Prop40
 90
        0
102
RTVSPost2010PropOp40
 70
     1
102
RTVSPost2010Prop41ColorIndex
 90
       18
102
RTVSPost2010Prop41ColorRGB
 90
        0
102
RTVSPost2010PropOp41
 70
     1
102
RTVSPost2010Prop42
 90
       50
102
RTVSPost2010PropOp42
 70
     1
102
RTVSPost2010Prop43
 90
        3
102
RTVSPost2010PropOp43
 70
     1
102
RTVSPost2010Prop44ColorIndex
 90
        5
102
RTVSPost2010Prop44ColorRGB
 90
      255
102
RTVSPost2010PropOp44
 70
     1
102
RTVSPost2010Prop45
280
     0
102
RTVSPost2010PropOp45
 70
     1
102
RTVSPost2010Prop46
 90
       50
102
RTVSPost2010PropOp46
 70
     1
102
RTVSPost2010Prop47
 90
       50
102
RTVSPost2010PropOp47
 70
     1
102
RTVSPost2010Prop48
 90
       50
102
RTVSPost2010PropOp48
 70
     1
102
RTVSPost2010Prop49
280
     0
102
RTVSPost2010PropOp49
 70
     1
102
RTVSPost2010Prop50
 90
       50
102
RTVSPost2010PropOp50
 70
     1
102
RTVSPost2010Prop51ColorIndex
 90
      256
102
RTVSPost2010Prop51ColorRGB
 90
-16777216
102
RTVSPost2010PropOp51
 70
     0
102
RTVSPost2010Prop52
140
1.0
102
RTVSPost2010PropOp52
 70
     0
102
RTVSPost2010Prop53
 90
        2
102
RTVSPost2010PropOp53
 70
     1
102
RTVSPost2010Prop54
  1
strokes_ogs.tif
102
RTVSPost2010PropOp54
 70
     1
102
RTVSPost2010Prop55
280
     0
102
RTVSPost2010PropOp55
 70
     1
102
RTVSPost2010Prop56
140
1.0
102
RTVSPost2010PropOp56
 70
     1
102
RTVSPost2010Prop57
140
1.0
102
RTVSPost2010PropOp57
 70
     1
  0
XRECORD
  5
6B4
102
{ACAD_REACTORS
330
6B3
102
}
330
6B3
100
AcDbXrecord
280
     1
102
RTVSPost2010Prop28
280
     0
102
RTVSPost2010PropOp28
 70
     1
102
RTVSPost2010Prop29
280
     1
102
RTVSPost2010PropOp29
 70
     1
102
RTVSPost2010Prop30
280
     1
102
RTVSPost2010PropOp30
 70
     1
102
RTVSPost2010Prop31
280
     0
102
RTVSPost2010PropOp31
 70
     1
102
RTVSPost2010Prop32
280
     0
102
RTVSPost2010PropOp32
 70
     1
102
RTVSPost2010Prop33
280
     0
102
RTVSPost2010PropOp33
 70
     1
102
RTVSPost2010Prop34
280
     0
102
RTVSPost2010PropOp34
 70
     1
102
RTVSPost2010Prop35
280
     0
102
RTVSPost2010PropOp35
 70
     1
102
RTVSPost2010Prop36
280
     0
102
RTVSPost2010PropOp36
 70
     1
102
RTVSPost2010Prop37
 90
       50
102
RTVSPost2010PropOp37
 70
     1
102
RTVSPost2010Prop38
140
0.0
102
RTVSPost2010PropOp38
 70
     1
102
RTVSPost2010Prop39
140
1.0
102
RTVSPost2010PropOp39
 70
     1
102
RTVSPost2010Prop40
 90
        0
102
RTVSPost2010PropOp40
 70
     1
102
RTVSPost2010Prop41ColorIndex
 90
       18
102
RTVSPost2010Prop41ColorRGB
 90
        0
102
RTVSPost2010PropOp41
 70
     1
102
RTVSPost2010Prop42
 90
       50
102
RTVSPost2010PropOp42
 70
     1
102
RTVSPost2010Prop43
 90
        3
102
RTVSPost2010PropOp43
 70
     1
102
RTVSPost2010Prop44ColorIndex
 90
        5
102
RTVSPost2010Prop44ColorRGB
 90
      255
102
RTVSPost2010PropOp44
 70
     1
102
RTVSPost2010Prop45
280
     0
102
RTVSPost2010PropOp45
 70
     1
102
RTVSPost2010Prop46
 90
       50
102
RTVSPost2010PropOp46
 70
     1
102
RTVSPost2010Prop47
 90
       50
102
RTVSPost2010PropOp47
 70
     1
102
RTVSPost2010Prop48
 90
       50
102
RTVSPost2010PropOp48
 70
     1
102
RTVSPost2010Prop49
280
     0
102
RTVSPost2010PropOp49
 70
     1
102
RTVSPost2010Prop50
 90
       50
102
RTVSPost2010PropOp50
 70
     1
102
RTVSPost2010Prop51ColorIndex
 90
      256
102
RTVSPost2010Prop51ColorRGB
 90
-16777216
102
RTVSPost2010PropOp51
 70
     0
102
RTVSPost2010Prop52
140
1.0
102
RTVSPost2010PropOp52
 70
     0
102
RTVSPost2010Prop53
 90
        2
102
RTVSPost2010PropOp53
 70
     1
102
RTVSPost2010Prop54
  1
strokes_ogs.tif
102
RTVSPost2010PropOp54
 70
     1
102
RTVSPost2010Prop55
280
     0
102
RTVSPost2010PropOp55
 70
     1
102
RTVSPost2010Prop56
140
1.0
102
RTVSPost2010PropOp56
 70
     1
102
RTVSPost2010Prop57
140
1.0
102
RTVSPost2010PropOp57
 70
     1
  0
XRECORD
  5
6B6
102
{ACAD_REACTORS
330
6B5
102
}
330
6B5
100
AcDbXrecord
280
     1
102
RTVSPost2010Prop28
280
     0
102
RTVSPost2010PropOp28
 70
     1
102
RTVSPost2010Prop29
280
     1
102
RTVSPost2010PropOp29
 70
     1
102
RTVSPost2010Prop30
280
     1
102
RTVSPost2010PropOp30
 70
     1
102
RTVSPost2010Prop31
280
     0
102
RTVSPost2010PropOp31
 70
     1
102
RTVSPost2010Prop32
280
     0
102
RTVSPost2010PropOp32
 70
     1
102
RTVSPost2010Prop33
280
     0
102
RTVSPost2010PropOp33
 70
     1
102
RTVSPost2010Prop34
280
     0
102
RTVSPost2010PropOp34
 70
     1
102
RTVSPost2010Prop35
280
     0
102
RTVSPost2010PropOp35
 70
     1
102
RTVSPost2010Prop36
280
     0
102
RTVSPost2010PropOp36
 70
     1
102
RTVSPost2010Prop37
 90
       50
102
RTVSPost2010PropOp37
 70
     1
102
RTVSPost2010Prop38
140
0.0
102
RTVSPost2010PropOp38
 70
     1
102
RTVSPost2010Prop39
140
1.0
102
RTVSPost2010PropOp39
 70
     1
102
RTVSPost2010Prop40
 90
        0
102
RTVSPost2010PropOp40
 70
     1
102
RTVSPost2010Prop41ColorIndex
 90
       18
102
RTVSPost2010Prop41ColorRGB
 90
        0
102
RTVSPost2010PropOp41
 70
     1
102
RTVSPost2010Prop42
 90
       50
102
RTVSPost2010PropOp42
 70
     1
102
RTVSPost2010Prop43
 90
        3
102
RTVSPost2010PropOp43
 70
     1
102
RTVSPost2010Prop44ColorIndex
 90
        5
102
RTVSPost2010Prop44ColorRGB
 90
      255
102
RTVSPost2010PropOp44
 70
     1
102
RTVSPost2010Prop45
280
     0
102
RTVSPost2010PropOp45
 70
     1
102
RTVSPost2010Prop46
 90
       50
102
RTVSPost2010PropOp46
 70
     1
102
RTVSPost2010Prop47
 90
       50
102
RTVSPost2010PropOp47
 70
     1
102
RTVSPost2010Prop48
 90
       50
102
RTVSPost2010PropOp48
 70
     1
102
RTVSPost2010Prop49
280
     0
102
RTVSPost2010PropOp49
 70
     1
102
RTVSPost2010Prop50
 90
       50
102
RTVSPost2010PropOp50
 70
     1
102
RTVSPost2010Prop51ColorIndex
 90
      256
102
RTVSPost2010Prop51ColorRGB
 90
-16777216
102
RTVSPost2010PropOp51
 70
     0
102
RTVSPost2010Prop52
140
1.0
102
RTVSPost2010PropOp52
 70
     0
102
RTVSPost2010Prop53
 90
        2
102
RTVSPost2010PropOp53
 70
     1
102
RTVSPost2010Prop54
  1
strokes_ogs.tif
102
RTVSPost2010PropOp54
 70
     1
102
RTVSPost2010Prop55
280
     0
102
RTVSPost2010PropOp55
 70
     1
102
RTVSPost2010Prop56
140
1.0
102
RTVSPost2010PropOp56
 70
     1
102
RTVSPost2010Prop57
140
1.0
102
RTVSPost2010PropOp57
 70
     1
  0
XRECORD
  5
6B8
102
{ACAD_REACTORS
330
6B7
102
}
330
6B7
100
AcDbXrecord
280
     1
102
RTVSPost2010Prop28
280
     0
102
RTVSPost2010PropOp28
 70
     1
102
RTVSPost2010Prop29
280
     1
102
RTVSPost2010PropOp29
 70
     1
102
RTVSPost2010Prop30
280
     1
102
RTVSPost2010PropOp30
 70
     1
102
RTVSPost2010Prop31
280
     0
102
RTVSPost2010PropOp31
 70
     1
102
RTVSPost2010Prop32
280
     0
102
RTVSPost2010PropOp32
 70
     1
102
RTVSPost2010Prop33
280
     0
102
RTVSPost2010PropOp33
 70
     1
102
RTVSPost2010Prop34
280
     0
102
RTVSPost2010PropOp34
 70
     1
102
RTVSPost2010Prop35
280
     0
102
RTVSPost2010PropOp35
 70
     1
102
RTVSPost2010Prop36
280
     0
102
RTVSPost2010PropOp36
 70
     1
102
RTVSPost2010Prop37
 90
       50
102
RTVSPost2010PropOp37
 70
     1
102
RTVSPost2010Prop38
140
0.0
102
RTVSPost2010PropOp38
 70
     1
102
RTVSPost2010Prop39
140
1.0
102
RTVSPost2010PropOp39
 70
     1
102
RTVSPost2010Prop40
 90
        0
102
RTVSPost2010PropOp40
 70
     1
102
RTVSPost2010Prop41ColorIndex
 90
       18
102
RTVSPost2010Prop41ColorRGB
 90
        0
102
RTVSPost2010PropOp41
 70
     1
102
RTVSPost2010Prop42
 90
       50
102
RTVSPost2010PropOp42
 70
     1
102
RTVSPost2010Prop43
 90
        3
102
RTVSPost2010PropOp43
 70
     1
102
RTVSPost2010Prop44ColorIndex
 90
        5
102
RTVSPost2010Prop44ColorRGB
 90
      255
102
RTVSPost2010PropOp44
 70
     1
102
RTVSPost2010Prop45
280
     0
102
RTVSPost2010PropOp45
 70
     1
102
RTVSPost2010Prop46
 90
       50
102
RTVSPost2010PropOp46
 70
     1
102
RTVSPost2010Prop47
 90
       50
102
RTVSPost2010PropOp47
 70
     1
102
RTVSPost2010Prop48
 90
       50
102
RTVSPost2010PropOp48
 70
     1
102
RTVSPost2010Prop49
280
     0
102
RTVSPost2010PropOp49
 70
     1
102
RTVSPost2010Prop50
 90
       50
102
RTVSPost2010PropOp50
 70
     1
102
RTVSPost2010Prop51ColorIndex
 90
      256
102
RTVSPost2010Prop51ColorRGB
 90
-16777216
102
RTVSPost2010PropOp51
 70
     0
102
RTVSPost2010Prop52
140
1.0
102
RTVSPost2010PropOp52
 70
     0
102
RTVSPost2010Prop53
 90
        2
102
RTVSPost2010PropOp53
 70
     1
102
RTVSPost2010Prop54
  1
strokes_ogs.tif
102
RTVSPost2010PropOp54
 70
     1
102
RTVSPost2010Prop55
280
     0
102
RTVSPost2010PropOp55
 70
     1
102
RTVSPost2010Prop56
140
1.0
102
RTVSPost2010PropOp56
 70
     1
102
RTVSPost2010Prop57
140
1.0
102
RTVSPost2010PropOp57
 70
     1
  0
XRECORD
  5
6BA
102
{ACAD_REACTORS
330
6B9
102
}
330
6B9
100
AcDbXrecord
280
     1
102
RTVSPost2010Prop28
280
     0
102
RTVSPost2010PropOp28
 70
     1
102
RTVSPost2010Prop29
280
     1
102
RTVSPost2010PropOp29
 70
     1
102
RTVSPost2010Prop30
280
     1
102
RTVSPost2010PropOp30
 70
     1
102
RTVSPost2010Prop31
280
     0
102
RTVSPost2010PropOp31
 70
     1
102
RTVSPost2010Prop32
280
     0
102
RTVSPost2010PropOp32
 70
     1
102
RTVSPost2010Prop33
280
     0
102
RTVSPost2010PropOp33
 70
     1
102
RTVSPost2010Prop34
280
     0
102
RTVSPost2010PropOp34
 70
     1
102
RTVSPost2010Prop35
280
     0
102
RTVSPost2010PropOp35
 70
     1
102
RTVSPost2010Prop36
280
     0
102
RTVSPost2010PropOp36
 70
     1
102
RTVSPost2010Prop37
 90
       50
102
RTVSPost2010PropOp37
 70
     1
102
RTVSPost2010Prop38
140
0.0
102
RTVSPost2010PropOp38
 70
     1
102
RTVSPost2010Prop39
140
1.0
102
RTVSPost2010PropOp39
 70
     1
102
RTVSPost2010Prop40
 90
        0
102
RTVSPost2010PropOp40
 70
     1
102
RTVSPost2010Prop41ColorIndex
 90
       18
102
RTVSPost2010Prop41ColorRGB
 90
        0
102
RTVSPost2010PropOp41
 70
     1
102
RTVSPost2010Prop42
 90
       50
102
RTVSPost2010PropOp42
 70
     1
102
RTVSPost2010Prop43
 90
        3
102
RTVSPost2010PropOp43
 70
     1
102
RTVSPost2010Prop44ColorIndex
 90
        5
102
RTVSPost2010Prop44ColorRGB
 90
      255
102
RTVSPost2010PropOp44
 70
     1
102
RTVSPost2010Prop45
280
     0
102
RTVSPost2010PropOp45
 70
     1
102
RTVSPost2010Prop46
 90
       50
102
RTVSPost2010PropOp46
 70
     1
102
RTVSPost2010Prop47
 90
       50
102
RTVSPost2010PropOp47
 70
     1
102
RTVSPost2010Prop48
 90
       50
102
RTVSPost2010PropOp48
 70
     1
102
RTVSPost2010Prop49
280
     0
102
RTVSPost2010PropOp49
 70
     1
102
RTVSPost2010Prop50
 90
       50
102
RTVSPost2010PropOp50
 70
     1
102
RTVSPost2010Prop51ColorIndex
 90
      256
102
RTVSPost2010Prop51ColorRGB
 90
-16777216
102
RTVSPost2010PropOp51
 70
     0
102
RTVSPost2010Prop52
140
1.0
102
RTVSPost2010PropOp52
 70
     0
102
RTVSPost2010Prop53
 90
        2
102
RTVSPost2010PropOp53
 70
     1
102
RTVSPost2010Prop54
  1
strokes_ogs.tif
102
RTVSPost2010PropOp54
 70
     1
102
RTVSPost2010Prop55
280
     0
102
RTVSPost2010PropOp55
 70
     1
102
RTVSPost2010Prop56
140
1.0
102
RTVSPost2010PropOp56
 70
     1
102
RTVSPost2010Prop57
140
1.0
102
RTVSPost2010PropOp57
 70
     1
  0
XRECORD
  5
6C2
102
{ACAD_REACTORS
330
6C1
102
}
330
6C1
100
AcDbXrecord
280
     1
102
RTVSPost2010Prop28
280
     0
102
RTVSPost2010PropOp28
 70
     1
102
RTVSPost2010Prop29
280
     1
102
RTVSPost2010PropOp29
 70
     1
102
RTVSPost2010Prop30
280
     1
102
RTVSPost2010PropOp30
 70
     1
102
RTVSPost2010Prop31
280
     0
102
RTVSPost2010PropOp31
 70
     1
102
RTVSPost2010Prop32
280
     0
102
RTVSPost2010PropOp32
 70
     1
102
RTVSPost2010Prop33
280
     0
102
RTVSPost2010PropOp33
 70
     1
102
RTVSPost2010Prop34
280
     0
102
RTVSPost2010PropOp34
 70
     1
102
RTVSPost2010Prop35
280
     0
102
RTVSPost2010PropOp35
 70
     1
102
RTVSPost2010Prop36
280
     0
102
RTVSPost2010PropOp36
 70
     1
102
RTVSPost2010Prop37
 90
       50
102
RTVSPost2010PropOp37
 70
     1
102
RTVSPost2010Prop38
140
0.0
102
RTVSPost2010PropOp38
 70
     1
102
RTVSPost2010Prop39
140
1.0
102
RTVSPost2010PropOp39
 70
     1
102
RTVSPost2010Prop40
 90
        0
102
RTVSPost2010PropOp40
 70
     1
102
RTVSPost2010Prop41ColorIndex
 90
       18
102
RTVSPost2010Prop41ColorRGB
 90
        0
102
RTVSPost2010PropOp41
 70
     1
102
RTVSPost2010Prop42
 90
       50
102
RTVSPost2010PropOp42
 70
     1
102
RTVSPost2010Prop43
 90
        3
102
RTVSPost2010PropOp43
 70
     1
102
RTVSPost2010Prop44ColorIndex
 90
        5
102
RTVSPost2010Prop44ColorRGB
 90
      255
102
RTVSPost2010PropOp44
 70
     1
102
RTVSPost2010Prop45
280
     0
102
RTVSPost2010PropOp45
 70
     1
102
RTVSPost2010Prop46
 90
       50
102
RTVSPost2010PropOp46
 70
     1
102
RTVSPost2010Prop47
 90
       50
102
RTVSPost2010PropOp47
 70
     1
102
RTVSPost2010Prop48
 90
       50
102
RTVSPost2010PropOp48
 70
     1
102
RTVSPost2010Prop49
280
     0
102
RTVSPost2010PropOp49
 70
     1
102
RTVSPost2010Prop50
 90
       50
102
RTVSPost2010PropOp50
 70
     1
102
RTVSPost2010Prop51ColorIndex
 90
      256
102
RTVSPost2010Prop51ColorRGB
 90
-16777216
102
RTVSPost2010PropOp51
 70
     0
102
RTVSPost2010Prop52
140
1.0
102
RTVSPost2010PropOp52
 70
     0
102
RTVSPost2010Prop53
 90
        2
102
RTVSPost2010PropOp53
 70
     1
102
RTVSPost2010Prop54
  1
strokes_ogs.tif
102
RTVSPost2010PropOp54
 70
     1
102
RTVSPost2010Prop55
280
     0
102
RTVSPost2010PropOp55
 70
     1
102
RTVSPost2010Prop56
140
1.0
102
RTVSPost2010PropOp56
 70
     1
102
RTVSPost2010Prop57
140
1.0
102
RTVSPost2010PropOp57
 70
     1
  0
XRECORD
  5
6D4
102
{ACAD_REACTORS
330
6D3
102
}
330
6D3
100
AcDbXrecord
280
     1
102
RTVSPost2010Prop28
280
     0
102
RTVSPost2010PropOp28
 70
     1
102
RTVSPost2010Prop29
280
     1
102
RTVSPost2010PropOp29
 70
     1
102
RTVSPost2010Prop30
280
     1
102
RTVSPost2010PropOp30
 70
     1
102
RTVSPost2010Prop31
280
     0
102
RTVSPost2010PropOp31
 70
     1
102
RTVSPost2010Prop32
280
     0
102
RTVSPost2010PropOp32
 70
     1
102
RTVSPost2010Prop33
280
     0
102
RTVSPost2010PropOp33
 70
     1
102
RTVSPost2010Prop34
280
     0
102
RTVSPost2010PropOp34
 70
     1
102
RTVSPost2010Prop35
280
     0
102
RTVSPost2010PropOp35
 70
     1
102
RTVSPost2010Prop36
280
     0
102
RTVSPost2010PropOp36
 70
     1
102
RTVSPost2010Prop37
 90
       50
102
RTVSPost2010PropOp37
 70
     1
102
RTVSPost2010Prop38
140
0.0
102
RTVSPost2010PropOp38
 70
     1
102
RTVSPost2010Prop39
140
1.0
102
RTVSPost2010PropOp39
 70
     1
102
RTVSPost2010Prop40
 90
        0
102
RTVSPost2010PropOp40
 70
     1
102
RTVSPost2010Prop41ColorIndex
 90
       18
102
RTVSPost2010Prop41ColorRGB
 90
        0
102
RTVSPost2010PropOp41
 70
     1
102
RTVSPost2010Prop42
 90
       50
102
RTVSPost2010PropOp42
 70
     1
102
RTVSPost2010Prop43
 90
        3
102
RTVSPost2010PropOp43
 70
     1
102
RTVSPost2010Prop44ColorIndex
 90
        5
102
RTVSPost2010Prop44ColorRGB
 90
      255
102
RTVSPost2010PropOp44
 70
     1
102
RTVSPost2010Prop45
280
     0
102
RTVSPost2010PropOp45
 70
     1
102
RTVSPost2010Prop46
 90
       50
102
RTVSPost2010PropOp46
 70
     1
102
RTVSPost2010Prop47
 90
       50
102
RTVSPost2010PropOp47
 70
     1
102
RTVSPost2010Prop48
 90
       50
102
RTVSPost2010PropOp48
 70
     1
102
RTVSPost2010Prop49
280
     0
102
RTVSPost2010PropOp49
 70
     1
102
RTVSPost2010Prop50
 90
       50
102
RTVSPost2010PropOp50
 70
     1
102
RTVSPost2010Prop51ColorIndex
 90
      256
102
RTVSPost2010Prop51ColorRGB
 90
-16777216
102
RTVSPost2010PropOp51
 70
     0
102
RTVSPost2010Prop52
140
1.0
102
RTVSPost2010PropOp52
 70
     0
102
RTVSPost2010Prop53
 90
        2
102
RTVSPost2010PropOp53
 70
     1
102
RTVSPost2010Prop54
  1
strokes_ogs.tif
102
RTVSPost2010PropOp54
 70
     1
102
RTVSPost2010Prop55
280
     0
102
RTVSPost2010PropOp55
 70
     1
102
RTVSPost2010Prop56
140
1.0
102
RTVSPost2010PropOp56
 70
     1
102
RTVSPost2010Prop57
140
1.0
102
RTVSPost2010PropOp57
 70
     1
  0
XRECORD
  5
6CE
102
{ACAD_REACTORS
330
6CD
102
}
330
6CD
100
AcDbXrecord
280
     1
102
RTVSPost2010Prop28
280
     0
102
RTVSPost2010PropOp28
 70
     1
102
RTVSPost2010Prop29
280
     1
102
RTVSPost2010PropOp29
 70
     1
102
RTVSPost2010Prop30
280
     1
102
RTVSPost2010PropOp30
 70
     1
102
RTVSPost2010Prop31
280
     0
102
RTVSPost2010PropOp31
 70
     1
102
RTVSPost2010Prop32
280
     0
102
RTVSPost2010PropOp32
 70
     1
102
RTVSPost2010Prop33
280
     0
102
RTVSPost2010PropOp33
 70
     1
102
RTVSPost2010Prop34
280
     0
102
RTVSPost2010PropOp34
 70
     1
102
RTVSPost2010Prop35
280
     0
102
RTVSPost2010PropOp35
 70
     1
102
RTVSPost2010Prop36
280
     0
102
RTVSPost2010PropOp36
 70
     1
102
RTVSPost2010Prop37
 90
       50
102
RTVSPost2010PropOp37
 70
     1
102
RTVSPost2010Prop38
140
0.0
102
RTVSPost2010PropOp38
 70
     1
102
RTVSPost2010Prop39
140
1.0
102
RTVSPost2010PropOp39
 70
     1
102
RTVSPost2010Prop40
 90
        0
102
RTVSPost2010PropOp40
 70
     1
102
RTVSPost2010Prop41ColorIndex
 90
       18
102
RTVSPost2010Prop41ColorRGB
 90
        0
102
RTVSPost2010PropOp41
 70
     1
102
RTVSPost2010Prop42
 90
       50
102
RTVSPost2010PropOp42
 70
     1
102
RTVSPost2010Prop43
 90
        3
102
RTVSPost2010PropOp43
 70
     1
102
RTVSPost2010Prop44ColorIndex
 90
        5
102
RTVSPost2010Prop44ColorRGB
 90
      255
102
RTVSPost2010PropOp44
 70
     1
102
RTVSPost2010Prop45
280
     0
102
RTVSPost2010PropOp45
 70
     1
102
RTVSPost2010Prop46
 90
       50
102
RTVSPost2010PropOp46
 70
     1
102
RTVSPost2010Prop47
 90
       50
102
RTVSPost2010PropOp47
 70
     1
102
RTVSPost2010Prop48
 90
       50
102
RTVSPost2010PropOp48
 70
     1
102
RTVSPost2010Prop49
280
     0
102
RTVSPost2010PropOp49
 70
     1
102
RTVSPost2010Prop50
 90
       50
102
RTVSPost2010PropOp50
 70
     1
102
RTVSPost2010Prop51ColorIndex
 90
      256
102
RTVSPost2010Prop51ColorRGB
 90
-16777216
102
RTVSPost2010PropOp51
 70
     0
102
RTVSPost2010Prop52
140
1.0
102
RTVSPost2010PropOp52
 70
     0
102
RTVSPost2010Prop53
 90
        2
102
RTVSPost2010PropOp53
 70
     1
102
RTVSPost2010Prop54
  1
strokes_ogs.tif
102
RTVSPost2010PropOp54
 70
     1
102
RTVSPost2010Prop55
280
     0
102
RTVSPost2010PropOp55
 70
     1
102
RTVSPost2010Prop56
140
1.0
102
RTVSPost2010PropOp56
 70
     1
102
RTVSPost2010Prop57
140
1.0
102
RTVSPost2010PropOp57
 70
     1
  0
XRECORD
  5
6D6
102
{ACAD_REACTORS
330
6D5
102
}
330
6D5
100
AcDbXrecord
280
     1
102
RTVSPost2010Prop28
280
     0
102
RTVSPost2010PropOp28
 70
     1
102
RTVSPost2010Prop29
280
     1
102
RTVSPost2010PropOp29
 70
     1
102
RTVSPost2010Prop30
280
     1
102
RTVSPost2010PropOp30
 70
     1
102
RTVSPost2010Prop31
280
     0
102
RTVSPost2010PropOp31
 70
     1
102
RTVSPost2010Prop32
280
     0
102
RTVSPost2010PropOp32
 70
     1
102
RTVSPost2010Prop33
280
     0
102
RTVSPost2010PropOp33
 70
     1
102
RTVSPost2010Prop34
280
     0
102
RTVSPost2010PropOp34
 70
     1
102
RTVSPost2010Prop35
280
     0
102
RTVSPost2010PropOp35
 70
     1
102
RTVSPost2010Prop36
280
     0
102
RTVSPost2010PropOp36
 70
     1
102
RTVSPost2010Prop37
 90
       50
102
RTVSPost2010PropOp37
 70
     1
102
RTVSPost2010Prop38
140
0.0
102
RTVSPost2010PropOp38
 70
     1
102
RTVSPost2010Prop39
140
1.0
102
RTVSPost2010PropOp39
 70
     1
102
RTVSPost2010Prop40
 90
        0
102
RTVSPost2010PropOp40
 70
     1
102
RTVSPost2010Prop41ColorIndex
 90
       18
102
RTVSPost2010Prop41ColorRGB
 90
        0
102
RTVSPost2010PropOp41
 70
     1
102
RTVSPost2010Prop42
 90
       50
102
RTVSPost2010PropOp42
 70
     1
102
RTVSPost2010Prop43
 90
        3
102
RTVSPost2010PropOp43
 70
     1
102
RTVSPost2010Prop44ColorIndex
 90
        5
102
RTVSPost2010Prop44ColorRGB
 90
      255
102
RTVSPost2010PropOp44
 70
     1
102
RTVSPost2010Prop45
280
     0
102
RTVSPost2010PropOp45
 70
     1
102
RTVSPost2010Prop46
 90
       50
102
RTVSPost2010PropOp46
 70
     1
102
RTVSPost2010Prop47
 90
       50
102
RTVSPost2010PropOp47
 70
     1
102
RTVSPost2010Prop48
 90
       50
102
RTVSPost2010PropOp48
 70
     1
102
RTVSPost2010Prop49
280
     0
102
RTVSPost2010PropOp49
 70
     1
102
RTVSPost2010Prop50
 90
       50
102
RTVSPost2010PropOp50
 70
     1
102
RTVSPost2010Prop51ColorIndex
 90
      256
102
RTVSPost2010Prop51ColorRGB
 90
-16777216
102
RTVSPost2010PropOp51
 70
     0
102
RTVSPost2010Prop52
140
1.0
102
RTVSPost2010PropOp52
 70
     0
102
RTVSPost2010Prop53
 90
        2
102
RTVSPost2010PropOp53
 70
     1
102
RTVSPost2010Prop54
  1
strokes_ogs.tif
102
RTVSPost2010PropOp54
 70
     1
102
RTVSPost2010Prop55
280
     0
102
RTVSPost2010PropOp55
 70
     1
102
RTVSPost2010Prop56
140
1.0
102
RTVSPost2010PropOp56
 70
     1
102
RTVSPost2010Prop57
140
1.0
102
RTVSPost2010PropOp57
 70
     1
  0
XRECORD
  5
6C6
102
{ACAD_REACTORS
330
6C5
102
}
330
6C5
100
AcDbXrecord
280
     1
102
RTVSPost2010Prop28
280
     0
102
RTVSPost2010PropOp28
 70
     1
102
RTVSPost2010Prop29
280
     1
102
RTVSPost2010PropOp29
 70
     1
102
RTVSPost2010Prop30
280
     1
102
RTVSPost2010PropOp30
 70
     1
102
RTVSPost2010Prop31
280
     0
102
RTVSPost2010PropOp31
 70
     1
102
RTVSPost2010Prop32
280
     0
102
RTVSPost2010PropOp32
 70
     1
102
RTVSPost2010Prop33
280
     0
102
RTVSPost2010PropOp33
 70
     1
102
RTVSPost2010Prop34
280
     0
102
RTVSPost2010PropOp34
 70
     1
102
RTVSPost2010Prop35
280
     0
102
RTVSPost2010PropOp35
 70
     1
102
RTVSPost2010Prop36
280
     0
102
RTVSPost2010PropOp36
 70
     1
102
RTVSPost2010Prop37
 90
       50
102
RTVSPost2010PropOp37
 70
     1
102
RTVSPost2010Prop38
140
0.0
102
RTVSPost2010PropOp38
 70
     1
102
RTVSPost2010Prop39
140
1.0
102
RTVSPost2010PropOp39
 70
     1
102
RTVSPost2010Prop40
 90
        0
102
RTVSPost2010PropOp40
 70
     1
102
RTVSPost2010Prop41ColorIndex
 90
       18
102
RTVSPost2010Prop41ColorRGB
 90
        0
102
RTVSPost2010PropOp41
 70
     1
102
RTVSPost2010Prop42
 90
       50
102
RTVSPost2010PropOp42
 70
     1
102
RTVSPost2010Prop43
 90
        3
102
RTVSPost2010PropOp43
 70
     1
102
RTVSPost2010Prop44ColorIndex
 90
        5
102
RTVSPost2010Prop44ColorRGB
 90
      255
102
RTVSPost2010PropOp44
 70
     1
102
RTVSPost2010Prop45
280
     0
102
RTVSPost2010PropOp45
 70
     1
102
RTVSPost2010Prop46
 90
       50
102
RTVSPost2010PropOp46
 70
     1
102
RTVSPost2010Prop47
 90
       50
102
RTVSPost2010PropOp47
 70
     1
102
RTVSPost2010Prop48
 90
       50
102
RTVSPost2010PropOp48
 70
     1
102
RTVSPost2010Prop49
280
     0
102
RTVSPost2010PropOp49
 70
     1
102
RTVSPost2010Prop50
 90
       50
102
RTVSPost2010PropOp50
 70
     1
102
RTVSPost2010Prop51ColorIndex
 90
      256
102
RTVSPost2010Prop51ColorRGB
 90
-16777216
102
RTVSPost2010PropOp51
 70
     0
102
RTVSPost2010Prop52
140
1.0
102
RTVSPost2010PropOp52
 70
     0
102
RTVSPost2010Prop53
 90
        2
102
RTVSPost2010PropOp53
 70
     1
102
RTVSPost2010Prop54
  1
strokes_ogs.tif
102
RTVSPost2010PropOp54
 70
     1
102
RTVSPost2010Prop55
280
     0
102
RTVSPost2010PropOp55
 70
     1
102
RTVSPost2010Prop56
140
1.0
102
RTVSPost2010PropOp56
 70
     1
102
RTVSPost2010Prop57
140
1.0
102
RTVSPost2010PropOp57
 70
     1
  0
XRECORD
  5
6E2
102
{ACAD_REACTORS
330
6E1
102
}
330
6E1
100
AcDbXrecord
280
     1
102
RTVSPost2010Prop28
280
     0
102
RTVSPost2010PropOp28
 70
     1
102
RTVSPost2010Prop29
280
     1
102
RTVSPost2010PropOp29
 70
     1
102
RTVSPost2010Prop30
280
     1
102
RTVSPost2010PropOp30
 70
     1
102
RTVSPost2010Prop31
280
     0
102
RTVSPost2010PropOp31
 70
     1
102
RTVSPost2010Prop32
280
     0
102
RTVSPost2010PropOp32
 70
     1
102
RTVSPost2010Prop33
280
     0
102
RTVSPost2010PropOp33
 70
     1
102
RTVSPost2010Prop34
280
     0
102
RTVSPost2010PropOp34
 70
     1
102
RTVSPost2010Prop35
280
     0
102
RTVSPost2010PropOp35
 70
     1
102
RTVSPost2010Prop36
280
     0
102
RTVSPost2010PropOp36
 70
     1
102
RTVSPost2010Prop37
 90
       50
102
RTVSPost2010PropOp37
 70
     1
102
RTVSPost2010Prop38
140
0.0
102
RTVSPost2010PropOp38
 70
     1
102
RTVSPost2010Prop39
140
1.0
102
RTVSPost2010PropOp39
 70
     1
102
RTVSPost2010Prop40
 90
        0
102
RTVSPost2010PropOp40
 70
     1
102
RTVSPost2010Prop41ColorIndex
 90
       18
102
RTVSPost2010Prop41ColorRGB
 90
        0
102
RTVSPost2010PropOp41
 70
     1
102
RTVSPost2010Prop42
 90
       50
102
RTVSPost2010PropOp42
 70
     1
102
RTVSPost2010Prop43
 90
        3
102
RTVSPost2010PropOp43
 70
     1
102
RTVSPost2010Prop44ColorIndex
 90
        5
102
RTVSPost2010Prop44ColorRGB
 90
      255
102
RTVSPost2010PropOp44
 70
     1
102
RTVSPost2010Prop45
280
     0
102
RTVSPost2010PropOp45
 70
     1
102
RTVSPost2010Prop46
 90
       50
102
RTVSPost2010PropOp46
 70
     1
102
RTVSPost2010Prop47
 90
       50
102
RTVSPost2010PropOp47
 70
     1
102
RTVSPost2010Prop48
 90
       50
102
RTVSPost2010PropOp48
 70
     1
102
RTVSPost2010Prop49
280
     0
102
RTVSPost2010PropOp49
 70
     1
102
RTVSPost2010Prop50
 90
       50
102
RTVSPost2010PropOp50
 70
     1
102
RTVSPost2010Prop51ColorIndex
 90
      256
102
RTVSPost2010Prop51ColorRGB
 90
-16777216
102
RTVSPost2010PropOp51
 70
     0
102
RTVSPost2010Prop52
140
1.0
102
RTVSPost2010PropOp52
 70
     0
102
RTVSPost2010Prop53
 90
        2
102
RTVSPost2010PropOp53
 70
     1
102
RTVSPost2010Prop54
  1
strokes_ogs.tif
102
RTVSPost2010PropOp54
 70
     1
102
RTVSPost2010Prop55
280
     0
102
RTVSPost2010PropOp55
 70
     1
102
RTVSPost2010Prop56
140
1.0
102
RTVSPost2010PropOp56
 70
     1
102
RTVSPost2010Prop57
140
1.0
102
RTVSPost2010PropOp57
 70
     1
  0
XRECORD
  5
6E0
102
{ACAD_REACTORS
330
6DF
102
}
330
6DF
100
AcDbXrecord
280
     1
102
RTVSPost2010Prop28
280
     0
102
RTVSPost2010PropOp28
 70
     1
102
RTVSPost2010Prop29
280
     1
102
RTVSPost2010PropOp29
 70
     1
102
RTVSPost2010Prop30
280
     1
102
RTVSPost2010PropOp30
 70
     1
102
RTVSPost2010Prop31
280
     0
102
RTVSPost2010PropOp31
 70
     1
102
RTVSPost2010Prop32
280
     0
102
RTVSPost2010PropOp32
 70
     1
102
RTVSPost2010Prop33
280
     0
102
RTVSPost2010PropOp33
 70
     1
102
RTVSPost2010Prop34
280
     0
102
RTVSPost2010PropOp34
 70
     1
102
RTVSPost2010Prop35
280
     0
102
RTVSPost2010PropOp35
 70
     1
102
RTVSPost2010Prop36
280
     0
102
RTVSPost2010PropOp36
 70
     1
102
RTVSPost2010Prop37
 90
       50
102
RTVSPost2010PropOp37
 70
     1
102
RTVSPost2010Prop38
140
0.0
102
RTVSPost2010PropOp38
 70
     1
102
RTVSPost2010Prop39
140
1.0
102
RTVSPost2010PropOp39
 70
     1
102
RTVSPost2010Prop40
 90
        0
102
RTVSPost2010PropOp40
 70
     1
102
RTVSPost2010Prop41ColorIndex
 90
       18
102
RTVSPost2010Prop41ColorRGB
 90
        0
102
RTVSPost2010PropOp41
 70
     1
102
RTVSPost2010Prop42
 90
       50
102
RTVSPost2010PropOp42
 70
     1
102
RTVSPost2010Prop43
 90
        3
102
RTVSPost2010PropOp43
 70
     1
102
RTVSPost2010Prop44ColorIndex
 90
        5
102
RTVSPost2010Prop44ColorRGB
 90
      255
102
RTVSPost2010PropOp44
 70
     1
102
RTVSPost2010Prop45
280
     0
102
RTVSPost2010PropOp45
 70
     1
102
RTVSPost2010Prop46
 90
       50
102
RTVSPost2010PropOp46
 70
     1
102
RTVSPost2010Prop47
 90
       50
102
RTVSPost2010PropOp47
 70
     1
102
RTVSPost2010Prop48
 90
       50
102
RTVSPost2010PropOp48
 70
     1
102
RTVSPost2010Prop49
280
     0
102
RTVSPost2010PropOp49
 70
     1
102
RTVSPost2010Prop50
 90
       50
102
RTVSPost2010PropOp50
 70
     1
102
RTVSPost2010Prop51ColorIndex
 90
      256
102
RTVSPost2010Prop51ColorRGB
 90
-16777216
102
RTVSPost2010PropOp51
 70
     0
102
RTVSPost2010Prop52
140
1.0
102
RTVSPost2010PropOp52
 70
     0
102
RTVSPost2010Prop53
 90
        2
102
RTVSPost2010PropOp53
 70
     1
102
RTVSPost2010Prop54
  1
strokes_ogs.tif
102
RTVSPost2010PropOp54
 70
     1
102
RTVSPost2010Prop55
280
     0
102
RTVSPost2010PropOp55
 70
     1
102
RTVSPost2010Prop56
140
1.0
102
RTVSPost2010PropOp56
 70
     1
102
RTVSPost2010Prop57
140
1.0
102
RTVSPost2010PropOp57
 70
     1
  0
XRECORD
  5
6DA
102
{ACAD_REACTORS
330
6D9
102
}
330
6D9
100
AcDbXrecord
280
     1
102
RTVSPost2010Prop28
280
     0
102
RTVSPost2010PropOp28
 70
     1
102
RTVSPost2010Prop29
280
     1
102
RTVSPost2010PropOp29
 70
     1
102
RTVSPost2010Prop30
280
     1
102
RTVSPost2010PropOp30
 70
     1
102
RTVSPost2010Prop31
280
     0
102
RTVSPost2010PropOp31
 70
     1
102
RTVSPost2010Prop32
280
     0
102
RTVSPost2010PropOp32
 70
     1
102
RTVSPost2010Prop33
280
     0
102
RTVSPost2010PropOp33
 70
     1
102
RTVSPost2010Prop34
280
     0
102
RTVSPost2010PropOp34
 70
     1
102
RTVSPost2010Prop35
280
     0
102
RTVSPost2010PropOp35
 70
     1
102
RTVSPost2010Prop36
280
     0
102
RTVSPost2010PropOp36
 70
     1
102
RTVSPost2010Prop37
 90
       50
102
RTVSPost2010PropOp37
 70
     1
102
RTVSPost2010Prop38
140
0.0
102
RTVSPost2010PropOp38
 70
     1
102
RTVSPost2010Prop39
140
1.0
102
RTVSPost2010PropOp39
 70
     1
102
RTVSPost2010Prop40
 90
        0
102
RTVSPost2010PropOp40
 70
     1
102
RTVSPost2010Prop41ColorIndex
 90
       18
102
RTVSPost2010Prop41ColorRGB
 90
        0
102
RTVSPost2010PropOp41
 70
     1
102
RTVSPost2010Prop42
 90
       50
102
RTVSPost2010PropOp42
 70
     1
102
RTVSPost2010Prop43
 90
        3
102
RTVSPost2010PropOp43
 70
     1
102
RTVSPost2010Prop44ColorIndex
 90
        5
102
RTVSPost2010Prop44ColorRGB
 90
      255
102
RTVSPost2010PropOp44
 70
     1
102
RTVSPost2010Prop45
280
     0
102
RTVSPost2010PropOp45
 70
     1
102
RTVSPost2010Prop46
 90
       50
102
RTVSPost2010PropOp46
 70
     1
102
RTVSPost2010Prop47
 90
       50
102
RTVSPost2010PropOp47
 70
     1
102
RTVSPost2010Prop48
 90
       50
102
RTVSPost2010PropOp48
 70
     1
102
RTVSPost2010Prop49
280
     0
102
RTVSPost2010PropOp49
 70
     1
102
RTVSPost2010Prop50
 90
       50
102
RTVSPost2010PropOp50
 70
     1
102
RTVSPost2010Prop51ColorIndex
 90
      256
102
RTVSPost2010Prop51ColorRGB
 90
-16777216
102
RTVSPost2010PropOp51
 70
     0
102
RTVSPost2010Prop52
140
1.0
102
RTVSPost2010PropOp52
 70
     0
102
RTVSPost2010Prop53
 90
        2
102
RTVSPost2010PropOp53
 70
     1
102
RTVSPost2010Prop54
  1
strokes_ogs.tif
102
RTVSPost2010PropOp54
 70
     1
102
RTVSPost2010Prop55
280
     0
102
RTVSPost2010PropOp55
 70
     1
102
RTVSPost2010Prop56
140
1.0
102
RTVSPost2010PropOp56
 70
     1
102
RTVSPost2010Prop57
140
1.0
102
RTVSPost2010PropOp57
 70
     1
  0
XRECORD
  5
6DC
102
{ACAD_REACTORS
330
6DB
102
}
330
6DB
100
AcDbXrecord
280
     1
102
RTVSPost2010Prop28
280
     0
102
RTVSPost2010PropOp28
 70
     1
102
RTVSPost2010Prop29
280
     1
102
RTVSPost2010PropOp29
 70
     1
102
RTVSPost2010Prop30
280
     1
102
RTVSPost2010PropOp30
 70
     1
102
RTVSPost2010Prop31
280
     0
102
RTVSPost2010PropOp31
 70
     1
102
RTVSPost2010Prop32
280
     0
102
RTVSPost2010PropOp32
 70
     1
102
RTVSPost2010Prop33
280
     0
102
RTVSPost2010PropOp33
 70
     1
102
RTVSPost2010Prop34
280
     0
102
RTVSPost2010PropOp34
 70
     1
102
RTVSPost2010Prop35
280
     0
102
RTVSPost2010PropOp35
 70
     1
102
RTVSPost2010Prop36
280
     0
102
RTVSPost2010PropOp36
 70
     1
102
RTVSPost2010Prop37
 90
       50
102
RTVSPost2010PropOp37
 70
     1
102
RTVSPost2010Prop38
140
0.0
102
RTVSPost2010PropOp38
 70
     1
102
RTVSPost2010Prop39
140
1.0
102
RTVSPost2010PropOp39
 70
     1
102
RTVSPost2010Prop40
 90
        0
102
RTVSPost2010PropOp40
 70
     1
102
RTVSPost2010Prop41ColorIndex
 90
       18
102
RTVSPost2010Prop41ColorRGB
 90
        0
102
RTVSPost2010PropOp41
 70
     1
102
RTVSPost2010Prop42
 90
       50
102
RTVSPost2010PropOp42
 70
     1
102
RTVSPost2010Prop43
 90
        3
102
RTVSPost2010PropOp43
 70
     1
102
RTVSPost2010Prop44ColorIndex
 90
        5
102
RTVSPost2010Prop44ColorRGB
 90
      255
102
RTVSPost2010PropOp44
 70
     1
102
RTVSPost2010Prop45
280
     0
102
RTVSPost2010PropOp45
 70
     1
102
RTVSPost2010Prop46
 90
       50
102
RTVSPost2010PropOp46
 70
     1
102
RTVSPost2010Prop47
 90
       50
102
RTVSPost2010PropOp47
 70
     1
102
RTVSPost2010Prop48
 90
       50
102
RTVSPost2010PropOp48
 70
     1
102
RTVSPost2010Prop49
280
     0
102
RTVSPost2010PropOp49
 70
     1
102
RTVSPost2010Prop50
 90
       50
102
RTVSPost2010PropOp50
 70
     1
102
RTVSPost2010Prop51ColorIndex
 90
      256
102
RTVSPost2010Prop51ColorRGB
 90
-16777216
102
RTVSPost2010PropOp51
 70
     0
102
RTVSPost2010Prop52
140
1.0
102
RTVSPost2010PropOp52
 70
     0
102
RTVSPost2010Prop53
 90
        2
102
RTVSPost2010PropOp53
 70
     1
102
RTVSPost2010Prop54
  1
strokes_ogs.tif
102
RTVSPost2010PropOp54
 70
     1
102
RTVSPost2010Prop55
280
     0
102
RTVSPost2010PropOp55
 70
     1
102
RTVSPost2010Prop56
140
1.0
102
RTVSPost2010PropOp56
 70
     1
102
RTVSPost2010Prop57
140
1.0
102
RTVSPost2010PropOp57
 70
     1
  0
XRECORD
  5
6CC
102
{ACAD_REACTORS
330
6CB
102
}
330
6CB
100
AcDbXrecord
280
     1
102
RTVSPost2010Prop28
280
     0
102
RTVSPost2010PropOp28
 70
     1
102
RTVSPost2010Prop29
280
     1
102
RTVSPost2010PropOp29
 70
     1
102
RTVSPost2010Prop30
280
     1
102
RTVSPost2010PropOp30
 70
     1
102
RTVSPost2010Prop31
280
     0
102
RTVSPost2010PropOp31
 70
     1
102
RTVSPost2010Prop32
280
     0
102
RTVSPost2010PropOp32
 70
     1
102
RTVSPost2010Prop33
280
     0
102
RTVSPost2010PropOp33
 70
     1
102
RTVSPost2010Prop34
280
     0
102
RTVSPost2010PropOp34
 70
     1
102
RTVSPost2010Prop35
280
     0
102
RTVSPost2010PropOp35
 70
     1
102
RTVSPost2010Prop36
280
     0
102
RTVSPost2010PropOp36
 70
     1
102
RTVSPost2010Prop37
 90
       50
102
RTVSPost2010PropOp37
 70
     1
102
RTVSPost2010Prop38
140
0.0
102
RTVSPost2010PropOp38
 70
     1
102
RTVSPost2010Prop39
140
1.0
102
RTVSPost2010PropOp39
 70
     1
102
RTVSPost2010Prop40
 90
        0
102
RTVSPost2010PropOp40
 70
     1
102
RTVSPost2010Prop41ColorIndex
 90
       18
102
RTVSPost2010Prop41ColorRGB
 90
        0
102
RTVSPost2010PropOp41
 70
     1
102
RTVSPost2010Prop42
 90
       50
102
RTVSPost2010PropOp42
 70
     1
102
RTVSPost2010Prop43
 90
        3
102
RTVSPost2010PropOp43
 70
     1
102
RTVSPost2010Prop44ColorIndex
 90
        5
102
RTVSPost2010Prop44ColorRGB
 90
      255
102
RTVSPost2010PropOp44
 70
     1
102
RTVSPost2010Prop45
280
     0
102
RTVSPost2010PropOp45
 70
     1
102
RTVSPost2010Prop46
 90
       50
102
RTVSPost2010PropOp46
 70
     1
102
RTVSPost2010Prop47
 90
       50
102
RTVSPost2010PropOp47
 70
     1
102
RTVSPost2010Prop48
 90
       50
102
RTVSPost2010PropOp48
 70
     1
102
RTVSPost2010Prop49
280
     0
102
RTVSPost2010PropOp49
 70
     1
102
RTVSPost2010Prop50
 90
       50
102
RTVSPost2010PropOp50
 70
     1
102
RTVSPost2010Prop51ColorIndex
 90
      256
102
RTVSPost2010Prop51ColorRGB
 90
-16777216
102
RTVSPost2010PropOp51
 70
     0
102
RTVSPost2010Prop52
140
1.0
102
RTVSPost2010PropOp52
 70
     0
102
RTVSPost2010Prop53
 90
        2
102
RTVSPost2010PropOp53
 70
     1
102
RTVSPost2010Prop54
  1
strokes_ogs.tif
102
RTVSPost2010PropOp54
 70
     1
102
RTVSPost2010Prop55
280
     0
102
RTVSPost2010PropOp55
 70
     1
102
RTVSPost2010Prop56
140
1.0
102
RTVSPost2010PropOp56
 70
     1
102
RTVSPost2010Prop57
140
1.0
102
RTVSPost2010PropOp57
 70
     1
  0
XRECORD
  5
6C0
102
{ACAD_REACTORS
330
6BF
102
}
330
6BF
100
AcDbXrecord
280
     1
102
RTVSPost2010Prop28
280
     0
102
RTVSPost2010PropOp28
 70
     1
102
RTVSPost2010Prop29
280
     1
102
RTVSPost2010PropOp29
 70
     1
102
RTVSPost2010Prop30
280
     1
102
RTVSPost2010PropOp30
 70
     1
102
RTVSPost2010Prop31
280
     0
102
RTVSPost2010PropOp31
 70
     1
102
RTVSPost2010Prop32
280
     0
102
RTVSPost2010PropOp32
 70
     1
102
RTVSPost2010Prop33
280
     0
102
RTVSPost2010PropOp33
 70
     1
102
RTVSPost2010Prop34
280
     0
102
RTVSPost2010PropOp34
 70
     1
102
RTVSPost2010Prop35
280
     0
102
RTVSPost2010PropOp35
 70
     1
102
RTVSPost2010Prop36
280
     0
102
RTVSPost2010PropOp36
 70
     1
102
RTVSPost2010Prop37
 90
       50
102
RTVSPost2010PropOp37
 70
     1
102
RTVSPost2010Prop38
140
0.0
102
RTVSPost2010PropOp38
 70
     1
102
RTVSPost2010Prop39
140
1.0
102
RTVSPost2010PropOp39
 70
     1
102
RTVSPost2010Prop40
 90
        0
102
RTVSPost2010PropOp40
 70
     1
102
RTVSPost2010Prop41ColorIndex
 90
       18
102
RTVSPost2010Prop41ColorRGB
 90
        0
102
RTVSPost2010PropOp41
 70
     1
102
RTVSPost2010Prop42
 90
       50
102
RTVSPost2010PropOp42
 70
     1
102
RTVSPost2010Prop43
 90
        3
102
RTVSPost2010PropOp43
 70
     1
102
RTVSPost2010Prop44ColorIndex
 90
        5
102
RTVSPost2010Prop44ColorRGB
 90
      255
102
RTVSPost2010PropOp44
 70
     1
102
RTVSPost2010Prop45
280
     0
102
RTVSPost2010PropOp45
 70
     1
102
RTVSPost2010Prop46
 90
       50
102
RTVSPost2010PropOp46
 70
     1
102
RTVSPost2010Prop47
 90
       50
102
RTVSPost2010PropOp47
 70
     1
102
RTVSPost2010Prop48
 90
       50
102
RTVSPost2010PropOp48
 70
     1
102
RTVSPost2010Prop49
280
     0
102
RTVSPost2010PropOp49
 70
     1
102
RTVSPost2010Prop50
 90
       50
102
RTVSPost2010PropOp50
 70
     1
102
RTVSPost2010Prop51ColorIndex
 90
      256
102
RTVSPost2010Prop51ColorRGB
 90
-16777216
102
RTVSPost2010PropOp51
 70
     0
102
RTVSPost2010Prop52
140
1.0
102
RTVSPost2010PropOp52
 70
     0
102
RTVSPost2010Prop53
 90
        2
102
RTVSPost2010PropOp53
 70
     1
102
RTVSPost2010Prop54
  1
strokes_ogs.tif
102
RTVSPost2010PropOp54
 70
     1
102
RTVSPost2010Prop55
280
     0
102
RTVSPost2010PropOp55
 70
     1
102
RTVSPost2010Prop56
140
1.0
102
RTVSPost2010PropOp56
 70
     1
102
RTVSPost2010Prop57
140
1.0
102
RTVSPost2010PropOp57
 70
     1
  0
XRECORD
  5
6DE
102
{ACAD_REACTORS
330
6DD
102
}
330
6DD
100
AcDbXrecord
280
     1
102
RTVSPost2010Prop28
280
     0
102
RTVSPost2010PropOp28
 70
     1
102
RTVSPost2010Prop29
280
     1
102
RTVSPost2010PropOp29
 70
     1
102
RTVSPost2010Prop30
280
     1
102
RTVSPost2010PropOp30
 70
     1
102
RTVSPost2010Prop31
280
     0
102
RTVSPost2010PropOp31
 70
     1
102
RTVSPost2010Prop32
280
     0
102
RTVSPost2010PropOp32
 70
     1
102
RTVSPost2010Prop33
280
     0
102
RTVSPost2010PropOp33
 70
     1
102
RTVSPost2010Prop34
280
     0
102
RTVSPost2010PropOp34
 70
     1
102
RTVSPost2010Prop35
280
     0
102
RTVSPost2010PropOp35
 70
     1
102
RTVSPost2010Prop36
280
     0
102
RTVSPost2010PropOp36
 70
     1
102
RTVSPost2010Prop37
 90
       50
102
RTVSPost2010PropOp37
 70
     1
102
RTVSPost2010Prop38
140
0.0
102
RTVSPost2010PropOp38
 70
     1
102
RTVSPost2010Prop39
140
1.0
102
RTVSPost2010PropOp39
 70
     1
102
RTVSPost2010Prop40
 90
        0
102
RTVSPost2010PropOp40
 70
     1
102
RTVSPost2010Prop41ColorIndex
 90
       18
102
RTVSPost2010Prop41ColorRGB
 90
        0
102
RTVSPost2010PropOp41
 70
     1
102
RTVSPost2010Prop42
 90
       50
102
RTVSPost2010PropOp42
 70
     1
102
RTVSPost2010Prop43
 90
        3
102
RTVSPost2010PropOp43
 70
     1
102
RTVSPost2010Prop44ColorIndex
 90
        5
102
RTVSPost2010Prop44ColorRGB
 90
      255
102
RTVSPost2010PropOp44
 70
     1
102
RTVSPost2010Prop45
280
     0
102
RTVSPost2010PropOp45
 70
     1
102
RTVSPost2010Prop46
 90
       50
102
RTVSPost2010PropOp46
 70
     1
102
RTVSPost2010Prop47
 90
       50
102
RTVSPost2010PropOp47
 70
     1
102
RTVSPost2010Prop48
 90
       50
102
RTVSPost2010PropOp48
 70
     1
102
RTVSPost2010Prop49
280
     0
102
RTVSPost2010PropOp49
 70
     1
102
RTVSPost2010Prop50
 90
       50
102
RTVSPost2010PropOp50
 70
     1
102
RTVSPost2010Prop51ColorIndex
 90
      256
102
RTVSPost2010Prop51ColorRGB
 90
-16777216
102
RTVSPost2010PropOp51
 70
     0
102
RTVSPost2010Prop52
140
1.0
102
RTVSPost2010PropOp52
 70
     0
102
RTVSPost2010Prop53
 90
        2
102
RTVSPost2010PropOp53
 70
     1
102
RTVSPost2010Prop54
  1
strokes_ogs.tif
102
RTVSPost2010PropOp54
 70
     1
102
RTVSPost2010Prop55
280
     0
102
RTVSPost2010PropOp55
 70
     1
102
RTVSPost2010Prop56
140
1.0
102
RTVSPost2010PropOp56
 70
     1
102
RTVSPost2010Prop57
140
1.0
102
RTVSPost2010PropOp57
 70
     1
  0
ENDSEC
  0
EOF
