  0
SECTION
  2
HEADER
  9
$ACADVER
  1
AC1024
  9
$ACADMAINTVER
 70
   155
  9
$DWGCODEPAGE
  3
ANSI_936
  9
$LASTSAVEDBY
  1
Administrator
  9
$INSBASE
 10
0.0
 20
0.0
 30
0.0
  9
$EXTMIN
 10
82.79567262731925
 20
71.91748420575361
 30
0.0
  9
$EXTMAX
 10
1238.298710658706
 20
576.3874928606147
 30
0.0
  9
$LIMMIN
 10
0.0
 20
0.0
  9
$LIMMAX
 10
420.0
 20
297.0
  9
$ORTHOMODE
 70
     1
  9
$REGENMODE
 70
     1
  9
$FILLMODE
 70
     1
  9
$QTEXTMODE
 70
     0
  9
$MIRRTEXT
 70
     0
  9
$LTSCALE
 40
1.5
  9
$ATTMODE
 70
     1
  9
$TEXTSIZE
 40
2.5
  9
$TRACEWID
 40
1.0
  9
$TEXTSTYLE
  7
Standard
  9
$CLAYER
  8
dimensions
  9
$CELTYPE
  6
ByBlock
  9
$CECOLOR
 62
   256
  9
$CELTSCALE
 40
1.0
  9
$DISPSILH
 70
     0
  9
$DIMSCALE
 40
1.0
  9
$DIMASZ
 40
8.0
  9
$DIMEXO
 40
2.5
  9
$DIMDLI
 40
3.75
  9
$DIMRND
 40
0.0
  9
$DIMDLE
 40
0.0
  9
$DIMEXE
 40
5.0
  9
$DIMTP
 40
0.0
  9
$DIMTM
 40
0.0
  9
$DIMTXT
 40
9.0
  9
$DIMCEN
 40
-0.09
  9
$DIMTSZ
 40
0.0
  9
$DIMTOL
 70
     0
  9
$DIMLIM
 70
     0
  9
$DIMTIH
 70
     1
  9
$DIMTOH
 70
     1
  9
$DIMSE1
 70
     0
  9
$DIMSE2
 70
     0
  9
$DIMTAD
 70
     1
  9
$DIMZIN
 70
     8
  9
$DIMBLK
  1

  9
$DIMASO
 70
     1
  9
$DIMSHO
 70
     1
  9
$DIMPOST
  1
 mm\X
  9
$DIMAPOST
  1
 "
  9
$DIMALT
 70
     1
  9
$DIMALTD
 70
     5
  9
$DIMALTF
 40
0.03937007874016
  9
$DIMLFAC
 40
1.0
  9
$DIMTOFL
 70
     1
  9
$DIMTVP
 40
0.0
  9
$DIMTIX
 70
     0
  9
$DIMSOXD
 70
     0
  9
$DIMSAH
 70
     0
  9
$DIMBLK1
  1

  9
$DIMBLK2
  1

  9
$DIMSTYLE
  2
dimensions
  9
$DIMCLRD
 70
   256
  9
$DIMCLRE
 70
   256
  9
$DIMCLRT
 70
   256
  9
$DIMTFAC
 40
1.0
  9
$DIMGAP
 40
2.5
  9
$DIMJUST
 70
     0
  9
$DIMSD1
 70
     0
  9
$DIMSD2
 70
     0
  9
$DIMTOLJ
 70
     0
  9
$DIMTZIN
 70
     8
  9
$DIMALTZ
 70
     0
  9
$DIMALTTZ
 70
     0
  9
$DIMUPT
 70
     0
  9
$DIMDEC
 70
     2
  9
$DIMTDEC
 70
     2
  9
$DIMALTU
 70
     7
  9
$DIMALTTD
 70
     5
  9
$DIMTXSTY
  7
Standard
  9
$DIMAUNIT
 70
     0
  9
$DIMADEC
 70
     0
  9
$DIMALTRND
 40
0.0
  9
$DIMAZIN
 70
     0
  9
$DIMDSEP
 70
    44
  9
$DIMATFIT
 70
     3
  9
$DIMFRAC
 70
     0
  9
$DIMLDRBLK
  1

  9
$DIMLUNIT
 70
     2
  9
$DIMLWD
 70
    -2
  9
$DIMLWE
 70
    -2
  9
$DIMTMOVE
 70
     0
  9
$DIMFXL
 40
1.0
  9
$DIMFXLON
 70
     0
  9
$DIMJOGANG
 40
0.7853981633974483
  9
$DIMTFILL
 70
     0
  9
$DIMTFILLCLR
 70
     0
  9
$DIMARCSYM
 70
     0
  9
$DIMLTYPE
  6

  9
$DIMLTEX1
  6

  9
$DIMLTEX2
  6

  9
$DIMTXTDIRECTION
 70
     0
  9
$LUNITS
 70
     2
  9
$LUPREC
 70
     4
  9
$SKETCHINC
 40
1.0
  9
$FILLETRAD
 40
15.0
  9
$AUNITS
 70
     0
  9
$AUPREC
 70
     0
  9
$MENU
  1
.
  9
$ELEVATION
 40
0.0
  9
$PELEVATION
 40
0.0
  9
$THICKNESS
 40
0.0
  9
$LIMCHECK
 70
     0
  9
$CHAMFERA
 40
0.0
  9
$CHAMFERB
 40
0.0
  9
$CHAMFERC
 40
0.0
  9
$CHAMFERD
 40
0.0
  9
$SKPOLY
 70
     0
  9
$TDCREATE
 40
2457575.617583067
  9
$TDUCREATE
 40
2457575.284249734
  9
$TDUPDATE
 40
2457578.580429722
  9
$TDUUPDATE
 40
2457578.247096389
  9
$TDINDWG
 40
0.1034860648
  9
$TDUSRTIMER
 40
0.1034860648
  9
$USRTIMER
 70
     1
  9
$ANGBASE
 50
0.0
  9
$ANGDIR
 70
     0
  9
$PDMODE
 70
     0
  9
$PDSIZE
 40
0.0
  9
$PLINEWID
 40
0.0
  9
$SPLFRAME
 70
     0
  9
$SPLINETYPE
 70
     6
  9
$SPLINESEGS
 70
     8
  9
$HANDSEED
  5
1EA5
  9
$SURFTAB1
 70
     6
  9
$SURFTAB2
 70
     6
  9
$SURFTYPE
 70
     6
  9
$SURFU
 70
     6
  9
$SURFV
 70
     6
  9
$UCSBASE
  2

  9
$UCSNAME
  2

  9
$UCSORG
 10
0.0
 20
0.0
 30
0.0
  9
$UCSXDIR
 10
1.0
 20
0.0
 30
0.0
  9
$UCSYDIR
 10
0.0
 20
1.0
 30
0.0
  9
$UCSORTHOREF
  2

  9
$UCSORTHOVIEW
 70
     0
  9
$UCSORGTOP
 10
0.0
 20
0.0
 30
0.0
  9
$UCSORGBOTTOM
 10
0.0
 20
0.0
 30
0.0
  9
$UCSORGLEFT
 10
0.0
 20
0.0
 30
0.0
  9
$UCSORGRIGHT
 10
0.0
 20
0.0
 30
0.0
  9
$UCSORGFRONT
 10
0.0
 20
0.0
 30
0.0
  9
$UCSORGBACK
 10
0.0
 20
0.0
 30
0.0
  9
$PUCSBASE
  2

  9
$PUCSNAME
  2

  9
$PUCSORG
 10
0.0
 20
0.0
 30
0.0
  9
$PUCSXDIR
 10
1.0
 20
0.0
 30
0.0
  9
$PUCSYDIR
 10
0.0
 20
1.0
 30
0.0
  9
$PUCSORTHOREF
  2

  9
$PUCSORTHOVIEW
 70
     0
  9
$PUCSORGTOP
 10
0.0
 20
0.0
 30
0.0
  9
$PUCSORGBOTTOM
 10
0.0
 20
0.0
 30
0.0
  9
$PUCSORGLEFT
 10
0.0
 20
0.0
 30
0.0
  9
$PUCSORGRIGHT
 10
0.0
 20
0.0
 30
0.0
  9
$PUCSORGFRONT
 10
0.0
 20
0.0
 30
0.0
  9
$PUCSORGBACK
 10
0.0
 20
0.0
 30
0.0
  9
$USERI1
 70
     0
  9
$USERI2
 70
     0
  9
$USERI3
 70
     0
  9
$USERI4
 70
     0
  9
$USERI5
 70
     0
  9
$USERR1
 40
0.0
  9
$USERR2
 40
0.0
  9
$USERR3
 40
0.0
  9
$USERR4
 40
0.0
  9
$USERR5
 40
0.0
  9
$WORLDVIEW
 70
     1
  9
$SHADEDGE
 70
     3
  9
$SHADEDIF
 70
    70
  9
$TILEMODE
 70
     1
  9
$MAXACTVP
 70
    64
  9
$PINSBASE
 10
0.0
 20
0.0
 30
0.0
  9
$PLIMCHECK
 70
     0
  9
$PEXTMIN
 10
0.0
 20
0.0
 30
0.0
  9
$PEXTMAX
 10
0.0
 20
0.0
 30
0.0
  9
$PLIMMIN
 10
0.0
 20
0.0
  9
$PLIMMAX
 10
12.0
 20
9.0
  9
$UNITMODE
 70
     0
  9
$VISRETAIN
 70
     1
  9
$PLINEGEN
 70
     0
  9
$PSLTSCALE
 70
     1
  9
$TREEDEPTH
 70
  3020
  9
$CMLSTYLE
  2
Standard
  9
$CMLJUST
 70
     0
  9
$CMLSCALE
 40
20.0
  9
$PROXYGRAPHICS
 70
     1
  9
$MEASUREMENT
 70
     1
  9
$CELWEIGHT
370
    -3
  9
$ENDCAPS
280
     0
  9
$JOINSTYLE
280
     0
  9
$LWDISPLAY
290
     0
  9
$INSUNITS
 70
     4
  9
$HYPERLINKBASE
  1

  9
$STYLESHEET
  1

  9
$XEDIT
290
     1
  9
$CEPSNTYPE
380
     0
  9
$PSTYLEMODE
290
     1
  9
$FINGERPRINTGUID
  2
{71630338-CC88-433C-AAA1-45A5E8F4EE92}
  9
$VERSIONGUID
  2
{2CD316E2-C19A-4820-A440-817B4AB4394B}
  9
$EXTNAMES
290
     1
  9
$PSVPSCALE
 40
0.0
  9
$OLESTARTUP
290
     0
  9
$SORTENTS
280
   127
  9
$INDEXCTL
280
     0
  9
$HIDETEXT
280
     1
  9
$XCLIPFRAME
280
     2
  9
$HALOGAP
280
     0
  9
$OBSCOLOR
 70
   257
  9
$OBSLTYPE
280
     0
  9
$INTERSECTIONDISPLAY
280
     0
  9
$INTERSECTIONCOLOR
 70
   257
  9
$DIMASSOC
280
     2
  9
$PROJECTNAME
  1

  9
$CAMERADISPLAY
290
     0
  9
$LENSLENGTH
 40
50.0
  9
$CAMERAHEIGHT
 40
0.0
  9
$STEPSPERSEC
 40
2.0
  9
$STEPSIZE
 40
6.0
  9
$3DDWFPREC
 40
2.0
  9
$PSOLWIDTH
 40
5.0
  9
$PSOLHEIGHT
 40
80.0
  9
$LOFTANG1
 40
1.570796326794896
  9
$LOFTANG2
 40
1.570796326794896
  9
$LOFTMAG1
 40
0.0
  9
$LOFTMAG2
 40
0.0
  9
$LOFTPARAM
 70
     7
  9
$LOFTNORMALS
280
     1
  9
$LATITUDE
 40
37.795
  9
$LONGITUDE
 40
-122.394
  9
$NORTHDIRECTION
 40
0.0
  9
$TIMEZONE
 70
 -8000
  9
$LIGHTGLYPHDISPLAY
280
     1
  9
$TILEMODELIGHTSYNCH
280
     1
  9
$CMATERIAL
347
EC
  9
$SOLIDHIST
280
     0
  9
$SHOWHIST
280
     1
  9
$DWFFRAME
280
     2
  9
$DGNFRAME
280
     0
  9
$REALWORLDSCALE
290
     1
  9
$INTERFERECOLOR
 62
     1
  9
$INTERFEREOBJVS
345
F9
  9
$INTERFEREVPVS
346
F6
  9
$CSHADOW
280
     0
  9
$SHADOWPLANELOCATION
 40
0.0
  0
ENDSEC
  0
SECTION
  2
CLASSES
  0
CLASS
  1
ACDBDICTIONARYWDFLT
  2
AcDbDictionaryWithDefault
  3
ObjectDBX Classes
 90
        0
 91
        1
280
     0
281
     0
  0
CLASS
  1
DICTIONARYVAR
  2
AcDbDictionaryVar
  3
ObjectDBX Classes
 90
        0
 91
        9
280
     0
281
     0
  0
CLASS
  1
TABLESTYLE
  2
AcDbTableStyle
  3
ObjectDBX Classes
 90
     4095
 91
        1
280
     0
281
     0
  0
CLASS
  1
MATERIAL
  2
AcDbMaterial
  3
ObjectDBX Classes
 90
     1153
 91
        3
280
     0
281
     0
  0
CLASS
  1
VISUALSTYLE
  2
AcDbVisualStyle
  3
ObjectDBX Classes
 90
     4095
 91
       25
280
     0
281
     0
  0
CLASS
  1
SCALE
  2
AcDbScale
  3
ObjectDBX Classes
 90
     1153
 91
       17
280
     0
281
     0
  0
CLASS
  1
MLEADERSTYLE
  2
AcDbMLeaderStyle
  3
ACDB_MLEADERSTYLE_CLASS
 90
     4095
 91
        3
280
     0
281
     0
  0
CLASS
  1
CELLSTYLEMAP
  2
AcDbCellStyleMap
  3
ObjectDBX Classes
 90
     1152
 91
        1
280
     0
281
     0
  0
CLASS
  1
EXACXREFPANELOBJECT
  2
ExAcXREFPanelObject
  3
EXAC_ESW
 90
     1025
 91
        0
280
     0
281
     0
  0
CLASS
  1
NPOCOLLECTION
  2
AcDbImpNonPersistentObjectsCollection
  3
ObjectDBX Classes
 90
     1153
 91
        0
280
     0
281
     0
  0
CLASS
  1
LAYER_INDEX
  2
AcDbLayerIndex
  3
ObjectDBX Classes
 90
        0
 91
        0
280
     0
281
     0
  0
CLASS
  1
SPATIAL_INDEX
  2
AcDbSpatialIndex
  3
ObjectDBX Classes
 90
        0
 91
        0
280
     0
281
     0
  0
CLASS
  1
IDBUFFER
  2
AcDbIdBuffer
  3
ObjectDBX Classes
 90
        0
 91
        0
280
     0
281
     0
  0
CLASS
  1
ACDBSECTIONVIEWSTYLE
  2
AcDbSectionViewStyle
  3
ObjectDBX Classes
 90
     1025
 91
        2
280
     0
281
     0
  0
CLASS
  1
ACDBDETAILVIEWSTYLE
  2
AcDbDetailViewStyle
  3
ObjectDBX Classes
 90
     1025
 91
        2
280
     0
281
     0
  0
CLASS
  1
MULTILEADER
  2
AcDbMLeader
  3
ACDB_MLEADER_CLASS
 90
     1025
 91
        1
280
     0
281
     1
  0
CLASS
  1
DIMASSOC
  2
AcDbDimAssoc
  3
"AcDbDimAssoc|Product Desc:     AcDim ARX App For Dimension|Company:          Autodesk, Inc.|WEB Address:      www.autodesk.com"
 90
        0
 91
        3
280
     0
281
     0
  0
CLASS
  1
SORTENTSTABLE
  2
AcDbSortentsTable
  3
ObjectDBX Classes
 90
        0
 91
        1
280
     0
281
     0
  0
ENDSEC
  0
SECTION
  2
TABLES
  0
TABLE
  2
VPORT
  5
8
330
0
100
AcDbSymbolTable
 70
     1
  0
VPORT
  5
EA
330
8
100
AcDbSymbolTableRecord
100
AcDbViewportTableRecord
  2
*Active
 70
     0
 10
0.0
 20
0.0
 11
1.0
 21
1.0
 12
664.3318562519132
 22
381.3060766647191
 13
0.0
 23
0.0
 14
10.0
 24
10.0
 15
10.0
 25
10.0
 16
0.0
 26
0.0
 36
1.0
 17
0.0
 27
0.0
 37
0.0
 40
819.8584762341901
 41
2.26231527093596
 42
50.0
 43
0.0
 44
0.0
 50
0.0
 51
0.0
 71
     0
 72
  1000
 73
     1
 74
     3
 75
     0
 76
     1
 77
     0
 78
     0
281
     0
 65
     1
110
0.0
120
0.0
130
0.0
111
1.0
121
0.0
131
0.0
112
0.0
122
1.0
132
0.0
 79
     0
146
0.0
348
F5
 60
     3
 61
     5
292
     1
282
     1
141
0.0
142
0.0
 63
   250
421
  3355443
1001
ACAD_NAV_VCDISPLAY
1070
     3
  0
ENDTAB
  0
TABLE
  2
LTYPE
  5
5
330
0
100
AcDbSymbolTable
 70
     3
  0
LTYPE
  5
14
330
5
100
AcDbSymbolTableRecord
100
AcDbLinetypeTableRecord
  2
ByBlock
 70
     0
  3

 72
    65
 73
     0
 40
0.0
  0
LTYPE
  5
15
330
5
100
AcDbSymbolTableRecord
100
AcDbLinetypeTableRecord
  2
ByLayer
 70
     0
  3

 72
    65
 73
     0
 40
0.0
  0
LTYPE
  5
16
330
5
100
AcDbSymbolTableRecord
100
AcDbLinetypeTableRecord
  2
Continuous
 70
     0
  3
Solid line
 72
    65
 73
     0
 40
0.0
  0
LTYPE
  5
279
330
5
100
AcDbSymbolTableRecord
100
AcDbLinetypeTableRecord
  2
ACAD_ISO03W100
 70
     0
  3
ISO dash space __    __    __    __    __    __
 72
    65
 73
     2
 40
30.0
 49
12.0
 74
     0
 49
-18.0
 74
     0
  0
LTYPE
  5
2CA
330
5
100
AcDbSymbolTableRecord
100
AcDbLinetypeTableRecord
  2
ACAD_ISO08W100
 70
     0
  3
ISO long-dash short-dash ____ __ ____ __ ____ _
 72
    65
 73
     4
 40
36.0
 49
24.0
 74
     0
 49
-3.0
 74
     0
 49
6.0
 74
     0
 49
-3.0
 74
     0
  0
ENDTAB
  0
TABLE
  2
LAYER
  5
2
102
{ACAD_XDICTIONARY
360
1FF
102
}
330
0
100
AcDbSymbolTable
 70
     5
  0
LAYER
  5
10
102
{ACAD_XDICTIONARY
360
13C
102
}
330
2
100
AcDbSymbolTableRecord
100
AcDbLayerTableRecord
  2
0
 70
     0
 62
     7
  6
Continuous
370
    -3
390
F
347
EE
  0
LAYER
  5
242
330
2
100
AcDbSymbolTableRecord
100
AcDbLayerTableRecord
  2
centerline
 70
     0
 62
    10
  6
Continuous
370
    -3
390
F
347
EE
1001
AcAecLayerStandard
1000

1000

1001
AcCmTransparency
1071
        0
  0
LAYER
  5
245
330
2
100
AcDbSymbolTableRecord
100
AcDbLayerTableRecord
  2
dimensions
 70
     0
 62
   210
  6
Continuous
370
    -3
390
F
347
EE
1001
AcAecLayerStandard
1000

1000

1001
AcCmTransparency
1071
        0
  0
LAYER
  5
249
330
2
100
AcDbSymbolTableRecord
100
AcDbLayerTableRecord
  2
note
 70
     0
 62
    10
  6
Continuous
370
    -3
390
F
347
EE
1001
AcAecLayerStandard
1000

1000

1001
AcCmTransparency
1071
        0
  0
LAYER
  5
2EA
330
2
100
AcDbSymbolTableRecord
100
AcDbLayerTableRecord
  2
Defpoints
 70
     0
 62
     7
  6
Continuous
290
     0
370
    -3
390
F
347
EE
  0
ENDTAB
  0
TABLE
  2
STYLE
  5
3
330
0
100
AcDbSymbolTable
 70
     4
  0
STYLE
  5
11
330
3
100
AcDbSymbolTableRecord
100
AcDbTextStyleTableRecord
  2
Standard
 70
     0
 40
0.0
 41
1.0
 50
0.0
 71
     0
 42
2.5
  3
arial.ttf
  4

1001
ACAD
1000
Arial
1071
       34
  0
STYLE
  5
132
330
3
100
AcDbSymbolTableRecord
100
AcDbTextStyleTableRecord
  2
Annotative
 70
     0
 40
0.0
 41
1.0
 50
0.0
 71
     0
 42
2.5
  3
arial.ttf
  4

1001
AcadAnnotative
1000
AnnotativeData
1002
{
1070
     1
1070
     1
1002
}
1001
ACAD
1000
Arial
1071
       34
  0
STYLE
  5
278
330
3
100
AcDbSymbolTableRecord
100
AcDbTextStyleTableRecord
  2

 70
     1
 40
0.0
 41
1.0
 50
0.0
 71
     0
 42
2.5
  3
ltypeshp.shx
  4

  0
STYLE
  5
739
330
3
100
AcDbSymbolTableRecord
100
AcDbTextStyleTableRecord
  2
标注
 70
     0
 40
0.0
 41
1.0
 50
0.0
 71
     0
 42
35.0
  3

  4

1001
ACAD
1000
Humnst777 BT
1071
       34
  0
ENDTAB
  0
TABLE
  2
VIEW
  5
6
330
0
100
AcDbSymbolTable
 70
     1
  0
ENDTAB
  0
TABLE
  2
UCS
  5
7
330
0
100
AcDbSymbolTable
 70
     0
  0
ENDTAB
  0
TABLE
  2
APPID
  5
9
330
0
100
AcDbSymbolTable
 70
    13
  0
APPID
  5
12
330
9
100
AcDbSymbolTableRecord
100
AcDbRegAppTableRecord
  2
ACAD
 70
     0
  0
APPID
  5
9E
330
9
100
AcDbSymbolTableRecord
100
AcDbRegAppTableRecord
  2
ACAD_PSEXT
 70
     0
  0
APPID
  5
133
330
9
100
AcDbSymbolTableRecord
100
AcDbRegAppTableRecord
  2
AcadAnnoPO
 70
     0
  0
APPID
  5
134
330
9
100
AcDbSymbolTableRecord
100
AcDbRegAppTableRecord
  2
AcadAnnotative
 70
     0
  0
APPID
  5
135
330
9
100
AcDbSymbolTableRecord
100
AcDbRegAppTableRecord
  2
ACAD_DSTYLE_DIMJAG
 70
     0
  0
APPID
  5
136
330
9
100
AcDbSymbolTableRecord
100
AcDbRegAppTableRecord
  2
ACAD_DSTYLE_DIMTALN
 70
     0
  0
APPID
  5
165
330
9
100
AcDbSymbolTableRecord
100
AcDbRegAppTableRecord
  2
ACAD_MLEADERVER
 70
     0
  0
APPID
  5
217
330
9
100
AcDbSymbolTableRecord
100
AcDbRegAppTableRecord
  2
ACAD_NAV_VCDISPLAY
 70
     0
  0
APPID
  5
243
330
9
100
AcDbSymbolTableRecord
100
AcDbRegAppTableRecord
  2
AcAecLayerStandard
 70
     0
  0
APPID
  5
244
330
9
100
AcDbSymbolTableRecord
100
AcDbRegAppTableRecord
  2
AcCmTransparency
 70
     0
  0
APPID
  5
296
330
9
100
AcDbSymbolTableRecord
100
AcDbRegAppTableRecord
  2
ACAD_EXEMPT_FROM_CAD_STANDARDS
 70
     0
  0
APPID
  5
332
330
9
100
AcDbSymbolTableRecord
100
AcDbRegAppTableRecord
  2
ACAD_DSTYLE_DIMBREAK
 70
     0
  0
APPID
  5
449
330
9
100
AcDbSymbolTableRecord
100
AcDbRegAppTableRecord
  2
ACAD_DSTYLE_DIMRADIAL_EXTENSION
 70
     0
  0
ENDTAB
  0
TABLE
  2
DIMSTYLE
  5
A
330
0
100
AcDbSymbolTable
 70
     5
100
AcDbDimStyleTable
 71
     3
340
333
340
27
340
137
  0
DIMSTYLE
105
1B0
330
A
100
AcDbSymbolTableRecord
100
AcDbDimStyleTableRecord
  2
Standard
 70
     0
340
11
  0
DIMSTYLE
105
137
330
A
100
AcDbSymbolTableRecord
100
AcDbDimStyleTableRecord
  2
Annotative
 70
     0
 40
0.0
 41
2.5
 42
0.625
 43
3.75
 44
1.25
 73
     0
 74
     0
 77
     1
 78
     8
140
2.5
141
2.5
143
0.03937007874016
147
0.625
171
     3
172
     1
271
     2
272
     2
274
     3
278
    44
283
     0
284
     8
340
11
1001
AcadAnnotative
1000
AnnotativeData
1002
{
1070
     1
1070
     1
1002
}
1001
ACAD_DSTYLE_DIMJAG
1070
   388
1040
1.5
1001
ACAD_DSTYLE_DIMTALN
1070
   392
1070
     0
  0
DIMSTYLE
105
27
330
A
100
AcDbSymbolTableRecord
100
AcDbDimStyleTableRecord
  2
ISO-25
 70
     0
 41
2.5
 42
0.625
 43
3.75
 44
1.25
 73
     0
 74
     0
 77
     1
 78
     8
140
2.5
141
2.5
143
0.03937007874016
147
0.625
171
     3
172
     1
271
     2
272
     2
274
     3
278
    44
283
     0
284
     8
340
11
  0
DIMSTYLE
105
333
102
{ACAD_REACTORS
330
1D61
330
1D7B
330
1DA3
102
}
330
A
100
AcDbSymbolTableRecord
100
AcDbDimStyleTableRecord
  2
dimensions
 70
     0
  3
 mm\X
  4
 "
 41
8.0
 42
2.5
 43
3.75
 44
5.0
 77
     1
 78
     8
140
9.0
141
-0.09
143
0.03937007874016
147
2.5
170
     1
171
     5
172
     1
176
   256
177
   256
178
   256
271
     2
272
     2
273
     7
274
     5
278
    44
283
     0
284
     8
340
11
1001
ACAD_DSTYLE_DIMBREAK
1070
   391
1040
3.75
1001
ACAD_DSTYLE_DIMJAG
1070
   388
1040
2.5
1001
ACAD_DSTYLE_DIMTALN
1070
   392
1070
     0
  0
DIMSTYLE
105
73A
330
A
100
AcDbSymbolTableRecord
100
AcDbDimStyleTableRecord
  2
公制
 70
     0
 40
7.0
 41
2.2
 42
2.0
 43
3.75
 44
0.5
 73
     0
 74
     0
 77
     1
 78
     8
 79
     2
140
2.2
141
0.5
143
0.03937007874016
147
0.6
171
     3
172
     1
179
     2
271
     1
272
     1
274
     3
279
     1
283
     0
284
     8
340
739
1001
ACAD_DSTYLE_DIMJAG
1070
   388
1040
1.5
1001
ACAD_DSTYLE_DIMTALN
1070
   392
1070
     0
  0
ENDTAB
  0
TABLE
  2
BLOCK_RECORD
  5
1
330
0
100
AcDbSymbolTable
 70
     9
  0
BLOCK_RECORD
  5
1F
102
{ACAD_XDICTIONARY
360
1CE
102
}
330
1
100
AcDbSymbolTableRecord
100
AcDbBlockTableRecord
  2
*Model_Space
340
22
 70
     0
280
     1
281
     0
  0
BLOCK_RECORD
  5
D2
330
1
100
AcDbSymbolTableRecord
100
AcDbBlockTableRecord
  2
*Paper_Space
340
D3
 70
     0
280
     1
281
     0
  0
BLOCK_RECORD
  5
D6
330
1
100
AcDbSymbolTableRecord
100
AcDbBlockTableRecord
  2
*Paper_Space0
340
D7
 70
     0
280
     1
281
     0
  0
BLOCK_RECORD
  5
72A
330
1
100
AcDbSymbolTableRecord
100
AcDbBlockTableRecord
  2
_Oblique
340
0
 70
     0
280
     1
281
     0
  0
BLOCK_RECORD
  5
72E
330
1
100
AcDbSymbolTableRecord
100
AcDbBlockTableRecord
  2
_ClosedBlank
340
0
 70
     0
280
     1
281
     0
  0
BLOCK_RECORD
  5
1D62
330
1
100
AcDbSymbolTableRecord
100
AcDbBlockTableRecord
  2
*D6
340
0
 70
     0
280
     1
281
     0
  0
BLOCK_RECORD
  5
1D7C
330
1
100
AcDbSymbolTableRecord
100
AcDbBlockTableRecord
  2
*D7
340
0
 70
     0
280
     1
281
     0
  0
BLOCK_RECORD
  5
1DA4
330
1
100
AcDbSymbolTableRecord
100
AcDbBlockTableRecord
  2
*D8
340
0
 70
     0
280
     1
281
     0
  0
ENDTAB
  0
ENDSEC
  0
SECTION
  2
BLOCKS
  0
BLOCK
  5
20
330
1F
100
AcDbEntity
  8
0
100
AcDbBlockBegin
  2
*Model_Space
 70
     0
 10
0.0
 20
0.0
 30
0.0
  3
*Model_Space
  1

  0
ENDBLK
  5
21
330
1F
100
AcDbEntity
  8
0
100
AcDbBlockEnd
  0
BLOCK
  5
D4
330
D2
100
AcDbEntity
 67
     1
  8
0
100
AcDbBlockBegin
  2
*Paper_Space
 70
     0
 10
0.0
 20
0.0
 30
0.0
  3
*Paper_Space
  1

  0
ENDBLK
  5
D5
330
D2
100
AcDbEntity
 67
     1
  8
0
100
AcDbBlockEnd
  0
BLOCK
  5
D8
330
D6
100
AcDbEntity
 67
     1
  8
0
100
AcDbBlockBegin
  2
*Paper_Space0
 70
     0
 10
0.0
 20
0.0
 30
0.0
  3
*Paper_Space0
  1

  0
ENDBLK
  5
D9
330
D6
100
AcDbEntity
 67
     1
  8
0
100
AcDbBlockEnd
  0
BLOCK
  5
72B
330
72A
100
AcDbEntity
  8
0
100
AcDbBlockBegin
  2
_Oblique
 70
     0
 10
0.0
 20
0.0
 30
0.0
  3
_Oblique
  1

  0
LINE
  5
72C
330
72A
100
AcDbEntity
  8
0
  6
ByBlock
 62
     0
370
    -2
100
AcDbLine
 10
-0.5
 20
-0.5
 30
0.0
 11
0.5
 21
0.5
 31
0.0
  0
ENDBLK
  5
72D
330
72A
100
AcDbEntity
  8
0
100
AcDbBlockEnd
  0
BLOCK
  5
72F
330
72E
100
AcDbEntity
  8
0
100
AcDbBlockBegin
  2
_ClosedBlank
 70
     0
 10
0.0
 20
0.0
 30
0.0
  3
_ClosedBlank
  1

  0
LINE
  5
730
330
72E
100
AcDbEntity
  8
0
  6
ByBlock
 62
     0
370
    -2
100
AcDbLine
 10
-1.0
 20
0.1666666666666666
 30
0.0
 11
0.0
 21
0.0
 31
0.0
  0
LINE
  5
731
330
72E
100
AcDbEntity
  8
0
  6
ByBlock
 62
     0
370
    -2
100
AcDbLine
 10
0.0
 20
0.0
 30
0.0
 11
-1.0
 21
-0.1666666666666666
 31
0.0
  0
LINE
  5
732
330
72E
100
AcDbEntity
  8
0
  6
ByBlock
 62
     0
370
    -2
100
AcDbLine
 10
-1.0
 20
0.1666666666666666
 30
0.0
 11
-1.0
 21
-0.1666666666666666
 31
0.0
  0
ENDBLK
  5
733
330
72E
100
AcDbEntity
  8
0
100
AcDbBlockEnd
  0
BLOCK
  5
1D63
330
1D62
100
AcDbEntity
  8
0
370
    -3
100
AcDbBlockBegin
  2
*D6
 70
     1
 10
0.0
 20
0.0
 30
0.0
  3
*D6
  1

  0
LINE
  5
1D70
330
1D62
100
AcDbEntity
  8
dimensions
  6
ByBlock
440
 16777216
370
    -2
100
AcDbLine
 10
178.0075078273007
 20
497.4753837108752
 30
0.0
 11
178.0075078273007
 21
567.352022192129
 31
0.0
  0
LINE
  5
1D71
330
1D62
100
AcDbEntity
  8
dimensions
  6
ByBlock
440
 16777216
370
    -2
100
AcDbLine
 10
940.0075078273006
 20
497.4753837108752
 30
0.0
 11
940.0075078273006
 21
567.352022192129
 31
0.0
  0
LINE
  5
1D72
330
1D62
100
AcDbEntity
  8
dimensions
  6
ByBlock
440
 16777216
370
    -2
100
AcDbLine
 10
186.0075078273007
 20
562.3520221921289
 30
0.0
 11
932.0075078273006
 21
562.3520221921289
 31
0.0
  0
SOLID
  5
1D73
330
1D62
100
AcDbEntity
  8
dimensions
  6
ByBlock
440
 16777216
370
    -3
100
AcDbTrace
 10
186.0075078273007
 20
563.6853555254623
 30
0.0
 11
186.0075078273007
 21
561.0186888587955
 31
0.0
 12
178.0075078273007
 22
562.3520221921289
 32
0.0
 13
178.0075078273007
 23
562.3520221921289
 33
0.0
  0
SOLID
  5
1D74
330
1D62
100
AcDbEntity
  8
dimensions
  6
ByBlock
440
 16777216
370
    -3
100
AcDbTrace
 10
932.0075078273006
 20
563.6853555254623
 30
0.0
 11
932.0075078273006
 21
561.0186888587955
 31
0.0
 12
940.0075078273006
 22
562.3520221921289
 32
0.0
 13
940.0075078273006
 23
562.3520221921289
 33
0.0
  0
MTEXT
  5
1D75
330
1D62
100
AcDbEntity
  8
dimensions
  6
ByBlock
440
 16777216
370
    -3
100
AcDbMText
 10
559.0075078273007
 20
569.4471790816241
 30
0.0
 40
9.0
 41
0.0
 46
0.0
 71
     5
 72
     1
  1
762 mm
 73
     1
 44
1.0
  0
MTEXT
  5
1D76
330
1D62
100
AcDbEntity
  8
dimensions
  6
ByBlock
440
 16777216
370
    -3
100
AcDbMText
 10
559.0075078273007
 20
554.0842868578861
 30
0.0
 40
9.0
 41
0.0
 46
0.0
 71
     5
 72
     1
  1
[30 "]
 73
     1
 44
1.0
  0
POINT
  5
1D77
330
1D62
100
AcDbEntity
  8
Defpoints
  6
ByBlock
 62
     0
440
 16777216
370
    -3
100
AcDbPoint
 10
178.0075078273007
 20
494.9753837108752
 30
0.0
  0
POINT
  5
1D78
330
1D62
100
AcDbEntity
  8
Defpoints
  6
ByBlock
 62
     0
440
 16777216
370
    -3
100
AcDbPoint
 10
940.0075078273006
 20
494.9753837108752
 30
0.0
  0
POINT
  5
1D79
330
1D62
100
AcDbEntity
  8
Defpoints
  6
ByBlock
 62
     0
440
 16777216
370
    -3
100
AcDbPoint
 10
940.0075078273006
 20
562.3520221921289
 30
0.0
  0
ENDBLK
  5
1D64
330
1D62
100
AcDbEntity
  8
0
370
    -3
100
AcDbBlockEnd
  0
BLOCK
  5
1D7D
330
1D7C
100
AcDbEntity
  8
0
370
    -3
100
AcDbBlockBegin
  2
*D7
 70
     1
 10
0.0
 20
0.0
 30
0.0
  3
*D7
  1

  0
LINE
  5
1D8B
330
1D7C
100
AcDbEntity
  8
dimensions
  6
ByBlock
440
 16777216
370
    -2
100
AcDbLine
 10
190.5075078273007
 20
509.9753837108752
 30
0.0
 11
105.4218663517395
 21
509.9753837108752
 31
0.0
  0
LINE
  5
1D8C
330
1D7C
100
AcDbEntity
  8
dimensions
  6
ByBlock
440
 16777216
370
    -2
100
AcDbLine
 10
190.5075078273007
 20
87.77538371087519
 30
0.0
 11
105.4218663517394
 21
87.77538371087521
 31
0.0
  0
LINE
  5
1D8D
330
1D7C
100
AcDbEntity
  8
dimensions
  6
ByBlock
440
 16777216
370
    -2
100
AcDbLine
 10
110.4218663517395
 20
501.9753837108752
 30
0.0
 11
110.4218663517395
 21
315.1100358254729
 31
0.0
  0
LINE
  5
1D8E
330
1D7C
100
AcDbEntity
  8
dimensions
  6
ByBlock
440
 16777216
370
    -2
100
AcDbLine
 10
110.4218663517394
 20
95.7753837108752
 30
0.0
 11
110.4218663517395
 21
282.6407315962777
 31
0.0
  0
SOLID
  5
1D8F
330
1D7C
100
AcDbEntity
  8
dimensions
  6
ByBlock
440
 16777216
370
    -3
100
AcDbTrace
 10
109.0885330184062
 20
501.9753837108752
 30
0.0
 11
111.7551996850728
 21
501.9753837108752
 31
0.0
 12
110.4218663517395
 22
509.9753837108752
 32
0.0
 13
110.4218663517395
 23
509.9753837108752
 33
0.0
  0
SOLID
  5
1D90
330
1D7C
100
AcDbEntity
  8
dimensions
  6
ByBlock
440
 16777216
370
    -3
100
AcDbTrace
 10
109.0885330184061
 20
95.7753837108752
 30
0.0
 11
111.7551996850727
 21
95.7753837108752
 31
0.0
 12
110.4218663517394
 22
87.77538371087521
 32
0.0
 13
110.4218663517394
 23
87.77538371087521
 33
0.0
  0
MTEXT
  5
1D91
330
1D7C
100
AcDbEntity
  8
dimensions
  6
ByBlock
440
 16777216
370
    -3
100
AcDbMText
 10
110.4218663517394
 20
306.7839785267007
 30
0.0
 40
9.0
 41
0.0
 46
0.0
 71
     5
 72
     1
  1
422,2 mm
 73
     1
 44
1.0
  0
MTEXT
  5
1D92
330
1D7C
100
AcDbEntity
  8
dimensions
  6
ByBlock
440
 16777216
370
    -3
100
AcDbMText
 10
110.4218663517394
 20
290.5493264121031
 30
0.0
 40
9.0
 41
0.0
 46
0.0
 71
     5
 72
     1
  1
[16 5/8 "]
 73
     1
 44
1.0
  0
POINT
  5
1D93
330
1D7C
100
AcDbEntity
  8
Defpoints
  6
ByBlock
 62
     0
440
 16777216
370
    -3
100
AcDbPoint
 10
193.0075078273007
 20
509.9753837108752
 30
0.0
  0
POINT
  5
1D94
330
1D7C
100
AcDbEntity
  8
Defpoints
  6
ByBlock
 62
     0
440
 16777216
370
    -3
100
AcDbPoint
 10
193.0075078273007
 20
87.77538371087519
 30
0.0
  0
POINT
  5
1D95
330
1D7C
100
AcDbEntity
  8
Defpoints
  6
ByBlock
 62
     0
440
 16777216
370
    -3
100
AcDbPoint
 10
110.4218663517394
 20
87.77538371087521
 30
0.0
  0
ENDBLK
  5
1D7E
330
1D7C
100
AcDbEntity
  8
0
370
    -3
100
AcDbBlockEnd
  0
BLOCK
  5
1DA5
330
1DA4
100
AcDbEntity
  8
0
370
    -3
100
AcDbBlockBegin
  2
*D8
 70
     1
 10
0.0
 20
0.0
 30
0.0
  3
*D8
  1

  0
LINE
  5
1DAF
330
1DA4
100
AcDbEntity
  8
dimensions
  6
ByBlock
440
 16777216
370
    -2
100
AcDbLine
 10
1037.054264363135
 20
538.6876939731315
 30
0.0
 11
976.3919178419891
 21
538.6876939731314
 31
0.0
  0
LINE
  5
1DB0
330
1DA4
100
AcDbEntity
  8
dimensions
  6
ByBlock
440
 16777216
370
    -2
100
AcDbLine
 10
976.3919178419891
 20
538.6876939731314
 30
0.0
 11
942.5261278278695
 21
509.878334870819
 31
0.0
  0
MTEXT
  5
1DB1
330
1DA4
100
AcDbEntity
  8
dimensions
  6
ByBlock
440
 16777216
370
    -3
100
AcDbMText
 10
1007.973091102562
 20
538.6876939731316
 30
0.0
 40
9.0
 41
0.0
 46
0.0
 71
     5
 72
     1
  1
R15 mm\P [R19/32 "]
 73
     1
 44
1.0
  0
LINE
  5
1DB2
330
1DA4
100
AcDbEntity
  8
dimensions
  6
ByBlock
440
 16777216
370
    -2
100
AcDbLine
 10
925.0075078273017
 20
494.975383710876
 30
0.0
 11
936.4326947841934
 21
504.6946996847516
 31
0.0
  0
SOLID
  5
1DB3
330
1DA4
100
AcDbEntity
  8
dimensions
  6
ByBlock
440
 16777216
370
    -3
100
AcDbTrace
 10
941.6621886301916
 20
510.8939070447649
 30
0.0
 11
943.3900670255473
 21
508.862762696873
 31
0.0
 12
936.4326947841934
 22
504.6946996847516
 32
0.0
 13
936.4326947841934
 23
504.6946996847516
 33
0.0
  0
POINT
  5
1DB4
330
1DA4
100
AcDbEntity
  8
Defpoints
  6
ByBlock
 62
     0
440
 16777216
370
    -3
100
AcDbPoint
 10
936.4326947841934
 20
504.6946996847516
 30
0.0
  0
POINT
  5
1DB5
330
1DA4
100
AcDbEntity
  8
Defpoints
  6
ByBlock
 62
     0
440
 16777216
370
    -3
100
AcDbPoint
 10
925.0075078273017
 20
494.975383710876
 30
0.0
  0
ENDBLK
  5
1DA6
330
1DA4
100
AcDbEntity
  8
0
370
    -3
100
AcDbBlockEnd
  0
ENDSEC
  0
SECTION
  2
ENTITIES
  0
LINE
  5
2CB
330
1F
100
AcDbEntity
  8
centerline
  6
ACAD_ISO08W100
370
    -3
100
AcDbLine
 10
158.1068776468582
 20
298.8753837108753
 30
0.0
 11
963.0153568471177
 21
298.8753837108753
 31
0.0
  0
LINE
  5
2CC
330
1F
100
AcDbEntity
  8
centerline
  6
ACAD_ISO08W100
370
    -3
100
AcDbLine
 10
559.0075078273006
 20
71.91748420575361
 30
0.0
 11
559.0075078273009
 21
525.8332832159968
 31
0.0
  0
MULTILEADER
  5
6FC
330
1F
100
AcDbEntity
  8
note
  6
ByBlock
 62
     2
160
               452
310
C4010000170000000C00000016000000020000C30C00000033000000000000000C00000013000000993A00000C00000033000000000000000C00000010000000030000000C00000016000000020000C30C00000017000000050000000C00000012000000FE7F00000C00000013000000010000000C00000014000000010000
310
0054000000070000000300000010170E813D8067402C2A73DAA7D67740000000000000000010170E813D406640D7D41D8552F17740000000000000000010170E813D806740827FC82FFD0B784000000000000000000C00000013000000891300003C000000060000000200000010170E813D806740D7D41D8552F177400000
310
00000000000010E81CFD9F5B7640D7D41D8552F1774000000000000000000C00000013000000112700003C000000060000000200000010E81CFD9F5B7640D7D41D8552F17740000000000000000010E81CFD9FDB7640D7D41D8552F1774000000000000000000C00000016000000020000C30C00000012000000FE7F00000C
310
00000017000000000000000C000000130000009A3A00000C00000016000000020000C30C00000012000000FE7F00000C00000017000000FDFFFFFF0C0000003300000000000000
370
    -3
100
AcDbMLeader
270
     2
300
CONTEXT_DATA{
 40
1.0
 10
365.7265597466621
 20
383.0826464810647
 30
0.0
 41
4.0
140
10.0
145
2.0
174
     1
175
     1
176
     0
177
     0
290
     1
304

 11
0.0
 21
0.0
 31
1.0
340
11
 12
367.7265597466621
 22
385.0826464810647
 32
0.0
 13
1.0
 23
0.0
 33
0.0
 42
0.0
 43
0.0
 44
0.0
 45
1.0
170
     1
 90
-1023410174
171
     1
172
     5
 91
-1073741824
141
0.0
 92
        0
291
     0
292
     0
173
     0
293
     0
142
0.0
143
0.0
294
     0
295
     0
296
     0
110
178.0075078273007
120
383.0826464810647
130
0.0
111
1.0
121
0.0
131
0.0
112
0.0
122
1.0
132
0.0
297
     0
302
LEADER{
290
     1
291
     1
 10
357.7265597466621
 20
383.0826464810647
 30
0.0
 11
1.0
 21
0.0
 31
0.0
 90
        0
 40
8.0
304
LEADER_LINE{
 10
178.0075078273007
 20
383.0826464810647
 30
0.0
 91
        0
305
}
271
     0
303
}
272
     9
273
     9
301
}
340
2D9
 90
   279552
170
     1
 91
-1023410174
341
14
171
     5
290
     1
291
     1
 41
8.0
 42
10.0
172
     2
343
11
173
     1
 95
        1
174
     1
175
     0
 92
-1056964608
292
     0
 93
-1056964608
 10
1.0
 20
1.0
 30
1.0
 43
0.0
176
     0
293
     0
294
     0
178
     0
179
     1
 45
1.0
271
     0
272
     9
273
     9
  0
MTEXT
  5
6FD
330
1F
100
AcDbEntity
  8
note
  6
ByBlock
 62
     2
370
    -3
100
AcDbMText
 10
224.1672652249813
 20
399.0122292831907
 30
0.0
 40
10.0
 41
161.4225667888031
 46
0.0
 71
     1
 72
     5
  1
Cutout for undermount
 73
     1
 44
1.0
1001
ACAD
1000
ACAD_MTEXT_COLUMN_INFO_BEGIN
1070
    75
1070
     2
1070
    79
1070
     0
1070
    76
1070
     1
1070
    78
1070
     0
1070
    48
1040
161.4225667888031
1070
    49
1040
12.5
1070
    50
1070
     1
1040
0.0
1000
ACAD_MTEXT_COLUMN_INFO_END
  0
LINE
  5
1558
330
1F
100
AcDbEntity
  8
0
  6
ByBlock
370
    40
100
AcDbLine
 10
1034.892538200946
 20
208.5867743745435
 30
0.0
 11
1026.937040846711
 21
208.5867743745435
 31
0.0
  0
LINE
  5
1559
330
1F
100
AcDbEntity
  8
0
  6
ByBlock
370
    40
100
AcDbLine
 10
1026.937040846711
 20
208.5867743745435
 30
0.0
 11
1026.937040846711
 21
207.313904742767
 31
0.0
  0
LINE
  5
155A
330
1F
100
AcDbEntity
  8
0
  6
ByBlock
370
    40
100
AcDbLine
 10
1026.937040846711
 20
207.313904742767
 30
0.0
 11
1027.611504064784
 21
207.3079415188181
 31
0.0
  0
SPLINE
  5
155B
330
1F
100
AcDbEntity
  8
0
  6
ByBlock
370
    40
100
AcDbSpline
210
0.0
220
0.0
230
1.0
 70
  1064
 71
     3
 72
    16
 73
    12
 74
    10
 42
0.000000001
 43
0.0000000001
 44
0.00001
 40
0.0
 40
0.0
 40
0.0
 40
0.0
 40
0.5291250717712551
 40
0.8344839486570661
 40
1.087349435583708
 40
1.331368395796497
 40
1.610718964903744
 40
1.939878331516916
 40
2.237825358499334
 40
2.566089473251132
 40
2.695718629900446
 40
2.695718629900446
 40
2.695718629900446
 40
2.695718629900446
 10
1027.611504064784
 20
207.3079415188222
 30
0.0
 10
1027.788171125584
 20
207.2982283029177
 30
0.0
 10
1028.066791808768
 20
207.2828974093645
 30
0.0
 10
1028.418902223845
 20
207.1908962396313
 30
0.0
 10
1028.668583102039
 20
207.0931939679416
 30
0.0
 10
1028.89033052934
 20
206.9558587285615
 30
0.0
 10
1029.081405251795
 20
206.7363770738152
 30
0.0
 10
1029.18205442693
 20
206.4482693449201
 30
0.0
 10
1029.277027708925
 20
206.1432804258542
 30
0.0
 10
1029.287319745484
 20
205.8896473100455
 30
0.0
 10
1029.296186683112
 20
205.7373915683311
 30
0.0
 10
1029.298690882462
 20
205.6942877712965
 30
0.0
 11
1027.611504064784
 21
207.3079415188222
 31
0.0
 11
1028.13813268184
 21
207.2565722219745
 31
0.0
 11
1028.433801883917
 21
207.1802536518537
 31
0.0
 11
1028.668053370724
 21
207.0850292551464
 31
0.0
 11
1028.873242035851
 21
206.9529558781874
 31
0.0
 11
1029.055746268449
 21
206.7414619850238
 31
0.0
 11
1029.183519806695
 21
206.4381130503849
 31
0.0
 11
1029.261860828756
 21
206.1506482189905
 31
0.0
 11
1029.291386598066
 21
205.8237137977157
 31
0.0
 11
1029.298690882462
 21
205.6942877712965
 31
0.0
  0
LINE
  5
155C
330
1F
100
AcDbEntity
  8
0
  6
ByBlock
370
    40
100
AcDbLine
 10
1029.298690882454
 20
205.6942877712955
 30
0.0
 11
1029.298690882454
 21
194.1420789817182
 31
0.0
  0
LINE
  5
155D
330
1F
100
AcDbEntity
  8
0
  6
ByBlock
370
    40
100
AcDbLine
 10
1029.298690882454
 20
194.1420789817182
 30
0.0
 11
1032.356459796342
 21
193.6889274437773
 31
0.0
  0
LINE
  5
155E
330
1F
100
AcDbEntity
  8
0
  6
ByBlock
370
    40
100
AcDbLine
 10
1032.356459796342
 20
193.6889274437773
 30
0.0
 11
1032.356459796342
 21
194.6068895584035
 31
0.0
  0
LINE
  5
155F
330
1F
100
AcDbEntity
  8
0
  6
ByBlock
370
    40
100
AcDbLine
 10
1032.356459796342
 20
194.6068895584035
 30
0.0
 11
1034.760803888759
 21
197.6527064664028
 31
0.0
  0
LINE
  5
1560
330
1F
100
AcDbEntity
  8
0
  6
ByBlock
370
    40
100
AcDbLine
 10
1034.760803888759
 20
197.6527064664028
 30
0.0
 11
1037.696251758372
 21
193.0986217551161
 31
0.0
  0
LINE
  5
1561
330
1F
100
AcDbEntity
  8
0
  6
ByBlock
370
    40
100
AcDbLine
 10
1038.571489034977
 20
191.7407694350815
 30
0.0
 11
1039.431826819651
 21
190.4060323435755
 31
0.0
  0
LINE
  5
1562
330
1F
100
AcDbEntity
  8
0
  6
ByBlock
370
    40
100
AcDbLine
 10
1037.696251758372
 20
193.0986217551161
 30
0.0
 11
1041.362282383221
 21
192.8899089170632
 31
0.0
  0
LINE
  5
1563
330
1F
100
AcDbEntity
  8
0
  6
ByBlock
370
    40
100
AcDbLine
 10
1043.040005927624
 20
190.2539765315502
 30
0.0
 11
1042.206564738781
 21
191.5634262489507
 31
0.0
  0
LINE
  5
1564
330
1F
100
AcDbEntity
  8
0
  6
ByBlock
370
    40
100
AcDbLine
 10
1041.362282383221
 20
192.8899089170632
 30
0.0
 11
1036.847000101068
 21
199.9840328785832
 31
0.0
  0
LINE
  5
1565
330
1F
100
AcDbEntity
  8
0
  6
ByBlock
370
    40
100
AcDbLine
 10
1036.847000101068
 20
199.9840328785832
 30
0.0
 11
1036.847000101068
 21
200.0613676034595
 31
0.0
  0
LINE
  5
1566
330
1F
100
AcDbEntity
  8
0
  6
ByBlock
370
    40
100
AcDbLine
 10
1036.847000101068
 20
200.0613676034595
 30
0.0
 11
1041.314444464294
 21
205.6825217689002
 31
0.0
  0
SPLINE
  5
1567
330
1F
100
AcDbEntity
  8
0
  6
ByBlock
370
    40
100
AcDbSpline
210
0.0
220
0.0
230
1.0
 70
  1064
 71
     3
 72
    13
 73
     9
 74
     7
 42
0.000000001
 43
0.0000000001
 44
0.00001
 40
0.0
 40
0.0
 40
0.0
 40
0.0
 40
0.403037690790762
 40
1.317751938300954
 40
1.97170477410839
 40
2.543781330908599
 40
3.158462094572107
 40
3.842405097789039
 40
3.842405097789039
 40
3.842405097789039
 40
3.842405097789039
 10
1041.314444464302
 20
205.6825217689023
 30
0.0
 10
1041.40172652474
 20
205.7849838226293
 30
0.0
 10
1041.687115143777
 20
206.1199747291876
 30
0.0
 10
1042.217372595457
 20
206.5151584390446
 30
0.0
 10
1042.807175327435
 20
206.922973143847
 30
0.0
 10
1043.392455329647
 20
207.1246982128942
 30
0.0
 10
1044.005251036849
 20
207.2449573775467
 30
0.0
 10
1044.437098341034
 20
207.2795621796251
 30
0.0
 10
1044.664539069812
 20
207.2977799712985
 30
0.0
 11
1041.314444464302
 21
205.6825217689023
 31
0.0
 11
1041.582748319211
 21
205.9832768348295
 31
0.0
 11
1042.291006712271
 21
206.5621374120645
 31
0.0
 11
1042.84453772888
 21
206.9103576013153
 31
0.0
 11
1043.381556947678
 21
207.1075451051989
 31
0.0
 11
1043.984006094265
 21
207.2295638982818
 31
0.0
 11
1044.664539069812
 21
207.2977799712985
 31
0.0
  0
LINE
  5
1568
330
1F
100
AcDbEntity
  8
0
  6
ByBlock
370
    40
100
AcDbLine
 10
1044.664539069812
 20
207.2977799712954
 30
0.0
 11
1045.599641788046
 21
207.2977799712954
 31
0.0
  0
LINE
  5
1569
330
1F
100
AcDbEntity
  8
0
  6
ByBlock
370
    40
100
AcDbLine
 10
1045.599641788046
 20
207.2977799712954
 30
0.0
 11
1045.599641788046
 21
208.5867743745435
 31
0.0
  0
LINE
  5
156A
330
1F
100
AcDbEntity
  8
0
  6
ByBlock
370
    40
100
AcDbLine
 10
1045.599641788046
 20
208.5867743745435
 30
0.0
 11
1037.096528858763
 21
208.5867743745435
 31
0.0
  0
LINE
  5
156B
330
1F
100
AcDbEntity
  8
0
  6
ByBlock
370
    40
100
AcDbLine
 10
1037.096528858763
 20
208.5867743745435
 30
0.0
 11
1037.096528858763
 21
207.3034490451769
 31
0.0
  0
LINE
  5
156C
330
1F
100
AcDbEntity
  8
0
  6
ByBlock
370
    40
100
AcDbLine
 10
1037.096528858763
 20
207.3034490451769
 30
0.0
 11
1038.196698116572
 21
207.3034490451769
 31
0.0
  0
LINE
  5
156D
330
1F
100
AcDbEntity
  8
0
  6
ByBlock
370
    40
100
AcDbLine
 10
1034.892538200946
 20
208.5867743745435
 30
0.0
 11
1034.892538200946
 21
207.2988496078767
 31
0.0
  0
LINE
  5
156E
330
1F
100
AcDbEntity
  8
0
  6
ByBlock
370
    40
100
AcDbLine
 10
1034.892538200946
 20
207.2988496078767
 30
0.0
 11
1034.003884558821
 21
207.2988496078767
 31
0.0
  0
SPLINE
  5
156F
330
1F
100
AcDbEntity
  8
0
  6
ByBlock
370
    40
100
AcDbSpline
210
0.0
220
0.0
230
1.0
 70
  1064
 71
     3
 72
    16
 73
    12
 74
    10
 42
0.000000001
 43
0.0000000001
 44
0.00001
 40
0.0
 40
0.0
 40
0.0
 40
0.0
 40
0.2315104993843561
 40
0.5561982023281346
 40
0.8934374191036752
 40
1.214994148658567
 40
1.510888298665491
 40
1.773461814649623
 40
2.094573824996631
 40
2.3433456875116
 40
2.471665289551231
 40
2.471665289551231
 40
2.471665289551231
 40
2.471665289551231
 10
1034.003884558838
 20
207.2988496078777
 30
0.0
 10
1033.926651104693
 20
207.297351361583
 30
0.0
 10
1033.741100331933
 20
207.2937354227635
 30
0.0
 10
1033.446588519002
 20
207.242116914017
 30
0.0
 10
1033.129645462737
 20
207.1582317188377
 30
0.0
 10
1032.837659718552
 20
207.019605006186
 30
0.0
 10
1032.631185785272
 20
206.8029575426241
 30
0.0
 10
1032.489250090985
 20
206.5452826480778
 30
0.0
 10
1032.392613116697
 20
206.2825211895105
 30
0.0
 10
1032.364277695984
 20
206.0506007687147
 30
0.0
 10
1032.35337403879
 20
205.9254319438288
 30
0.0
 10
1032.349669898195
 20
205.8828379597837
 30
0.0
 11
1034.003884558838
 21
207.2988496078777
 31
0.0
 11
1033.77256507349
 21
207.289410065041
 31
0.0
 11
1033.451896700886
 21
207.2384686228253
 31
0.0
 11
1033.127421870237
 21
207.146560099523
 31
0.0
 11
1032.841731760932
 21
206.9989769921287
 31
0.0
 11
1032.63484562126
 21
206.787429617133
 31
0.0
 11
1032.504037204277
 21
206.5597574706667
 31
0.0
 11
1032.397867887443
 21
206.2567026860858
 31
0.0
 11
1032.361295026869
 21
206.0106327904092
 31
0.0
 11
1032.349669898195
 21
205.8828379597837
 31
0.0
  0
LINE
  5
1570
330
1F
100
AcDbEntity
  8
0
  6
ByBlock
370
    40
100
AcDbLine
 10
1032.349669898179
 20
205.8828379597806
 30
0.0
 11
1032.349669898179
 21
196.8671921015396
 31
0.0
  0
LINE
  5
1571
330
1F
100
AcDbEntity
  8
0
  6
ByBlock
370
    40
100
AcDbLine
 10
1032.349669898179
 20
196.8671921015396
 30
0.0
 11
1039.247897805785
 21
205.489880220491
 31
0.0
  0
SPLINE
  5
1572
330
1F
100
AcDbEntity
  8
0
  6
ByBlock
370
    40
100
AcDbSpline
210
0.0
220
0.0
230
1.0
 70
  1064
 71
     3
 72
    19
 73
    15
 74
    13
 42
0.000000001
 43
0.0000000001
 44
0.00001
 40
0.0
 40
0.0
 40
0.0
 40
0.0
 40
0.48697899068548
 40
0.8602072805989983
 40
1.114482036118653
 40
1.266623209921466
 40
1.370875018495323
 40
1.491166232915352
 40
1.583818830517208
 40
1.724994543201802
 40
1.99502380903813
 40
2.419528949770777
 40
2.978697921650899
 40
3.367997858568909
 40
3.367997858568909
 40
3.367997858568909
 40
3.367997858568909
 10
1039.247897805785
 20
205.4898802204931
 30
0.0
 10
1039.352423350121
 20
205.6140620718651
 30
0.0
 10
1039.537050926895
 20
205.8334252586286
 30
0.0
 10
1039.746694643416
 20
206.1421741578333
 30
0.0
 10
1039.85900409923
 20
206.3763328170467
 30
0.0
 10
1039.919438339594
 20
206.5373569179479
 30
0.0
 10
1039.92870118995
 20
206.6629259252852
 30
0.0
 10
1039.928487967058
 20
206.7701964313338
 30
0.0
 10
1039.882698481354
 20
206.8812807811195
 30
0.0
 10
1039.767364784135
 20
207.0097553986928
 30
0.0
 10
1039.497722925997
 20
207.1059137888233
 30
0.0
 10
1039.096366003473
 20
207.2097610758133
 30
0.0
 10
1038.642418719321
 20
207.2870985930325
 30
0.0
 10
1038.326406113672
 20
207.2986951128506
 30
0.0
 10
1038.19669811658
 20
207.303449045179
 30
0.0
 11
1039.247897805785
 21
205.4898802204931
 31
0.0
 11
1039.554163364087
 21
205.8685048295845
 31
0.0
 11
1039.759300590571
 21
206.1803038932219
 31
0.0
 11
1039.869636435819
 21
206.4093933081617
 31
0.0
 11
1039.916651336771
 21
206.5540883967831
 31
0.0
 11
1039.927093377132
 21
206.6578164043128
 31
0.0
 11
1039.919737654134
 21
206.7778831106393
 31
0.0
 11
1039.885325215662
 21
206.8639086327399
 31
0.0
 11
1039.792324186216
 21
206.9701235453284
 31
0.0
 11
1039.547836413521
 21
207.0847618460033
 31
0.0
 11
1039.137561960545
 21
207.1937578137016
 31
0.0
 11
1038.585419786755
 21
207.2821365362829
 31
0.0
 11
1038.19669811658
 21
207.303449045179
 31
0.0
  0
LINE
  5
1573
330
1F
100
AcDbEntity
  8
0
  6
ByBlock
370
    40
100
AcDbLine
 10
1029.298690882454
 20
192.8263992450059
 30
0.0
 11
1029.298690882454
 21
191.5810213726499
 31
0.0
  0
LINE
  5
1574
330
1F
100
AcDbEntity
  8
0
  6
ByBlock
370
    40
100
AcDbLine
 10
1029.298690882454
 20
192.8263992450059
 30
0.0
 11
1032.356459796342
 21
192.3769279964162
 31
0.0
  0
LINE
  5
1575
330
1F
100
AcDbEntity
  8
0
  6
ByBlock
370
    40
100
AcDbLine
 10
1032.356459796342
 20
192.3769279964162
 30
0.0
 11
1032.356459796342
 21
191.1131804990992
 31
0.0
  0
LINE
  5
1576
330
1F
100
AcDbEntity
  8
0
  6
ByBlock
370
    40
100
AcDbLine
 10
1032.356459796342
 20
189.813179511839
 30
0.0
 11
1032.356459796342
 21
189.1907847257216
 31
0.0
  0
LINE
  5
1577
330
1F
100
AcDbEntity
  8
0
  6
ByBlock
370
    40
100
AcDbLine
 10
1029.298690882454
 20
190.2690586230657
 30
0.0
 11
1029.298690882454
 21
189.3036848669418
 31
0.0
  0
SPLINE
  5
1578
330
1F
100
AcDbEntity
  8
0
  6
ByBlock
370
    40
100
AcDbSpline
210
0.0
220
0.0
230
1.0
 70
  1064
 71
     3
 72
     9
 73
     5
 74
     3
 42
0.000000001
 43
0.0000000001
 44
0.00001
 40
0.0
 40
0.0
 40
0.0
 40
0.0
 40
1.469060901735459
 40
3.093553852111613
 40
3.093553852111613
 40
3.093553852111613
 40
3.093553852111613
 10
1029.298690882462
 20
191.5810213726519
 30
0.0
 10
1029.781415399217
 20
191.4985150045153
 30
0.0
 10
1030.797941630711
 20
191.3247925874601
 30
0.0
 10
1031.819838042058
 20
191.1860348272726
 30
0.0
 10
1032.356459796342
 20
191.1131804991012
 30
0.0
 11
1029.298690882462
 21
191.5810213726519
 31
0.0
 11
1030.748076948339
 21
191.3413960373802
 31
0.0
 11
1032.356459796342
 21
191.1131804991012
 31
0.0
  0
SPLINE
  5
1579
330
1F
100
AcDbEntity
  8
0
  6
ByBlock
370
    40
100
AcDbSpline
210
0.0
220
0.0
230
1.0
 70
  1064
 71
     3
 72
    12
 73
     8
 74
     6
 42
0.000000001
 43
0.0000000001
 44
0.00001
 40
0.0
 40
0.0
 40
0.0
 40
0.0
 40
0.5589699253949423
 40
1.317674379974003
 40
2.210633949268299
 40
2.820005268915193
 40
3.092066027368682
 40
3.092066027368682
 40
3.092066027368682
 40
3.092066027368682
 10
1029.298690882462
 20
190.2690586230688
 30
0.0
 10
1029.481823683028
 20
190.2345733121033
 30
0.0
 10
1029.913524553938
 20
190.1532644798065
 30
0.0
 10
1030.644194031475
 20
190.0559824082852
 30
0.0
 10
1031.388917963573
 20
189.940845171877
 30
0.0
 10
1031.973996538531
 20
189.8529467877026
 30
0.0
 10
1032.266253213048
 20
189.8225637123861
 30
0.0
 10
1032.356459796342
 20
189.813179511841
 30
0.0
 11
1029.298690882462
 21
190.2690586230688
 31
0.0
 11
1029.848775511346
 21
190.1697963482643
 31
0.0
 11
1030.599419329353
 21
190.0594900757456
 31
0.0
 11
1031.482517600254
 21
189.9271492896497
 31
0.0
 11
1032.085995519298
 21
189.8425945178455
 31
0.0
 11
1032.356459796342
 21
189.813179511841
 31
0.0
  0
SPLINE
  5
157A
330
1F
100
AcDbEntity
  8
0
  6
ByBlock
370
    40
100
AcDbSpline
210
0.0
220
0.0
230
1.0
 70
  1064
 71
     3
 72
    15
 73
    11
 74
     9
 42
0.000000001
 43
0.0000000001
 44
0.00001
 40
0.0
 40
0.0
 40
0.0
 40
0.0
 40
0.3250912351392965
 40
0.6289572693964655
 40
0.9379805634522501
 40
1.271559285132218
 40
1.627400369786716
 40
1.978386757849177
 40
2.341850946067748
 40
2.570211548779216
 40
2.570211548779216
 40
2.570211548779216
 40
2.570211548779216
 10
1029.298690882462
 20
189.3036848669439
 30
0.0
 10
1029.289138091037
 20
189.1952413196753
 30
0.0
 10
1029.270643162039
 20
188.9854364546756
 30
0.0
 10
1029.146364150318
 20
188.6921284417838
 30
0.0
 10
1028.949521287334
 20
188.4444967112564
 30
0.0
 10
1028.705142002161
 20
188.2109687128325
 30
0.0
 10
1028.378207307135
 20
188.0822055260812
 30
0.0
 10
1028.039866183325
 20
187.9682979398381
 30
0.0
 10
1027.725704251955
 20
187.9331230116991
 30
0.0
 10
1027.529055188756
 20
187.9194254137598
 30
0.0
 10
1027.45317598477
 20
187.9141467242555
 30
0.0
 11
1029.298690882462
 21
189.3036848669439
 31
0.0
 11
1029.252704753951
 21
188.9818579603526
 31
0.0
 11
1029.135681887776
 21
188.7014259894843
 31
0.0
 11
1028.949165442644
 21
188.4550352028296
 31
0.0
 11
1028.699379491832
 21
188.2339413213392
 31
0.0
 11
1028.376344942588
 21
188.0847002772474
 31
0.0
 11
1028.040862246702
 21
187.9815338289199
 31
0.0
 11
1027.68089476653
 21
187.9312341686545
 31
0.0
 11
1027.45317598477
 21
187.9141467242555
 31
0.0
  0
LINE
  5
157B
330
1F
100
AcDbEntity
  8
0
  6
ByBlock
370
    40
100
AcDbLine
 10
1027.453175984754
 20
187.9141467242535
 30
0.0
 11
1026.937040846711
 21
187.9141467242535
 31
0.0
  0
LINE
  5
157C
330
1F
100
AcDbEntity
  8
0
  6
ByBlock
370
    40
100
AcDbLine
 10
1026.937040846711
 20
187.9141467242535
 30
0.0
 11
1026.937040846711
 21
186.6651855693443
 31
0.0
  0
LINE
  5
157D
330
1F
100
AcDbEntity
  8
0
  6
ByBlock
370
    40
100
AcDbLine
 10
1026.937040846711
 20
186.6651855693443
 30
0.0
 11
1034.888886058757
 21
186.6651855693443
 31
0.0
  0
LINE
  5
157E
330
1F
100
AcDbEntity
  8
0
  6
ByBlock
370
    40
100
AcDbLine
 10
1034.888886058757
 20
186.6651855693443
 30
0.0
 11
1034.888886058757
 21
187.919708834477
 31
0.0
  0
LINE
  5
157F
330
1F
100
AcDbEntity
  8
0
  6
ByBlock
370
    40
100
AcDbLine
 10
1034.888886058757
 20
187.919708834477
 30
0.0
 11
1034.306858045286
 21
187.919708834477
 31
0.0
  0
SPLINE
  5
1580
330
1F
100
AcDbEntity
  8
0
  6
ByBlock
370
    40
100
AcDbSpline
210
0.0
220
0.0
230
1.0
 70
  1064
 71
     3
 72
    15
 73
    11
 74
     9
 42
0.000000001
 43
0.0000000001
 44
0.00001
 40
0.0
 40
0.0
 40
0.0
 40
0.0
 40
0.2441789721828361
 40
0.5048412019241957
 40
0.7874308774904742
 40
1.058945894508185
 40
1.466346704574136
 40
1.731637447372307
 40
2.268551959322479
 40
2.594424980344978
 40
2.594424980344978
 40
2.594424980344978
 40
2.594424980344978
 10
1032.356459796342
 20
189.1907847257246
 30
0.0
 10
1032.362942885227
 20
189.1092189533268
 30
0.0
 10
1032.376360113199
 20
188.9405831763538
 30
0.0
 10
1032.473696926436
 20
188.6941032589227
 30
0.0
 10
1032.617178522248
 20
188.458837639861
 30
0.0
 10
1032.871472046672
 20
188.2587624161548
 30
0.0
 10
1033.146907239841
 20
188.0978091959924
 30
0.0
 10
1033.541934401678
 20
188.0090836741123
 30
0.0
 10
1033.909671992069
 20
187.9228975642262
 30
0.0
 10
1034.197968740891
 20
187.9205788587229
 30
0.0
 10
1034.306858045286
 20
187.9197088344801
 30
0.0
 11
1032.356459796342
 21
189.1907847257246
 31
0.0
 11
1032.387374408471
 21
188.9485655217411
 31
0.0
 11
1032.477546313686
 21
188.703993117278
 31
0.0
 11
1032.631862181166
 21
188.4672558007781
 31
0.0
 11
1032.838491127705
 21
188.2911133966486
 31
0.0
 11
1033.19696688783
 21
188.0975359162281
 31
0.0
 11
1033.453182666451
 21
188.0287315430984
 31
0.0
 11
1033.981200126317
 21
187.9313946141385
 31
0.0
 11
1034.306858045286
 21
187.9197088344801
 31
0.0
  0
SPLINE
  5
1581
330
1F
100
AcDbEntity
  8
0
  6
ByBlock
370
    40
100
AcDbSpline
210
0.0
220
0.0
230
1.0
 70
  1064
 71
     3
 72
    13
 73
     9
 74
     7
 42
0.000000001
 43
0.0000000001
 44
0.00001
 40
0.0
 40
0.0
 40
0.0
 40
0.0
 40
0.4122816919697496
 40
1.035994862307668
 40
1.660301241906314
 40
2.520680044392272
 40
3.232282238080519
 40
3.639557131547834
 40
3.639557131547834
 40
3.639557131547834
 40
3.639557131547834
 10
1042.206564738789
 20
191.5634262489517
 30
0.0
 10
1042.0692240499
 20
191.5682459277838
 30
0.0
 10
1041.724110409876
 20
191.5803729020388
 30
0.0
 10
1041.170808197794
 20
191.5952552214155
 30
0.0
 10
1040.469409841693
 20
191.6409753160096
 30
0.0
 10
1039.738021872799
 20
191.6733956194538
 30
0.0
 10
1039.079303673915
 20
191.7104892722076
 30
0.0
 10
1038.707006092062
 20
191.732682837845
 30
0.0
 10
1038.571489034953
 20
191.7407694351163
 30
0.0
 11
1042.206564738789
 21
191.5634262489517
 31
0.0
 11
1041.794521127995
 21
191.5774380901029
 31
0.0
 11
1041.171187900678
 21
191.5992051945451
 31
0.0
 11
1040.547854673344
 21
191.6340486062032
 31
0.0
 11
1039.688572484658
 21
191.6774758514286
 31
0.0
 11
1038.978050792202
 21
191.7166780321588
 31
0.0
 11
1038.571489034953
 21
191.7407694351163
 31
0.0
  0
LINE
  5
1582
330
1F
100
AcDbEntity
  8
0
  6
ByBlock
370
    40
100
AcDbLine
 10
1039.431826819651
 20
190.4060323435765
 30
0.0
 11
1043.040005927624
 21
190.2539765315502
 31
0.0
  0
LINE
  5
1583
330
1F
100
AcDbEntity
  8
0
  6
ByBlock
370
    40
100
AcDbLine
 10
1037.816155187396
 20
186.6651855693433
 30
0.0
 11
1053.249130777104
 21
186.6651855693433
 31
0.0
  0
LINE
  5
1584
330
1F
100
AcDbEntity
  8
0
  6
ByBlock
370
    40
100
AcDbLine
 10
1037.816155187396
 20
186.6651855693443
 30
0.0
 11
1037.816155187396
 21
187.9171951885154
 31
0.0
  0
LINE
  5
1585
330
1F
100
AcDbEntity
  8
0
  6
ByBlock
370
    40
100
AcDbLine
 10
1037.816155187396
 20
187.9171951885154
 30
0.0
 11
1038.658565507911
 21
187.9171951885154
 31
0.0
  0
LINE
  5
1586
330
1F
100
AcDbEntity
  8
0
  6
ByBlock
370
    40
100
AcDbLine
 10
1053.249130777104
 20
186.6651855693443
 30
0.0
 11
1053.249130777104
 21
187.91936120259
 31
0.0
  0
LINE
  5
1587
330
1F
100
AcDbEntity
  8
0
  6
ByBlock
370
    40
100
AcDbLine
 10
1053.249130777104
 20
187.91936120259
 30
0.0
 11
1052.667720027103
 21
187.91936120259
 31
0.0
  0
SPLINE
  5
1588
330
1F
100
AcDbEntity
  8
0
  6
ByBlock
370
    40
100
AcDbSpline
210
0.0
220
0.0
230
1.0
 70
  1064
 71
     3
 72
    18
 73
    14
 74
    12
 42
0.000000001
 43
0.0000000001
 44
0.00001
 40
0.0
 40
0.0
 40
0.0
 40
0.0
 40
0.1830763573395902
 40
0.6068571719576346
 40
1.154959448735228
 40
1.641240033034911
 40
1.863107164091554
 40
1.954492493354441
 40
2.049834908292861
 40
2.205628406174843
 40
2.387948303112513
 40
2.627267024140235
 40
2.808767078827523
 40
2.808767078827523
 40
2.808767078827523
 40
2.808767078827523
 10
1038.658565507911
 20
187.9171951885175
 30
0.0
 10
1038.71960122174
 20
187.9168760255092
 30
0.0
 10
1038.921920914683
 20
187.9158353547511
 30
0.0
 10
1039.306313640565
 20
187.9444577931237
 30
0.0
 10
1039.789518954445
 20
187.9928428062097
 30
0.0
 10
1040.202969193554
 20
188.0744027399093
 30
0.0
 10
1040.449714352836
 20
188.1790314917125
 30
0.0
 10
1040.554802166384
 20
188.2742958760368
 30
0.0
 10
1040.574570837951
 20
188.3927824247004
 30
0.0
 10
1040.548015649239
 20
188.5347776245781
 30
0.0
 10
1040.494888312203
 20
188.7215855834167
 30
0.0
 10
1040.382160796322
 20
188.8902751014278
 30
0.0
 10
1040.319746217271
 20
189.0158414316207
 30
0.0
 10
1040.292821983034
 20
189.069996014706
 30
0.0
 11
1038.658565507911
 21
187.9171951885175
 31
0.0
 11
1038.841635565352
 21
187.9177032658875
 31
0.0
 11
1039.26466679672
 21
187.9429199483088
 31
0.0
 11
1039.809350370259
 21
188.0041031607963
 31
0.0
 11
1040.283151522014
 21
188.1135804649556
 31
0.0
 11
1040.481910359322
 21
188.2121742168979
 31
0.0
 11
1040.544871233233
 21
188.2784114622349
 31
0.0
 11
1040.56678408643
 21
188.3712024357206
 31
0.0
 11
1040.547443164364
 21
188.5257916627249
 31
0.0
 11
1040.49266103141
 21
188.6996878300357
 31
0.0
 11
1040.376615499074
 21
188.9089889682077
 31
0.0
 11
1040.292821983034
 21
189.069996014706
 31
0.0
  0
SPLINE
  5
1589
330
1F
100
AcDbEntity
  8
0
  6
ByBlock
370
    40
100
AcDbSpline
210
0.0
220
0.0
230
1.0
 70
  1064
 71
     3
 72
    10
 73
     6
 74
     4
 42
0.000000001
 43
0.0000000001
 44
0.00001
 40
0.0
 40
0.0
 40
0.0
 40
0.0
 40
1.226359614860575
 40
2.660226699076214
 40
3.648465410984955
 40
3.648465410984955
 40
3.648465410984955
 40
3.648465410984955
 10
1040.292821983043
 20
189.069996014706
 30
0.0
 10
1040.701035781434
 20
189.0481006865446
 30
0.0
 10
1041.58653635951
 20
189.0006188189306
 30
0.0
 10
1042.802374891492
 20
188.9676463538095
 30
0.0
 10
1043.609630427343
 20
188.9545649389755
 30
0.0
 10
1043.938997299593
 20
188.9492340446023
 30
0.0
 11
1040.292821983043
 21
189.069996014706
 31
0.0
 11
1041.517678461768
 21
189.0092941386816
 31
0.0
 11
1042.950912800187
 21
188.9666958618053
 31
0.0
 11
1043.938997299593
 21
188.9492340446023
 31
0.0
  0
SPLINE
  5
158A
330
1F
100
AcDbEntity
  8
0
  6
ByBlock
370
    40
100
AcDbSpline
210
0.0
220
0.0
230
1.0
 70
  1064
 71
     3
 72
    21
 73
    17
 74
    15
 42
0.000000001
 43
0.0000000001
 44
0.00001
 40
0.0
 40
0.0
 40
0.0
 40
0.0
 40
0.1526600752955713
 40
0.4725130645081047
 40
0.7797517107056218
 40
1.215990094571909
 40
1.789597614155214
 40
2.486547076267865
 40
3.024153116547436
 40
3.51950835075903
 40
4.128019194743272
 40
4.565524679560519
 40
4.836455676053373
 40
5.137203248788756
 40
5.417234062676947
 40
5.623165172366554
 40
5.623165172366554
 40
5.623165172366554
 40
5.623165172366554
 10
1043.938997299593
 20
188.9492340446023
 30
0.0
 10
1043.967029472033
 20
188.9065387799828
 30
0.0
 10
1044.053807875944
 20
188.774398526807
 30
0.0
 10
1044.257298661597
 20
188.6081565818063
 30
0.0
 10
1044.508964094079
 20
188.3579458832379
 30
0.0
 10
1044.902925539823
 20
188.147131230905
 30
0.0
 10
1045.459355471089
 20
188.0138747166572
 30
0.0
 10
1046.059631420944
 20
187.9535776241852
 30
0.0
 10
1046.63488531085
 20
187.9151546660585
 30
0.0
 10
1047.182903279449
 20
187.9072701691844
 30
0.0
 10
1047.694279888237
 20
187.9780473442376
 30
0.0
 10
1048.114767098958
 20
188.1218506873213
 30
0.0
 10
1048.390796141772
 20
188.3203000355623
 30
0.0
 10
1048.572874079036
 20
188.5422281671616
 30
0.0
 10
1048.679077682357
 20
188.7881162174369
 30
0.0
 10
1048.692043825816
 20
188.9502623429772
 30
0.0
 10
1048.697532827494
 20
189.0189743497432
 30
0.0
 11
1043.938997299593
 21
188.9492340446023
 31
0.0
 11
1044.026905905429
 21
188.8244341964014
 31
0.0
 11
1044.256630793468
 21
188.6018695646177
 31
0.0
 11
1044.486355681516
 21
188.3978631275221
 31
0.0
 11
1044.866898610692
 21
188.184577593084
 31
0.0
 11
1045.420686820417
 21
188.0350958807572
 31
0.0
 11
1046.112742047385
 21
187.9526536412035
 31
0.0
 11
1046.649298318585
 21
187.91909379345
 31
0.0
 11
1047.144652253142
 21
187.91909379345
 31
0.0
 11
1047.746587013513
 21
188.0083014843825
 31
0.0
 11
1048.15557550094
 21
188.163666197906
 31
0.0
 11
1048.374961225855
 21
188.3226409349017
 31
0.0
 11
1048.565026935966
 21
188.5557147461055
 31
0.0
 11
1048.671607761755
 21
188.8146737625937
 31
0.0
 11
1048.697532827494
 21
189.0189743497432
 31
0.0
  0
LINE
  5
158B
330
1F
100
AcDbEntity
  8
0
  6
ByBlock
370
    40
100
AcDbLine
 10
1048.697532827485
 20
189.0189743497422
 30
0.0
 11
1051.136443674205
 21
189.2092092158407
 31
0.0
  0
SPLINE
  5
158C
330
1F
100
AcDbEntity
  8
0
  6
ByBlock
370
    40
100
AcDbSpline
210
0.0
220
0.0
230
1.0
 70
  1064
 71
     3
 72
    14
 73
    10
 74
     8
 42
0.000000001
 43
0.0000000001
 44
0.00001
 40
0.0
 40
0.0
 40
0.0
 40
0.0
 40
0.3175047168787419
 40
0.6805679582379677
 40
0.9663791091582844
 40
1.278140041238876
 40
1.656216339093781
 40
2.068415194752345
 40
2.350199775459792
 40
2.350199775459792
 40
2.350199775459792
 40
2.350199775459792
 10
1051.136443674213
 20
189.2092092158428
 30
0.0
 10
1051.134018689409
 20
189.1033926923893
 30
0.0
 10
1051.128834647436
 20
188.8765762633424
 30
0.0
 10
1051.188708472311
 20
188.5542405194867
 30
0.0
 10
1051.357695979191
 20
188.2739022869658
 30
0.0
 10
1051.62976286522
 20
188.0786401599318
 30
0.0
 10
1051.990245217979
 20
187.9910308659716
 30
0.0
 10
1052.342019068045
 20
187.92637137046
 30
0.0
 10
1052.57366313092
 20
187.92138074601
 30
0.0
 10
1052.667720027111
 20
187.919361202591
 30
0.0
 11
1051.136443674213
 21
189.2092092158428
 31
0.0
 11
1051.139478552942
 21
188.8917143374088
 31
0.0
 11
1051.216636486681
 21
188.5369426240951
 31
0.0
 11
1051.367197334702
 21
188.2940014154184
 31
0.0
 11
1051.618063496588
 21
188.1089008049144
 31
0.0
 11
1051.979265503732
 21
187.9972040048321
 31
0.0
 11
1052.38619644622
 21
187.9315015777985
 31
0.0
 11
1052.667720027111
 21
187.919361202591
 31
0.0
  0
LINE
  5
158D
330
1F
100
AcDbEntity
  8
0
  6
ByBlock
370
    40
100
AcDbLine
 10
1048.722840629755
 20
190.2960134649264
 30
0.0
 11
1048.722840629755
 21
191.58848208781
 31
0.0
  0
LINE
  5
158E
330
1F
100
AcDbEntity
  8
0
  6
ByBlock
370
    40
100
AcDbLine
 10
1048.722840629755
 20
192.8899891398042
 30
0.0
 11
1048.722840629755
 21
198.5242998352048
 31
0.0
  0
LINE
  5
158F
330
1F
100
AcDbEntity
  8
0
  6
ByBlock
370
    40
100
AcDbLine
 10
1051.105117553113
 20
190.5079886945572
 30
0.0
 11
1051.105117553113
 21
191.7945743162361
 31
0.0
  0
LINE
  5
1590
330
1F
100
AcDbEntity
  8
0
  6
ByBlock
370
    40
100
AcDbLine
 10
1051.105117553113
 20
193.1038094925355
 30
0.0
 11
1051.105117553113
 21
196.7971576463375
 31
0.0
  0
LINE
  5
1591
330
1F
100
AcDbEntity
  8
0
  6
ByBlock
370
    40
100
AcDbLine
 10
1051.105117553113
 20
198.7508488632566
 30
0.0
 11
1051.105117553113
 21
201.8484629227438
 31
0.0
  0
LINE
  5
1592
330
1F
100
AcDbEntity
  8
0
  6
ByBlock
370
    40
100
AcDbLine
 10
1051.105117553113
 20
201.8484629227438
 30
0.0
 11
1046.512677337236
 21
200.1917028209657
 31
0.0
  0
LINE
  5
1593
330
1F
100
AcDbEntity
  8
0
  6
ByBlock
370
    40
100
AcDbLine
 10
1046.512677337236
 20
200.1917028209657
 30
0.0
 11
1046.875062432675
 21
199.3465294757414
 31
0.0
  0
LINE
  5
1594
330
1F
100
AcDbEntity
  8
0
  6
ByBlock
370
    40
100
AcDbLine
 10
1048.722840629755
 20
190.2960134649264
 30
0.0
 11
1051.105117553113
 21
190.5079886945572
 31
0.0
  0
LINE
  5
1595
330
1F
100
AcDbEntity
  8
0
  6
ByBlock
370
    40
100
AcDbLine
 10
1048.722840629747
 20
191.58848208781
 30
0.0
 11
1051.105117553113
 21
191.7945743162361
 31
0.0
  0
LINE
  5
1596
330
1F
100
AcDbEntity
  8
0
  6
ByBlock
370
    40
100
AcDbLine
 10
1048.722840629755
 20
192.8899891398042
 30
0.0
 11
1051.105117553113
 21
193.1038094925355
 31
0.0
  0
SPLINE
  5
1597
330
1F
100
AcDbEntity
  8
0
  6
ByBlock
370
    40
100
AcDbSpline
210
0.0
220
0.0
230
1.0
 70
  1064
 71
     3
 72
    15
 73
    11
 74
     9
 42
0.000000001
 43
0.0000000001
 44
0.00001
 40
0.0
 40
0.0
 40
0.0
 40
0.0
 40
0.3649631972188844
 40
0.7425893056933726
 40
1.154554191733972
 40
1.47054847747926
 40
1.696756411930183
 40
1.893045221117939
 40
2.085202865193488
 40
2.292808385549507
 40
2.292808385549507
 40
2.292808385549507
 40
2.292808385549507
 10
1046.875062432692
 20
199.3465294757445
 30
0.0
 10
1046.996755737957
 20
199.3450750060971
 30
0.0
 10
1047.244364628934
 20
199.3421129871203
 30
0.0
 10
1047.628279765154
 20
199.3275558541751
 30
0.0
 10
1047.998784446457
 20
199.3030039311231
 30
0.0
 10
1048.302544670071
 20
199.2093722761308
 30
0.0
 10
1048.528813779491
 20
199.0938226558973
 30
0.0
 10
1048.638241190138
 20
198.9140361354633
 30
0.0
 10
1048.71199425118
 20
198.728009035878
 30
0.0
 10
1048.719137002071
 20
198.5939304389596
 30
0.0
 10
1048.722840629755
 20
198.5242998352058
 30
0.0
 11
1046.875062432692
 21
199.3465294757445
 31
0.0
 11
1047.239968020635
 21
199.3406197336288
 31
0.0
 11
1047.617321755195
 21
199.3262598625167
 31
0.0
 11
1048.027030383336
 21
199.2831802491773
 31
0.0
 11
1048.328923658726
 21
199.1898277164895
 31
0.0
 11
1048.522435756536
 21
199.0726757698499
 31
0.0
 11
1048.633594619736
 21
198.9108932368346
 31
0.0
 11
1048.700310513106
 21
198.7306862136899
 31
0.0
 11
1048.722840629755
 21
198.5242998352058
 31
0.0
  0
SPLINE
  5
1598
330
1F
100
AcDbEntity
  8
0
  6
ByBlock
370
    40
100
AcDbSpline
210
0.0
220
0.0
230
1.0
 70
  1064
 71
     3
 72
    47
 73
    43
 74
    41
 42
0.000000001
 43
0.0000000001
 44
0.00001
 40
0.0
 40
0.0
 40
0.0
 40
0.0
 40
0.7145734559039823
 40
1.519427775795989
 40
2.352135051502175
 40
3.014153216777151
 40
3.550230148474557
 40
4.020914006444388
 40
4.206532649302999
 40
4.386675364387871
 40
4.513472626915953
 40
4.799838769971042
 40
5.182892121927368
 40
5.678808657666203
 40
6.013025576853893
 40
6.369895164133335
 40
6.63269498706063
 40
6.856611438363519
 40
7.233970845265754
 40
7.565805500002486
 40
7.986558673154726
 40
8.395647358955312
 40
8.772802470813825
 40
9.199372940898022
 40
9.637283683790602
 40
10.14272902408558
 40
10.59421065997224
 40
10.95842212621581
 40
11.47020656527427
 40
11.87238488678032
 40
12.1878465331881
 40
12.55342136287939
 40
12.92509570109193
 40
13.42709452752068
 40
14.11321962207221
 40
14.61440055375734
 40
15.20696190800157
 40
15.77955146617284
 40
16.63407752907802
 40
17.4112759687796
 40
18.07130808008737
 40
18.24221978668424
 40
18.24221978668424
 40
18.24221978668424
 40
18.24221978668424
 10
1051.105117553121
 20
196.7971576463406
 30
0.0
 10
1051.261412982513
 20
196.9769521554363
 30
0.0
 10
1051.593745814634
 20
197.3592609846795
 30
0.0
 10
1052.123856144887
 20
197.9363010506478
 30
0.0
 10
1052.638509480601
 20
198.5069958062415
 30
0.0
 10
1053.183316591224
 20
198.9162678307265
 30
0.0
 10
1053.676397317271
 20
199.175702416336
 30
0.0
 10
1054.029538920963
 20
199.3561639644162
 30
0.0
 10
1054.300955119846
 20
199.4383840121054
 30
0.0
 10
1054.465388871147
 20
199.4212118374677
 30
0.0
 10
1054.666271660925
 20
199.4147527206924
 30
0.0
 10
1054.885335977041
 20
199.2402128834914
 30
0.0
 10
1055.192788124399
 20
199.0138419603321
 30
0.0
 10
1055.532962129718
 20
198.7893425828939
 30
0.0
 10
1055.899027204894
 20
198.6317976786263
 30
0.0
 10
1056.217778470817
 20
198.5892804377086
 30
0.0
 10
1056.49868254133
 20
198.5927323868698
 30
0.0
 10
1056.787271045198
 20
198.6096499898678
 30
0.0
 10
1057.087059540076
 20
198.699981123509
 30
0.0
 10
1057.436391452038
 20
198.849643213911
 30
0.0
 10
1057.721287300585
 20
199.1215775660269
 30
0.0
 10
1057.967708318119
 20
199.4404821783737
 30
0.0
 10
1058.135268944698
 20
199.8154993340586
 30
0.0
 10
1058.172879106182
 20
200.2322562805493
 30
0.0
 10
1058.131566004335
 20
200.6922313449694
 30
0.0
 10
1057.923092707723
 20
201.1187984133963
 30
0.0
 10
1057.638266090781
 20
201.4585580387771
 30
0.0
 10
1057.285975292296
 20
201.7310826397878
 30
0.0
 10
1056.876683663972
 20
201.8868255696247
 30
0.0
 10
1056.46494273818
 20
201.8949410999776
 30
0.0
 10
1056.103390147133
 20
201.8990630842487
 30
0.0
 10
1055.756462144312
 20
201.8381118491633
 30
0.0
 10
1055.351784631858
 20
201.7555374142017
 30
0.0
 10
1054.855379750823
 20
201.5973140564539
 30
0.0
 10
1054.335422085041
 20
201.3781121540037
 30
0.0
 10
1053.81466642367
 20
201.0932017757214
 30
0.0
 10
1053.338202230851
 20
200.8065829801102
 30
0.0
 10
1052.798358740201
 20
200.4031575588484
 30
0.0
 10
1052.237334867628
 20
199.9275358963453
 30
0.0
 10
1051.689982349717
 20
199.394923627286
 30
0.0
 10
1051.312332097177
 20
199.0128478697181
 30
0.0
 10
1051.140468865985
 20
198.7955434171595
 30
0.0
 10
1051.105117553121
 20
198.7508488632587
 30
0.0
 11
1051.105117553121
 21
196.7971576463406
 31
0.0
 11
1051.576243896508
 21
197.3344361014516
 31
0.0
 11
1052.116966696115
 21
197.9305980503955
 31
0.0
 11
1052.697348673667
 21
198.5277226722688
 31
0.0
 11
1053.227063608061
 21
198.9247985123975
 31
0.0
 11
1053.695926652061
 21
199.1846934609002
 31
0.0
 11
1054.123535920815
 21
199.3813996283185
 31
0.0
 11
1054.303622538154
 21
199.4263778465874
 31
0.0
 11
1054.483709155493
 21
199.4218853729451
 31
0.0
 11
1054.60978521921
 21
199.4083812110931
 31
0.0
 11
1054.85735930926
 21
199.264461608997
 31
0.0
 11
1055.165785289705
 21
199.0372975399058
 31
0.0
 11
1055.586604660296
 21
198.7749156863515
 31
0.0
 11
1055.896213729053
 21
198.6490462015725
 31
0.0
 11
1056.248979802089
 21
198.5950830360181
 31
0.0
 11
1056.511779724385
 21
198.5950830360181
 31
0.0
 11
1056.734971907369
 21
198.6130796715093
 31
0.0
 11
1057.099260231843
 21
198.7115397188765
 31
0.0
 11
1057.39955890994
 21
198.8527317476878
 31
0.0
 11
1057.715392052017
 21
199.1307302953386
 31
0.0
 11
1057.960188456447
 21
199.4584936849596
 31
0.0
 11
1058.109360461673
 21
199.804895492027
 31
0.0
 11
1058.159821750333
 21
200.2284715784744
 31
0.0
 11
1058.109360461673
 21
200.6634660354381
 31
0.0
 11
1057.897381898383
 21
201.1223133881756
 31
0.0
 11
1057.607018749949
 21
201.4680379287452
 31
0.0
 11
1057.316845604968
 21
201.6881511400269
 31
0.0
 11
1056.837386204752
 21
201.8671548220163
 31
0.0
 11
1056.436164949326
 21
201.8948851503981
 31
0.0
 11
1056.120743316237
 21
201.8898578584698
 31
0.0
 11
1055.759026922886
 21
201.8368841067446
 31
0.0
 11
1055.395664493608
 21
201.7587204135212
 31
0.0
 11
1054.916205093375
 21
201.6099874467954
 31
0.0
 11
1054.284538809213
 21
201.3420969648507
 31
0.0
 11
1053.842938235128
 21
201.1050922392098
 31
0.0
 11
1053.338119594015
 21
200.7947906667858
 31
0.0
 11
1052.876663711657
 21
200.4557960930546
 31
0.0
 11
1052.224679171606
 21
199.9034090212212
 31
0.0
 11
1051.66368955473
 21
199.3655155250729
 31
0.0
 11
1051.212161326524
 21
198.8840988404579
 31
0.0
 11
1051.105117553121
 21
198.7508488632587
 31
0.0
  0
SPLINE
  5
1599
330
1F
100
AcDbEntity
  8
0
  6
ByBlock
370
    40
100
AcDbSpline
210
0.0
220
0.0
230
1.0
 70
  1065
 71
     3
 72
    35
 73
    31
 74
    29
 42
0.000000001
 43
0.0000000001
 44
0.00001
 40
0.0
 40
0.0
 40
0.0
 40
0.0
 40
0.3083859295551813
 40
0.9094504691211556
 40
1.433698936946002
 40
1.944985891042268
 40
2.449584874653698
 40
2.978825872762918
 40
3.409494606082801
 40
3.682493917537373
 40
4.005060945384863
 40
4.453835115689788
 40
4.790637435810346
 40
5.291632355621999
 40
5.773065913730897
 40
6.17460873544494
 40
6.625279579167798
 40
7.090792142685158
 40
7.578689795992749
 40
8.062000640755591
 40
8.513712253748142
 40
9.063618023755422
 40
9.676047867760869
 40
10.36874198141499
 40
10.771747103879
 40
11.38831184097883
 40
11.75992301891019
 40
11.90299676437257
 40
12.09621020566683
 40
12.23191695803341
 40
12.23191695803341
 40
12.23191695803341
 40
12.23191695803341
 10
1062.870570797925
 20
207.8428935143707
 30
0.0
 10
1062.823094602403
 20
207.7516706307962
 30
0.0
 10
1062.683095153525
 20
207.4826424613303
 30
0.0
 10
1062.420037416776
 20
207.0828636566702
 30
0.0
 10
1062.121547485334
 20
206.626382757981
 30
0.0
 10
1061.82949922222
 20
206.2042248350507
 30
0.0
 10
1061.562121569425
 20
205.762737259116
 30
0.0
 10
1061.371207548728
 20
205.3118659423072
 30
0.0
 10
1061.271898682498
 20
204.9089123926038
 30
0.0
 10
1061.267797281256
 20
204.5665396131929
 30
0.0
 10
1061.280042131379
 20
204.215441757214
 30
0.0
 10
1061.442540580531
 20
203.8710823075807
 30
0.0
 10
1061.71477251886
 20
203.538627806411
 30
0.0
 10
1062.063564719747
 20
203.2619581745532
 30
0.0
 10
1062.492791573615
 20
203.0767134426573
 30
0.0
 10
1062.94080583761
 20
203.024657026934
 30
0.0
 10
1063.378250460498
 20
203.1205145786528
 30
0.0
 10
1063.788368040201
 20
203.3586996240892
 30
0.0
 10
1064.1311147787
 20
203.6985544040902
 30
0.0
 10
1064.396762273334
 20
204.0964583933091
 30
0.0
 10
1064.532743759814
 20
204.5872142599231
 30
0.0
 10
1064.427439066234
 20
205.1254776684373
 30
0.0
 10
1064.247733258116
 20
205.7181940072407
 30
0.0
 10
1063.946124352381
 20
206.2071068371707
 30
0.0
 10
1063.624029307876
 20
206.6774475090912
 30
0.0
 10
1063.35609278306
 20
207.0557882477261
 30
0.0
 10
1063.137780453934
 20
207.3641780582418
 30
0.0
 10
1063.026206933223
 20
207.5722773157129
 30
0.0
 10
1062.944759654698
 20
207.7069251799373
 30
0.0
 10
1062.892242543483
 20
207.8031819236676
 30
0.0
 10
1062.870570797925
 20
207.8428935143707
 30
0.0
 11
1062.870570797925
 21
207.8428935143707
 31
0.0
 11
1062.725050934897
 21
207.5709918952377
 31
0.0
 11
1062.406285791344
 21
207.0614170275996
 31
0.0
 11
1062.117252171575
 21
206.6240426292432
 31
0.0
 11
1061.832487957465
 21
206.1993969062115
 31
0.0
 11
1061.576889442313
 21
205.7643222265047
 31
0.0
 11
1061.372883865523
 21
205.2759796450136
 31
0.0
 11
1061.279368449844
 21
204.8555857273981
 31
0.0
 11
1061.269955181924
 21
204.5827481762579
 31
0.0
 11
1061.296754704241
 21
204.2612956424687
 31
0.0
 11
1061.475606794641
 21
203.8496994857367
 31
0.0
 11
1061.687173848943
 21
203.5876385231555
 31
0.0
 11
1062.080422117877
 21
203.2772299870826
 31
0.0
 11
1062.524337429968
 21
203.0908992945062
 31
0.0
 11
1062.923552579097
 21
203.0477127175108
 31
0.0
 11
1063.364484451078
 21
203.1409048047044
 31
0.0
 11
1063.769666480428
 21
203.3701011833031
 31
0.0
 11
1064.119500551981
 21
203.7101921345378
 31
0.0
 11
1064.378905525194
 21
204.1179910813986
 31
0.0
 11
1064.491813301557
 21
204.5553654797611
 31
0.0
 11
1064.423297056405
 21
205.1009871002115
 31
0.0
 11
1064.232614082841
 21
205.6829763644453
 31
0.0
 11
1063.889929979813
 21
206.284967832768
 31
0.0
 11
1063.663497163618
 21
206.6183468144456
 31
0.0
 11
1063.308776422928
 21
207.1226537219161
 31
0.0
 11
1063.10317624883
 21
207.4322065487339
 31
0.0
 11
1063.033209328771
 21
207.5570060391385
 31
0.0
 11
1062.936309357481
 21
207.7241638537736
 31
0.0
 11
1062.870570797925
 21
207.8428935143707
 31
0.0
  0
SPLINE
  5
159A
330
1F
100
AcDbEntity
  8
0
  6
ByBlock
370
    40
100
AcDbSpline
210
0.0
220
0.0
230
1.0
 70
  1065
 71
     3
 72
    35
 73
    31
 74
    29
 42
0.000000001
 43
0.0000000001
 44
0.00001
 40
0.0
 40
0.0
 40
0.0
 40
0.0
 40
0.3083859295551813
 40
0.9094504691298375
 40
1.433698936950171
 40
1.944985891046437
 40
2.449584874653721
 40
2.978825872769252
 40
3.409494606089134
 40
3.682493917543424
 40
4.005060945391593
 40
4.453835115693257
 40
4.790637435813815
 40
5.291632355619044
 40
5.773065913720394
 40
6.174608735450713
 40
6.625279579181579
 40
7.090792142691815
 40
7.578689795999405
 40
8.06200064076664
 40
8.513712253757145
 40
9.063618023764425
 40
9.676047867772421
 40
10.36874198142249
 40
10.77174710388191
 40
11.38831184099113
 40
11.75992301891798
 40
11.90299676438037
 40
12.09621020567463
 40
12.23191695803724
 40
12.23191695803724
 40
12.23191695803724
 40
12.23191695803724
 10
1067.93449742755
 20
207.8428935143707
 30
0.0
 10
1067.887021232028
 20
207.7516706307958
 30
0.0
 10
1067.74702178315
 20
207.4826424613263
 30
0.0
 10
1067.48396404638
 20
207.0828636566781
 30
0.0
 10
1067.185474114954
 20
206.6263827579774
 30
0.0
 10
1066.893425851833
 20
206.2042248350542
 30
0.0
 10
1066.626048199056
 20
205.7627372591094
 30
0.0
 10
1066.435134178333
 20
205.3118659423111
 30
0.0
 10
1066.335825312104
 20
204.908912392604
 30
0.0
 10
1066.331723910872
 20
204.5665396131922
 30
0.0
 10
1066.343968761009
 20
204.2154417572165
 30
0.0
 10
1066.506467210146
 20
203.8710823075786
 30
0.0
 10
1066.778699148476
 20
203.5386278064137
 30
0.0
 10
1067.127491349354
 20
203.2619581745533
 30
0.0
 10
1067.556718203223
 20
203.0767134426536
 30
0.0
 10
1068.004732467223
 20
203.024657026935
 30
0.0
 10
1068.44217709012
 20
203.1205145786489
 30
0.0
 10
1068.852294669819
 20
203.3586996240918
 30
0.0
 10
1069.195041408314
 20
203.6985544040924
 30
0.0
 10
1069.460688902964
 20
204.0964583933054
 30
0.0
 10
1069.596670389426
 20
204.5872142599248
 30
0.0
 10
1069.491365695854
 20
205.1254776684386
 30
0.0
 10
1069.311659887721
 20
205.7181940072374
 30
0.0
 10
1069.010050981995
 20
206.2071068371682
 30
0.0
 10
1068.687955937504
 20
206.6774475090991
 30
0.0
 10
1068.420019412665
 20
207.0557882477177
 30
0.0
 10
1068.20170708355
 20
207.3641780582434
 30
0.0
 10
1068.09013356284
 20
207.5722773157131
 30
0.0
 10
1068.008686284313
 20
207.7069251799346
 30
0.0
 10
1067.956169173105
 20
207.8031819236673
 30
0.0
 10
1067.93449742755
 20
207.8428935143707
 30
0.0
 11
1067.93449742755
 21
207.8428935143707
 31
0.0
 11
1067.788977564521
 21
207.5709918952377
 31
0.0
 11
1067.470212420952
 21
207.0614170275996
 31
0.0
 11
1067.181178801192
 21
206.6240426292432
 31
0.0
 11
1066.896414587082
 21
206.1993969062115
 31
0.0
 11
1066.640816071938
 21
205.7643222265047
 31
0.0
 11
1066.436810495132
 21
205.2759796450136
 31
0.0
 11
1066.343295079453
 21
204.8555857273981
 31
0.0
 11
1066.333881811541
 21
204.5827481762579
 31
0.0
 11
1066.360681333865
 21
204.2612956424687
 31
0.0
 11
1066.539533424257
 21
203.8496994857367
 31
0.0
 11
1066.75110047856
 21
203.5876385231555
 31
0.0
 11
1067.144348747485
 21
203.2772299870826
 31
0.0
 11
1067.588264059568
 21
203.0908992945062
 31
0.0
 11
1067.987479208714
 21
203.0477127175108
 31
0.0
 11
1068.428411080703
 21
203.1409048047044
 31
0.0
 11
1068.833593110044
 21
203.3701011833031
 31
0.0
 11
1069.183427181598
 21
203.7101921345378
 31
0.0
 11
1069.442832154819
 21
204.1179910813986
 31
0.0
 11
1069.555739931174
 21
204.5553654797611
 31
0.0
 11
1069.487223686022
 21
205.1009871002115
 31
0.0
 11
1069.29654071245
 21
205.6829763644453
 31
0.0
 11
1068.95385660943
 21
206.284967832768
 31
0.0
 11
1068.727423793243
 21
206.6183468144456
 31
0.0
 11
1068.372703052537
 21
207.1226537219161
 31
0.0
 11
1068.167102878446
 21
207.4322065487339
 31
0.0
 11
1068.097135958388
 21
207.5570060391385
 31
0.0
 11
1068.000235987097
 21
207.7241638537736
 31
0.0
 11
1067.93449742755
 21
207.8428935143707
 31
0.0
  0
LINE
  5
159B
330
1F
100
AcDbEntity
  8
0
  6
ByBlock
370
    40
100
AcDbLine
 10
1068.089327681237
 20
198.0425622596106
 30
0.0
 11
1068.089327681237
 21
195.7826340892725
 31
0.0
  0
LINE
  5
159C
330
1F
100
AcDbEntity
  8
0
  6
ByBlock
370
    40
100
AcDbLine
 10
1068.089327681237
 20
194.4713933443795
 30
0.0
 11
1068.089327681237
 21
193.2145168787652
 31
0.0
  0
LINE
  5
159D
330
1F
100
AcDbEntity
  8
0
  6
ByBlock
370
    40
100
AcDbLine
 10
1068.089327681237
 20
191.8946923003017
 30
0.0
 11
1068.089327681237
 21
189.478276298032
 31
0.0
  0
LINE
  5
159E
330
1F
100
AcDbEntity
  8
0
  6
ByBlock
370
    40
100
AcDbLine
 10
1070.511418098412
 20
188.6250271966184
 30
0.0
 11
1070.511418098412
 21
192.2904310947072
 31
0.0
  0
LINE
  5
159F
330
1F
100
AcDbEntity
  8
0
  6
ByBlock
370
    40
100
AcDbLine
 10
1070.511418098412
 20
193.593810010724
 30
0.0
 11
1070.511418098412
 21
194.8639767108732
 31
0.0
  0
LINE
  5
15A0
330
1F
100
AcDbEntity
  8
0
  6
ByBlock
370
    40
100
AcDbLine
 10
1070.511418098412
 20
196.1703238684038
 30
0.0
 11
1070.511418098412
 21
197.6141460676227
 31
0.0
  0
LINE
  5
15A1
330
1F
100
AcDbEntity
  8
0
  6
ByBlock
370
    40
100
AcDbLine
 10
1068.089327681237
 20
195.7826340892725
 30
0.0
 11
1070.511418098412
 21
196.1703238684038
 31
0.0
  0
LINE
  5
15A2
330
1F
100
AcDbEntity
  8
0
  6
ByBlock
370
    40
100
AcDbLine
 10
1070.511418098412
 20
194.8639767108732
 30
0.0
 11
1068.089327681237
 21
194.4713933443816
 31
0.0
  0
LINE
  5
15A3
330
1F
100
AcDbEntity
  8
0
  6
ByBlock
370
    40
100
AcDbLine
 10
1068.089327681237
 20
193.2145168787652
 30
0.0
 11
1070.511418098412
 21
193.593810010726
 31
0.0
  0
LINE
  5
15A4
330
1F
100
AcDbEntity
  8
0
  6
ByBlock
370
    40
100
AcDbLine
 10
1068.089327681237
 20
191.8946923003028
 30
0.0
 11
1070.511418098412
 21
192.2904310947072
 31
0.0
  0
SPLINE
  5
15A5
330
1F
100
AcDbEntity
  8
0
  6
ByBlock
370
    40
100
AcDbSpline
210
0.0
220
0.0
230
1.0
 70
  1064
 71
     3
 72
    57
 73
    53
 74
    51
 42
0.000000001
 43
0.0000000001
 44
0.00001
 40
0.0
 40
0.0
 40
0.0
 40
0.0
 40
0.3150430158145036
 40
0.7309649615525702
 40
1.308665896779061
 40
1.716054233578387
 40
2.240749523756757
 40
2.690489101492538
 40
3.11229246513641
 40
3.640016940463604
 40
4.151959382871024
 40
4.642631578423704
 40
5.259149356881594
 40
5.687962138274947
 40
6.087440559391105
 40
6.543226273971281
 40
6.958891361042666
 40
7.307291170508666
 40
7.812475768933209
 40
8.194850136649645
 40
8.580471804769297
 40
9.027420264628196
 40
9.376061171198569
 40
9.778040497686861
 40
10.21729135546849
 40
10.63044613323537
 40
10.95423554306531
 40
11.27860172364168
 40
11.68904564911806
 40
12.10183314362576
 40
12.26615635486785
 40
12.48929051513435
 40
12.78352157972322
 40
13.22143899285419
 40
13.63239556715228
 40
14.24027041746704
 40
14.84216744515502
 40
15.42237475059421
 40
16.05916599964064
 40
16.72074093627666
 40
17.47279220908577
 40
18.24138553592076
 40
19.12398278289271
 40
20.04444779611505
 40
20.94859132282981
 40
22.0851603361552
 40
23.26430737312547
 40
24.36477956885859
 40
24.86603181409982
 40
25.52184642444358
 40
26.3650269279729
 40
26.92199768290949
 40
26.92199768290949
 40
26.92199768290949
 40
26.92199768290949
 10
1068.089327681246
 20
198.0425622596126
 30
0.0
 10
1068.080200852286
 20
198.147387918093
 30
0.0
 10
1068.059039505682
 20
198.3906067792413
 30
0.0
 10
1067.94194823447
 20
198.8120570719721
 30
0.0
 10
1067.76648487791
 20
199.2508452970333
 30
0.0
 10
1067.446997395286
 20
199.6447469329266
 30
0.0
 10
1067.103860788687
 20
199.9549251951285
 30
0.0
 10
1066.696428726049
 20
200.1908138368398
 30
0.0
 10
1066.242994939652
 20
200.3107785372969
 30
0.0
 10
1065.75849508731
 20
200.3801280192841
 30
0.0
 10
1065.247868385849
 20
200.3518848677866
 30
0.0
 10
1064.708236908558
 20
200.3237717902899
 30
0.0
 10
1064.209164425133
 20
200.1829398392175
 30
0.0
 10
1063.781970334287
 20
199.9554206286711
 30
0.0
 10
1063.445022590657
 20
199.6882370440908
 30
0.0
 10
1063.164152927162
 20
199.366526444858
 30
0.0
 10
1062.964614344238
 20
199.0105637493095
 30
0.0
 10
1062.786961664427
 20
198.6262265269767
 30
0.0
 10
1062.656416150589
 20
198.2348219209946
 30
0.0
 10
1062.462635362496
 20
197.8547098102342
 30
0.0
 10
1062.221603246518
 20
197.5293431671215
 30
0.0
 10
1061.955611599394
 20
197.2318227192795
 30
0.0
 10
1061.598080458324
 20
197.0418527633079
 30
0.0
 10
1061.209811032286
 20
196.9431494285669
 30
0.0
 10
1060.787368632201
 20
196.9508833449814
 30
0.0
 10
1060.402428106927
 20
197.0419995785796
 30
0.0
 10
1060.084786876809
 20
197.2042601538486
 30
0.0
 10
1059.816847814821
 20
197.4425125730782
 30
0.0
 10
1059.631901463648
 20
197.7826858867515
 30
0.0
 10
1059.536949914805
 20
198.1055525556829
 30
0.0
 10
1059.549977667886
 20
198.3728995785623
 30
0.0
 10
1059.537551125091
 20
198.6002979270334
 30
0.0
 10
1059.578356451861
 20
198.916597095035
 30
0.0
 10
1059.670077400408
 20
199.2932798683375
 30
0.0
 10
1059.962020392886
 20
199.6897324524425
 30
0.0
 10
1060.334840630582
 20
200.0811063111578
 30
0.0
 10
1060.81522479905
 20
200.4401735190095
 30
0.0
 10
1061.345579468716
 20
200.7361112592486
 30
0.0
 10
1061.920142386742
 20
200.9868783240047
 30
0.0
 10
1062.56498695141
 20
201.2155682803161
 30
0.0
 10
1063.272707564656
 20
201.3894425226133
 30
0.0
 10
1064.064298833697
 20
201.5140419987592
 30
0.0
 10
1064.917780994292
 20
201.6066482781991
 30
0.0
 10
1065.821219545401
 20
201.6007459229729
 30
0.0
 10
1066.808029353015
 20
201.5589961570294
 30
0.0
 10
1067.867086986048
 20
201.3253976709777
 30
0.0
 10
1068.886436251776
 20
200.7942522005227
 30
0.0
 10
1069.594378769489
 20
200.1707827145821
 30
0.0
 10
1070.002516232676
 20
199.5347570139864
 30
0.0
 10
1070.290129487434
 20
198.9326943578873
 30
0.0
 10
1070.490266647254
 20
198.2678121923009
 30
0.0
 10
1070.505394745269
 20
197.8001704711136
 30
0.0
 10
1070.51141809842
 20
197.6141460676247
 30
0.0
 11
1068.089327681246
 21
198.0425622596126
 31
0.0
 11
1068.053732154486
 21
198.3555914053153
 31
0.0
 11
1067.950186207409
 21
198.7584165420799
 31
0.0
 11
1067.715883281968
 21
199.2864693816723
 31
0.0
 11
1067.465274313205
 21
199.6076545063123
 31
0.0
 11
1067.072951939476
 21
199.9560618819683
 31
0.0
 11
1066.680783881618
 21
200.1762198314505
 31
0.0
 11
1066.275910483987
 21
200.2945216374093
 31
0.0
 11
1065.752676816029
 21
200.363219046885
 31
0.0
 11
1065.240862522256
 21
200.3517739354598
 31
0.0
 11
1064.751989854119
 21
200.3097906996157
 31
0.0
 11
1064.158799659557
 21
200.1418042744195
 31
0.0
 11
1063.780674345648
 21
199.9395627376916
 31
0.0
 11
1063.46751601193
 21
199.6915407552545
 31
0.0
 11
1063.168966246996
 21
199.3471445167786
 31
0.0
 11
1062.958942351375
 21
198.9884418890228
 31
0.0
 11
1062.813782558724
 21
198.671722497109
 31
0.0
 11
1062.630043799179
 21
198.2011358828851
 31
0.0
 11
1062.454329464753
 21
197.8615262681157
 31
0.0
 11
1062.228976859626
 21
197.548604086068
 31
0.0
 11
1061.915046946575
 21
197.2304674256807
 31
0.0
 11
1061.609501528979
 21
197.0625612232347
 31
0.0
 11
1061.219956840878
 21
196.9633524302551
 31
0.0
 11
1060.780722443418
 21
196.9671763810383
 31
0.0
 11
1060.379655503872
 21
197.0663851740158
 31
0.0
 11
1060.092422235902
 21
197.2158401454266
 31
0.0
 11
1059.851792359886
 21
197.4333507443619
 31
0.0
 11
1059.645574922319
 21
197.7882294213387
 31
0.0
 11
1059.546246942307
 21
198.1888885440226
 31
0.0
 11
1059.54660701266
 21
198.3532114639196
 31
0.0
 11
1059.544703783617
 21
198.5763376549197
 31
0.0
 11
1059.576647168203
 21
198.8688297782506
 31
0.0
 11
1059.69937972145
 21
199.2891969549551
 31
0.0
 11
1059.927458573563
 21
199.631052806541
 31
0.0
 11
1060.347917873809
 21
200.070058400687
 31
0.0
 11
1060.828148853357
 21
200.4329058702011
 31
0.0
 11
1061.333018933113
 21
200.718819728555
 31
0.0
 11
1061.915252701064
 21
200.976709108461
 31
0.0
 11
1062.539563262213
 21
201.1956102349537
 31
0.0
 11
1063.269220122244
 21
201.377769344863
 31
0.0
 11
1064.027631172221
 21
201.5024622294038
 31
0.0
 11
1064.905997089848
 21
201.5887819015665
 31
0.0
 11
1065.826439800687
 21
201.5951729801392
 31
0.0
 11
1066.728827555011
 21
201.5388566141011
 31
0.0
 11
1067.836043904116
 21
201.2822240571755
 31
0.0
 11
1068.883179942127
 21
200.7401054965362
 31
0.0
 11
1069.691126385583
 21
199.9929376031278
 31
0.0
 11
1069.966528770383
 21
199.5741213994677
 31
0.0
 11
1070.249852703072
 21
198.9826658514832
 31
0.0
 11
1070.474176535734
 21
198.169875753773
 31
0.0
 11
1070.51141809842
 21
197.6141460676247
 31
0.0
  0
SPLINE
  5
15A6
330
1F
100
AcDbEntity
  8
0
  6
ByBlock
370
    40
100
AcDbSpline
210
0.0
220
0.0
230
1.0
 70
  1064
 71
     3
 72
    27
 73
    23
 74
    21
 42
0.000000001
 43
0.0000000001
 44
0.00001
 40
0.0
 40
0.0
 40
0.0
 40
0.0
 40
0.5840403458342847
 40
1.181759858439533
 40
1.882858385354778
 40
2.452376841789218
 40
3.038256409396408
 40
3.703513730832581
 40
4.17282244311064
 40
4.580856572630213
 40
5.069576796455208
 40
5.534844261603902
 40
5.866379490108063
 40
6.196018557573564
 40
6.570447514631273
 40
6.944252032909131
 40
7.287923766168585
 40
7.632061588095929
 40
7.944687101681871
 40
8.320977457375905
 40
8.692250417054637
 40
8.87858623651039
 40
8.87858623651039
 40
8.87858623651039
 40
8.87858623651039
 10
1068.089327681246
 20
189.478276298033
 30
0.0
 10
1067.943511512108
 20
189.3491598051531
 30
0.0
 10
1067.648454438677
 20
189.0879137939845
 30
0.0
 10
1067.136513938466
 20
188.7222859784289
 30
0.0
 10
1066.58719980901
 20
188.4251288865359
 30
0.0
 10
1066.014528311022
 20
188.1890456302837
 30
0.0
 10
1065.434960441717
 20
188.0051047167861
 30
0.0
 10
1064.868019680553
 20
187.9065687848891
 30
0.0
 10
1064.355310177083
 20
187.8671138256791
 30
0.0
 10
1063.899464130633
 20
187.8523656283431
 30
0.0
 10
1063.446904440494
 20
187.8977132549779
 30
0.0
 10
1063.025344223497
 20
187.9915486789774
 30
0.0
 10
1062.687223478564
 20
188.1600107531674
 30
0.0
 10
1062.402782919407
 20
188.35744338212
 30
0.0
 10
1062.142631958298
 20
188.607425563583
 30
0.0
 10
1061.920024028497
 20
188.8977794791644
 30
0.0
 10
1061.764636154111
 20
189.2186941066414
 30
0.0
 10
1061.684077652564
 20
189.5443169557175
 30
0.0
 10
1061.647629521717
 20
189.8868585375771
 30
0.0
 10
1061.643743191518
 20
190.2424865606162
 30
0.0
 10
1061.712303922204
 20
190.5478409822626
 30
0.0
 10
1061.760048780118
 20
190.7273618641759
 30
0.0
 10
1061.776008349967
 20
190.7873510288484
 30
0.0
 11
1068.089327681246
 21
189.478276298033
 31
0.0
 11
1067.645463807781
 21
189.0986890160131
 31
0.0
 11
1067.158545807298
 21
188.7520197998088
 31
0.0
 11
1066.542928373339
 21
188.4165282858826
 31
0.0
 11
1066.016814142516
 21
188.1984561277381
 31
0.0
 11
1065.45716192984
 21
188.0251215196282
 31
0.0
 11
1064.802348265542
 21
187.9077021638466
 31
0.0
 11
1064.334616871229
 21
187.8692487287276
 31
0.0
 11
1063.926657156266
 21
187.8614136407654
 31
0.0
 11
1063.440202103389
 21
187.9084241685419
 31
0.0
 11
1062.98903394552
 21
188.0220997962905
 31
0.0
 11
1062.690895689574
 21
188.1671157758851
 31
0.0
 11
1062.420225658032
 21
188.355264850649
 31
0.0
 11
1062.14950418788
 21
188.6139297170771
 31
0.0
 11
1061.925077477956
 21
188.9128664008138
 31
0.0
 11
1061.776008349967
 21
189.2225261912937
 31
0.0
 11
1061.689694341439
 21
189.5556645047372
 31
0.0
 11
1061.654356007788
 21
189.8662869681352
 31
0.0
 11
1061.658316781729
 21
190.2425583767491
 31
0.0
 11
1061.728890571778
 21
190.6070637829606
 31
0.0
 11
1061.776008349967
 21
190.7873510288484
 31
0.0
  0
LINE
  5
15A7
330
1F
100
AcDbEntity
  8
0
  6
ByBlock
370
    40
100
AcDbLine
 10
1061.776008349967
 20
190.7873510288453
 30
0.0
 11
1059.038753492803
 21
190.3353493502348
 31
0.0
  0
SPLINE
  5
15A8
330
1F
100
AcDbEntity
  8
0
  6
ByBlock
370
    40
100
AcDbSpline
210
0.0
220
0.0
230
1.0
 70
  1064
 71
     3
 72
    22
 73
    18
 74
    16
 42
0.000000001
 43
0.0000000001
 44
0.00001
 40
0.0
 40
0.0
 40
0.0
 40
0.0
 40
0.561805998378275
 40
1.235241451719409
 40
1.950415396938808
 40
2.874312978685475
 40
3.890961694794625
 40
4.945914874163415
 40
5.886805358384382
 40
6.644795776252548
 40
7.313988757763453
 40
8.135280500801469
 40
8.921497603414305
 40
9.691686277571571
 40
10.27667690466657
 40
11.25195686274389
 40
12.07826999845549
 40
12.07826999845549
 40
12.07826999845549
 40
12.07826999845549
 10
1059.038753492819
 20
190.3353493502358
 30
0.0
 10
1059.026920632069
 20
190.1480761582936
 30
0.0
 10
1059.000916149883
 20
189.7363187564187
 30
0.0
 10
1059.089052160641
 20
189.0886110570063
 30
0.0
 10
1059.289675544112
 20
188.3403233105452
 30
0.0
 10
1059.753849474361
 20
187.5682331596483
 30
0.0
 10
1060.499939132915
 20
186.8897942427684
 30
0.0
 10
1061.39190925229
 20
186.3985968221953
 30
0.0
 10
1062.299385463573
 20
186.211211595705
 30
0.0
 10
1063.087554226682
 20
186.1579279821725
 30
0.0
 10
1063.837080178925
 20
186.1680312359421
 30
0.0
 10
1064.596798021519
 20
186.2208943330249
 30
0.0
 10
1065.367010960663
 20
186.4208891289082
 30
0.0
 10
1066.039194275957
 20
186.6623662656228
 30
0.0
 10
1066.748716338193
 20
186.9803663129767
 30
0.0
 10
1067.433502025678
 20
187.3922693237899
 30
0.0
 10
1067.903673382879
 20
187.766342483804
 30
0.0
 10
1068.119316398162
 20
187.9379193972883
 30
0.0
 11
1059.038753492819
 21
190.3353493502358
 31
0.0
 11
1059.020184150111
 21
189.7738436265408
 31
0.0
 11
1059.100737032908
 21
189.10524054008
 31
0.0
 11
1059.29903292261
 21
188.41810599984
 31
0.0
 11
1059.770313581853
 21
187.6234462421992
 31
0.0
 11
1060.513858869954
 21
186.9301078097783
 31
0.0
 11
1061.444332112159
 21
186.4329674674048
 31
0.0
 11
1062.361379873909
 21
186.2224897289914
 31
0.0
 11
1063.117321870032
 21
186.1667884039905
 31
0.0
 11
1063.786486909981
 21
186.1729655552482
 31
0.0
 11
1064.604412446185
 21
186.2472518158615
 31
0.0
 11
1065.368224551539
 21
186.433609249356
 31
0.0
 11
1066.093200496923
 21
186.6936111615126
 31
0.0
 11
1066.626053187275
 21
186.9350281380547
 31
0.0
 11
1067.462548066211
 21
187.4364737676725
 31
0.0
 11
1068.119316398162
 21
187.9379193972883
 31
0.0
  0
SPLINE
  5
15A9
330
1F
100
AcDbEntity
  8
0
  6
ByBlock
370
    40
100
AcDbSpline
210
0.0
220
0.0
230
1.0
 70
  1064
 71
     3
 72
    19
 73
    15
 74
    13
 42
0.000000001
 43
0.0000000001
 44
0.00001
 40
0.0
 40
0.0
 40
0.0
 40
0.0
 40
0.1899925834310172
 40
0.7364799106199427
 40
1.297034136446486
 40
1.791395412363237
 40
2.436995448886526
 40
3.060891992650106
 40
3.776148276477876
 40
4.355130366158162
 40
4.986900754686209
 40
5.545257833321915
 40
6.085374155356623
 40
6.447551039557442
 40
6.447551039557442
 40
6.447551039557442
 40
6.447551039557442
 10
1068.119316398162
 20
187.9379193972883
 30
0.0
 10
1068.131455776109
 20
187.8757562678488
 30
0.0
 10
1068.178531907797
 20
187.6347933765385
 30
0.0
 10
1068.273620900178
 20
187.213346490445
 30
0.0
 10
1068.520608080977
 20
186.7221158156205
 30
0.0
 10
1068.982348087218
 20
186.3746277493408
 30
0.0
 10
1069.542743335335
 20
186.1557356643921
 30
0.0
 10
1070.21019058767
 20
186.1704079121576
 30
0.0
 10
1070.853623787524
 20
186.2098648739192
 30
0.0
 10
1071.452456176812
 20
186.4636359256406
 30
0.0
 10
1071.946160251514
 20
186.7921664819145
 30
0.0
 10
1072.3558427768
 20
187.2006552746724
 30
0.0
 10
1072.684242240984
 20
187.5600633311353
 30
0.0
 10
1072.873898369026
 20
187.7935861256893
 30
0.0
 10
1072.950020313413
 20
187.8873255869618
 30
0.0
 11
1068.119316398162
 21
187.9379193972883
 31
0.0
 11
1068.156197890487
 21
187.7515352228849
 31
0.0
 11
1068.294413469111
 21
187.2228138604303
 31
0.0
 11
1068.565752202758
 21
186.7323052648657
 31
0.0
 11
1068.951181801062
 21
186.4227256971308
 31
0.0
 11
1069.555739931182
 21
186.1962034099929
 31
0.0
 11
1070.179227474395
 21
186.1735538553735
 31
0.0
 11
1070.88964628959
 21
186.2566111359572
 31
0.0
 11
1071.427231333223
 21
186.4716080889279
 31
0.0
 11
1071.952471107468
 21
186.8226895560365
 31
0.0
 11
1072.35677868024
 21
187.2077854664519
 31
0.0
 11
1072.719523846049
 21
187.6079632526748
 31
0.0
 11
1072.950020313413
 21
187.8873255869618
 31
0.0
  0
LINE
  5
15AA
330
1F
100
AcDbEntity
  8
0
  6
ByBlock
370
    40
100
AcDbLine
 10
1072.950020313405
 20
187.8873255869608
 30
0.0
 11
1072.361150963136
 21
188.5499654494747
 31
0.0
  0
SPLINE
  5
15AB
330
1F
100
AcDbEntity
  8
0
  6
ByBlock
370
    40
100
AcDbSpline
210
0.0
220
0.0
230
1.0
 70
  1064
 71
     3
 72
    19
 73
    15
 74
    13
 42
0.000000001
 43
0.0000000001
 44
0.00001
 40
0.0
 40
0.0
 40
0.0
 40
0.0
 40
0.2218448631290323
 40
0.5136925097386511
 40
0.8625171638412984
 40
1.182920385581477
 40
1.429219701711873
 40
1.598475235278294
 40
1.782178655031912
 40
1.901153047135363
 40
2.090903057579637
 40
2.277863284590332
 40
2.519531317995289
 40
2.713634399149107
 40
2.713634399149107
 40
2.713634399149107
 40
2.713634399149107
 10
1072.361150963144
 20
188.5499654494768
 30
0.0
 10
1072.303498646251
 20
188.5036260219554
 30
0.0
 10
1072.169991978867
 20
188.3963372339483
 30
0.0
 10
1071.94463112158
 20
188.2184953357234
 30
0.0
 10
1071.693843359216
 20
188.0159961273544
 30
0.0
 10
1071.418412991783
 20
187.8841599648531
 30
0.0
 10
1071.186717849369
 20
187.7919558803334
 30
0.0
 10
1070.98755268541
 20
187.7856794333697
 30
0.0
 10
1070.825408189936
 20
187.7623675957093
 30
0.0
 10
1070.676491201336
 20
187.8531769474427
 30
0.0
 10
1070.611027702167
 20
188.0123678306997
 30
0.0
 10
1070.55723916723
 20
188.2095383205625
 30
0.0
 10
1070.521450236041
 20
188.4152893707836
 30
0.0
 10
1070.5145064512
 20
188.5603938204176
 30
0.0
 10
1070.51141809842
 20
188.6250271966204
 30
0.0
 11
1072.361150963144
 21
188.5499654494768
 31
0.0
 11
1072.188059998467
 21
188.4112068438881
 31
0.0
 11
1071.959569637366
 21
188.2296360340989
 31
0.0
 11
1071.679177706185
 21
188.0221265372014
 31
0.0
 11
1071.393590474124
 21
187.8768698893708
 31
0.0
 11
1071.159904812152
 21
187.7990538280375
 31
0.0
 11
1070.991443323495
 21
187.7826616474219
 31
0.0
 11
1070.807756002585
 21
187.7852287752155
 31
0.0
 11
1070.705701775555
 21
187.8463852467891
 31
0.0
 11
1070.614964045488
 21
188.0130346262589
 31
0.0
 11
1070.564399879584
 21
188.1930277220855
 31
0.0
 11
1070.52427775404
 21
188.4313427525408
 31
0.0
 11
1070.51141809842
 21
188.6250271966204
 31
0.0
  0
LINE
  5
15AC
330
1F
100
AcDbEntity
  8
0
  6
ByBlock
370
    40
100
AcDbLine
 10
1067.203863233712
 20
194.3115361572016
 30
0.0
 11
1060.968473415506
 21
193.241551943376
 31
0.0
  0
LINE
  5
15AD
330
1F
100
AcDbEntity
  8
0
  6
ByBlock
370
    40
100
AcDbLine
 10
1059.561678529034
 20
191.738177727455
 30
0.0
 11
1062.827825302641
 21
192.2936400044541
 31
0.0
  0
SPLINE
  5
15AE
330
1F
100
AcDbEntity
  8
0
  6
ByBlock
370
    40
100
AcDbSpline
210
0.0
220
0.0
230
1.0
 70
  1064
 71
     3
 72
    13
 73
     9
 74
     7
 42
0.000000001
 43
0.0000000001
 44
0.00001
 40
0.0
 40
0.0
 40
0.0
 40
0.0
 40
0.32608706730092
 40
0.7920721976956644
 40
1.256988262739772
 40
1.541583162993329
 40
1.821233345260895
 40
2.073345924971506
 40
2.073345924971506
 40
2.073345924971506
 40
2.073345924971506
 10
1060.968473415506
 20
193.2415519433791
 30
0.0
 10
1060.88448170964
 20
193.1725505846672
 30
0.0
 10
1060.680466614939
 20
193.0049419277856
 30
0.0
 10
1060.362676694241
 20
192.7319146770849
 30
0.0
 10
1060.072062548031
 20
192.4482075118916
 30
0.0
 10
1059.853697033509
 20
192.1836958076785
 30
0.0
 10
1059.684948756448
 20
191.9691137005196
 30
0.0
 10
1059.601320087652
 20
191.8124551354893
 30
0.0
 10
1059.561678529042
 20
191.738177727457
 30
0.0
 11
1060.968473415506
 21
193.2415519433791
 31
0.0
 11
1060.717144306029
 21
193.0338017782464
 31
0.0
 11
1060.365612759939
 21
192.7279124567319
 31
0.0
 11
1060.036714207736
 21
192.3993200987556
 31
0.0
 11
1059.853438395805
 21
192.1815955725022
 31
0.0
 11
1059.686520065829
 21
191.9572125585238
 31
0.0
 11
1059.561678529042
 21
191.738177727457
 31
0.0
  0
SPLINE
  5
15AF
330
1F
100
AcDbEntity
  8
0
  6
ByBlock
370
    40
100
AcDbSpline
210
0.0
220
0.0
230
1.0
 70
  1064
 71
     3
 72
    19
 73
    15
 74
    13
 42
0.000000001
 43
0.0000000001
 44
0.00001
 40
0.0
 40
0.0
 40
0.0
 40
0.0
 40
0.3225145766811915
 40
0.75192679717495
 40
1.170240729878854
 40
1.516448258649321
 40
2.040619251607544
 40
2.514960721507463
 40
2.941141506882143
 40
3.430267345714979
 40
3.967170639949619
 40
4.323114088482522
 40
4.623774832549983
 40
4.868034301559011
 40
4.868034301559011
 40
4.868034301559011
 40
4.868034301559011
 10
1062.827825302649
 20
192.2936400044552
 30
0.0
 10
1062.907645594369
 20
192.365685436922
 30
0.0
 10
1063.09375312417
 20
192.5336438870866
 30
0.0
 10
1063.407171365589
 20
192.7675419148812
 30
0.0
 10
1063.749063968889
 20
192.9714912645351
 30
0.0
 10
1064.111744043339
 20
193.202041618701
 30
0.0
 10
1064.513036123328
 20
193.403385549623
 30
0.0
 10
1064.946808824901
 20
193.5968646717332
 30
0.0
 10
1065.379510427315
 20
193.7626524879871
 30
0.0
 10
1065.837207513219
 20
193.9207259021798
 30
0.0
 10
1066.280829448027
 20
194.0457651964726
 30
0.0
 10
1066.665877087012
 20
194.1452598333126
 30
0.0
 10
1066.957019522241
 20
194.2201519459284
 30
0.0
 10
1067.127460911435
 20
194.2832562516383
 30
0.0
 10
1067.203863233721
 20
194.3115361572046
 30
0.0
 11
1062.827825302649
 21
192.2936400044552
 31
0.0
 11
1063.070101214574
 21
192.5065244251803
 31
0.0
 11
1063.414174160405
 21
192.763451132167
 31
0.0
 11
1063.768586269377
 21
192.9856681320627
 31
0.0
 11
1064.063998278321
 21
193.1661960461835
 31
0.0
 11
1064.529569250468
 21
193.4070247226075
 31
0.0
 11
1064.963196838061
 21
193.5992918982065
 31
0.0
 11
1065.360663074035
 21
193.7530788977828
 31
0.0
 11
1065.823507799204
 21
193.911251407334
 31
0.0
 11
1066.339437182773
 21
194.0598506694755
 31
0.0
 11
1066.683818760339
 21
194.1498338469283
 31
0.0
 11
1066.973521082211
 21
194.2302705178913
 31
0.0
 11
1067.203863233721
 21
194.3115361572046
 31
0.0
  0
LINE
  5
15B0
330
1F
100
AcDbEntity
  8
0
  6
ByBlock
370
    40
100
AcDbLine
 10
1077.658969009215
 20
201.6809043521808
 30
0.0
 11
1077.658969009215
 21
197.0588977179355
 31
0.0
  0
LINE
  5
15B1
330
1F
100
AcDbEntity
  8
0
  6
ByBlock
370
    40
100
AcDbLine
 10
1077.658969009215
 20
195.7654129403057
 30
0.0
 11
1077.658969009215
 21
194.4851916562896
 31
0.0
  0
LINE
  5
15B2
330
1F
100
AcDbEntity
  8
0
  6
ByBlock
370
    40
100
AcDbLine
 10
1077.658969009215
 20
193.1879364097077
 30
0.0
 11
1077.658969009215
 21
189.6273568966397
 31
0.0
  0
LINE
  5
15B3
330
1F
100
AcDbEntity
  8
0
  6
ByBlock
370
    40
100
AcDbLine
 10
1075.2969074645
 20
189.712179077589
 30
0.0
 11
1075.2969074645
 21
192.948498260837
 31
0.0
  0
LINE
  5
15B4
330
1F
100
AcDbEntity
  8
0
  6
ByBlock
370
    40
100
AcDbLine
 10
1075.2969074645
 20
194.2561289822628
 30
0.0
 11
1075.2969074645
 21
195.5327135019019
 31
0.0
  0
LINE
  5
15B5
330
1F
100
AcDbEntity
  8
0
  6
ByBlock
370
    40
100
AcDbLine
 10
1075.2969074645
 20
196.8455587016653
 30
0.0
 11
1075.2969074645
 21
198.4559500576171
 31
0.0
  0
LINE
  5
15B6
330
1F
100
AcDbEntity
  8
0
  6
ByBlock
370
    40
100
AcDbLine
 10
1077.658969009215
 20
201.6809043521808
 30
0.0
 11
1073.166165405109
 21
200.4277181327714
 31
0.0
  0
LINE
  5
15B7
330
1F
100
AcDbEntity
  8
0
  6
ByBlock
370
    40
100
AcDbLine
 10
1073.166165405109
 20
200.4277181327714
 30
0.0
 11
1073.396610433855
 21
199.5204791248854
 31
0.0
  0
LINE
  5
15B8
330
1F
100
AcDbEntity
  8
0
  6
ByBlock
370
    40
100
AcDbLine
 10
1073.396610433855
 20
199.5204791248854
 30
0.0
 11
1073.962641035731
 21
199.5204791248854
 31
0.0
  0
SPLINE
  5
15B9
330
1F
100
AcDbEntity
  8
0
  6
ByBlock
370
    40
100
AcDbSpline
210
0.0
220
0.0
230
1.0
 70
  1064
 71
     3
 72
    14
 73
    10
 74
     8
 42
0.000000001
 43
0.0000000001
 44
0.00001
 40
0.0
 40
0.0
 40
0.0
 40
0.0
 40
0.3507417788627166
 40
0.7785873466807379
 40
1.013870469150011
 40
1.235960688641623
 40
1.502932284454602
 40
1.733248927142847
 40
1.954127533507347
 40
1.954127533507347
 40
1.954127533507347
 40
1.954127533507347
 10
1073.962641035739
 20
199.5204791248874
 30
0.0
 10
1074.079412495364
 20
199.5114459648308
 30
0.0
 10
1074.338623838679
 20
199.4913783397159
 30
0.0
 10
1074.667812956203
 20
199.4159244472461
 30
0.0
 10
1074.949372197292
 20
199.3107240715964
 30
0.0
 10
1075.1174731409
 20
199.12786383219
 30
0.0
 10
1075.224877097661
 20
198.9125280764774
 30
0.0
 10
1075.295965915763
 20
198.6810578806602
 30
0.0
 10
1075.296602341367
 20
198.5299325156977
 30
0.0
 10
1075.2969074645
 20
198.4559500576192
 30
0.0
 11
1073.962641035739
 21
199.5204791248874
 31
0.0
 11
1074.311652089325
 21
199.4856891950564
 31
0.0
 11
1074.728510686
 21
199.3893416799378
 31
0.0
 11
1074.943164057625
 21
199.2929941648212
 31
0.0
 11
1075.098714452035
 21
199.1344740233767
 31
0.0
 11
1075.223144479851
 21
198.89827152517
 31
0.0
 11
1075.285436651682
 21
198.6765358617263
 31
0.0
 11
1075.2969074645
 21
198.4559500576192
 31
0.0
  0
LINE
  5
15BA
330
1F
100
AcDbEntity
  8
0
  6
ByBlock
370
    40
100
AcDbLine
 10
1075.2969074645
 20
196.8455587016653
 30
0.0
 11
1077.658969009215
 21
197.0588977179365
 31
0.0
  0
LINE
  5
15BB
330
1F
100
AcDbEntity
  8
0
  6
ByBlock
370
    40
100
AcDbLine
 10
1075.2969074645
 20
195.5327135019019
 30
0.0
 11
1077.658969009215
 21
195.7654129403057
 31
0.0
  0
LINE
  5
15BC
330
1F
100
AcDbEntity
  8
0
  6
ByBlock
370
    40
100
AcDbLine
 10
1075.2969074645
 20
194.2561289822628
 30
0.0
 11
1077.658969009215
 21
194.4851916562896
 31
0.0
  0
LINE
  5
15BD
330
1F
100
AcDbEntity
  8
0
  6
ByBlock
370
    40
100
AcDbLine
 10
1075.2969074645
 20
192.948498260837
 30
0.0
 11
1077.658969009215
 21
193.1879364097056
 31
0.0
  0
SPLINE
  5
15BE
330
1F
100
AcDbEntity
  8
0
  6
ByBlock
370
    40
100
AcDbSpline
210
0.0
220
0.0
230
1.0
 70
  1064
 71
     3
 72
    23
 73
    19
 74
    17
 42
0.000000001
 43
0.0000000001
 44
0.00001
 40
0.0
 40
0.0
 40
0.0
 40
0.0
 40
0.668259381989523
 40
1.537129629530454
 40
2.221479213979602
 40
2.69226210634655
 40
3.312867086074292
 40
4.235828503705985
 40
5.094162116456552
 40
5.58277566837066
 40
6.159252941472478
 40
6.837692074604442
 40
7.875957749901542
 40
8.848056899212977
 40
9.515018607097987
 40
10.11352021433907
 40
10.6656066967598
 40
11.10108752299443
 40
11.10108752299443
 40
11.10108752299443
 40
11.10108752299443
 10
1075.2969074645
 20
189.712179077591
 30
0.0
 10
1075.326572787721
 20
189.4911241763295
 30
0.0
 10
1075.394822100611
 20
188.982656087334
 30
0.0
 10
1075.631031021403
 20
188.2747669000599
 30
0.0
 10
1075.963857224857
 20
187.6813018685326
 30
0.0
 10
1076.361157674142
 20
187.2399861777307
 30
0.0
 10
1076.85878130043
 20
186.7859928982363
 30
0.0
 10
1077.570623041008
 20
186.3955824470646
 30
0.0
 10
1078.311741654745
 20
186.208290502994
 30
0.0
 10
1078.951655185907
 20
186.166486970953
 30
0.0
 10
1079.534748781237
 20
186.1486062094775
 30
0.0
 10
1080.289848758741
 20
186.2883813968108
 30
0.0
 10
1081.155264629035
 20
186.5341796329252
 30
0.0
 10
1081.955767813296
 20
186.934903167051
 30
0.0
 10
1082.612144956858
 20
187.2895311256749
 30
0.0
 10
1083.117790989858
 20
187.6238514563737
 30
0.0
 10
1083.557152641698
 20
187.9187031188487
 30
0.0
 10
1083.811696090731
 20
188.1277256511669
 30
0.0
 10
1083.923936035358
 20
188.2199023412042
 30
0.0
 11
1075.2969074645
 21
189.712179077591
 31
0.0
 11
1075.403899799277
 21
189.0525341975049
 31
0.0
 11
1075.678890675113
 21
188.2283257292856
 31
0.0
 11
1076.023015059554
 21
187.636789958557
 31
0.0
 11
1076.332366935219
 21
187.2819112815843
 31
0.0
 11
1076.7963947487
 21
186.8698070474751
 31
0.0
 11
1077.604186876278
 21
186.4233407381691
 31
0.0
 11
1078.435846524696
 21
186.2110178766512
 31
0.0
 11
1078.922815963798
 21
186.1709599866577
 31
0.0
 11
1079.499288606043
 21
186.168499822521
 31
0.0
 11
1080.169379541221
 21
186.2746077714504
 31
0.0
 11
1081.164305377392
 21
186.5714586638556
 31
0.0
 11
1082.043751506119
 21
186.9856486892983
 31
0.0
 11
1082.626911169283
 21
187.3093207189951
 31
0.0
 11
1083.130340967585
 21
187.6329927486919
 31
0.0
 11
1083.583515231726
 21
187.9483216130452
 31
0.0
 11
1083.923936035358
 21
188.2199023412042
 31
0.0
  0
LINE
  5
15BF
330
1F
100
AcDbEntity
  8
0
  6
ByBlock
370
    40
100
AcDbLine
 10
1083.923936035342
 20
188.2199023412021
 30
0.0
 11
1083.923936035342
 21
186.4752983351359
 31
0.0
  0
LINE
  5
15C0
330
1F
100
AcDbEntity
  8
0
  6
ByBlock
370
    40
100
AcDbLine
 10
1083.923936035342
 20
189.6803306483609
 30
0.0
 11
1083.923936035342
 21
193.317977477159
 31
0.0
  0
LINE
  5
15C1
330
1F
100
AcDbEntity
  8
0
  6
ByBlock
370
    40
100
AcDbLine
 10
1083.923936035342
 20
194.6129330050882
 30
0.0
 11
1083.923936035342
 21
195.9014439726157
 31
0.0
  0
LINE
  5
15C2
330
1F
100
AcDbEntity
  8
0
  6
ByBlock
370
    40
100
AcDbLine
 10
1083.923936035342
 20
197.18594380296
 30
0.0
 11
1083.923936035342
 21
198.7259798127296
 31
0.0
  0
SPLINE
  5
15C3
330
1F
100
AcDbEntity
  8
0
  6
ByBlock
370
    40
100
AcDbSpline
210
0.0
220
0.0
230
1.0
 70
  1064
 71
     3
 72
    20
 73
    16
 74
    14
 42
0.000000001
 43
0.0000000001
 44
0.00001
 40
0.0
 40
0.0
 40
0.0
 40
0.0
 40
0.2600433428656121
 40
0.7071891363307011
 40
1.624595944591863
 40
2.254607448502411
 40
2.894390499358177
 40
3.349022498691464
 40
4.010275786943108
 40
4.661808722569629
 40
5.25943820304864
 40
6.044929386319861
 40
6.641858247370493
 40
7.19535425119741
 40
7.673289443317695
 40
7.673289443317695
 40
7.673289443317695
 40
7.673289443317695
 10
1077.658969009223
 20
189.6273568966417
 30
0.0
 10
1077.659731119916
 20
189.5403581269575
 30
0.0
 10
1077.661813581106
 20
189.303765278585
 30
0.0
 10
1077.816472022532
 20
188.7804697815619
 30
0.0
 10
1078.23553071504
 20
188.1983976631135
 30
0.0
 10
1078.954308724801
 20
187.980234467054
 30
0.0
 10
1079.52498536326
 20
187.922611449956
 30
0.0
 10
1080.111811565985
 20
187.9256979669958
 30
0.0
 10
1080.696474749922
 20
188.0075797659313
 30
0.0
 10
1081.31847786831
 20
188.1533326247349
 30
0.0
 10
1081.94656359747
 20
188.4137109801152
 30
0.0
 10
1082.534365938827
 20
188.7164071014332
 30
0.0
 10
1083.074197274822
 20
189.0707984962062
 30
0.0
 10
1083.522540294992
 20
189.3768605046641
 30
0.0
 10
1083.79683766221
 20
189.5842351736389
 30
0.0
 10
1083.923936035358
 20
189.6803306483629
 30
0.0
 11
1077.658969009223
 21
189.6273568966417
 31
0.0
 11
1077.67007975168
 21
189.3675421708872
 31
0.0
 11
1077.788542899284
 21
188.9363716647036
 31
0.0
 11
1078.360386065501
 21
188.2189931501079
 31
0.0
 11
1078.951827346875
 21
188.0019371467156
 31
0.0
 11
1079.587505843614
 21
187.9295762319479
 31
0.0
 11
1080.042120389166
 21
187.93358736913
 31
0.0
 11
1080.697962825921
 21
188.0180084363592
 31
0.0
 11
1081.33029781218
 21
188.1750043456753
 31
0.0
 11
1081.885526303334
 21
188.3960982271657
 31
0.0
 11
1082.582313883575
 21
188.7587050284436
 31
0.0
 11
1083.08522929566
 21
189.0802645258939
 31
0.0
 11
1083.540563981943
 21
189.394951608298
 31
0.0
 11
1083.923936035358
 21
189.6803306483629
 31
0.0
  0
LINE
  5
15C4
330
1F
100
AcDbEntity
  8
0
  6
ByBlock
370
    40
100
AcDbLine
 10
1086.292375969265
 20
201.6828296980304
 30
0.0
 11
1081.805282052239
 21
200.4230117318121
 31
0.0
  0
LINE
  5
15C5
330
1F
100
AcDbEntity
  8
0
  6
ByBlock
370
    40
100
AcDbLine
 10
1081.805282052239
 20
200.4230117318121
 30
0.0
 11
1082.051518738097
 21
199.5281805082725
 31
0.0
  0
LINE
  5
15C6
330
1F
100
AcDbEntity
  8
0
  6
ByBlock
370
    40
100
AcDbLine
 10
1082.051518738097
 20
199.5281805082725
 30
0.0
 11
1082.640953913216
 21
199.519329265557
 31
0.0
  0
LINE
  5
15C7
330
1F
100
AcDbEntity
  8
0
  6
ByBlock
370
    40
100
AcDbLine
 10
1086.292375969265
 20
201.6828296980304
 30
0.0
 11
1086.292375969265
 21
197.0394303321459
 31
0.0
  0
LINE
  5
15C8
330
1F
100
AcDbEntity
  8
0
  6
ByBlock
370
    40
100
AcDbLine
 10
1086.292375969265
 20
195.7400090714844
 30
0.0
 11
1086.292375969265
 21
194.4574880688186
 31
0.0
  0
LINE
  5
15C9
330
1F
100
AcDbEntity
  8
0
  6
ByBlock
370
    40
100
AcDbLine
 10
1086.292375969265
 20
193.1570773943127
 30
0.0
 11
1086.292375969265
 21
189.544700729769
 31
0.0
  0
LINE
  5
15CA
330
1F
100
AcDbEntity
  8
0
  6
ByBlock
370
    40
100
AcDbLine
 10
1088.382944464486
 20
186.8164321820348
 30
0.0
 11
1088.382944464486
 21
187.950861999928
 31
0.0
  0
LINE
  5
15CB
330
1F
100
AcDbEntity
  8
0
  6
ByBlock
370
    40
100
AcDbLine
 10
1083.923936035342
 20
197.18594380296
 30
0.0
 11
1086.292375969265
 21
197.0394303321459
 31
0.0
  0
LINE
  5
15CC
330
1F
100
AcDbEntity
  8
0
  6
ByBlock
370
    40
100
AcDbLine
 10
1083.923936035342
 20
195.9014439726157
 30
0.0
 11
1086.292375969265
 21
195.7400090714844
 31
0.0
  0
LINE
  5
15CD
330
1F
100
AcDbEntity
  8
0
  6
ByBlock
370
    40
100
AcDbLine
 10
1083.923936035342
 20
194.6129330050882
 30
0.0
 11
1086.292375969265
 21
194.4574880688186
 31
0.0
  0
LINE
  5
15CE
330
1F
100
AcDbEntity
  8
0
  6
ByBlock
370
    40
100
AcDbLine
 10
1083.923936035342
 20
193.317977477159
 30
0.0
 11
1086.292375969265
 21
193.1570773943127
 31
0.0
  0
SPLINE
  5
15CF
330
1F
100
AcDbEntity
  8
0
  6
ByBlock
370
    40
100
AcDbSpline
210
0.0
220
0.0
230
1.0
 70
  1064
 71
     3
 72
    14
 73
    10
 74
     8
 42
0.000000001
 43
0.0000000001
 44
0.00001
 40
0.0
 40
0.0
 40
0.0
 40
0.0
 40
0.3092611161698547
 40
0.6954599399083718
 40
0.9646473421339074
 40
1.167313770879758
 40
1.376342403370566
 40
1.562141160521154
 40
1.67511998636226
 40
1.67511998636226
 40
1.67511998636226
 40
1.67511998636226
 10
1082.640953913224
 20
199.519329265559
 30
0.0
 10
1082.744057701601
 20
199.5120251048122
 30
0.0
 10
1082.975914491776
 20
199.4955908248918
 30
0.0
 10
1083.286672588826
 20
199.4134270447689
 30
0.0
 10
1083.56660677495
 20
199.3397096620175
 30
0.0
 10
1083.749475703466
 20
199.1951821547053
 30
0.0
 10
1083.855368128632
 20
199.0242969738224
 30
0.0
 10
1083.916079479159
 20
198.8635100071689
 30
0.0
 10
1083.921784435426
 20
198.7637161627939
 30
0.0
 10
1083.923936035358
 20
198.7259798127306
 30
0.0
 11
1082.640953913224
 21
199.519329265559
 31
0.0
 11
1082.948711191581
 21
199.4889515866334
 31
0.0
 11
1083.325293346816
 21
199.4033004373328
 31
0.0
 11
1083.57945158054
 21
199.3146008237713
 31
0.0
 11
1083.738654117148
 21
199.1891859345434
 31
0.0
 11
1083.853105052176
 21
199.0142736124772
 31
0.0
 11
1083.913185363262
 21
198.8384520993228
 31
0.0
 11
1083.923936035358
 21
198.7259798127306
 31
0.0
  0
SPLINE
  5
15D0
330
1F
100
AcDbEntity
  8
0
  6
ByBlock
370
    40
100
AcDbSpline
210
0.0
220
0.0
230
1.0
 70
  1064
 71
     3
 72
    15
 73
    11
 74
     9
 42
0.000000001
 43
0.0000000001
 44
0.00001
 40
0.0
 40
0.0
 40
0.0
 40
0.0
 40
0.403332248465879
 40
0.7492643922791757
 40
1.096985398980319
 40
1.413039987960708
 40
1.802589545217676
 40
2.199236984283098
 40
2.658818439077558
 40
3.038021020414354
 40
3.038021020414354
 40
3.038021020414354
 40
3.038021020414354
 10
1086.292375969273
 20
189.544700729769
 30
0.0
 10
1086.298223121049
 20
189.4096477194544
 30
0.0
 10
1086.309097786903
 20
189.1587629698976
 30
0.0
 10
1086.425567862604
 20
188.8094761485798
 30
0.0
 10
1086.573259089492
 20
188.5035275525037
 30
0.0
 10
1086.828021026246
 20
188.2515827237925
 30
0.0
 10
1087.162051724272
 20
188.0893787276093
 30
0.0
 10
1087.563420094123
 20
187.9723885692433
 30
0.0
 10
1087.977466766389
 20
187.9596350481523
 30
0.0
 10
1088.256704712621
 20
187.9535884727074
 30
0.0
 10
1088.382944464494
 20
187.95086199993
 30
0.0
 11
1086.292375969273
 21
189.544700729769
 31
0.0
 11
1086.329823286449
 21
189.1431056750819
 31
0.0
 11
1086.432289022442
 21
188.8126949349161
 31
0.0
 11
1086.595298017103
 21
188.5055487904141
 31
0.0
 11
1086.818901709067
 21
188.2821819311901
 31
0.0
 11
1087.163591918383
 21
188.1006913441501
 31
0.0
 11
1087.545523690361
 21
187.9936474632093
 31
0.0
 11
1088.003841816755
 21
187.9595795380715
 31
0.0
 11
1088.382944464494
 21
187.95086199993
 31
0.0
  0
SPLINE
  5
15D1
330
1F
100
AcDbEntity
  8
0
  6
ByBlock
370
    40
100
AcDbSpline
210
0.0
220
0.0
230
1.0
 70
  1064
 71
     3
 72
    12
 73
     8
 74
     6
 42
0.000000001
 43
0.0000000001
 44
0.00001
 40
0.0
 40
0.0
 40
0.0
 40
0.0
 40
0.7900027675082222
 40
1.755957813551995
 40
2.802795191905132
 40
3.677433779373981
 40
4.472756682507391
 40
4.472756682507391
 40
4.472756682507391
 40
4.472756682507391
 10
1083.923936035358
 20
186.475298335137
 30
0.0
 10
1084.185655617875
 20
186.504530714719
 30
0.0
 10
1084.767388076989
 20
186.5694849510598
 30
0.0
 10
1085.698764092119
 20
186.6444482055347
 30
0.0
 10
1086.658808233795
 20
186.7121415171834
 30
0.0
 10
1087.561932722574
 20
186.7802221785392
 30
0.0
 10
1088.118078323377
 20
186.8047573669995
 30
0.0
 10
1088.382944464494
 20
186.8164321820358
 30
0.0
 11
1083.923936035358
 21
186.475298335137
 31
0.0
 11
1084.709455239394
 21
186.5593450295651
 31
0.0
 11
1085.671974743422
 21
186.6407443734514
 31
0.0
 11
1086.716024464086
 21
186.7170896844822
 31
0.0
 11
1087.588577817389
 21
186.7774706695387
 31
0.0
 11
1088.382944464494
 21
186.8164321820358
 31
0.0
  0
LINE
  5
15D2
330
1F
100
AcDbEntity
  8
0
  6
ByBlock
370
    40
100
AcDbLine
 10
1100.990859468439
 20
196.5479858045731
 30
0.0
 11
1101.955025008377
 21
196.9790493470977
 31
0.0
  0
LINE
  5
15D3
330
1F
100
AcDbEntity
  8
0
  6
ByBlock
370
    40
100
AcDbLine
 10
1101.955025008377
 20
196.9790493470977
 30
0.0
 11
1099.984925767031
 21
201.7272998389241
 31
0.0
  0
LINE
  5
15D4
330
1F
100
AcDbEntity
  8
0
  6
ByBlock
370
    40
100
AcDbLine
 10
1099.984925767031
 20
201.7272998389241
 30
0.0
 11
1098.54212384482
 21
201.0692861546275
 31
0.0
  0
LINE
  5
15D5
330
1F
100
AcDbEntity
  8
0
  6
ByBlock
370
    40
100
AcDbLine
 10
1091.186966653647
 20
196.4801975861916
 30
0.0
 11
1094.980719378123
 21
195.8832601507204
 31
0.0
  0
SPLINE
  5
15D6
330
1F
100
AcDbEntity
  8
0
  6
ByBlock
370
    40
100
AcDbSpline
210
0.0
220
0.0
230
1.0
 70
  1064
 71
     3
 72
    28
 73
    24
 74
    22
 42
0.000000001
 43
0.0000000001
 44
0.00001
 40
0.0
 40
0.0
 40
0.0
 40
0.0
 40
0.1183098345426835
 40
0.3163479871697646
 40
0.7061340207202779
 40
1.311185591645188
 40
1.859661918086102
 40
2.456621221033381
 40
2.955199139749274
 40
3.481351132882401
 40
3.994202908204338
 40
4.671720253568708
 40
5.439650500481887
 40
6.178094752603071
 40
6.879834140141237
 40
7.538064274986592
 40
8.093117353195731
 40
8.60687697339301
 40
9.221050489657645
 40
9.657180080989263
 40
10.25333736140993
 40
10.78704256087987
 40
11.15179483880816
 40
11.15179483880816
 40
11.15179483880816
 40
11.15179483880816
 10
1098.542123844828
 20
201.0692861546285
 30
0.0
 10
1098.502980998422
 20
201.0648341598981
 30
0.0
 10
1098.398318947523
 20
201.0529126287946
 30
0.0
 10
1098.160464064511
 20
201.0470309287345
 30
0.0
 10
1097.782622591417
 20
201.1906391391218
 30
0.0
 10
1097.289418963891
 20
201.3277025524808
 30
0.0
 10
1096.729680943757
 20
201.4968862311923
 30
0.0
 10
1096.186484822355
 20
201.5823579038928
 30
0.0
 10
1095.64631747902
 20
201.6090218110067
 30
0.0
 10
1095.133107815671
 20
201.606962606954
 30
0.0
 10
1094.563732271541
 20
201.5466785881962
 30
0.0
 10
1093.918543924638
 20
201.4347353719812
 30
0.0
 10
1093.232374324898
 20
201.1828364434552
 30
0.0
 10
1092.572263137179
 20
200.8506924033265
 30
0.0
 10
1092.016004269029
 20
200.4213202361932
 30
0.0
 10
1091.567449152719
 20
199.9624102424987
 30
0.0
 10
1091.257712258306
 20
199.4724828187353
 30
0.0
 10
1091.039871774965
 20
198.954390330499
 30
0.0
 10
1090.914779460782
 20
198.441999082925
 30
0.0
 10
1090.922794228938
 20
197.891161393251
 30
0.0
 10
1090.957477744977
 20
197.3704942177255
 30
0.0
 10
1091.048164866169
 20
196.8780994034197
 30
0.0
 10
1091.146885050019
 20
196.5950910867171
 30
0.0
 10
1091.186966653663
 20
196.4801975861927
 30
0.0
 11
1098.542123844828
 21
201.0692861546285
 31
0.0
 11
1098.424432276565
 21
201.057226002166
 31
0.0
 11
1098.226393579979
 21
201.057226002166
 31
0.0
 11
1097.850377249579
 21
201.1599111140355
 31
0.0
 11
1097.271281237608
 21
201.3352245498086
 31
0.0
 11
1096.742389321165
 21
201.4804811976383
 31
0.0
 11
1096.153108461909
 21
201.5759195216658
 31
0.0
 11
1095.655336912084
 21
201.6042648910838
 31
0.0
 11
1095.12922268127
 21
201.597954035251
 31
0.0
 11
1094.618848668909
 21
201.5476008931596
 31
0.0
 11
1093.95318145527
 21
201.4214372583205
 31
0.0
 11
1093.229079966488
 21
201.1657138924891
 31
0.0
 11
1092.574111986335
 21
200.8246602683343
 31
0.0
 11
1092.015642861946
 21
200.3997471361596
 31
0.0
 11
1091.562880106794
 21
199.9219672159154
 31
0.0
 11
1091.264690412229
 21
199.4538140249173
 31
0.0
 11
1091.064439854882
 21
198.9806870238076
 31
0.0
 11
1090.931008068133
 21
198.3811824605428
 31
0.0
 11
1090.925195503809
 21
197.9450916260827
 31
0.0
 11
1090.970975877805
 21
197.3506945774983
 31
0.0
 11
1091.074007438674
 21
196.8270272478881
 31
0.0
 11
1091.186966653663
 21
196.4801975861927
 31
0.0
  0
SPLINE
  5
15D7
330
1F
100
AcDbEntity
  8
0
  6
ByBlock
370
    40
100
AcDbSpline
210
0.0
220
0.0
230
1.0
 70
  1064
 71
     3
 72
    33
 73
    29
 74
    27
 42
0.000000001
 43
0.0000000001
 44
0.00001
 40
0.0
 40
0.0
 40
0.0
 40
0.0
 40
0.5244783245097491
 40
1.325642590771683
 40
2.174499080280299
 40
3.028693198400736
 40
3.802683107875994
 40
4.590642739718632
 40
5.357179139281973
 40
6.108315774983143
 40
6.546880847411433
 40
7.158647346155493
 40
7.603686825302466
 40
8.135197380419059
 40
8.395921773549854
 40
8.832070555431066
 40
9.230506254301438
 40
9.553143846367332
 40
9.89892396190525
 40
10.24441817646685
 40
10.60412992905329
 40
11.00787510194819
 40
11.43611676663992
 40
11.76640859728346
 40
12.21505964133102
 40
12.70287454062168
 40
13.45038213292744
 40
13.83139372366095
 40
13.83139372366095
 40
13.83139372366095
 40
13.83139372366095
 10
1100.990859468447
 20
196.5479858045751
 30
0.0
 10
1100.89907649066
 20
196.6967564009295
 30
0.0
 10
1100.667077360514
 20
197.0727722653847
 30
0.0
 10
1100.242889411374
 20
197.6631462935804
 30
0.0
 10
1099.662015329522
 20
198.2647949105597
 30
0.0
 10
1099.05475156622
 20
198.8257901455902
 30
0.0
 10
1098.403448125663
 20
199.30132112408
 30
0.0
 10
1097.751002352733
 20
199.723407280856
 30
0.0
 10
1097.054647804644
 20
200.0551749301787
 30
0.0
 10
1096.427138860253
 20
200.2428070494238
 30
0.0
 10
1095.832639357689
 20
200.3367088026799
 30
0.0
 10
1095.33282221454
 20
200.3409823471884
 30
0.0
 10
1094.8031542813
 20
200.2954338974969
 30
0.0
 10
1094.409190321474
 20
200.157795647239
 30
0.0
 10
1094.043773390272
 20
199.9748205270534
 30
0.0
 10
1093.725661557657
 20
199.7876354716043
 30
0.0
 10
1093.465596921853
 20
199.4979705421354
 30
0.0
 10
1093.25430158051
 20
199.2116039129312
 30
0.0
 10
1093.109635151659
 20
198.9018452028265
 30
0.0
 10
1093.043122325531
 20
198.5564341995831
 30
0.0
 10
1092.998804108947
 20
198.1885122345626
 30
0.0
 10
1093.030971470155
 20
197.7900238976582
 30
0.0
 10
1093.128358955588
 20
197.4120477320222
 30
0.0
 10
1093.310842872067
 20
197.0510573315259
 30
0.0
 10
1093.569078595898
 20
196.7132266845817
 30
0.0
 10
1094.00005381105
 20
196.3462363526641
 30
0.0
 10
1094.489263630197
 20
196.1095561511818
 30
0.0
 10
1094.83867620179
 20
195.9710232613118
 30
0.0
 10
1094.956646102801
 20
195.9242539727283
 30
0.0
 11
1100.990859468447
 21
196.5479858045751
 31
0.0
 11
1100.711341993836
 21
196.9917780224234
 31
0.0
 11
1100.237849473816
 21
197.6380524452347
 31
0.0
 11
1099.657673250762
 21
198.2576929171584
 31
0.0
 11
1099.024155176183
 21
198.8306704931886
 31
0.0
 11
1098.403136686854
 21
199.292619792014
 31
0.0
 11
1097.736286384887
 21
199.7123719276854
 31
0.0
 11
1097.042739437889
 21
200.038825012493
 31
0.0
 11
1096.322495845778
 21
200.2520303241901
 31
0.0
 11
1095.889022574057
 21
200.3186686832483
 31
0.0
 11
1095.277365914023
 21
200.3303009810756
 31
0.0
 11
1094.835045199248
 21
200.2811779210485
 31
0.0
 11
1094.330432312617
 21
200.1142343915216
 31
0.0
 11
1094.0966437734
 21
199.9988206043305
 31
0.0
 11
1093.729680640559
 21
199.7630994425849
 31
0.0
 11
1093.454432571623
 21
199.4750195701493
 31
0.0
 11
1093.267504617494
 21
199.2120494164799
 31
0.0
 11
1093.123322158642
 21
198.8977634477929
 31
0.0
 11
1093.047964576716
 21
198.5605872562451
 31
0.0
 11
1093.011906102326
 21
198.2026868559296
 31
0.0
 11
1093.041431871645
 21
197.8000221646581
 31
0.0
 11
1093.15284792796
 21
197.3865274029926
 31
0.0
 11
1093.300322458642
 21
197.0909868154008
 31
0.0
 11
1093.572278455741
 21
196.7341560516594
 31
0.0
 11
1093.942585099045
 21
196.4166076913923
 31
0.0
 11
1094.603622836664
 21
196.0676120156244
 31
0.0
 11
1094.956646102801
 21
195.9242539727283
 31
0.0
  0
LINE
  5
15D8
330
1F
100
AcDbEntity
  8
0
  6
ByBlock
370
    40
100
AcDbLine
 10
1094.980719378123
 20
195.8832601507204
 30
0.0
 11
1094.956646102792
 21
195.9242539727273
 31
0.0
  0
LINE
  5
15D9
330
1F
100
AcDbEntity
  8
0
  6
ByBlock
370
    40
100
AcDbLine
 10
1092.381268590612
 20
194.988963745469
 30
0.0
 11
1100.822603734272
 21
193.6211124844788
 31
0.0
  0
SPLINE
  5
15DA
330
1F
100
AcDbEntity
  8
0
  6
ByBlock
370
    40
100
AcDbSpline
210
0.0
220
0.0
230
1.0
 70
  1064
 71
     3
 72
    22
 73
    18
 74
    16
 42
0.000000001
 43
0.0000000001
 44
0.00001
 40
0.0
 40
0.0
 40
0.0
 40
0.0
 40
0.2075103165520503
 40
0.4972551580076122
 40
0.8751640884411559
 40
1.614049387890119
 40
2.125368597844295
 40
2.932801057038626
 40
3.732944677992352
 40
4.60467405196276
 40
5.300008584385127
 40
6.070950566834001
 40
6.740807070147322
 40
8.032423432096647
 40
9.262045159989824
 40
9.849834946770839
 40
10.13736389622555
 40
10.13736389622555
 40
10.13736389622555
 40
10.13736389622555
 10
1092.38126859062
 20
194.988963745469
 30
0.0
 10
1092.428468582428
 20
194.9381684644879
 30
0.0
 10
1092.541561901817
 20
194.8164367118136
 30
0.0
 10
1092.784398297053
 20
194.6513014756199
 30
0.0
 10
1093.188686387281
 20
194.4151555874629
 30
0.0
 10
1093.667960282078
 20
194.1586323478839
 30
0.0
 10
1094.29559349656
 20
193.8817501731764
 30
0.0
 10
1094.952403661199
 20
193.6203095985988
 30
0.0
 10
1095.744337273524
 20
193.3816511164996
 30
0.0
 10
1096.507516902323
 20
193.1815355343429
 30
0.0
 10
1097.262368873463
 20
192.9872030385953
 30
0.0
 10
1097.958278158652
 20
192.8363776921661
 30
0.0
 10
1098.847427156478
 20
192.637684376765
 30
0.0
 10
1099.901576022352
 20
192.4892242331675
 30
0.0
 10
1100.928411139938
 20
192.3489137964531
 30
0.0
 10
1101.613720144628
 20
192.1903070981276
 30
0.0
 10
1101.904706876753
 20
192.1658596696948
 30
0.0
 10
1102.000290996199
 20
192.1578228994571
 30
0.0
 11
1092.38126859062
 21
194.988963745469
 31
0.0
 11
1092.527199962628
 21
194.8414341199037
 31
0.0
 11
1092.761194256327
 21
194.6705596759336
 31
0.0
 11
1093.085823402847
 21
194.4770891591802
 31
0.0
 11
1093.739608294704
 21
194.1328266252856
 31
0.0
 11
1094.206259477926
 21
193.9238196371747
 31
0.0
 11
1094.958497893209
 21
193.6304183227415
 31
0.0
 11
1095.722618630298
 21
193.3930392242903
 31
0.0
 11
1096.564617441832
 21
193.1673191645866
 31
0.0
 11
1097.238926344067
 21
192.99762132086
 31
0.0
 11
1097.991061882105
 21
192.8283780726835
 31
0.0
 11
1098.646235616731
 21
192.6888974624006
 31
0.0
 11
1099.922016331738
 21
192.4872709667058
 31
0.0
 11
1101.136482208721
 21
192.2948166046986
 31
0.0
 11
1101.714189377897
 21
192.1864089371216
 31
0.0
 11
1102.000290996199
 21
192.1578228994571
 31
0.0
  0
SPLINE
  5
15DB
330
1F
100
AcDbEntity
  8
0
  6
ByBlock
370
    40
100
AcDbSpline
210
0.0
220
0.0
230
1.0
 70
  1064
 71
     3
 72
    12
 73
     8
 74
     6
 42
0.000000001
 43
0.0000000001
 44
0.00001
 40
0.0
 40
0.0
 40
0.0
 40
0.0
 40
0.2211889900148382
 40
0.6746601881234806
 40
1.102820388236005
 40
1.567780251334048
 40
1.897576703361708
 40
1.897576703361708
 40
1.897576703361708
 40
1.897576703361708
 10
1102.000290996199
 20
192.1578228994571
 30
0.0
 10
1101.972441193235
 20
192.2262690017732
 30
0.0
 10
1101.887473981828
 20
192.4350302733488
 30
0.0
 10
1101.669066393943
 20
192.7344991853101
 30
0.0
 10
1101.402038463243
 20
193.0944232382453
 30
0.0
 10
1101.117470582793
 20
193.389406216792
 30
0.0
 10
1100.909082867734
 20
193.5531647711955
 30
0.0
 10
1100.822603734288
 20
193.6211124844809
 30
0.0
 11
1102.000290996199
 21
192.1578228994571
 31
0.0
 11
1101.911507933769
 21
192.3604120680782
 31
0.0
 11
1101.663985282353
 21
192.7403737229002
 31
0.0
 11
1101.402265571118
 21
193.0792345920695
 31
0.0
 11
1101.07799649495
 21
193.4124531282611
 31
0.0
 11
1100.822603734288
 21
193.6211124844809
 31
0.0
  0
LINE
  5
15DC
330
1F
100
AcDbEntity
  8
0
  6
ByBlock
370
    40
100
AcDbLine
 10
1093.937235482294
 20
186.7484032954182
 30
0.0
 11
1092.371340936467
 21
186.1460374543006
 31
0.0
  0
LINE
  5
15DD
330
1F
100
AcDbEntity
  8
0
  6
ByBlock
370
    40
100
AcDbLine
 10
1092.371340936467
 20
186.1460374543006
 30
0.0
 11
1090.347179702873
 21
191.1908714293819
 31
0.0
  0
LINE
  5
15DE
330
1F
100
AcDbEntity
  8
0
  6
ByBlock
370
    40
100
AcDbLine
 10
1090.347179702873
 20
191.1908714293819
 30
0.0
 11
1091.157800954689
 21
191.5357757452349
 31
0.0
  0
LINE
  5
15DF
330
1F
100
AcDbEntity
  8
0
  6
ByBlock
370
    40
100
AcDbLine
 10
1102.353108507837
 20
190.8293610056044
 30
0.0
 11
1100.148294832062
 21
191.1770998583941
 31
0.0
  0
SPLINE
  5
15E0
330
1F
100
AcDbEntity
  8
0
  6
ByBlock
370
    40
100
AcDbSpline
210
0.0
220
0.0
230
1.0
 70
  1064
 71
     3
 72
    26
 73
    22
 74
    20
 42
0.000000001
 43
0.0000000001
 44
0.00001
 40
0.0
 40
0.0
 40
0.0
 40
0.0
 40
0.7480799276944658
 40
1.582320017369226
 40
2.963466706054449
 40
4.243464011525259
 40
5.204349874016679
 40
6.221588961024815
 40
6.973091058375444
 40
7.588076822217093
 40
8.088874272860397
 40
8.924594010332024
 40
9.442372974859921
 40
10.10742636494754
 40
10.68256466662622
 40
11.24549849630405
 40
11.72553662877404
 40
12.17073635282436
 40
12.66717184930555
 40
13.0037490282788
 40
13.09251197449922
 40
13.09251197449922
 40
13.09251197449922
 40
13.09251197449922
 10
1091.157800954697
 20
191.5357757452349
 30
0.0
 10
1091.310775233083
 20
191.3388024013955
 30
0.0
 10
1091.634354184916
 20
190.9221784244934
 30
0.0
 10
1092.277959602309
 20
190.1725547279475
 30
0.0
 10
1093.090697808047
 20
189.3340721192501
 30
0.0
 10
1094.042874185348
 20
188.5863039716561
 30
0.0
 10
1094.974709467598
 20
188.0209076676393
 30
0.0
 10
1095.830091589862
 20
187.6976811846048
 30
0.0
 10
1096.608496392558
 20
187.5203289394102
 30
0.0
 10
1097.231143615405
 20
187.4919811128846
 30
0.0
 10
1097.884005557725
 20
187.4858128210744
 30
0.0
 10
1098.487371833146
 20
187.673018995556
 30
0.0
 10
1099.077238953289
 20
187.9988978181725
 30
0.0
 10
1099.533415450065
 20
188.3746153145634
 30
0.0
 10
1099.914219739142
 20
188.8443605702537
 30
0.0
 10
1100.158733244754
 20
189.3308580115485
 30
0.0
 10
1100.277690161895
 20
189.815770647416
 30
0.0
 10
1100.314797170735
 20
190.2890836605584
 30
0.0
 10
1100.287270226875
 20
190.7181112185889
 30
0.0
 10
1100.199473673961
 20
191.0135949397633
 30
0.0
 10
1100.157134126372
 20
191.1488706894993
 30
0.0
 10
1100.148294832062
 20
191.1770998583972
 30
0.0
 11
1091.157800954697
 21
191.5357757452349
 31
0.0
 11
1091.621211504709
 21
190.9485185208346
 31
0.0
 11
1092.163991849222
 21
190.3149995142599
 31
0.0
 11
1093.135976059789
 21
189.3337683958166
 31
0.0
 11
1094.14365867436
 21
188.5444835619963
 31
0.0
 11
1094.971357548837
 21
188.0564083896553
 31
0.0
 11
1095.921068835863
 21
187.6919564652688
 31
0.0
 11
1096.655920996742
 21
187.5346396649787
 31
0.0
 11
1097.269583763055
 21
187.4943143658422
 31
0.0
 11
1097.770235875753
 21
187.5064012592207
 31
0.0
 11
1098.573707159036
 21
187.7363196425055
 31
0.0
 11
1099.026778545924
 21
187.9869622345735
 31
0.0
 11
1099.539518734901
 21
188.4105115801038
 31
0.0
 11
1099.89933189921
 21
188.8591973853185
 31
0.0
 11
1100.149632236253
 21
189.363424070047
 31
0.0
 11
1100.2670666114
 21
189.8288764286815
 31
0.0
 11
1100.303433717492
 21
190.2725884237878
 31
0.0
 11
1100.262025626391
 21
190.7672953429386
 31
0.0
 11
1100.174734284017
 21
191.0923579001918
 31
0.0
 11
1100.148294832062
 21
191.1770998583972
 31
0.0
  0
SPLINE
  5
15E1
330
1F
100
AcDbEntity
  8
0
  6
ByBlock
370
    40
100
AcDbSpline
210
0.0
220
0.0
230
1.0
 70
  1064
 71
     3
 72
    27
 73
    23
 74
    21
 42
0.000000001
 43
0.0000000001
 44
0.00001
 40
0.0
 40
0.0
 40
0.0
 40
0.0
 40
0.3426552088281344
 40
0.9748536204309658
 40
1.645262506298515
 40
2.361890981691758
 40
2.90241656322372
 40
3.632024228640155
 40
4.435763784807966
 40
5.249461697148908
 40
5.976522539434605
 40
6.850936300085218
 40
7.316691014442949
 40
7.884265172324614
 40
8.293864855048539
 40
9.384351158962603
 40
10.07572629581976
 40
10.52477301480086
 40
10.72903632560896
 40
10.96848997817478
 40
11.12155861014384
 40
11.25872081903803
 40
11.25872081903803
 40
11.25872081903803
 40
11.25872081903803
 10
1102.353108507846
 20
190.8293610056064
 30
0.0
 10
1102.356856517782
 20
190.7152173493805
 30
0.0
 10
1102.367506910431
 20
190.390478481609
 30
0.0
 10
1102.351367172533
 20
189.8408779560477
 30
0.0
 10
1102.220004400805
 20
189.1765903935232
 30
0.0
 10
1101.971323455474
 20
188.5794522225887
 30
0.0
 10
1101.614383692782
 20
188.0179217500448
 30
0.0
 10
1101.129962116944
 20
187.5195563289707
 30
0.0
 10
1100.522306168704
 20
187.023202974216
 30
0.0
 10
1099.83404287217
 20
186.6434288613467
 30
0.0
 10
1099.078984508854
 20
186.3606858348985
 30
0.0
 10
1098.402913426814
 20
186.2048089180956
 30
0.0
 10
1097.767576558737
 20
186.1676232699069
 30
0.0
 10
1097.285802451645
 20
186.1580492045076
 30
0.0
 10
1096.599674311675
 20
186.2359680833647
 30
0.0
 10
1095.888587377892
 20
186.4112293052544
 30
0.0
 10
1095.173490343827
 20
186.6147336439507
 30
0.0
 10
1094.741059933768
 20
186.7315987523112
 30
0.0
 10
1094.451055505393
 20
186.8013169336074
 30
0.0
 10
1094.250590803128
 20
186.807425614386
 30
0.0
 10
1094.074767239353
 20
186.7861930994593
 30
0.0
 10
1093.981374367064
 20
186.7605264671864
 30
0.0
 10
1093.937235482302
 20
186.7484032954202
 30
0.0
 11
1102.353108507846
 21
190.8293610056064
 31
0.0
 11
1102.36185307367
 21
190.4868098902382
 31
0.0
 11
1102.334796358245
 21
189.8551894886012
 31
0.0
 11
1102.202290466693
 21
189.1980047726507
 31
0.0
 11
1101.927916854326
 21
188.5359799511719
 31
0.0
 11
1101.635951233098
 21
188.0810902537824
 31
0.0
 11
1101.138488315
 21
187.5473683403084
 31
0.0
 11
1100.511039997854
 21
187.0450670014243
 31
0.0
 11
1099.80041542817
 21
186.6486864250748
 31
0.0
 11
1099.120293961594
 21
186.391679495346
 31
0.0
 11
1098.265847003434
 21
186.2058836210577
 31
0.0
 11
1097.801304803737
 21
186.1722970323871
 31
0.0
 11
1097.233731043171
 21
186.1716017686079
 31
0.0
 11
1096.826440030313
 21
186.2150290138312
 31
0.0
 11
1095.761711983376
 21
186.4506432119219
 31
0.0
 11
1095.095376067657
 21
186.6350218177388
 31
0.0
 11
1094.661336971093
 21
186.7501414548688
 31
0.0
 11
1094.46144648409
 21
186.7921781725368
 31
0.0
 11
1094.222154012284
 21
186.8009491925103
 31
0.0
 11
1094.07030719869
 21
186.7816422522058
 31
0.0
 11
1093.937235482302
 21
186.7484032954202
 31
0.0
  0
CIRCLE
  5
15E2
330
1F
100
AcDbEntity
  8
0
  6
ByBlock
370
    40
100
AcDbCircle
 10
1105.17379681068
 20
202.7202568484034
 30
0.0
 40
2.745940326411228
  0
CIRCLE
  5
15E3
330
1F
100
AcDbEntity
  8
0
  6
ByBlock
370
    40
100
AcDbCircle
 10
1105.17379681068
 20
202.7202568484034
 30
0.0
 40
2.423290326411228
  0
LINE
  5
15E4
330
1F
100
AcDbEntity
  8
0
  6
ByBlock
370
    40
100
AcDbLine
 10
1105.327384821633
 20
204.0888521753378
 30
0.0
 11
1104.080990991672
 21
204.0888521753378
 31
0.0
  0
LINE
  5
15E5
330
1F
100
AcDbEntity
  8
0
  6
ByBlock
370
    40
100
AcDbLine
 10
1104.080990991672
 20
204.0888521753378
 30
0.0
 11
1104.080990991672
 21
201.4252311255691
 31
0.0
  0
LINE
  5
15E6
330
1F
100
AcDbEntity
  8
0
  6
ByBlock
370
    40
100
AcDbLine
 10
1104.080990991672
 20
201.4252311255691
 30
0.0
 11
1104.656787216035
 21
201.4252311255691
 31
0.0
  0
LINE
  5
15E7
330
1F
100
AcDbEntity
  8
0
  6
ByBlock
370
    40
100
AcDbLine
 10
1104.656787216035
 20
201.4252311255691
 30
0.0
 11
1104.656787216035
 21
202.5315950166013
 31
0.0
  0
LINE
  5
15E8
330
1F
100
AcDbEntity
  8
0
  6
ByBlock
370
    40
100
AcDbLine
 10
1105.379867648164
 20
202.9858924027279
 30
0.0
 11
1104.657227016246
 21
202.9858924027279
 31
0.0
  0
LINE
  5
15E9
330
1F
100
AcDbEntity
  8
0
  6
ByBlock
370
    40
100
AcDbLine
 10
1104.657227016246
 20
202.9858924027279
 30
0.0
 11
1104.657227016246
 21
203.6091509203899
 31
0.0
  0
LINE
  5
15EA
330
1F
100
AcDbEntity
  8
0
  6
ByBlock
370
    40
100
AcDbLine
 10
1104.657227016246
 20
203.6091509203899
 30
0.0
 11
1105.301827542051
 21
203.6091509203899
 31
0.0
  0
SPLINE
  5
15EB
330
1F
100
AcDbEntity
  8
0
  6
ByBlock
370
    40
100
AcDbSpline
210
0.0
220
0.0
230
1.0
 70
  1064
 71
     3
 72
    16
 73
    12
 74
    10
 42
0.000000001
 43
0.0000000001
 44
0.00001
 40
0.0
 40
0.0
 40
0.0
 40
0.0
 40
0.0900963237235184
 40
0.1836816479793935
 40
0.3488619939453952
 40
0.4581611124621882
 40
0.6022359209448842
 40
0.7470786151793179
 40
0.9047786259080517
 40
0.9670210397165085
 40
1.03944784459112
 40
1.03944784459112
 40
1.03944784459112
 40
1.03944784459112
 10
1105.301827542059
 20
203.6091509203899
 30
0.0
 10
1105.331847196118
 20
203.6085207911568
 30
0.0
 10
1105.393048412822
 20
203.6072227415267
 30
0.0
 10
1105.508885718306
 20
203.5882298901998
 30
0.0
 10
1105.61470665593
 20
203.5103951116748
 30
0.0
 10
1105.676886857156
 20
203.3829869848677
 30
0.0
 10
1105.69245836937
 20
203.2480039509552
 30
0.0
 10
1105.643280211034
 20
203.0991156616864
 30
0.0
 10
1105.540233164973
 20
203.0245867997265
 30
0.0
 10
1105.449798571997
 20
202.9854495661862
 30
0.0
 10
1105.404324696786
 20
202.9857340676733
 30
0.0
 10
1105.379867648172
 20
202.9858924027289
 30
0.0
 11
1105.301827542059
 21
203.6091509203899
 31
0.0
 11
1105.391839987558
 21
203.6051625129862
 31
0.0
 11
1105.483611633935
 21
203.586820919695
 31
0.0
 11
1105.61696883467
 21
203.4893462750294
 31
0.0
 11
1105.666568526409
 21
203.3919478419722
 31
0.0
 11
1105.681717200722
 21
203.2486700218191
 31
0.0
 11
1105.632752775978
 21
203.1123528617223
 31
0.0
 11
1105.510243980731
 21
203.0130491385028
 31
0.0
 11
1105.452141484693
 21
202.9907191378078
 31
0.0
 11
1105.379867648172
 21
202.9858924027289
 31
0.0
  0
SPLINE
  5
15EC
330
1F
100
AcDbEntity
  8
0
  6
ByBlock
370
    40
100
AcDbSpline
210
0.0
220
0.0
230
1.0
 70
  1064
 71
     3
 72
    16
 73
    12
 74
    10
 42
0.000000001
 43
0.0000000001
 44
0.00001
 40
0.0
 40
0.0
 40
0.0
 40
0.0
 40
0.3315786667630525
 40
0.6726263571622431
 40
1.038518582653849
 40
1.46321471945732
 40
1.704287704316499
 40
1.996543598393336
 40
2.256788079949686
 40
2.407663594222866
 40
2.466162681403453
 40
2.466162681403453
 40
2.466162681403453
 40
2.466162681403453
 10
1105.327384821641
 20
204.0888521753398
 30
0.0
 10
1105.437776780589
 20
204.0845612047383
 30
0.0
 10
1105.661712038166
 20
204.0758430615554
 30
0.0
 10
1106.003052630345
 20
203.9729508676193
 30
0.0
 10
1106.263487493817
 20
203.6595737848791
 30
0.0
 10
1106.268858222763
 20
203.3028254186633
 30
0.0
 10
1106.230317223444
 20
202.9808390399312
 30
0.0
 10
1106.051847031203
 20
202.7660403870072
 30
0.0
 10
1105.844492108644
 20
202.6498889045404
 30
0.0
 10
1105.689414323761
 20
202.6161069798039
 30
0.0
 10
1105.619574319855
 20
202.6159701945386
 30
0.0
 10
1105.600060959463
 20
202.6159358610916
 30
0.0
 11
1105.327384821641
 21
204.0888521753398
 31
0.0
 11
1105.657870255341
 21
204.0618986705227
 31
0.0
 11
1105.978680084152
 21
203.9461586441702
 31
0.0
 11
1106.211871935352
 21
203.6642011041279
 31
0.0
 11
1106.257513425076
 21
203.2419634004473
 31
0.0
 11
1106.212262868879
 21
203.005173939166
 31
0.0
 11
1106.033850578698
 21
202.7736938864662
 31
0.0
 11
1105.80642499709
 21
202.647182619741
 31
0.0
 11
1105.658554389012
 21
202.6172060545284
 31
0.0
 11
1105.600060959463
 21
202.6159358610916
 31
0.0
  0
SPLINE
  5
15ED
330
1F
100
AcDbEntity
  8
0
  6
ByBlock
370
    40
100
AcDbSpline
210
0.0
220
0.0
230
1.0
 70
  1064
 71
     3
 72
    12
 73
     8
 74
     6
 42
0.000000001
 43
0.0000000001
 44
0.00001
 40
0.0
 40
0.0
 40
0.0
 40
0.0
 40
0.1071226500922838
 40
0.3413672934937041
 40
0.6735649150059564
 40
1.219233723216798
 40
1.492718190603463
 40
1.492718190603463
 40
1.492718190603463
 40
1.492718190603463
 10
1105.600060959463
 20
202.6159358610916
 30
0.0
 10
1105.629352064529
 20
202.5955193686475
 30
0.0
 10
1105.722682514285
 20
202.5304421627386
 30
0.0
 10
1105.890941737294
 20
202.3792148721389
 30
0.0
 10
1106.103109685792
 20
202.0730937411176
 30
0.0
 10
1106.30896340344
 20
201.7496120643733
 30
0.0
 10
1106.442135316065
 20
201.5111443814375
 30
0.0
 10
1106.486600474211
 20
201.4315312850406
 30
0.0
 11
1105.600060959463
 21
202.6159358610916
 31
0.0
 11
1105.687141403478
 21
202.5535439592634
 31
0.0
 11
1105.860764757898
 21
202.3962940112619
 31
0.0
 11
1106.060873859039
 21
202.1311284285037
 31
0.0
 11
1106.351728406033
 21
201.669438516547
 31
0.0
 11
1106.486600474211
 21
201.4315312850406
 31
0.0
  0
SPLINE
  5
15EE
330
1F
100
AcDbEntity
  8
0
  6
ByBlock
370
    40
100
AcDbSpline
210
0.0
220
0.0
230
1.0
 70
  1064
 71
     3
 72
    16
 73
    12
 74
    10
 42
0.000000001
 43
0.0000000001
 44
0.00001
 40
0.0
 40
0.0
 40
0.0
 40
0.0
 40
0.3075410105622611
 40
0.6775446252128728
 40
0.8882038146366074
 40
1.083635689078482
 40
1.230821374974179
 40
1.388280383817517
 40
1.502035859081111
 40
1.614134196205081
 40
1.688848012272803
 40
1.688848012272803
 40
1.688848012272803
 40
1.688848012272803
 10
1105.799485926916
 20
201.4315312850406
 30
0.0
 10
1105.744518843022
 20
201.518094893962
 30
0.0
 10
1105.623429930828
 20
201.7088095190355
 30
0.0
 10
1105.450199657356
 20
201.9489078991867
 30
0.0
 10
1105.316967377767
 20
202.1715600948835
 30
0.0
 10
1105.203075442061
 20
202.3156019311258
 30
0.0
 10
1105.104492730996
 20
202.453757340248
 30
0.0
 10
1104.971012428981
 20
202.5126217535369
 30
0.0
 10
1104.844206707449
 20
202.5281504962124
 30
0.0
 10
1104.743952238157
 20
202.5314791806871
 30
0.0
 10
1104.681688903427
 20
202.5315663073781
 30
0.0
 10
1104.656787216043
 20
202.5315950166013
 30
0.0
 11
1105.799485926916
 21
201.4315312850406
 31
0.0
 11
1105.632312975767
 21
201.689659996129
 31
0.0
 11
1105.424629537458
 21
201.9958782308991
 31
0.0
 11
1105.310623546502
 21
202.1730194081908
 31
0.0
 11
1105.194125354282
 21
202.3299391058964
 31
0.0
 11
1105.097857972296
 21
202.4412842629458
 31
0.0
 11
1104.955997967269
 21
202.5096206700697
 31
0.0
 11
1104.843506843747
 21
202.5265396467053
 31
0.0
 11
1104.731504387145
 21
202.531188554698
 31
0.0
 11
1104.656787216043
 21
202.5315950166013
 31
0.0
  0
LINE
  5
15EF
330
1F
100
AcDbEntity
  8
0
  6
ByBlock
370
    40
100
AcDbLine
 10
1105.799485926916
 20
201.4315312850376
 30
0.0
 11
1106.486600474194
 21
201.4315312850376
 31
0.0
  0
LINE
  5
15F0
330
1F
100
AcDbEntity
  8
0
  6
ByBlock
370
    -3
100
AcDbLine
 10
1012.412236442426
 20
220.4213263102839
 30
0.0
 11
1238.298710658705
 21
220.4213263102839
 31
0.0
  0
LINE
  5
15F1
330
1F
100
AcDbEntity
  8
0
  6
ByBlock
370
    -3
100
AcDbLine
 10
1124.070099977605
 20
220.4213263102839
 30
0.0
 11
1124.070099977605
 21
176.8762949063281
 31
0.0
  0
MTEXT
  5
15F2
330
1F
100
AcDbEntity
  8
0
  6
ByBlock
370
    -3
100
AcDbMText
 10
1137.425198097591
 20
202.8633238597685
 30
0.0
 40
11.25
 41
143.2278001120339
 46
0.0
 71
     1
 72
     5
  1
KGU - 434B
 73
     1
 44
1.0
1001
ACAD
1000
ACAD_MTEXT_COLUMN_INFO_BEGIN
1070
    75
1070
     2
1070
    79
1070
     0
1070
    76
1070
     1
1070
    78
1070
     0
1070
    48
1040
143.2278001120339
1070
    49
1040
12.5
1070
    50
1070
     1
1040
0.0
1000
ACAD_MTEXT_COLUMN_INFO_END
  0
LINE
  5
15F3
330
1F
100
AcDbEntity
  8
0
  6
ByBlock
370
    -3
100
AcDbLine
 10
1012.412236442426
 20
176.8762949063284
 30
0.0
 11
1238.298710658706
 21
176.8762949063284
 31
0.0
  0
LINE
  5
15F4
330
1F
100
AcDbEntity
  8
0
  6
ByBlock
370
    -3
100
AcDbLine
 10
1012.412236442426
 20
120.3446582097404
 30
0.0
 11
1238.298710658705
 21
120.3446582097404
 31
0.0
  0
MTEXT
  5
15F5
330
1F
100
AcDbEntity
  8
0
  6
ByBlock
370
    -3
100
AcDbMText
 10
1026.335981693268
 20
167.6277331836101
 30
0.0
 40
9.0
 41
199.2119428466885
 46
0.0
 71
     1
 72
     5
  1
33 inch Undermount 50/50 Double Bowl Black Onyx Granite Kitchen Sink
 73
     1
 44
1.0
1001
ACAD
1000
ACAD_MTEXT_COLUMN_INFO_BEGIN
1070
    75
1070
     2
1070
    79
1070
     0
1070
    76
1070
     1
1070
    78
1070
     0
1070
    48
1040
199.2119428466885
1070
    49
1040
12.5
1070
    50
1070
     1
1040
0.0
1000
ACAD_MTEXT_COLUMN_INFO_END
  0
MTEXT
  5
15F6
330
1F
100
AcDbEntity
  8
0
  6
ByBlock
370
    -3
100
AcDbMText
 10
1027.319333385053
 20
109.0801398692401
 30
0.0
 40
9.75
 41
266.9781062566162
 46
0.0
 71
     1
 72
     5
  1
www.kraususa.com
 73
     1
 44
1.0
1001
ACAD
1000
ACAD_MTEXT_COLUMN_INFO_BEGIN
1070
    75
1070
     2
1070
    79
1070
     0
1070
    76
1070
     1
1070
    78
1070
     0
1070
    48
1040
266.9781062566162
1070
    49
1040
12.5
1070
    50
1070
     1
1040
0.0
1000
ACAD_MTEXT_COLUMN_INFO_END
  0
LINE
  5
160C
330
1F
100
AcDbEntity
  8
0
  6
ByBlock
370
    -3
100
AcDbLine
 10
1012.412236442426
 20
89.68786964055615
 30
0.0
 11
1238.298710658705
 21
89.68786964055615
 31
0.0
  0
LINE
  5
160D
330
1F
100
AcDbEntity
  8
0
  6
ByBlock
370
    -3
100
AcDbLine
 10
1012.412236442426
 20
220.4213263102839
 30
0.0
 11
1012.412236442426
 21
89.68786964055615
 31
0.0
  0
LINE
  5
160E
330
1F
100
AcDbEntity
  8
0
  6
ByBlock
370
    -3
100
AcDbLine
 10
1238.298710658705
 20
220.4213263102839
 30
0.0
 11
1238.298710658705
 21
89.68786964055615
 31
0.0
  0
LWPOLYLINE
  5
1D12
102
{ACAD_REACTORS
330
1D7A
330
1D96
330
1DB6
102
}
330
1F
100
AcDbEntity
  8
0
  6
ByBlock
370
    -3
100
AcDbPolyline
 90
        8
 70
     1
 43
0.0
 10
193.0075078273007
 20
87.77538371087519
 10
925.0075078273008
 20
87.77538371087519
 42
0.4142135623730951
 10
940.0075078273006
 20
102.7753837108752
 10
940.0075078273006
 20
494.9753837108752
 42
0.4142135623730951
 10
925.0075078273008
 20
509.9753837108752
 10
193.0075078273007
 20
509.9753837108752
 42
0.4142135623730951
 10
178.0075078273007
 20
494.9753837108752
 10
178.0075078273007
 20
102.7753837108752
 42
0.4142135623730951
  0
DIMENSION
  5
1D61
102
{ACAD_XDICTIONARY
360
1D6F
102
}
102
{ACAD_REACTORS
330
1D7A
102
}
330
1F
100
AcDbEntity
  8
dimensions
  6
ByBlock
370
    -3
100
AcDbDimension
280
     0
  2
*D6
 10
940.0075078273006
 20
562.3520221921289
 30
0.0
 11
559.0075078273007
 21
562.3520221921289
 31
0.0
 70
    32
 71
     5
 42
762.0
 73
     0
 74
     0
 75
     0
  3
dimensions
100
AcDbAlignedDimension
 13
178.0075078273007
 23
494.9753837108752
 33
0.0
 14
940.0075078273006
 24
494.9753837108752
 34
0.0
100
AcDbRotatedDimension
  0
DIMENSION
  5
1D7B
102
{ACAD_XDICTIONARY
360
1D8A
102
}
102
{ACAD_REACTORS
330
1D96
102
}
330
1F
100
AcDbEntity
  8
dimensions
  6
ByBlock
370
    -3
100
AcDbDimension
280
     0
  2
*D7
 10
110.4218663517394
 20
87.77538371087521
 30
0.0
 11
110.4218663517394
 21
298.8753837108753
 31
0.0
 70
    32
 71
     5
 42
422.2
 73
     0
 74
     0
 75
     0
  3
dimensions
100
AcDbAlignedDimension
 13
193.0075078273007
 23
509.9753837108752
 33
0.0
 14
193.0075078273007
 24
87.77538371087519
 34
0.0
 50
90.0
100
AcDbRotatedDimension
  0
DIMENSION
  5
1DA3
102
{ACAD_XDICTIONARY
360
1DAE
102
}
102
{ACAD_REACTORS
330
1DB6
102
}
330
1F
100
AcDbEntity
  8
dimensions
  6
ByBlock
370
    -3
100
AcDbDimension
280
     0
  2
*D8
 10
925.0075078273017
 20
494.975383710876
 30
0.0
 11
1007.973091102562
 21
538.6876939731316
 31
0.0
 70
   164
 71
     5
 42
14.99999999999863
 73
     0
 74
     0
 75
     0
  3
dimensions
100
AcDbRadialDimension
 15
936.4326947841934
 25
504.6946996847516
 35
0.0
 40
0.0
1001
ACAD
1000
DSTYLE
1002
{
1070
   288
1070
     1
1002
}
1001
ACAD_DSTYLE_DIMRADIAL_EXTENSION
1070
   387
1070
     1
1070
   388
1040
0.0
1070
   390
1040
1.570796326794896
  0
ENDSEC
  0
SECTION
  2
OBJECTS
  0
DICTIONARY
  5
C
330
0
100
AcDbDictionary
281
     1
  3
ACAD_CIP_PREVIOUS_PRODUCT_INFO
350
216
  3
ACAD_COLOR
350
6B
  3
ACAD_DETAILVIEWSTYLE
350
21B
  3
ACAD_GROUP
350
D
  3
ACAD_LAYOUT
350
1A
  3
ACAD_MATERIAL
350
6A
  3
ACAD_MLEADERSTYLE
350
12D
  3
ACAD_MLINESTYLE
350
17
  3
ACAD_PLOTSETTINGS
350
19
  3
ACAD_PLOTSTYLENAME
350
E
  3
ACAD_SCALELIST
350
10C
  3
ACAD_SECTIONVIEWSTYLE
350
219
  3
ACAD_TABLESTYLE
350
7E
  3
ACAD_VISUALSTYLE
350
EF
  3
ACDB_RECOMPOSE_DATA
350
1E66
  3
AcDbVariableDictionary
350
5E
  3
AcDsDecomposeData
350
1E6C
  3
AEC_PROPERTY_SET_DEFS
350
E4C
  0
DICTIONARY
  5
1FF
330
2
100
AcDbDictionary
280
     1
281
     1
  3
ACAD_LAYERSTATES
360
200
  0
DICTIONARY
  5
13C
330
10
100
AcDbDictionary
280
     1
281
     1
  0
DICTIONARY
  5
1CE
330
1F
100
AcDbDictionary
280
     1
281
     1
  3
ACAD_SORTENTS
360
162C
  0
DICTIONARY
  5
1D6F
330
1D61
100
AcDbDictionary
280
     1
281
     1
  3
ACAD_DIMASSOC
360
1D7A
  0
DICTIONARY
  5
1D8A
330
1D7B
100
AcDbDictionary
280
     1
281
     1
  3
ACAD_DIMASSOC
360
1D96
  0
DICTIONARY
  5
1DAE
330
1DA3
100
AcDbDictionary
280
     1
281
     1
  3
ACAD_DIMASSOC
360
1DB6
  0
XRECORD
  5
216
102
{ACAD_REACTORS
330
C
102
}
330
C
100
AcDbXrecord
280
     1
300
ACD
300
2014
300
ACD_F_S
  0
DICTIONARY
  5
6B
102
{ACAD_REACTORS
330
C
102
}
330
C
100
AcDbDictionary
281
     1
  0
DICTIONARY
  5
21B
102
{ACAD_REACTORS
330
C
102
}
330
C
100
AcDbDictionary
281
     1
  3
Imperial24
350
73D
  3
Metric50
350
21C
  0
DICTIONARY
  5
D
102
{ACAD_REACTORS
330
C
102
}
330
C
100
AcDbDictionary
281
     1
  0
DICTIONARY
  5
1A
102
{ACAD_REACTORS
330
C
102
}
330
C
100
AcDbDictionary
281
     1
  3
Model
350
22
  3
布局1
350
D3
  3
布局2
350
D7
  0
DICTIONARY
  5
6A
102
{ACAD_REACTORS
330
C
102
}
330
C
100
AcDbDictionary
281
     1
  3
ByBlock
350
ED
  3
ByLayer
350
EC
  3
Global
350
EE
  0
DICTIONARY
  5
12D
102
{ACAD_REACTORS
330
C
102
}
330
C
100
AcDbDictionary
281
     1
  3
Annotative
350
13B
  3
leader
350
2D9
  3
Standard
350
12E
  0
DICTIONARY
  5
17
102
{ACAD_REACTORS
330
C
102
}
330
C
100
AcDbDictionary
281
     1
  3
Standard
350
18
  0
DICTIONARY
  5
19
102
{ACAD_REACTORS
330
C
102
}
330
C
100
AcDbDictionary
281
     1
  0
ACDBDICTIONARYWDFLT
  5
E
102
{ACAD_REACTORS
330
C
102
}
330
C
100
AcDbDictionary
281
     1
  3
Normal
350
F
100
AcDbDictionaryWithDefault
340
F
  0
DICTIONARY
  5
10C
102
{ACAD_REACTORS
330
C
102
}
330
C
100
AcDbDictionary
281
     1
  3
A0
350
10D
  3
A1
350
1BE
  3
A2
350
1BF
  3
A3
350
1C0
  3
A4
350
1C1
  3
A5
350
1C2
  3
A6
350
1C3
  3
A7
350
1C4
  3
A8
350
1C5
  3
A9
350
1C6
  3
B0
350
1C7
  3
B1
350
1C8
  3
B2
350
1C9
  3
B3
350
1CA
  3
B4
350
1CB
  3
B5
350
1CC
  3
B6
350
1CD
  0
DICTIONARY
  5
219
102
{ACAD_REACTORS
330
C
102
}
330
C
100
AcDbDictionary
281
     1
  3
Imperial24
350
73C
  3
Metric50
350
21A
  0
DICTIONARY
  5
7E
102
{ACAD_REACTORS
330
C
102
}
330
C
100
AcDbDictionary
281
     1
  3
Standard
350
7F
  0
DICTIONARY
  5
EF
102
{ACAD_REACTORS
330
C
102
}
330
C
100
AcDbDictionary
281
     1
  3
2dWireframe
350
F5
  3
3dWireframe
350
73B
  3
Basic
350
F4
  3
Brighten
350
FB
  3
ColorChange
350
FF
  3
Conceptual
350
F8
  3
Dim
350
FA
  3
EdgeColorOff
350
1E6
  3
Facepattern
350
FE
  3
Flat
350
F0
  3
FlatWithEdges
350
F1
  3
Gouraud
350
F2
  3
GouraudWithEdges
350
F3
  3
Hidden
350
F7
  3
JitterOff
350
1E4
  3
Linepattern
350
FD
  3
OverhangOff
350
1E5
  3
Realistic
350
F9
  3
Shaded
350
1F3
  3
Shaded with edges
350
1F2
  3
Shades of Gray
350
1EF
  3
Sketchy
350
1F0
  3
Thicken
350
FC
  3
Wireframe
350
F6
  3
X-Ray
350
1F1
  0
XRECORD
  5
1E66
102
{ACAD_REACTORS
330
C
102
}
330
C
100
AcDbXrecord
280
     1
 90
        1
330
7F
330
6FD
330
15F2
330
15F5
330
15F6
  0
DICTIONARY
  5
5E
102
{ACAD_REACTORS
330
C
102
}
330
C
100
AcDbDictionary
281
     1
  3
CANNOSCALE
350
146
  3
CMLEADERSTYLE
350
145
  3
CTABLESTYLE
350
84
  3
CVIEWDETAILSTYLE
350
227
  3
CVIEWSECTIONSTYLE
350
228
  3
DIMASSOC
350
5F
  3
HIDETEXT
350
63
  3
LAYEREVAL
350
1AE
  3
LAYERNOTIFY
350
1AF
  0
DICTIONARY
  5
1E6C
102
{ACAD_REACTORS
330
C
102
}
330
C
100
AcDbDictionary
281
     1
  3
AcDsRecords
350
1E6E
  3
AcDsSchemas
350
1E6D
1001
ACAD
1070
     2
  0
DICTIONARY
  5
E4C
102
{ACAD_REACTORS
330
C
102
}
330
C
100
AcDbDictionary
281
     1
  0
DICTIONARY
  5
200
102
{ACAD_REACTORS
330
1FF
102
}
330
1FF
100
AcDbDictionary
281
     1
  0
SORTENTSTABLE
  5
162C
102
{ACAD_REACTORS
330
1CE
102
}
330
1CE
100
AcDbSortentsTable
330
1F
331
15B7
  5
15B7
331
15F6
  5
160C
331
15B3
  5
15B3
331
157C
  5
157C
331
15F2
  5
15F3
331
15AF
  5
15AF
331
1578
  5
1578
331
15EE
  5
15EE
331
15AB
  5
15AB
331
1574
  5
1574
331
6FD
  5
6FD
331
15EA
  5
15EA
331
1570
  5
1570
331
15A7
  5
15A7
331
15E6
  5
15E6
331
15A3
  5
15A3
331
156C
  5
156C
331
15E2
  5
15E2
331
159F
  5
159F
331
1568
  5
1568
331
15DE
  5
15DE
331
159B
  5
159B
331
1564
  5
1564
331
15DA
  5
15DA
331
1560
  5
1560
331
15D6
  5
15D6
331
15D2
  5
15D2
331
155C
  5
155C
331
15CE
  5
15CE
331
1558
  5
1558
331
1597
  5
1597
331
15CA
  5
15CA
331
1593
  5
1593
331
15C6
  5
15C6
331
158F
  5
158F
331
15C2
  5
15C2
331
158B
  5
158B
331
1587
  5
1587
331
15BE
  5
15BE
331
160D
  5
160E
331
1583
  5
1583
331
15BA
  5
15BA
331
2CB
  5
2CB
331
157F
  5
157F
331
15B6
  5
15B6
331
15F5
  5
15F6
331
157B
  5
157B
331
15B2
  5
15B2
331
15F1
  5
15F1
331
1577
  5
1577
331
15AE
  5
15AE
331
15ED
  5
15ED
331
6FC
  5
6FC
331
1573
  5
1573
331
15AA
  5
15AA
331
15E9
  5
15E9
331
156F
  5
156F
331
15A6
  5
15A6
331
15E5
  5
15E5
331
156B
  5
156B
331
15A2
  5
15A2
331
15E1
  5
15E1
331
1567
  5
1567
331
159E
  5
159E
331
15DD
  5
15DD
331
1563
  5
1563
331
159A
  5
159A
331
15D9
  5
15D9
331
155F
  5
155F
331
15D5
  5
15D5
331
155B
  5
155B
331
15D1
  5
15D1
331
15CD
  5
15CD
331
1596
  5
1596
331
15C9
  5
15C9
331
1592
  5
1592
331
15C5
  5
15C5
331
158E
  5
158E
331
15C1
  5
15C1
331
158A
  5
158A
331
1586
  5
1586
331
15BD
  5
15BD
331
160C
  5
160D
331
1582
  5
1582
331
15B9
  5
15B9
331
157E
  5
157E
331
15B5
  5
15B5
331
15F4
  5
15F5
331
157A
  5
157A
331
15B1
  5
15B1
331
15F0
  5
15F0
331
1576
  5
1576
331
15AD
  5
15AD
331
15EC
  5
15EC
331
1572
  5
1572
331
15A9
  5
15A9
331
15E8
  5
15E8
331
156E
  5
156E
331
15A5
  5
15A5
331
15E4
  5
15E4
331
156A
  5
156A
331
15A1
  5
15A1
331
15E0
  5
15E0
331
1566
  5
1566
331
159D
  5
159D
331
15DC
  5
15DC
331
1562
  5
1562
331
1599
  5
1599
331
15D8
  5
15D8
331
155E
  5
155E
331
15D4
  5
15D4
331
155A
  5
155A
331
15D0
  5
15D0
331
15CC
  5
15CC
331
1595
  5
1595
331
15C8
  5
15C8
331
1591
  5
1591
331
15C4
  5
15C4
331
158D
  5
158D
331
15C0
  5
15C0
331
1589
  5
1589
331
15BC
  5
15BC
331
1585
  5
1585
331
15B8
  5
15B8
331
1581
  5
1581
331
15B4
  5
15B4
331
157D
  5
157D
331
15F3
  5
15F4
331
15B0
  5
15B0
331
1579
  5
1579
331
15EF
  5
15EF
331
15AC
  5
15AC
331
1575
  5
1575
331
15EB
  5
15EB
331
15A8
  5
15A8
331
1571
  5
1571
331
15E7
  5
15E7
331
15A4
  5
15A4
331
156D
  5
156D
331
15E3
  5
15E3
331
15A0
  5
15A0
331
1569
  5
1569
331
15DF
  5
15DF
331
159C
  5
159C
331
1565
  5
1565
331
15DB
  5
15DB
331
1598
  5
1598
331
1561
  5
1561
331
15D7
  5
15D7
331
155D
  5
155D
331
15D3
  5
15D3
331
1559
  5
1559
331
15CF
  5
15CF
331
15CB
  5
15CB
331
1594
  5
1594
331
1590
  5
1590
331
15C7
  5
15C7
331
15C3
  5
15C3
331
158C
  5
158C
331
15BF
  5
15BF
331
1588
  5
1588
331
160E
  5
162B
331
15BB
  5
15BB
331
1584
  5
1584
331
1580
  5
1580
331
2CC
  5
2CC
  0
DIMASSOC
  5
1D7A
102
{ACAD_REACTORS
330
1D6F
102
}
330
1D6F
100
AcDbDimAssoc
330
1D61
 90
        3
 70
     0
 71
     0
  1
AcDbOsnapPointRef
 72
     1
331
1D12
 73
     2
 91
        6
 40
3.141592653589793
 10
0.0
 20
0.0
 30
2.000000000000000E+50
 75
     0
  1
AcDbOsnapPointRef
 72
     1
331
1D12
 73
     2
 91
        3
 40
1.0
 10
0.0
 20
0.0
 30
2.000000000000000E+50
 75
     0
  0
DIMASSOC
  5
1D96
102
{ACAD_REACTORS
330
1D8A
102
}
330
1D8A
100
AcDbDimAssoc
330
1D7B
 90
        3
 70
     0
 71
     0
  1
AcDbOsnapPointRef
 72
     1
331
1D12
 73
     2
 91
        5
 40
1.0
 10
0.0
 20
0.0
 30
2.000000000000000E+50
 75
     0
  1
AcDbOsnapPointRef
 72
    13
331
1D12
 73
     2
 91
        1
 40
0.0
 10
0.0
 20
0.0
 30
2.000000000000000E+50
 75
     0
  0
DIMASSOC
  5
1DB6
102
{ACAD_REACTORS
330
1DAE
102
}
330
1DAE
100
AcDbDimAssoc
330
1DA3
 90
        2
 70
     0
 71
     0
  1
AcDbOsnapPointRef
 72
     3
331
1D12
 73
     2
 91
        4
 40
0.0
 10
0.0
 20
0.0
 30
0.0
 75
     0
  0
ACDBDETAILVIEWSTYLE
  5
73D
102
{ACAD_XDICTIONARY
360
1750
102
}
102
{ACAD_REACTORS
330
21B
102
}
330
21B
100
AcDbModelDocViewStyle
 70
     0
  3
Imperial24
290
     0
100
AcDbDetailViewStyle
 70
     0
 71
     0
 90
        3
 71
     1
340
11
 62
   256
 40
0.24
340
0
 62
   256
 40
0.24
300

 40
0.36
280
     3
 71
     2
340
16
 90
       25
 62
   256
 71
     3
340
11
 62
   256
 40
0.24
 90
        1
 40
0.75
 90
        1
300
%<\AcVar ViewType \f "%tc1">% %<\AcVar ViewDetailId>%\PSCALE %<\AcVar ViewScale \f "%sn">%
 71
     4
340
16
 90
       25
 62
   256
340
16
 90
       25
 62
   256
280
     0
  0
ACDBDETAILVIEWSTYLE
  5
21C
102
{ACAD_XDICTIONARY
360
236
102
}
102
{ACAD_REACTORS
330
21B
102
}
330
21B
100
AcDbModelDocViewStyle
 70
     0
  3
Metric50
290
     0
100
AcDbDetailViewStyle
 70
     0
 71
     0
 90
        3
 71
     1
340
11
 62
   256
 40
5.0
340
0
 62
   256
 40
5.0
300

 40
0.0
280
     1
 71
     2
340
16
 90
       25
 62
   256
 71
     3
340
11
 62
   256
 40
5.0
 90
        0
 40
15.0
 90
        1
300
%<\AcVar ViewDetailId>% (%<\AcVar ViewScale \f "%sn">%)
 71
     4
340
16
 90
       25
 62
   256
340
16
 90
       25
 62
   256
280
     0
  0
LAYOUT
  5
22
102
{ACAD_XDICTIONARY
360
205
102
}
102
{ACAD_REACTORS
330
1A
102
}
330
1A
100
AcDbPlotSettings
  1

  2
none_device
  4
ISO_A4_(210.00_x_297.00_MM)
  6

 40
7.5
 41
20.0
 42
7.5
 43
20.0
 44
210.0
 45
297.0
 46
11.54999923706054
 47
-13.65000009536743
 48
0.0
 49
0.0
140
0.0
141
0.0
142
1.0
143
8.704084754739808
 70
 11952
 72
     1
 73
     0
 74
     0
  7

 75
     0
147
0.1148885871608098
 76
     0
 77
     2
 78
   300
148
0.0
149
0.0
100
AcDbLayout
  1
Model
 70
     1
 71
     0
 10
0.0
 20
0.0
 11
12.0
 21
9.0
 12
0.0
 22
0.0
 32
0.0
 14
0.0
 24
0.0
 34
0.0
 15
0.0
 25
0.0
 35
0.0
146
0.0
 13
0.0
 23
0.0
 33
0.0
 16
1.0
 26
0.0
 36
0.0
 17
0.0
 27
1.0
 37
0.0
 76
     0
330
1F
331
EA
1001
ACAD_PSEXT
1000
None
1000
None
1000
Not applicable
1000
The layout will not be plotted unless a new plotter configuration name is selected.
1070
     0
  0
LAYOUT
  5
D3
102
{ACAD_REACTORS
330
1A
102
}
330
1A
100
AcDbPlotSettings
  1

  2
C:\Documents and Settings\basas\Application Data\Autodesk\AutoCAD 2005\R16.1\enu\plotters\Default Windows System Printer.pc3
  4

  6

 40
0.0
 41
0.0
 42
0.0
 43
0.0
 44
0.0
 45
0.0
 46
0.0
 47
0.0
 48
0.0
 49
0.0
140
0.0
141
0.0
142
1.0
143
1.0
 70
   688
 72
     0
 73
     0
 74
     5
  7

 75
    16
147
1.0
 76
     0
 77
     2
 78
   300
148
0.0
149
0.0
100
AcDbLayout
  1
布局1
 70
     1
 71
     1
 10
0.0
 20
0.0
 11
12.0
 21
9.0
 12
0.0
 22
0.0
 32
0.0
 14
0.0
 24
0.0
 34
0.0
 15
0.0
 25
0.0
 35
0.0
146
0.0
 13
0.0
 23
0.0
 33
0.0
 16
1.0
 26
0.0
 36
0.0
 17
0.0
 27
1.0
 37
0.0
 76
     0
330
D2
  0
LAYOUT
  5
D7
102
{ACAD_REACTORS
330
1A
102
}
330
1A
100
AcDbPlotSettings
  1

  2
C:\Documents and Settings\basas\Application Data\Autodesk\AutoCAD 2005\R16.1\enu\plotters\Default Windows System Printer.pc3
  4

  6

 40
0.0
 41
0.0
 42
0.0
 43
0.0
 44
0.0
 45
0.0
 46
0.0
 47
0.0
 48
0.0
 49
0.0
140
0.0
141
0.0
142
1.0
143
1.0
 70
   688
 72
     0
 73
     0
 74
     5
  7

 75
    16
147
1.0
 76
     0
 77
     2
 78
   300
148
0.0
149
0.0
100
AcDbLayout
  1
布局2
 70
     1
 71
     2
 10
0.0
 20
0.0
 11
12.0
 21
9.0
 12
0.0
 22
0.0
 32
0.0
 14
0.0
 24
0.0
 34
0.0
 15
0.0
 25
0.0
 35
0.0
146
0.0
 13
0.0
 23
0.0
 33
0.0
 16
1.0
 26
0.0
 36
0.0
 17
0.0
 27
1.0
 37
0.0
 76
     0
330
D6
  0
MATERIAL
  5
ED
102
{ACAD_XDICTIONARY
360
1F9
102
}
102
{ACAD_REACTORS
330
6A
102
}
330
6A
100
AcDbMaterial
  1
ByBlock
 94
       63
  0
MATERIAL
  5
EC
102
{ACAD_XDICTIONARY
360
1F7
102
}
102
{ACAD_REACTORS
330
6A
102
}
330
6A
100
AcDbMaterial
  1
ByLayer
 94
       63
  0
MATERIAL
  5
EE
102
{ACAD_XDICTIONARY
360
173
102
}
102
{ACAD_REACTORS
330
6A
102
}
330
6A
100
AcDbMaterial
  1
Global
 43
0.0007999999797903
 43
0.0
 43
0.0
 43
0.0
 43
0.0
 43
0.0007999999797903
 43
0.0
 43
0.0
 43
0.0
 43
0.0
 43
1.0
 43
0.0
 43
0.0
 43
0.0
 43
0.0
 43
1.0
 49
0.0007999999797903
 49
0.0
 49
0.0
 49
0.0
 49
0.0
 49
0.0007999999797903
 49
0.0
 49
0.0
 49
0.0
 49
0.0
 49
1.0
 49
0.0
 49
0.0
 49
0.0
 49
0.0
 49
1.0
142
0.0007999999797903
142
0.0
142
0.0
142
0.0
142
0.0
142
0.0007999999797903
142
0.0
142
0.0
142
0.0
142
0.0
142
1.0
142
0.0
142
0.0
142
0.0
142
0.0
142
1.0
144
0.0007999999797903
144
0.0
144
0.0
144
0.0
144
0.0
144
0.0007999999797903
144
0.0
144
0.0
144
0.0
144
0.0
144
1.0
144
0.0
144
0.0
144
0.0
144
0.0
144
1.0
 94
       63
1001
ACAD
1070
    -1
1070
     3
1070
     0
1000

1071
        0
1070
     0
  0
MLEADERSTYLE
  5
13B
102
{ACAD_REACTORS
330
12D
102
}
330
12D
100
AcDbMLeaderStyle
179
     2
170
     2
171
     1
172
     0
 90
        2
 40
0.0
 41
0.0
173
     1
 91
-1056964608
340
14
 92
       -2
290
     1
 42
2.0
291
     1
 43
8.0
  3
Standard
 44
4.0
300

342
11
174
     1
178
     1
175
     1
176
     0
 93
-1056964608
 45
4.0
292
     0
297
     0
 46
4.0
 94
-1056964608
 47
1.0
 49
1.0
140
1.0
293
     1
141
0.0
294
     1
177
     0
142
1.0
295
     0
296
     1
143
3.75
271
     0
272
     9
273
     9
  0
MLEADERSTYLE
  5
2D9
102
{ACAD_REACTORS
330
12D
330
6FC
102
}
330
12D
100
AcDbMLeaderStyle
179
     2
170
     2
171
     1
172
     0
 90
        2
 40
0.0
 41
0.0
173
     1
 91
-1023410174
340
14
 92
        5
290
     1
 42
2.0
291
     1
 43
8.0
  3
Standard
 44
10.0
300

342
11
174
     1
178
     1
175
     1
176
     0
 93
-1056964608
 45
4.0
292
     0
297
     0
 46
4.0
 94
-1056964608
 47
1.0
 49
1.0
140
1.0
293
     1
141
0.0
294
     1
177
     0
142
1.0
295
     0
296
     0
143
3.75
271
     0
272
     9
273
     9
  0
MLEADERSTYLE
  5
12E
102
{ACAD_REACTORS
330
12D
102
}
330
12D
100
AcDbMLeaderStyle
179
     2
170
     2
171
     1
172
     0
 90
        2
 40
0.0
 41
0.0
173
     1
 91
-1056964608
340
14
 92
       -2
290
     1
 42
2.0
291
     1
 43
8.0
  3
Standard
 44
4.0
300

342
11
174
     1
178
     1
175
     1
176
     0
 93
-1056964608
 45
4.0
292
     0
297
     0
 46
4.0
 94
-1056964608
 47
1.0
 49
1.0
140
1.0
293
     1
141
0.0
294
     1
177
     0
142
1.0
295
     0
296
     0
143
3.75
271
     0
272
     9
273
     9
  0
MLINESTYLE
  5
18
102
{ACAD_REACTORS
330
17
102
}
330
17
100
AcDbMlineStyle
  2
STANDARD
 70
     0
  3

 62
   256
 51
90.0
 52
90.0
 71
     2
 49
0.5
 62
   256
  6
BYLAYER
 49
-0.5
 62
   256
  6
BYLAYER
  0
ACDBPLACEHOLDER
  5
F
102
{ACAD_REACTORS
330
E
102
}
330
E
  0
SCALE
  5
10D
102
{ACAD_REACTORS
330
10C
102
}
330
10C
100
AcDbScale
 70
     0
300
1:1
140
1.0
141
1.0
290
     1
  0
SCALE
  5
1BE
102
{ACAD_REACTORS
330
10C
102
}
330
10C
100
AcDbScale
 70
     0
300
1:2
140
1.0
141
2.0
290
     0
  0
SCALE
  5
1BF
102
{ACAD_REACTORS
330
10C
102
}
330
10C
100
AcDbScale
 70
     0
300
1:4
140
1.0
141
4.0
290
     0
  0
SCALE
  5
1C0
102
{ACAD_REACTORS
330
10C
102
}
330
10C
100
AcDbScale
 70
     0
300
1:5
140
1.0
141
5.0
290
     0
  0
SCALE
  5
1C1
102
{ACAD_REACTORS
330
10C
102
}
330
10C
100
AcDbScale
 70
     0
300
1:8
140
1.0
141
8.0
290
     0
  0
SCALE
  5
1C2
102
{ACAD_REACTORS
330
10C
102
}
330
10C
100
AcDbScale
 70
     0
300
1:10
140
1.0
141
10.0
290
     0
  0
SCALE
  5
1C3
102
{ACAD_REACTORS
330
10C
102
}
330
10C
100
AcDbScale
 70
     0
300
1:16
140
1.0
141
16.0
290
     0
  0
SCALE
  5
1C4
102
{ACAD_REACTORS
330
10C
102
}
330
10C
100
AcDbScale
 70
     0
300
1:20
140
1.0
141
20.0
290
     0
  0
SCALE
  5
1C5
102
{ACAD_REACTORS
330
10C
102
}
330
10C
100
AcDbScale
 70
     0
300
1:30
140
1.0
141
30.0
290
     0
  0
SCALE
  5
1C6
102
{ACAD_REACTORS
330
10C
102
}
330
10C
100
AcDbScale
 70
     0
300
1:40
140
1.0
141
40.0
290
     0
  0
SCALE
  5
1C7
102
{ACAD_REACTORS
330
10C
102
}
330
10C
100
AcDbScale
 70
     0
300
1:50
140
1.0
141
50.0
290
     0
  0
SCALE
  5
1C8
102
{ACAD_REACTORS
330
10C
102
}
330
10C
100
AcDbScale
 70
     0
300
1:100
140
1.0
141
100.0
290
     0
  0
SCALE
  5
1C9
102
{ACAD_REACTORS
330
10C
102
}
330
10C
100
AcDbScale
 70
     0
300
2:1
140
2.0
141
1.0
290
     0
  0
SCALE
  5
1CA
102
{ACAD_REACTORS
330
10C
102
}
330
10C
100
AcDbScale
 70
     0
300
4:1
140
4.0
141
1.0
290
     0
  0
SCALE
  5
1CB
102
{ACAD_REACTORS
330
10C
102
}
330
10C
100
AcDbScale
 70
     0
300
8:1
140
8.0
141
1.0
290
     0
  0
SCALE
  5
1CC
102
{ACAD_REACTORS
330
10C
102
}
330
10C
100
AcDbScale
 70
     0
300
10:1
140
10.0
141
1.0
290
     0
  0
SCALE
  5
1CD
102
{ACAD_REACTORS
330
10C
102
}
330
10C
100
AcDbScale
 70
     0
300
100:1
140
100.0
141
1.0
290
     0
  0
ACDBSECTIONVIEWSTYLE
  5
73C
102
{ACAD_XDICTIONARY
360
174E
102
}
102
{ACAD_REACTORS
330
219
102
}
330
219
100
AcDbModelDocViewStyle
 70
     0
  3
Imperial24
290
     0
100
AcDbSectionViewStyle
 70
     0
 71
     0
 90
       78
 71
     1
340
11
 62
   256
 40
0.24
340
0
340
0
 62
   256
 40
0.24
300
I, O, Q, S, X, Z
 40
0.48
 90
        3
 40
0.18
 90
        1
 71
     2
340
16
 90
       25
 62
   256
340
16
 90
       50
 62
   256
 40
0.24
 40
0.0
 40
0.24
 71
     3
340
11
 62
   256
 40
0.24
 90
        1
 40
0.75
 90
        1
300
%<\AcVar ViewType \f "%tc1">% %<\AcVar ViewSectionStartId>%-%<\AcVar ViewSectionEndId>%\PSCALE %<\AcVar ViewScale \f "%sn">%
 71
     4
 62
   256
 62
   257
300
ANSI31
 40
1.0
 90
        0
290
     0
290
     0
 90
        6
 40
0.0
 40
1.570796326794896
 40
0.2617993877991494
 40
1.308996938995747
 40
-0.2617993877991494
 40
1.832595714594046
  0
ACDBSECTIONVIEWSTYLE
  5
21A
102
{ACAD_XDICTIONARY
360
234
102
}
102
{ACAD_REACTORS
330
219
102
}
330
219
100
AcDbModelDocViewStyle
 70
     0
  3
Metric50
290
     0
100
AcDbSectionViewStyle
 70
     0
 71
     0
 90
      102
 71
     1
340
11
 62
   256
 40
5.0
340
0
340
0
 62
   256
 40
5.0
300
I, O, Q, S, X, Z
 40
10.0
 90
        0
 40
2.5
 90
        0
 71
     2
340
16
 90
       25
 62
   256
340
16
 90
       50
 62
   256
 40
5.0
 40
2.5
 40
5.0
 71
     3
340
11
 62
   256
 40
5.0
 90
        0
 40
15.0
 90
        1
300
%<\AcVar ViewSectionStartId>%-%<\AcVar ViewSectionEndId>% (%<\AcVar ViewScale \f "%sn">%)
 71
     4
 62
   256
 62
   257
300
ANSI31
 40
1.0
 90
        0
290
     0
290
     0
 90
        6
 40
0.0
 40
1.570796326794896
 40
0.2617993877991494
 40
1.308996938995747
 40
-0.2617993877991494
 40
1.832595714594046
  0
TABLESTYLE
  5
7F
102
{ACAD_XDICTIONARY
360
162
102
}
102
{ACAD_REACTORS
330
7E
102
}
330
7E
100
AcDbTableStyle
280
     0
  3
Standard
 70
     0
 71
     0
 40
1.5
 41
1.5
280
     0
281
     0
  7
Standard
140
4.5
170
     2
 62
     0
 63
     7
283
     0
 90
      512
 91
        0
  1

274
    -2
284
     1
 64
     0
275
    -2
285
     1
 65
     0
276
    -2
286
     1
 66
     0
277
    -2
287
     1
 67
     0
278
    -2
288
     1
 68
     0
279
    -2
289
     1
 69
     0
  7
Standard
140
6.0
170
     5
 62
     0
 63
     7
283
     0
 90
      512
 91
        0
  1

274
    -2
284
     1
 64
     0
275
    -2
285
     1
 65
     0
276
    -2
286
     1
 66
     0
277
    -2
287
     1
 67
     0
278
    -2
288
     1
 68
     0
279
    -2
289
     1
 69
     0
  7
Standard
140
4.5
170
     5
 62
     0
 63
     7
283
     0
 90
      512
 91
        0
  1

274
    -2
284
     1
 64
     0
275
    -2
285
     1
 65
     0
276
    -2
286
     1
 66
     0
277
    -2
287
     1
 67
     0
278
    -2
288
     1
 68
     0
279
    -2
289
     1
 69
     0
  0
VISUALSTYLE
  5
F5
102
{ACAD_XDICTIONARY
360
1E79
102
}
102
{ACAD_REACTORS
330
EF
102
}
330
EF
100
AcDbVisualStyle
  2
2dWireframe
 70
     4
177
     2
291
     0
 71
     0
176
     1
 72
     2
176
     1
 73
     1
176
     1
 90
        0
176
     1
 40
0.6
176
     1
 41
30.0
176
     1
 63
     7
421
 16777215
176
     1
 74
     1
176
     1
 91
        4
176
     1
 64
     7
176
     1
 65
   257
176
     1
 75
     1
176
     1
175
     1
176
     1
 42
1.0
176
     1
 92
        0
176
     1
 66
   257
176
     1
 43
1.0
176
     1
 76
     1
176
     1
 77
     6
176
     1
 78
     2
176
     1
 67
     7
176
     1
 79
     5
176
     1
170
     0
176
     1
171
     0
176
     1
290
     0
176
     1
 93
        1
176
     1
 44
0.0
176
     1
173
     0
176
     1
1001
ACAD
1000
AcDbSavedByObjectVersion
1070
     0
  0
VISUALSTYLE
  5
73B
102
{ACAD_XDICTIONARY
360
1EA1
102
}
102
{ACAD_REACTORS
330
EF
102
}
330
EF
100
AcDbVisualStyle
  2
3dWireframe
 70
     5
177
     2
291
     0
 71
     0
176
     1
 72
     2
176
     1
 73
     1
176
     1
 90
        0
176
     1
 40
0.6
176
     1
 41
30.0
176
     1
 63
     7
421
 16777215
176
     1
 74
     1
176
     1
 91
        4
176
     1
 64
     7
176
     1
 65
   257
176
     1
 75
     1
176
     1
175
     1
176
     1
 42
1.0
176
     1
 92
        0
176
     1
 66
   257
176
     1
 43
1.0
176
     1
 76
     1
176
     1
 77
     6
176
     1
 78
     2
176
     1
 67
     7
176
     1
 79
     5
176
     1
170
     0
176
     1
171
     0
176
     1
290
     0
176
     1
 93
        1
176
     1
 44
0.0
176
     1
173
     0
176
     1
1001
ACAD
1000
AcDbSavedByObjectVersion
1070
     0
  0
VISUALSTYLE
  5
F4
102
{ACAD_XDICTIONARY
360
1E77
102
}
102
{ACAD_REACTORS
330
EF
102
}
330
EF
100
AcDbVisualStyle
  2
Basic
 70
     7
177
     2
291
     1
 71
     1
176
     1
 72
     0
176
     1
 73
     1
176
     1
 90
        0
176
     1
 40
0.6
176
     1
 41
30.0
176
     1
 63
     7
421
 16777215
176
     1
 74
     0
176
     1
 91
        4
176
     1
 64
     7
176
     1
 65
   257
176
     1
 75
     1
176
     1
175
     1
176
     1
 42
1.0
176
     1
 92
        8
176
     1
 66
     7
176
     1
 43
1.0
176
     1
 76
     1
176
     1
 77
     6
176
     1
 78
     2
176
     1
 67
     7
176
     1
 79
     5
176
     1
170
     0
176
     1
171
     0
176
     1
290
     0
176
     1
 93
        1
176
     1
 44
0.0
176
     1
173
     0
176
     1
1001
ACAD
1000
AcDbSavedByObjectVersion
1070
     0
  0
VISUALSTYLE
  5
FB
102
{ACAD_XDICTIONARY
360
1E85
102
}
102
{ACAD_REACTORS
330
EF
102
}
330
EF
100
AcDbVisualStyle
  2
Brighten
 70
    12
177
     2
291
     1
 71
     2
176
     1
 72
     2
176
     1
 73
     1
176
     1
 90
        0
176
     1
 40
0.6
176
     1
 41
30.0
176
     1
 63
     7
421
 16777215
176
     1
 74
     1
176
     1
 91
        4
176
     1
 64
     7
176
     1
 65
   257
176
     1
 75
     1
176
     1
175
     1
176
     1
 42
1.0
176
     1
 92
        8
176
     1
 66
     7
176
     1
 43
1.0
176
     1
 76
     1
176
     1
 77
     6
176
     1
 78
     2
176
     1
 67
     7
176
     1
 79
     5
176
     1
170
     0
176
     1
171
     0
176
     1
290
     0
176
     1
 93
        1
176
     1
 44
50.0
176
     1
173
     0
176
     1
1001
ACAD
1000
AcDbSavedByObjectVersion
1070
     0
  0
VISUALSTYLE
  5
FF
102
{ACAD_XDICTIONARY
360
1E8D
102
}
102
{ACAD_REACTORS
330
EF
102
}
330
EF
100
AcDbVisualStyle
  2
ColorChange
 70
    16
177
     2
291
     1
 71
     2
176
     1
 72
     2
176
     1
 73
     3
176
     1
 90
        0
176
     1
 40
0.6
176
     1
 41
30.0
176
     1
 63
     8
421
  8421504
176
     1
 74
     1
176
     1
 91
        4
176
     1
 64
     7
176
     1
 65
   257
176
     1
 75
     1
176
     1
175
     1
176
     1
 42
1.0
176
     1
 92
        8
176
     1
 66
     8
424
  8421504
176
     1
 43
1.0
176
     1
 76
     1
176
     1
 77
     6
176
     1
 78
     2
176
     1
 67
     7
176
     1
 79
     5
176
     1
170
     0
176
     1
171
     0
176
     1
290
     0
176
     1
 93
        1
176
     1
 44
0.0
176
     1
173
     0
176
     1
1001
ACAD
1000
AcDbSavedByObjectVersion
1070
     0
  0
VISUALSTYLE
  5
F8
102
{ACAD_XDICTIONARY
360
1E7F
102
}
102
{ACAD_REACTORS
330
EF
102
}
330
EF
100
AcDbVisualStyle
  2
Conceptual
 70
     9
177
     2
291
     0
 71
     3
176
     1
 72
     2
176
     1
 73
     1
176
     1
 90
        0
176
     1
 40
0.6
176
     1
 41
30.0
176
     1
 63
     7
421
 16777215
176
     1
 74
     2
176
     1
 91
        2
176
     1
 64
     7
176
     1
 65
   257
176
     1
 75
     1
176
     1
175
     1
176
     1
 42
40.0
176
     1
 92
        8
176
     1
 66
     7
176
     1
 43
1.0
176
     1
 76
     1
176
     1
 77
     6
176
     1
 78
     2
176
     1
 67
     7
176
     1
 79
     3
176
     1
170
     0
176
     1
171
     0
176
     1
290
     0
176
     1
 93
        1
176
     1
 44
0.0
176
     1
173
     0
176
     1
1001
ACAD
1000
AcDbSavedByObjectVersion
1070
     0
  0
VISUALSTYLE
  5
FA
102
{ACAD_XDICTIONARY
360
1E83
102
}
102
{ACAD_REACTORS
330
EF
102
}
330
EF
100
AcDbVisualStyle
  2
Dim
 70
    11
177
     2
291
     1
 71
     2
176
     1
 72
     2
176
     1
 73
     1
176
     1
 90
        0
176
     1
 40
0.6
176
     1
 41
30.0
176
     1
 63
     7
421
 16777215
176
     1
 74
     1
176
     1
 91
        4
176
     1
 64
     7
176
     1
 65
   257
176
     1
 75
     1
176
     1
175
     1
176
     1
 42
1.0
176
     1
 92
        8
176
     1
 66
     7
176
     1
 43
1.0
176
     1
 76
     1
176
     1
 77
     6
176
     1
 78
     2
176
     1
 67
     7
176
     1
 79
     5
176
     1
170
     0
176
     1
171
     0
176
     1
290
     0
176
     1
 93
        1
176
     1
 44
-50.0
176
     1
173
     0
176
     1
1001
ACAD
1000
AcDbSavedByObjectVersion
1070
     0
  0
VISUALSTYLE
  5
1E6
102
{ACAD_XDICTIONARY
360
1E93
102
}
102
{ACAD_REACTORS
330
EF
102
}
330
EF
100
AcDbVisualStyle
  2
EdgeColorOff
 70
    22
177
     2
291
     1
 71
     2
176
     0
 72
     2
176
     0
 73
     0
176
     0
 90
        0
176
     0
 40
0.6
176
     0
 41
30.0
176
     0
 63
     7
421
 16777215
176
     0
 74
     1
176
     0
 91
        4
176
     0
 64
     7
176
     0
 65
   257
176
     0
 75
     1
176
     0
175
     1
176
     0
 42
1.0
176
     0
 92
        8
176
     2
 66
     7
176
     0
 43
1.0
176
     0
 76
     1
176
     0
 77
     6
176
     0
 78
     2
176
     0
 67
     7
176
     0
 79
     5
176
     0
170
     0
176
     0
171
     0
176
     0
290
     0
176
     0
 93
        1
176
     0
 44
0.0
176
     0
173
     0
176
     0
1001
ACAD
1000
AcDbSavedByObjectVersion
1070
     0
  0
VISUALSTYLE
  5
FE
102
{ACAD_XDICTIONARY
360
1E8B
102
}
102
{ACAD_REACTORS
330
EF
102
}
330
EF
100
AcDbVisualStyle
  2
Facepattern
 70
    15
177
     2
291
     1
 71
     2
176
     1
 72
     2
176
     1
 73
     1
176
     1
 90
        0
176
     1
 40
0.6
176
     1
 41
30.0
176
     1
 63
     7
421
 16777215
176
     1
 74
     1
176
     1
 91
        4
176
     1
 64
     7
176
     1
 65
   257
176
     1
 75
     1
176
     1
175
     1
176
     1
 42
1.0
176
     1
 92
        8
176
     1
 66
     7
176
     1
 43
1.0
176
     1
 76
     1
176
     1
 77
     6
176
     1
 78
     2
176
     1
 67
     7
176
     1
 79
     5
176
     1
170
     0
176
     1
171
     0
176
     1
290
     0
176
     1
 93
        1
176
     1
 44
0.0
176
     1
173
     0
176
     1
1001
ACAD
1000
AcDbSavedByObjectVersion
1070
     0
  0
VISUALSTYLE
  5
F0
102
{ACAD_XDICTIONARY
360
1E6F
102
}
102
{ACAD_REACTORS
330
EF
102
}
330
EF
100
AcDbVisualStyle
  2
Flat
 70
     0
177
     2
291
     1
 71
     2
176
     1
 72
     1
176
     1
 73
     1
176
     1
 90
        2
176
     1
 40
0.6
176
     1
 41
30.0
176
     1
 63
     7
421
 16777215
176
     1
 74
     0
176
     1
 91
        0
176
     1
 64
     7
176
     1
 65
   257
176
     1
 75
     1
176
     1
175
     1
176
     1
 42
1.0
176
     1
 92
        8
176
     1
 66
     7
176
     1
 43
1.0
176
     1
 76
     1
176
     1
 77
     6
176
     1
 78
     2
176
     1
 67
     7
176
     1
 79
     5
176
     1
170
     0
176
     1
171
     0
176
     1
290
     0
176
     1
 93
       13
176
     1
 44
0.0
176
     1
173
     0
176
     1
1001
ACAD
1000
AcDbSavedByObjectVersion
1070
     0
  0
VISUALSTYLE
  5
F1
102
{ACAD_XDICTIONARY
360
1E71
102
}
102
{ACAD_REACTORS
330
EF
102
}
330
EF
100
AcDbVisualStyle
  2
FlatWithEdges
 70
     1
177
     2
291
     1
 71
     2
176
     1
 72
     1
176
     1
 73
     1
176
     1
 90
        2
176
     1
 40
0.6
176
     1
 41
30.0
176
     1
 63
     7
421
 16777215
176
     1
 74
     1
176
     1
 91
        0
176
     1
 64
     7
176
     1
 65
   257
176
     1
 75
     1
176
     1
175
     1
176
     1
 42
1.0
176
     1
 92
        0
176
     1
 66
   257
176
     1
 43
1.0
176
     1
 76
     1
176
     1
 77
     6
176
     1
 78
     2
176
     1
 67
     7
176
     1
 79
     5
176
     1
170
     0
176
     1
171
     0
176
     1
290
     0
176
     1
 93
       13
176
     1
 44
0.0
176
     1
173
     0
176
     1
1001
ACAD
1000
AcDbSavedByObjectVersion
1070
     0
  0
VISUALSTYLE
  5
F2
102
{ACAD_XDICTIONARY
360
1E73
102
}
102
{ACAD_REACTORS
330
EF
102
}
330
EF
100
AcDbVisualStyle
  2
Gouraud
 70
     2
177
     2
291
     1
 71
     2
176
     1
 72
     2
176
     1
 73
     1
176
     1
 90
        2
176
     1
 40
0.6
176
     1
 41
30.0
176
     1
 63
     7
421
 16777215
176
     1
 74
     0
176
     1
 91
        0
176
     1
 64
     7
176
     1
 65
   257
176
     1
 75
     1
176
     1
175
     1
176
     1
 42
1.0
176
     1
 92
        0
176
     1
 66
     7
176
     1
 43
1.0
176
     1
 76
     1
176
     1
 77
     6
176
     1
 78
     2
176
     1
 67
     7
176
     1
 79
     5
176
     1
170
     0
176
     1
171
     0
176
     1
290
     0
176
     1
 93
       13
176
     1
 44
0.0
176
     1
173
     0
176
     1
1001
ACAD
1000
AcDbSavedByObjectVersion
1070
     0
  0
VISUALSTYLE
  5
F3
102
{ACAD_XDICTIONARY
360
1E75
102
}
102
{ACAD_REACTORS
330
EF
102
}
330
EF
100
AcDbVisualStyle
  2
GouraudWithEdges
 70
     3
177
     2
291
     1
 71
     2
176
     1
 72
     2
176
     1
 73
     1
176
     1
 90
        2
176
     1
 40
0.6
176
     1
 41
30.0
176
     1
 63
     7
421
 16777215
176
     1
 74
     1
176
     1
 91
        0
176
     1
 64
     7
176
     1
 65
   257
176
     1
 75
     1
176
     1
175
     1
176
     1
 42
1.0
176
     1
 92
        0
176
     1
 66
   257
176
     1
 43
1.0
176
     1
 76
     1
176
     1
 77
     6
176
     1
 78
     2
176
     1
 67
     7
176
     1
 79
     5
176
     1
170
     0
176
     1
171
     0
176
     1
290
     0
176
     1
 93
       13
176
     1
 44
0.0
176
     1
173
     0
176
     1
1001
ACAD
1000
AcDbSavedByObjectVersion
1070
     0
  0
VISUALSTYLE
  5
F7
102
{ACAD_XDICTIONARY
360
1E7D
102
}
102
{ACAD_REACTORS
330
EF
102
}
330
EF
100
AcDbVisualStyle
  2
Hidden
 70
     6
177
     2
291
     0
 71
     1
176
     1
 72
     2
176
     1
 73
     2
176
     1
 90
        0
176
     1
 40
0.6
176
     1
 41
30.0
176
     1
 63
     7
421
 16777215
176
     1
 74
     2
176
     1
 91
        2
176
     1
 64
     7
176
     1
 65
   257
176
     1
 75
     2
176
     1
175
     1
176
     1
 42
40.0
176
     1
 92
        0
176
     1
 66
   257
176
     1
 43
1.0
176
     1
 76
     1
176
     1
 77
     6
176
     1
 78
     2
176
     1
 67
     7
176
     1
 79
     3
176
     1
170
     0
176
     1
171
     0
176
     1
290
     0
176
     1
 93
        1
176
     1
 44
0.0
176
     1
173
     0
176
     1
1001
ACAD
1000
AcDbSavedByObjectVersion
1070
     0
  0
VISUALSTYLE
  5
1E4
102
{ACAD_XDICTIONARY
360
1E8F
102
}
102
{ACAD_REACTORS
330
EF
102
}
330
EF
100
AcDbVisualStyle
  2
JitterOff
 70
    20
177
     2
291
     1
 71
     2
176
     0
 72
     2
176
     0
 73
     0
176
     0
 90
        0
176
     0
 40
0.6
176
     0
 41
30.0
176
     0
 63
     7
421
 16777215
176
     0
 74
     1
176
     0
 91
        4
176
     0
 64
     7
176
     0
 65
   257
176
     0
 75
     1
176
     0
175
     1
176
     0
 42
1.0
176
     0
 92
       10
176
     2
 66
     7
176
     0
 43
1.0
176
     0
 76
     1
176
     0
 77
     6
176
     0
 78
     2
176
     0
 67
     7
176
     0
 79
     5
176
     0
170
     0
176
     0
171
     0
176
     0
290
     0
176
     0
 93
        1
176
     0
 44
0.0
176
     0
173
     0
176
     0
1001
ACAD
1000
AcDbSavedByObjectVersion
1070
     0
  0
VISUALSTYLE
  5
FD
102
{ACAD_XDICTIONARY
360
1E89
102
}
102
{ACAD_REACTORS
330
EF
102
}
330
EF
100
AcDbVisualStyle
  2
Linepattern
 70
    14
177
     2
291
     1
 71
     2
176
     1
 72
     2
176
     1
 73
     1
176
     1
 90
        0
176
     1
 40
0.6
176
     1
 41
30.0
176
     1
 63
     7
421
 16777215
176
     1
 74
     1
176
     1
 91
        4
176
     1
 64
     7
176
     1
 65
   257
176
     1
 75
     7
176
     1
175
     7
176
     1
 42
1.0
176
     1
 92
        8
176
     1
 66
     7
176
     1
 43
1.0
176
     1
 76
     1
176
     1
 77
     6
176
     1
 78
     2
176
     1
 67
     7
176
     1
 79
     5
176
     1
170
     0
176
     1
171
     0
176
     1
290
     0
176
     1
 93
        1
176
     1
 44
0.0
176
     1
173
     0
176
     1
1001
ACAD
1000
AcDbSavedByObjectVersion
1070
     0
  0
VISUALSTYLE
  5
1E5
102
{ACAD_XDICTIONARY
360
1E91
102
}
102
{ACAD_REACTORS
330
EF
102
}
330
EF
100
AcDbVisualStyle
  2
OverhangOff
 70
    21
177
     2
291
     1
 71
     2
176
     0
 72
     2
176
     0
 73
     0
176
     0
 90
        0
176
     0
 40
0.6
176
     0
 41
30.0
176
     0
 63
     7
421
 16777215
176
     0
 74
     1
176
     0
 91
        4
176
     0
 64
     7
176
     0
 65
   257
176
     0
 75
     1
176
     0
175
     1
176
     0
 42
1.0
176
     0
 92
        9
176
     2
 66
     7
176
     0
 43
1.0
176
     0
 76
     1
176
     0
 77
     6
176
     0
 78
     2
176
     0
 67
     7
176
     0
 79
     5
176
     0
170
     0
176
     0
171
     0
176
     0
290
     0
176
     0
 93
        1
176
     0
 44
0.0
176
     0
173
     0
176
     0
1001
ACAD
1000
AcDbSavedByObjectVersion
1070
     0
  0
VISUALSTYLE
  5
F9
102
{ACAD_XDICTIONARY
360
1E81
102
}
102
{ACAD_REACTORS
330
EF
102
}
330
EF
100
AcDbVisualStyle
  2
Realistic
 70
     8
177
     2
291
     0
 71
     2
176
     1
 72
     3
176
     1
 73
     0
176
     1
 90
        2
176
     1
 40
0.6
176
     1
 41
30.0
176
     1
 63
     7
421
 16777215
176
     1
 74
     0
176
     1
 91
        0
176
     1
 64
     7
176
     1
 65
   257
176
     1
 75
     1
176
     1
175
     1
176
     1
 42
1.0
176
     1
 92
        8
176
     1
 66
   257
176
     1
 43
1.0
176
     1
 76
     1
176
     1
 77
     6
176
     1
 78
     2
176
     1
 67
     7
176
     1
 79
     3
176
     1
170
     0
176
     1
171
     0
176
     1
290
     0
176
     1
 93
       13
176
     1
 44
0.0
176
     1
173
     0
176
     1
1001
ACAD
1000
AcDbSavedByObjectVersion
1070
     0
  0
VISUALSTYLE
  5
1F3
102
{ACAD_XDICTIONARY
360
1E9D
102
}
102
{ACAD_REACTORS
330
EF
102
}
330
EF
100
AcDbVisualStyle
  2
Shaded
 70
    27
177
     2
291
     0
 71
     2
176
     1
 72
     2
176
     1
 73
     1
176
     1
 90
        2
176
     1
 40
0.6
176
     1
 41
30.0
176
     1
 63
     7
421
 16777215
176
     1
 74
     0
176
     1
 91
        4
176
     1
 64
     7
176
     1
 65
   257
176
     1
 75
     1
176
     1
175
     1
176
     1
 42
1.0
176
     1
 92
        8
176
     1
 66
   257
176
     1
 43
1.0
176
     1
 76
     1
176
     1
 77
     6
176
     1
 78
     2
176
     1
 67
     8
425
  7895160
176
     1
 79
     3
176
     1
170
     0
176
     1
171
     0
176
     1
290
     0
176
     1
 93
        5
176
     1
 44
0.0
176
     1
173
     0
176
     1
1001
ACAD
1000
AcDbSavedByObjectVersion
1070
     0
  0
VISUALSTYLE
  5
1F2
102
{ACAD_XDICTIONARY
360
1E9B
102
}
102
{ACAD_REACTORS
330
EF
102
}
330
EF
100
AcDbVisualStyle
  2
Shaded with edges
 70
    26
177
     2
291
     0
 71
     2
176
     1
 72
     2
176
     1
 73
     1
176
     1
 90
        2
176
     1
 40
0.6
176
     1
 41
30.0
176
     1
 63
     7
421
 16777215
176
     1
 74
     1
176
     1
 91
       10
176
     1
 64
     7
176
     1
 65
   257
176
     1
 75
     2
176
     1
175
     1
176
     1
 42
1.0
176
     1
 92
        8
176
     1
 66
   257
176
     1
 43
1.0
176
     1
 76
     1
176
     1
 77
     6
176
     1
 78
     2
176
     1
 67
     7
176
     1
 79
     3
176
     1
170
     0
176
     1
171
     0
176
     1
290
     0
176
     1
 93
        5
176
     1
 44
0.0
176
     1
173
     0
176
     1
1001
ACAD
1000
AcDbSavedByObjectVersion
1070
     0
  0
VISUALSTYLE
  5
1EF
102
{ACAD_XDICTIONARY
360
1E95
102
}
102
{ACAD_REACTORS
330
EF
102
}
330
EF
100
AcDbVisualStyle
  2
Shades of Gray
 70
    23
177
     2
291
     0
 71
     2
176
     1
 72
     2
176
     1
 73
     3
176
     1
 90
        0
176
     1
 40
0.6
176
     1
 41
30.0
176
     1
 63
     7
421
 16777215
176
     1
 74
     2
176
     1
 91
        2
176
     1
 64
     7
176
     1
 65
     7
176
     1
 75
     1
176
     1
175
     1
176
     1
 42
40.0
176
     1
 92
        8
176
     1
 66
     7
176
     1
 43
1.0
176
     1
 76
     1
176
     1
 77
     6
176
     1
 78
     2
176
     1
 67
     7
176
     1
 79
     3
176
     1
170
     0
176
     1
171
     0
176
     1
290
     0
176
     1
 93
        1
176
     1
 44
0.0
176
     1
173
     0
176
     1
1001
ACAD
1000
AcDbSavedByObjectVersion
1070
     0
  0
VISUALSTYLE
  5
1F0
102
{ACAD_XDICTIONARY
360
1E97
102
}
102
{ACAD_REACTORS
330
EF
102
}
330
EF
100
AcDbVisualStyle
  2
Sketchy
 70
    24
177
     2
291
     0
 71
     1
176
     1
 72
     2
176
     1
 73
     2
176
     1
 90
        0
176
     1
 40
0.6
176
     1
 41
30.0
176
     1
 63
     7
421
 16777215
176
     1
 74
     2
176
     1
 91
        2
176
     1
 64
     7
176
     1
 65
     7
176
     1
 75
     1
176
     1
175
     1
176
     1
 42
40.0
176
     1
 92
       11
176
     1
 66
     7
176
     1
 43
1.0
176
     1
 76
     1
176
     1
 77
     6
176
     1
 78
     2
176
     1
 67
     7
176
     1
 79
     6
176
     1
170
     0
176
     1
171
     0
176
     1
290
     0
176
     1
 93
        1
176
     1
 44
0.0
176
     1
173
     0
176
     1
1001
ACAD
1000
AcDbSavedByObjectVersion
1070
     0
  0
VISUALSTYLE
  5
FC
102
{ACAD_XDICTIONARY
360
1E87
102
}
102
{ACAD_REACTORS
330
EF
102
}
330
EF
100
AcDbVisualStyle
  2
Thicken
 70
    13
177
     2
291
     1
 71
     2
176
     1
 72
     2
176
     1
 73
     1
176
     1
 90
        0
176
     1
 40
0.6
176
     1
 41
30.0
176
     1
 63
     7
421
 16777215
176
     1
 74
     1
176
     1
 91
        4
176
     1
 64
     7
176
     1
 65
   257
176
     1
 75
     1
176
     1
175
     1
176
     1
 42
1.0
176
     1
 92
       12
176
     1
 66
     7
176
     1
 43
1.0
176
     1
 76
     1
176
     1
 77
     6
176
     1
 78
     2
176
     1
 67
     7
176
     1
 79
     5
176
     1
170
     0
176
     1
171
     0
176
     1
290
     0
176
     1
 93
        1
176
     1
 44
0.0
176
     1
173
     0
176
     1
1001
ACAD
1000
AcDbSavedByObjectVersion
1070
     0
  0
VISUALSTYLE
  5
F6
102
{ACAD_XDICTIONARY
360
1E7B
102
}
102
{ACAD_REACTORS
330
EF
102
}
330
EF
100
AcDbVisualStyle
  2
Wireframe
 70
     5
177
     2
291
     0
 71
     0
176
     1
 72
     2
176
     1
 73
     0
176
     1
 90
        0
176
     1
 40
0.6
176
     1
 41
30.0
176
     1
 63
     7
421
 16777215
176
     1
 74
     1
176
     1
 91
        4
176
     1
 64
     7
176
     1
 65
   257
176
     1
 75
     1
176
     1
175
     1
176
     1
 42
1.0
176
     1
 92
        0
176
     1
 66
   257
176
     1
 43
1.0
176
     1
 76
     1
176
     1
 77
     6
176
     1
 78
     2
176
     1
 67
     7
176
     1
 79
     3
176
     1
170
     0
176
     1
171
     0
176
     1
290
     0
176
     1
 93
        1
176
     1
 44
0.0
176
     1
173
     0
176
     1
1001
ACAD
1000
AcDbSavedByObjectVersion
1070
     0
  0
VISUALSTYLE
  5
1F1
102
{ACAD_XDICTIONARY
360
1E99
102
}
102
{ACAD_REACTORS
330
EF
102
}
330
EF
100
AcDbVisualStyle
  2
X-Ray
 70
    25
177
     2
291
     0
 71
     2
176
     1
 72
     2
176
     1
 73
     1
176
     1
 90
        1
176
     1
 40
0.5
176
     1
 41
30.0
176
     1
 63
     7
421
 16777215
176
     1
 74
     1
176
     1
 91
        0
176
     1
 64
     7
176
     1
 65
   257
176
     1
 75
     1
176
     1
175
     1
176
     1
 42
1.0
176
     1
 92
        8
176
     1
 66
     7
176
     1
 43
1.0
176
     1
 76
     1
176
     1
 77
     6
176
     1
 78
     2
176
     1
 67
     7
176
     1
 79
     3
176
     1
170
     0
176
     1
171
     0
176
     1
290
     0
176
     1
 93
       13
176
     1
 44
0.0
176
     1
173
     0
176
     1
1001
ACAD
1000
AcDbSavedByObjectVersion
1070
     0
  0
DICTIONARYVAR
  5
146
102
{ACAD_REACTORS
330
5E
102
}
330
5E
100
DictionaryVariables
280
     0
  1
1:1
  0
DICTIONARYVAR
  5
145
102
{ACAD_REACTORS
330
5E
102
}
330
5E
100
DictionaryVariables
280
     0
  1
leader
  0
DICTIONARYVAR
  5
84
102
{ACAD_REACTORS
330
5E
102
}
330
5E
100
DictionaryVariables
280
     0
  1
STANDARD
  0
DICTIONARYVAR
  5
227
102
{ACAD_REACTORS
330
5E
102
}
330
5E
100
DictionaryVariables
280
     0
  1
Metric50
  0
DICTIONARYVAR
  5
228
102
{ACAD_REACTORS
330
5E
102
}
330
5E
100
DictionaryVariables
280
     0
  1
Metric50
  0
DICTIONARYVAR
  5
5F
102
{ACAD_REACTORS
330
5E
102
}
330
5E
100
DictionaryVariables
280
     0
  1
2
  0
DICTIONARYVAR
  5
63
102
{ACAD_REACTORS
330
5E
102
}
330
5E
100
DictionaryVariables
280
     0
  1
1
  0
DICTIONARYVAR
  5
1AE
102
{ACAD_REACTORS
330
5E
102
}
330
5E
100
DictionaryVariables
280
     0
  1
0
  0
DICTIONARYVAR
  5
1AF
102
{ACAD_REACTORS
330
5E
102
}
330
5E
100
DictionaryVariables
280
     0
  1
0
  0
DICTIONARY
  5
1E6E
102
{ACAD_REACTORS
330
1E6C
102
}
330
1E6C
100
AcDbDictionary
281
     1
  0
DICTIONARY
  5
1E6D
102
{ACAD_REACTORS
330
1E6C
102
}
330
1E6C
100
AcDbDictionary
281
     1
  3
140695211007344
350
1E67
  3
140695211007360
350
1E68
  3
140695211007376
350
1E69
  3
140695211007392
350
1E6A
  3
140695211007408
350
1E6B
  0
DICTIONARY
  5
1750
330
73D
100
AcDbDictionary
280
     1
281
     1
  3
ACAD_XREC_ROUNDTRIP
360
1EA4
  0
DICTIONARY
  5
236
330
21C
100
AcDbDictionary
280
     1
281
     1
  3
ACAD_XREC_ROUNDTRIP
360
1EA0
  0
DICTIONARY
  5
205
330
22
100
AcDbDictionary
280
     1
281
     1
  0
DICTIONARY
  5
1F9
330
ED
100
AcDbDictionary
280
     1
281
     1
  3
FBXASSET
360
1FA
  0
DICTIONARY
  5
1F7
330
EC
100
AcDbDictionary
280
     1
281
     1
  3
FBXASSET
360
1F8
  0
DICTIONARY
  5
173
330
EE
100
AcDbDictionary
280
     1
281
     1
  3
BUMPTILE
360
175
  3
DIFFUSETILE
360
174
  3
FBXASSET
360
1FB
  3
OPACITYTILE
360
176
  3
REFLECTIONTILE
360
177
  0
DICTIONARY
  5
174E
330
73C
100
AcDbDictionary
280
     1
281
     1
  3
ACAD_XREC_ROUNDTRIP
360
1EA3
  0
DICTIONARY
  5
234
330
21A
100
AcDbDictionary
280
     1
281
     1
  3
ACAD_XREC_ROUNDTRIP
360
1E9F
  0
DICTIONARY
  5
162
330
7F
100
AcDbDictionary
280
     1
281
     1
  3
ACAD_ROUNDTRIP_2008_TABLESTYLE_CELLSTYLEMAP
360
1E65
  0
DICTIONARY
  5
1E79
330
F5
100
AcDbDictionary
280
     1
281
     1
  3
ACAD_XREC_ROUNDTRIP
360
1E7A
  0
DICTIONARY
  5
1EA1
330
73B
100
AcDbDictionary
280
     1
281
     1
  3
ACAD_XREC_ROUNDTRIP
360
1EA2
  0
DICTIONARY
  5
1E77
330
F4
100
AcDbDictionary
280
     1
281
     1
  3
ACAD_XREC_ROUNDTRIP
360
1E78
  0
DICTIONARY
  5
1E85
330
FB
100
AcDbDictionary
280
     1
281
     1
  3
ACAD_XREC_ROUNDTRIP
360
1E86
  0
DICTIONARY
  5
1E8D
330
FF
100
AcDbDictionary
280
     1
281
     1
  3
ACAD_XREC_ROUNDTRIP
360
1E8E
  0
DICTIONARY
  5
1E7F
330
F8
100
AcDbDictionary
280
     1
281
     1
  3
ACAD_XREC_ROUNDTRIP
360
1E80
  0
DICTIONARY
  5
1E83
330
FA
100
AcDbDictionary
280
     1
281
     1
  3
ACAD_XREC_ROUNDTRIP
360
1E84
  0
DICTIONARY
  5
1E93
330
1E6
100
AcDbDictionary
280
     1
281
     1
  3
ACAD_XREC_ROUNDTRIP
360
1E94
  0
DICTIONARY
  5
1E8B
330
FE
100
AcDbDictionary
280
     1
281
     1
  3
ACAD_XREC_ROUNDTRIP
360
1E8C
  0
DICTIONARY
  5
1E6F
330
F0
100
AcDbDictionary
280
     1
281
     1
  3
ACAD_XREC_ROUNDTRIP
360
1E70
  0
DICTIONARY
  5
1E71
330
F1
100
AcDbDictionary
280
     1
281
     1
  3
ACAD_XREC_ROUNDTRIP
360
1E72
  0
DICTIONARY
  5
1E73
330
F2
100
AcDbDictionary
280
     1
281
     1
  3
ACAD_XREC_ROUNDTRIP
360
1E74
  0
DICTIONARY
  5
1E75
330
F3
100
AcDbDictionary
280
     1
281
     1
  3
ACAD_XREC_ROUNDTRIP
360
1E76
  0
DICTIONARY
  5
1E7D
330
F7
100
AcDbDictionary
280
     1
281
     1
  3
ACAD_XREC_ROUNDTRIP
360
1E7E
  0
DICTIONARY
  5
1E8F
330
1E4
100
AcDbDictionary
280
     1
281
     1
  3
ACAD_XREC_ROUNDTRIP
360
1E90
  0
DICTIONARY
  5
1E89
330
FD
100
AcDbDictionary
280
     1
281
     1
  3
ACAD_XREC_ROUNDTRIP
360
1E8A
  0
DICTIONARY
  5
1E91
330
1E5
100
AcDbDictionary
280
     1
281
     1
  3
ACAD_XREC_ROUNDTRIP
360
1E92
  0
DICTIONARY
  5
1E81
330
F9
100
AcDbDictionary
280
     1
281
     1
  3
ACAD_XREC_ROUNDTRIP
360
1E82
  0
DICTIONARY
  5
1E9D
330
1F3
100
AcDbDictionary
280
     1
281
     1
  3
ACAD_XREC_ROUNDTRIP
360
1E9E
  0
DICTIONARY
  5
1E9B
330
1F2
100
AcDbDictionary
280
     1
281
     1
  3
ACAD_XREC_ROUNDTRIP
360
1E9C
  0
DICTIONARY
  5
1E95
330
1EF
100
AcDbDictionary
280
     1
281
     1
  3
ACAD_XREC_ROUNDTRIP
360
1E96
  0
DICTIONARY
  5
1E97
330
1F0
100
AcDbDictionary
280
     1
281
     1
  3
ACAD_XREC_ROUNDTRIP
360
1E98
  0
DICTIONARY
  5
1E87
330
FC
100
AcDbDictionary
280
     1
281
     1
  3
ACAD_XREC_ROUNDTRIP
360
1E88
  0
DICTIONARY
  5
1E7B
330
F6
100
AcDbDictionary
280
     1
281
     1
  3
ACAD_XREC_ROUNDTRIP
360
1E7C
  0
DICTIONARY
  5
1E99
330
1F1
100
AcDbDictionary
280
     1
281
     1
  3
ACAD_XREC_ROUNDTRIP
360
1E9A
  0
XRECORD
  5
1E67
102
{ACAD_REACTORS
330
1E6D
102
}
330
1E6D
100
AcDbXrecord
280
     1
  1
AcDb_Thumbnail_Schema
102
{ATTRRECORD
341
1E68
  2
AcDbDs::TreatedAsObjectData
280
     1
291
     1
102
ATTRRECORD}
102
{ATTRRECORD
341
1E69
  2
AcDbDs::Legacy
280
     1
291
     1
102
ATTRRECORD}
  2
AcDbDs::ID
280
    10
 91
        8
102
{ATTRRECORD
341
1E6A
  2
AcDs:Indexable
280
     1
291
     1
102
ATTRRECORD}
102
{ATTRRECORD
341
1E6B
  2
AcDbDs::HandleAttribute
280
     7
282
     1
102
ATTRRECORD}
  2
Thumbnail_Data
280
    15
 91
        0
  0
XRECORD
  5
1E68
102
{ACAD_REACTORS
330
1E6D
102
}
330
1E6D
100
AcDbXrecord
280
     1
  1
AcDbDs::TreatedAsObjectDataSchema
  2
AcDbDs::TreatedAsObjectData
280
     1
 91
        0
  0
XRECORD
  5
1E69
102
{ACAD_REACTORS
330
1E6D
102
}
330
1E6D
100
AcDbXrecord
280
     1
  1
AcDbDs::LegacySchema
  2
AcDbDs::Legacy
280
     1
 91
        0
  0
XRECORD
  5
1E6A
102
{ACAD_REACTORS
330
1E6D
102
}
330
1E6D
100
AcDbXrecord
280
     1
  1
AcDbDs::IndexedPropertySchema
  2
AcDs:Indexable
280
     1
 91
        0
  0
XRECORD
  5
1E6B
102
{ACAD_REACTORS
330
1E6D
102
}
330
1E6D
100
AcDbXrecord
280
     1
  1
AcDbDs::HandleAttributeSchema
  2
AcDbDs::HandleAttribute
280
     7
 91
        1
284
     1
  0
XRECORD
  5
1EA4
102
{ACAD_REACTORS
330
1750
102
}
330
1750
100
AcDbXrecord
280
     1
102
DISPLAYNAME
  1
Imperial24
102
FLAGS
 90
        0
  0
XRECORD
  5
1EA0
102
{ACAD_REACTORS
330
236
102
}
330
236
100
AcDbXrecord
280
     1
102
DISPLAYNAME
  1
Metric50
102
FLAGS
 90
        0
  0
XRECORD
  5
1FA
102
{ACAD_REACTORS
330
1F9
102
}
330
1F9
100
AcDbXrecord
280
     1
 70
     1
 90
429727718
  1
D62C5603-E3A1-4AEA-B7FB-FE5D8D0755AF
310
504B03040A0000080000CC70623B3DEE336E79000000790000001B0000006175746F6465736B2D64657369676E2D7061636B6167652E786D6C3C3F786D6C2076657273696F6E3D22312E302220656E636F64696E673D227574662D3822203F3E3C666F726D6174733E3C666F726D61743E687474703A2F2F736368656D612E
310
6175746F6465736B2E636F6D2F64657369676E2D7061636B6167652F323030393C2F666F726D61743E3C2F666F726D6174733E504B0304140006080800CC70623BD486FD9CA0000000F4000000130000005B436F6E74656E745F54797065735D2E786D6C7D8EC10E82300C865F65E91D8A1E8C310C0EEA1BF002731658846E
310
D98AC1B77784ABF1D8FE5FBFBF75BBCE937A534CCEB38643598122B6FEE978D0B0485F9C41B54DDD7D022595594E1A469170414C76A4D9A4D207E29CF43ECE46F218070CC6BECC4078ACAA135ACF422C856C0E68EA1BF5669944DDD7BCDE7B1F8E415D77AECB980613C2E4AC91FC167A2B244592486606FC29C8FD7F045B9A
310
EF7053A7E60B504B0304140006080800CC70623B853B8169EB0000007C01000008000000636F72652E786D6C8D90416EC3201045AF62CDB6C206821CC7C244919D9CA01740401C94182C03558F5F9C3852BBEB6A467FFE9B197D7EFC9E1EC5975982F5AE035262288C535E5B377690E21535501C055FBC8FBF6C503839990E
310
5619041F179FE64D52DE45E362569DD7661365082642A11EB9E920A89B99642953CC8E702F67A9EE7234257977194EC9EAE275C4EABCCF5EAD5940D4AC6F0E35A568B8F43562CD7046CD199FD07E60174276A7BE677B5EADB0E0D14EEFFB6A31321A0D82627C4084204C3F096B71DD52F6819B16635EADF63F509AF53FA164
310
5DDCD1EDDD17164090FCC8732078B56691CB33A85CD7DCC40F504B0304140006080800CC70623B55019EA25F0000007C00000007000000636E782E786D6C4DCB3B0E80201045D1AD90E915ED2CF8AC45050C11660C8261F98AB1B07AC9C97D42D718D865D3E909258CFD00CCE24AC6E326A164D74DC0B4128928FF32603847
310
2BA13128B1252AC747C6BAB984FC68F0B87FE8960A5C09FE86CFB69FBA01504B0304140006080800CC70623BDBABAAF470010000D40300000C0000006662782F636F72652E786D6CC553D16E823014FD95A6AF4B694182CC941A83FA05FB810A9511A125A5257EFE2E82712ECEB8A7F100CD39F7F69E734AF9FADC366850B6
310
AF8DCE7018308C942E4C59EB2AC3DE1D498AD15A706B8CFB56869196ADCAF00863C12B6B7C374385D14E6907A836A59A41D9F7CA615434B0C8705F7CAA5606D23BA8E84F41278B93AC54100640439DE0BDB320004D43C63716C7C399D30917DCFBBA9CD9BA8469F5B156168B24CED3F7248AC8769F27244EB73B92EED8862C
310
B7F13E0C179B3C8F979C8ECD82BBBABDAA2BAC924E9558448CBD9330242CFA08E3154B5651FCC6D215639C8EE5774DBE2B5F6CF2B5768B68963BB5F5588420E442FC700B1139D4CB01F450C1E918227C2E09DF070D8140C84E1E9AAB8F1340832A9CB13130A5F1376A908D57309505ECF2A0DF179C4E9D30F5B239B87E3823
310
7A79C6F31DE1A8A5AEC08474B03C7837EAE4938639B44E5932B833D2C6B6B279CDC613877FA26EE21F4A2A4C63EC7F29A2F301D1F9F7A0E37D145F504B0304140006080800CC70623B9C113CC27E0000009D0000000B0000006662782F636E782E786D6C4DCCDF0A83201C86E15B91DFB94BFB330DD428C8FB886521330DA7
310
6397BF1A1DECE883878F57749FCDA1B7892F1BBC047A23808C7F84D9FA55424E0BE6803A256208E9EF06C84F9B91703228B1C690F78B66B34CD9A5439DF5CF0BFBF65E35BCA1B8D6A5C6F540381E886698B5741C695F9503EBA150A2F8958E3DC3EA0B504B0304140006080800CC70623B7DF2F77C2A010000120200003100
310
00006662782F41393633353835312D344632462D344230382D423046372D3739314545314133324237412F636F72652E786D6C8D51DB8EC22014FC15C2939B0D2DB4B45643319AE817EC0F6041255A68B86CFCFC856D4D76DF7CE190393373060EDB3DC707F856CE6B6B7A480A0C81328395DA5C7B18C3057510EC3873D686
310
3F34088C18550F330C39BB3A1BA7051AAC09CA84841A2BD5020AEF55806078A44B0FFD7053A328440C89E1EFC52486BBB8AA8214A99D789CF9E05200300FC927E4FB4D5B375D43103D5527440FB843077C5AA3F5861C8F645F5787F59E95B390B318B55CE45AA638FAA2957BD7248B390B7A7CC51F9C124149C82B8C378810
310
84AB2F42B7B8DD56F413775B8C5999E9FF4471926F8AA236A1AE96B8B3CC434E5839373893369E1FAF30EA395917409EB7F26AF8801C171837A4A6AC9C89E9F9C9B1A58BA30FD6A5EF5DDDCF894B9AD9B6A59C957943A9FCAE2FD5BC4DFE03504B0304140006080800CC70623BAD7543B64E01000033030000300000006662
310
782F41393633353835312D344632462D344230382D423046372D3739314545314133324237412F636E782E786D6CD593CD6EC32010845F0571AD6CE3D48AD20813A9873E410FBD12D82434182C7EAAE6EDBB2424CD25871E7B41D6EC30B3FA84F9E67BB2E40B4234DE8DB46F1925E094D7C6ED479AD3AE5951B2113C789FEE
310
6C943839C1488B4C05DF079FE72A69D8C96C13AAD6B8631503449F83828872B949AC57D26200B826A308D316B4064D6E46FCDA41C05550DC9E483A00797BFD207EFB092A45DE9514C1BBD22178396BD39D891265658C238DEA00936C654E5E433CB65A26D9F6EDB5EBC14EBF49A45CB856E66048291F6939A9A81BB5C89177
310
38143CA680F4AA299D66A042CEB3354A2684DC9D8D178FE0D9B8B41CAAD720F880EE7EF93C0C18769E099ECC04D5A102C8049A8A05632F4DDF376CF1DE0F6BB65C2F8627B65A33C6BB62177CEBBDAD973006829F89F22E814B54F4BC2BE347F8AA8F681390B50FA73F804400B5F542E796F19FF974E7F78DB802FE05E20750
310
4B0304140006080800CC70623BE75B7789680500003C100000340000006662782F41393633353835312D344632462D344230382D423046372D3739314545314133324237412F6F626A656374732E786D6CAD575B8F9B3818FD2B887D06C22499CB8AA1CA655245D5B455A356FB305264C061D8018C6C3393D95FBFC7600890
310
A4CD5EF210B0B1BFEBF98E3F7B1FF6596ABC522E1296DF9BAE3D320D9A872C4AF2F8DE2CE5CEBA358D0FBEC719939D65A691938CDE9B6ADAF4BD98B3B2D05311DD91329583D9D5FC0F438434A7A611A644887B5384CF34233629258BA878B12322891DEFF6B66BD70BFB62634E8AE781D082709A4B588AF91C528CDA28B73F
310
1C998EEF39EABBEFA97FBD6A7C7E9553F9D3D79FE442923C3C523610337627CB87ABE99D359D4CC6D6E4FACAB5E6ABF9D2726FC6A3C5F56271377BB88362213924694B38DD99FE47C48627A1E7D49F5A8BB5E1A74C0A599ED3B0F21F1E56366B89112D681E218F0915D0D6F17AD41FBA2A369DCF6335D62ABBD39779D5DDD1
310
11D4D8DE3CBB96B2E04FB8202E41051754A1AA8E8F76B4C6DFE810B580B1547F4B84911149794252234D024EF8BBE963A95AE27B3D310A9D5C215C7960FAEE415ED75694C6AFB17BCACA5D99A60A9AA65F217B0BFC53292ACB92BF283FAD0D3621576592CB5BED907C2FA8E9DF794E35E97BEA31BED21FEB401ABB94C44839
310
DCACBF0E1C5DA8DA5B2F4DFFD32AD86F543D9E565E7056502E157C00AD2671CD534549AB752FCA9CDA00677A313F04E51B22FF19E57B300579E3C97EB29F682D92935CEC18CF901B7B54FD8C51F362B56FC72FE0B3C1EAE335EDCCBF5AEC39ADB17DC238973F804BA5E6F6BFE7AF1FB32E523BE9F3BD571418E3631DCA4D48
310
5250CF639223210A9446CA30052EDF057BD35F8329C1ECD84552BF0DC8D18BE7BCE23BFE6BD960AB4A7DE79923A103BEBD80F911CBAA2C60DB19B01CF164A5583B772EE6D3FFA56666CBCDA74DC97724A48F9A58967497E489C4D979006FD7A05E227A1EBDD0F737C623387A9C844D3709995625106D157315F8B8392CD4E0
310
A0B9A720C4BE9829CEF37EA1E13111214D53925356365ADA634861B52519DD27A00AEB808EAF0628E6F435519D446F45CF2C9CF5214F0A15B2F6D06B79DA3EE3CBF7F56780D2F4E7EF73A0F5E5B02A38D07DC852C6B7C1FBB6664213E0C39E3EBA7FF4E1AD23EA2829407C85E586727488B751B2DB9502BC7B228A3FD68B6E
310
A65A22397E690AA8D158D7E404EC8CDA235CC3B7D1898680131CEC2CDF2638C65196279577750F15884AEE19F94199155B92B13297978469D4F8D358DF0AEF7631E28DC8F0D9F437D5D39A83B2231A1D52D543813A824EF8D44BCFF2FA6A31BD1E8DAD87F1CCB526B3879935BF59CDADD5C37479BB1CDD4CA7B3556B516589
310
EF352754B706114D9C885EC9131DE6EFEB43D99AFE2391C2F958179413D7CFEF6B1B6DB1E7600F00DE6E5C67454A339A4BA2E0FBA85ED26F045D454F463DBFCE484C2F90F2E5E3666003662ED8F755951A7D1BECD5B30B550B2785C8E7320B7292A4838DDA71BBC863ED7613CAF659337A3354231D4FF4A182A54904C2898C
310
98B28C4AD0CE056CCF332A80986E571EE9DBC305BB5FEB7E509220A58D25CF042D712A806AC0AD0C657FDEF80D2D9CEAA2EE4D1C76F60BFE74219A06527D6F82DF6412526107381E55E353090704D085B52408A8913C4ED159D79BDA71BB4BC506F4831350EB6F975CD22D69BF7AC49B91A2C0A9DDA3D5CA36AD20FC478E37
310
E61844E2352865EBCB61A275A65283CAAA9DD27703B4102F5AF51EF5F573B75CBB5AD38BC845F7A49F82A0966A49C2E3EA5EA0ECD326CD965F1DB402C6FA8B51A4658C5C5E2EC9E214602E55810345408596591009A82E7E7FFACA19EEA299B14A0081A705CB3296EBC14CDF658DCD336EA6D1136881AAEB87B81AB9EE53D5
310
F5EB8BC8362082DA24122F98680A4E7930C01A0079749CEA14382A0783E5EBA5A10F8C098456A03D6A4AEB6BB881E2513747552A5DB22C7EDAF83BD5528081A365F7FF06504B0304140006080000CC70623B000000000000000000000000350000006662782F41393633353835312D344632462D344230382D423046372D37
310
39314545314133324237412F76657274696365732E62696E504B0304140006080800CC70623BF270F1330600000004000000360000006662782F41393633353835312D344632462D344230382D423046372D3739314545314133324237412F747269616E676C65732E62696E636660600000504B0304140006080000CC7062
310
3B000000000000000000000000370000006662782F41393633353835312D344632462D344230382D423046372D3739314545314133324237412F617474726962757465732E62696E504B0304140006080800CC70623B08DA0BD19000000041010000360000006662782F41393633353835312D344632462D344230382D4230
310
46372D3739314545314133324237412F6469726563746F72792E786D6C858F410AC3201045AF22B36F53E9A60B35CBEEBAE80D244E44489C6234F4F835464A48035D0DF398FF9F8AF63D0E6CC63039F212F8F9020C7D47C6792B21C5FE7403D62A1188E2E60C98D7234A5830286103A55745067B9D86B8A3CF9C7F90C11DE6
310
07FB144396D7B6A82D282E9A152AD114D5EF2CB866EEE831B8EEA07A7BB5A8D7D61A2BAAEB7FD5F70921FF497D00504B0304140006080800CC70623BEDD1DC58FD000000A00100003B0000006662782F41393633353835312D344632462D344230382D423046372D3739314545314133324237412F7265736F75726365732F
310
636F72652E786D6C8D504B6E833010BD0A9A6D65B00922041947112427E8052C33A156828DFCA97AFC9A40A576D7CDCCE87D344F8F9FBFE667F689CE6B6B3A6039850C8DB2A336530731DC4903D95970676DF82583CCC8193B5861107C72362E3BA4AC096842428D1D7107A5F7182053CF7474E0D507CE32973124857FE48B
310
540F3961CEF244279DE03EB81420DB9EAC1384436FA353E879B1B182C7A8C75DA3C7F453DF353A1075D537A7BA6464B8F535A99AE14A9A2BBD90E350DD183B5CFABE3AF262350B1EF4FC9351399401471025A527C218A1E53BAB5A5AB765F5469B96525EACF23FA6B88CFF34456DC2A1DCE36E360F82A5202F42F062ED2BAD
310
579969AFDD8A6F504B010214000A0000080000CC70623B3DEE336E79000000790000001B00000000000000000000000000000000006175746F6465736B2D64657369676E2D7061636B6167652E786D6C504B01021400140006080800CC70623BD486FD9CA0000000F40000001300000000000000000000000000B20000005B
310
436F6E74656E745F54797065735D2E786D6C504B01021400140006080800CC70623B853B8169EB0000007C010000080000000000000000000000000083010000636F72652E786D6C504B01021400140006080800CC70623B55019EA25F0000007C000000070000000000000000000000000094020000636E782E786D6C504B
310
01021400140006080800CC70623BDBABAAF470010000D40300000C00000000000000000000000000180300006662782F636F72652E786D6C504B01021400140006080800CC70623B9C113CC27E0000009D0000000B00000000000000000000000000B20400006662782F636E782E786D6C504B01021400140006080800CC70
310
623B7DF2F77C2A010000120200003100000000000000000000000000590500006662782F41393633353835312D344632462D344230382D423046372D3739314545314133324237412F636F72652E786D6C504B01021400140006080800CC70623BAD7543B64E010000330300003000000000000000000000000000D2060000
310
6662782F41393633353835312D344632462D344230382D423046372D3739314545314133324237412F636E782E786D6C504B01021400140006080800CC70623BE75B7789680500003C10000034000000000000000000000000006E0800006662782F41393633353835312D344632462D344230382D423046372D3739314545
310
314133324237412F6F626A656374732E786D6C504B01021400140006080000CC70623B0000000000000000000000003500000000000000000000000000280E00006662782F41393633353835312D344632462D344230382D423046372D3739314545314133324237412F76657274696365732E62696E504B01021400140006
310
080800CC70623BF270F133060000000400000036000000000000000000000000007B0E00006662782F41393633353835312D344632462D344230382D423046372D3739314545314133324237412F747269616E676C65732E62696E504B01021400140006080000CC70623B0000000000000000000000003700000000000000
310
000000000000D50E00006662782F41393633353835312D344632462D344230382D423046372D3739314545314133324237412F617474726962757465732E62696E504B01021400140006080800CC70623B08DA0BD1900000004101000036000000000000000000000000002A0F00006662782F41393633353835312D344632
310
462D344230382D423046372D3739314545314133324237412F6469726563746F72792E786D6C504B01021400140006080800CC70623BEDD1DC58FD000000A00100003B000000000000000000000000000E1000006662782F41393633353835312D344632462D344230382D423046372D3739314545314133324237412F7265
310
736F75726365732F636F72652E786D6C504B0506000000000E000E0080040000641100000000
  0
XRECORD
  5
1F8
102
{ACAD_REACTORS
330
1F7
102
}
330
1F7
100
AcDbXrecord
280
     1
 70
     1
 90
429727718
  1
30362254-06B7-45E0-A893-8CFA70E3D6BC
310
504B03040A0000080000CC70623B3DEE336E79000000790000001B0000006175746F6465736B2D64657369676E2D7061636B6167652E786D6C3C3F786D6C2076657273696F6E3D22312E302220656E636F64696E673D227574662D3822203F3E3C666F726D6174733E3C666F726D61743E687474703A2F2F736368656D612E
310
6175746F6465736B2E636F6D2F64657369676E2D7061636B6167652F323030393C2F666F726D61743E3C2F666F726D6174733E504B0304140006080800CC70623BD486FD9CA0000000F4000000130000005B436F6E74656E745F54797065735D2E786D6C7D8EC10E82300C865F65E91D8A1E8C310C0EEA1BF002731658846E
310
D98AC1B77784ABF1D8FE5FBFBF75BBCE937A534CCEB38643598122B6FEE978D0B0485F9C41B54DDD7D022595594E1A469170414C76A4D9A4D207E29CF43ECE46F218070CC6BECC4078ACAA135ACF422C856C0E68EA1BF5669944DDD7BCDE7B1F8E415D77AECB980613C2E4AC91FC167A2B244592486606FC29C8FD7F045B9A
310
EF7053A7E60B504B0304140006080800CC70623B1EC5D7A3EB0000007C01000008000000636F72652E786D6C8D90416EC3201045AF82665B6103C6756C6122AB4D4ED00B204C5C94182C03558F5F9C3852BBEB6A467FFE9B197D71FC9E6FE8CBACC17AD7032D0820E3B41FAD9B7A48F1820F808E52ACDEC75F36404ECDA687
310
4D0629A6D5A76597B477D1B89855E747B38B2A041301E95B6E7A08FAD3CCAA50296647B8168BD2573599823EBB0CA76447F43862C7BCCF5EAC59410E4DDD9C7973C2755553CCCFA4C603E3040F1565ED3B1FDE4E432BCA0D9622DAF9795FAF464533826484B498524CD807E51D79ED187F21878E10516EF63F505AC67F42C9
310
BA58B1FDDD071640D2FCC87D2045B96591CB3DA85CB7DCE40F504B0304140006080800CC70623B55019EA25F0000007C00000007000000636E782E786D6C4DCB3B0E80201045D1AD90E915ED2CF8AC45050C11660C8261F98AB1B07AC9C97D42D718D865D3E909258CFD00CCE24AC6E326A164D74DC0B4128928FF32603847
310
2BA13128B1252AC747C6BAB984FC68F0B87FE8960A5C09FE86CFB69FBA01504B0304140006080800CC70623B8C9102E971010000D40300000C0000006662782F636F72652E786D6CC5535B6E833010BC8AE5DF0A6C08340F1947A84D4ED00B38C6A128602363A31CBFCB234A53A551FA553EC09AD9F5CE8C31DB9E9B1AF5CA
310
7695D1198E428A91D2D214952E33ECDD315861B4E5CC1AE3BE9561A445A3323CC098B3D21ADFCE9034DA29ED00D5A6503328BA4E398C640D8B0C77F253352214DE4145770A5B214FA2546114020D759C75CE8200340D19DE981F0F6746269C33EFAB6266AB02A655C74A59CCF365BADC27CB5D902ED22848F6340DF238A141
310
BE88E2F57B92BFEDF23523433367AE6A2EEAA455C2A902F398D2751045018D3FA264435F3771F242571B4A1919CA6F9A7C5B3CD9E42BED16F12C776AEB308F40C848FC700B1139D4891EF410CEC810227CC6846F8386402064270EF5C5C709A05E49676C024C61FC95EA45ED154CA5211D1FF4FB8291A913A68E9B83EBBB33
310
E2A7673CDE118E5AE8124C0807CB8377834E366998436B950D7A7746DAD846D4CFD978E0F04FD455FC5D49D2D4C6FE9722321F10997F0F32DC47FE05504B0304140006080800CC70623BFFEA85907E0000009D0000000B0000006662782F636E782E786D6C4DCCD10A83201886E15B91FFDC95D95A811AB6F23E625948A6C3
310
E9D8E5AF46073BFAE0E1E365ED67B3E8ADC3CB78C7815C7240DA3DFC64DCC221C519D7805AC182F7F1EF06C88D9BE6703008B6049F9E274D7A1E938DBB5AE3D6131B2589BA0D3D965551E0B2EA732C9B9A624AAEB41E3A557677029960D9AFB4EF11165F504B0304140006080800CC70623B4FEEA4082C0100001202000031
310
0000006662782F39464131463745442D413632322D343644302D413938332D3331353338454246344243312F636F72652E786D6C8D515B6EC32010BC0AE2AB55850DD871ED0813254D72825EC00192A2C460F1A872FC42ED48ED5F7E00CDCECCCEB26C731F6FE05B39AFADE921293004CA082BB5B9F43086336A21D870E6AC
310
0D7F68109861543DCC30E4ECE26C9C164858139409093556AA051CBC570102714B8F1E7AF1A5C6A11862480C7F2DA6415C878B2A4891CA89C7990F2E050073937C42DE1DB7E4F87ED8A36D4329AA9B3D46DBAEAD504556557BD81DEBDD0761E52CE42C462D17B996298E3E6BE59E35C962CE821E1FF18553435012728A7187
310
0841987E927A8D9B35ADDF70BBC6989599FE4F1427F9A4286A132ABAC49D651EF234CD5CE04CDA78BA3DC2A8FB645D00B9DF8B57E215725C60BCA2A463E54C4CE327C7A65E1C7DB02E7DEFCBF594B864C5CA6CDBD49C957943E9FA5D5FBAF336F90F504B0304140006080800CC70623BAD7543B64E01000033030000300000
310
006662782F39464131463745442D413632322D343644302D413938332D3331353338454246344243312F636E782E786D6CD593CD6EC32010845F0571AD6CE3D48AD20813A9873E410FBD12D82434182C7EAAE6EDBB2424CD25871E7B41D6EC30B3FA84F9E67BB2E40B4234DE8DB46F1925E094D7C6ED479AD3AE5951B2113C
310
789FEE6C943839C1488B4C05DF079FE72A69D8C96C13AAD6B8631503449F83828872B949AC57D26200B826A308D316B4064D6E46FCDA41C05550DC9E483A00797BFD207EFB092A45DE9514C1BBD22178396BD39D891265658C238DEA00936C654E5E433CB65A26D9F6EDB5EBC14EBF49A45CB856E66048291F6939A9A81BB5
310
C8917738143CA680F4AA299D66A042CEB3354A2684DC9D8D178FE0D9B8B41CAAD720F880EE7EF93C0C18769E099ECC04D5A102C8049A8A05632F4DDF376CF1DE0F6BB65C2F8627B65A33C6BB62177CEBBDAD973006829F89F22E814B54F4BC2BE347F8AA8F681390B50FA73F804400B5F542E796F19FF974E7F78DB802FE05
310
E207504B0304140006080800CC70623B16AB87BA640500003C100000340000006662782F39464131463745442D413632322D343644302D413938332D3331353338454246344243312F6F626A656374732E786D6CAD575B6FA33818FD2B887DE6924B3BED8A326A92B68A663B534DD4D13E548A0C38942D60649B369D5FBFC7
310
600890A493BDE42160637FD7F31D7FF63E6FB3D478A55C242CBF3247B66B1A340F5994E4F19559CA8D75611A9F7D8F33263BCB4C232719BD32D5B4E97B316765A1A722BA21652A07B3B7B33F0D11D29C9A46981221AE4C113ED38CD8A4942CA2E2C58E882476BCD9DA23BB5ED8171B73523C0F841684D35CC252CCE79062D4
310
468DFA43D7747CCF51DF7D4FFDEB5593E3AB9CCA9FBEFE241792E4E19EB28198C968BAB8199F5D5A67D3E9C49A9E8F47D6EC76B6B0469F26EEFC7C3EBFBCBEB98462213924694B38DD98FE1D62C393D073EA4FADC5DAF04326852CCF6958F90F0F2B9BB5C48816348F90C7840A68EB78EDF68723159BCEE7891A6B95DDE9D3
310
BCEAEEE8086A6C6F9E5D4B59F0175C10A7A0820BAA5055C7473B5AE3CFDD452D602CD5DF12616444529E90D448938013FE6EFA58AA96F85E4F8C42275708571E98FE6827AF6B2B4AE3D7D83D64E5A64C53054DD3AF90BD06FEA9149565C94FCA0F6B834DC85599E4F2423B24DF0B6AFA979E534DFA9E7A4CC6FA631D486393
310
921829879BF5D781A373557BCB85E97FB90DB62B558F8795179C15944B051F40AB495CF35451D26A4727654E6D8033BD98EF82F21D91FF8AF2DD9982BCF1643BDD4EB516C9492E368C67C88DED563FC36D5EACF66DFF057C3658BDBFA69DF9578B3DA735B64F18C7F20770A9D45CFCF7FCF563D6456A277DBEF78A02637CA2
310
43B90A490AEAB94F72244481D24819A6C0E59B606BFA4B3025981DBB48EAB701D97BF19C577CC77F2D1B6C55A9EF3C732474C0B727303F625995056C3B02963D9EAC146BE78EC5FCEC7FA999EBC5EACBAAE41B12D27B4D2C0BBA49F244E2ECDC81B76B502F113D8F5EE8FB1BE3111CDD4FC2AA9B844CAB1288B68AB90A7CDC
310
1C166AB0D3DC5310625FCC14E779BFD0709F8890A629C9292B1B2DED31A4B0DA928CEE135085754027E3018A397D4D5427D15BD1330B677DC8934285AC3DF45A9EB68FF8F2B8FC0A509AFEECFD0FF2DE25CC6047F7214B195F07EFEB9A094D800F7BFAE8FED187B78EA8A3A400F115961BCAD1215E47C966530AF0EE8128FE
310
58CEBB996A8964FFA529A046635D9353B0336A8F700DDF46271A024E70B0B37C9DE01847591E54DED53D54202AB947E4076556AC49C6CA5C9E1226B7F1A7B1BE15DEED62C41B91E1B3E9AFAAA735036547343A925075041DF0A9979E893B391F8FCFA6967B3EFB644DCF6E5CEBFAE272625DCC6FAF3FB93793C5F90CE1EF57
310
407342756B10D1C489E8953CD1617E5CEECAD6F4EF8914CE5D5D504E5C3F1F9736DA62CFC11E00BCDDB8CC8A9466349744C1F75EBDA4DF09BA8A9E8C7A7E9991989E20E5DBDD6A6003664ED8F7A04A8DBE0DF6EAD9B9AA858342E47399053949D2C146EDB85DE4B176BB0965FBAC19BD19AA918E27FA50C1D22402E144464C
310
59462568E704B6E71915404CB72B8FF4EDE184DDAF753F284990D2C6926782963815403548A70C657FDEF80D2D9CEAA2AE4C1C76F60BFE74219A06527D6582DF6412526107381E55E353090704D085B52408D0933C4ED159D79BDA71BB4BC506F4831350EB6F979CD22D69BF7AC49B91A2C0A9DDA3D5CA36AD20FC478E37E6
310
1844E2352865EBCB6EA275A652E3836BE04EFB400BF1A2556F515F1FBB35B2AB35BD889C744FFA1004B5544B121E57F70215746DD2F5E2C1412B602CBF19455AC6C8E5E9922C4E01E65215385004546899059180EAFCF7A707CE7017CD8CDB0410789AB32C63B91E5CEBBBACB17AC6CD347A022D5075FD106377347AAABA7E
310
7D11590744509B44E205134DC1290F06580320F78E537D3D73540E06CB970B431F185308AD40BBD794D6D77003C5A36E8EAA54BA64597CD8F83BD552A080A365F7FF06504B0304140006080000CC70623B000000000000000000000000350000006662782F39464131463745442D413632322D343644302D413938332D3331
310
353338454246344243312F76657274696365732E62696E504B0304140006080800CC70623BF270F1330600000004000000360000006662782F39464131463745442D413632322D343644302D413938332D3331353338454246344243312F747269616E676C65732E62696E636660600000504B0304140006080000CC70623B
310
000000000000000000000000370000006662782F39464131463745442D413632322D343644302D413938332D3331353338454246344243312F617474726962757465732E62696E504B0304140006080800CC70623B08DA0BD19000000041010000360000006662782F39464131463745442D413632322D343644302D413938
310
332D3331353338454246344243312F6469726563746F72792E786D6C858F410AC3201045AF22B36F53E9A60B35CBEEBAE80D244E44489C6234F4F835464A48035D0DF398FF9F8AF63D0E6CC63039F212F8F9020C7D47C6792B21C5FE7403D62A1188E2E60C98D7234A5830286103A55745067B9D86B8A3CF9C7F90C11DE607
310
FB144396D7B6A82D282E9A152AD114D5EF2CB866EEE831B8EEA07A7BB5A8D7D61A2BAAEB7FD5F70921FF497D00504B0304140006080800CC70623B0D6EF93BFE000000A00100003B0000006662782F39464131463745442D413632322D343644302D413938332D3331353338454246344243312F7265736F75726365732F63
310
6F72652E786D6C8D50596E833010BD0A9ADFCA60B334011947A8694ED00B586642AC041B79A97AFC9A40A5F6AF3F33A3B7689E1E3F7DCD8FEC139DD7D6F4C0720A191A65476DA61E62B892236427C19DB5E1970C322367EC618541F0C9D9B8EC90B226A009093576C41D94DE63804C3DD2D18357379C652E63480A7FCF17A9
310
EE72C29CE5894E3AC17D702940B63D59270887DE46A7D0F36263058F518FBB468FE9A7BE6A7420864373B8D4873369AA8691FA421B3294352543C5CAF65C0F6FEF43CB8BD52C78D0F34F46E550061C419494B6843142CB0F5677F4B52BEB177AEC28E5C52AFF638ACBF84F53D42654E51E77B379102C05791282176B5F693D
310
CB4C7BED567C03504B010214000A0000080000CC70623B3DEE336E79000000790000001B00000000000000000000000000000000006175746F6465736B2D64657369676E2D7061636B6167652E786D6C504B01021400140006080800CC70623BD486FD9CA0000000F40000001300000000000000000000000000B20000005B
310
436F6E74656E745F54797065735D2E786D6C504B01021400140006080800CC70623B1EC5D7A3EB0000007C010000080000000000000000000000000083010000636F72652E786D6C504B01021400140006080800CC70623B55019EA25F0000007C000000070000000000000000000000000094020000636E782E786D6C504B
310
01021400140006080800CC70623B8C9102E971010000D40300000C00000000000000000000000000180300006662782F636F72652E786D6C504B01021400140006080800CC70623BFFEA85907E0000009D0000000B00000000000000000000000000B30400006662782F636E782E786D6C504B01021400140006080800CC70
310
623B4FEEA4082C0100001202000031000000000000000000000000005A0500006662782F39464131463745442D413632322D343644302D413938332D3331353338454246344243312F636F72652E786D6C504B01021400140006080800CC70623BAD7543B64E010000330300003000000000000000000000000000D5060000
310
6662782F39464131463745442D413632322D343644302D413938332D3331353338454246344243312F636E782E786D6C504B01021400140006080800CC70623B16AB87BA640500003C1000003400000000000000000000000000710800006662782F39464131463745442D413632322D343644302D413938332D3331353338
310
454246344243312F6F626A656374732E786D6C504B01021400140006080000CC70623B0000000000000000000000003500000000000000000000000000270E00006662782F39464131463745442D413632322D343644302D413938332D3331353338454246344243312F76657274696365732E62696E504B01021400140006
310
080800CC70623BF270F133060000000400000036000000000000000000000000007A0E00006662782F39464131463745442D413632322D343644302D413938332D3331353338454246344243312F747269616E676C65732E62696E504B01021400140006080000CC70623B0000000000000000000000003700000000000000
310
000000000000D40E00006662782F39464131463745442D413632322D343644302D413938332D3331353338454246344243312F617474726962757465732E62696E504B01021400140006080800CC70623B08DA0BD190000000410100003600000000000000000000000000290F00006662782F39464131463745442D413632
310
322D343644302D413938332D3331353338454246344243312F6469726563746F72792E786D6C504B01021400140006080800CC70623B0D6EF93BFE000000A00100003B000000000000000000000000000D1000006662782F39464131463745442D413632322D343644302D413938332D3331353338454246344243312F7265
310
736F75726365732F636F72652E786D6C504B0506000000000E000E0080040000641100000000
  0
XRECORD
  5
175
102
{ACAD_REACTORS
330
173
102
}
330
173
100
AcDbXrecord
280
     1
270
     1
271
     1
  0
XRECORD
  5
174
102
{ACAD_REACTORS
330
173
102
}
330
173
100
AcDbXrecord
280
     1
270
     1
271
     1
  0
XRECORD
  5
1FB
102
{ACAD_REACTORS
330
173
102
}
330
173
100
AcDbXrecord
280
     1
 70
     0
 90
1673772943
  1
ECE7A1D2-D628-4531-984C-D00F80459256
310
504B03040A0000080000CC70623B3DEE336E79000000790000001B0000006175746F6465736B2D64657369676E2D7061636B6167652E786D6C3C3F786D6C2076657273696F6E3D22312E302220656E636F64696E673D227574662D3822203F3E3C666F726D6174733E3C666F726D61743E687474703A2F2F736368656D612E
310
6175746F6465736B2E636F6D2F64657369676E2D7061636B6167652F323030393C2F666F726D61743E3C2F666F726D6174733E504B0304140006080800CC70623BD486FD9CA0000000F4000000130000005B436F6E74656E745F54797065735D2E786D6C7D8EC10E82300C865F65E91D8A1E8C310C0EEA1BF002731658846E
310
D98AC1B77784ABF1D8FE5FBFBF75BBCE937A534CCEB38643598122B6FEE978D0B0485F9C41B54DDD7D022595594E1A469170414C76A4D9A4D207E29CF43ECE46F218070CC6BECC4078ACAA135ACF422C856C0E68EA1BF5669944DDD7BCDE7B1F8E415D77AECB980613C2E4AC91FC167A2B244592486606FC29C8FD7F045B9A
310
EF7053A7E60B504B0304140006080800CC70623BD9DDAED0EC0000007C01000008000000636F72652E786D6C8D90416EC3201045AF82665B61836D9CD8C2444DD39CA01740405C94182C03558F5F9C3852BBEB6A467FFE9B197D7EF89E6EE8CB2CC17A37002D0820E394D7D68D03A478C17B4007C117EFE32F1B20272733C0
310
2A83E0E3E2D3BC49CABB685CCCAAF3DA6CA20CC14440EA969B0182FA34932C648AD911AEC52CD5558EA6A0CF2EC329598D1E47ACCEFBECC59A050463A7EA5833865FEBDD0E37353BE3EE8DBDE3F6786A48D375FBF6CC78B9C282473B3DEFABC5C86834888A900E538A49F5419B9EB47DD5BC907D4F082F57FB1F28CDFA9F50
310
B22ED6D5F6EE030B20687EE43E10BC5CB3C8E51E54AE6B6EE207504B0304140006080800CC70623B55019EA25F0000007C00000007000000636E782E786D6C4DCB3B0E80201045D1AD90E915ED2CF8AC45050C11660C8261F98AB1B07AC9C97D42D718D865D3E909258CFD00CCE24AC6E326A164D74DC0B4128928FF326038
310
472BA13128B1252AC747C6BAB984FC68F0B87FE8960A5C09FE86CFB69FBA01504B0304140006080800CC70623BA24EB22D72010000D40300000C0000006662782F636F72652E786D6CC5535B6E833010BC8AE5DF0A6C5E49888CA3A6694ED00B38E05014B091B1518EDFE511A5A9D228FD2A1F60CDEC7A67C6986DCE4D8D7A
310
69BA4AAB0C073EC548AA5C17952A33ECECD15B61B4E1CC686DBF9561A44423333CC098B3D268D7CE50AE9595CA02AA74216750749DB418E5352C32DCE59FB211BE70162ABA93DF8AFC244AE9073ED050C759670D0840D390E18DF9F1706664C23973AE2A66B62A605A75ACA4C13C4976E1364A12EF355A2EBD384AF65EFA96
310
BC7B8BED2EA6719AAE16FB8491A199335B351775B991C2CA02F390D2D40B028F861F41BCA68B7518BFD0D59A524686F29B26D7164F36B94AD9289CE54E6D1DE6010819891F6E21228B3AD1831EC219194284CF98F06DD01008846CC5A1BEF83801D4CBDC6A1303536877A57A513B0953A94FC707FDBE6064EA84A9E3E6E0FA
310
EE8CF0E9198F7784A316AA0413C2C2F2E0ECA0934D1AE6D05A69BCDE9E91D2A611F573361E38FC1375157F5752AE6B6DFE4B11990F88CCBF0719EE23FF02504B0304140006080800CC70623B408A7D3B7C0000009D0000000B0000006662782F636E782E786D6C4DCCD10A83201886E15B91FFDC552A92A0064DBC8F581632
310
D3703A76F9ABD1C18E3E78F878E5F0D9027ABBFCF2292AE86E2D20171F69F6715550CB827B40839639A5F2770314A7CD293819B45C73AAFB45B35BA61ACAA1C1C7E7855C58C15BC331339661262CC762340413D68D77DA5B42298546CBE6573AF60CEB2F504B0304140006080800CC70623B449FB9BD290100001202000031
310
0000006662782F36394639363044362D344446342D343946362D394244322D3234314243333846323333332F636F72652E786D6C8D515B6EC32010BC0AE22B55850D98B871848994463E412FE002495162B07854397EA176A4F62F3F2C9A9D991D587EB84F37F0AD7D30CEF6905418026DA553C65E7A98E219ED203808EE9D
310
8B7F6810D871D23D2C3014FCE25D9A57483A1BB58D19B54EE9151C43D0110279CB971E06F9A5A7B11A53CC8C70ADE6515EC78BAE4895DB992778883E0700CB907242D17643D7E2538BD869608875438BBAE38922CAC8F1BDD90DB4691A5E2F42C153326A951B95E398B3D1FE599322163C9AE9115F7A3D46ADA0A018778810
310
84E907617BDCEE297BC5BB3DC6BC2EF47FA234AB2745C9D8D8D035EE220B50105E2F0DC1954B9FB747187D9F9D8FA0CCDB042D5FA0C015C65B42DF78BD10F3F3B363CB56C7109DCFDFBBB97E662ED92EB62D13BC2E1BCAE5777DB9966D8A1F504B0304140006080800CC70623BAD7543B64E01000033030000300000006662
310
782F36394639363044362D344446342D343946362D394244322D3234314243333846323333332F636E782E786D6CD593CD6EC32010845F0571AD6CE3D48AD20813A9873E410FBD12D82434182C7EAAE6EDBB2424CD25871E7B41D6EC30B3FA84F9E67BB2E40B4234DE8DB46F1925E094D7C6ED479AD3AE5951B2113C789FEE
310
6C943839C1488B4C05DF079FE72A69D8C96C13AAD6B8631503449F83828872B949AC57D26200B826A308D316B4064D6E46FCDA41C05550DC9E483A00797BFD207EFB092A45DE9514C1BBD22178396BD39D891265658C238DEA00936C654E5E433CB65A26D9F6EDB5EBC14EBF49A45CB856E66048291F6939A9A81BB5C89177
310
38143CA680F4AA299D66A042CEB3354A2684DC9D8D178FE0D9B8B41CAAD720F880EE7EF93C0C18769E099ECC04D5A102C8049A8A05632F4DDF376CF1DE0F6BB65C2F8627B65A33C6BB62177CEBBDAD973006829F89F22E814B54F4BC2BE347F8AA8F681390B50FA73F804400B5F542E796F19FF974E7F78DB802FE05E20750
310
4B0304140006080800CC70623B8D05915C650500003B100000340000006662782F36394639363044362D344446342D343946362D394244322D3234314243333846323333332F6F626A656374732E786D6CAD575B6FA33814FE2B887D06429276DA1565D4266D158D3A339A6846FB502932E050B66023DB74D2FDF5FB190C01
310
9276B2973C046C8ECFF53B17071F77456EBD502133CEAE6CDF9DD81665314F32965ED995DA3A17B6F5310C04E7AA47665B8C14F4CAD6DB7618A48257A5D94AE89654B91AEDDEDDFC61C998326A5B714EA4BCB265FC440BE2924AF184CA6737218AB8E976E7FA6E4338649B0A523E8D98964450A6A029F619B8588D52FE7039
310
B1BD30F0F4F730D0FF866AF6369557DB33949F31A9088B0F848DD8CCFCF9F2767A76E99CCDE733677E3EF59D9BBB9BA5E37F984D16E78BC5E5F5ED25044B25C0C96822E8D60EEFE11B91C581D77CEA34368A1F5329E68CD1B8B61F16D63A1B8E092D294B10C78C4A48EB593D192E7DED9BDEE7995E1B91FDEDD3ACEA9FE831
310
6A756F9F7D4D79F4274C90A7A04248AA51D5F8C718DAE06FB2F75AC4796EBE65D22A88A22223B995679120E2D50E41AA49C260C046A35368846B0BECD0DFF3EBEB8AD4F835768F69B9ADF25C43D30E6B646F807FAA64AD59F61715C7A54127C4AACA98BA3006A9D792DAE165E0D59B61A01FB3A9F9D838D2DAE62445C86166
310
F37564E842E7DE6A69879FEEA2DD5AE7E371E1A5E025154AC307D06A03D73EB5978C58FFA4C8E9033066E0F3BD53BEC1F39F91BE7B55103791EDE6BBB991A2046172CB4581D8B893FA674DDA17A77B3B7C413D1B511FD2743BFF8A38F03A658705E3ADF8015C3A3417FF3D7E439FF591DA0B5F18BC20C1B8981957AE6392A3
310
F43C640C01D1A0B4728E2DD4F26DB4B3C3152A252A3B4E913CEC1C72F012782FF88EFF8637AA552DBEF76408E8A8DE9E50F9E1CB3A2DA0DB1B6039A893B56063DC5B3E3FFB5F72E67AB9FEB4AEC496C4F4C1149625DD662C53E89D7BF0F6151A046260D1337DFDC94502430F83B0EE07A130A224BCAD7DAE1D9FB6CD422FF6
310
920702629C4BB9AE79C12F243C6432A6794E18E5552BA56B431AAB5D91317302B2B071E86C3A42B1A02F999E24061403B5D0EB639195DA655DD3EBEAB4FB862DDF579F014AD0E73C22F99E28DA57FB98E75C6CA2D74D53086D600F4786E0FE3144B771A8A7B900F03594DB8A633CBC49B2EDB69228BB479CF863B5E807AAAB
310
23872F6DFEB4129B949CA33823F58830E86D65621E10047D9DB34D862E8EAC3C2ABC2F7B2C40D67CDFE01F5545B92105AF983AC54D93D69E56FB8E797F88913F898A9FEC705D3F9D1B54EC8426FB500D40A03BD0119B06E1B95DDC7EB8F6975367793EBD70E66733DFB9BC982F9CE564727731999F5D4ECFCE3B8D6A4DC2A0
310
6D50FD148437D110834A64C6CDDF57FBACB5C307A2A477DFE4939736CFEF2B175371E0E10CF0DD1D5C15654E0BCA14D1E87DD02FF93782A162C0A3D95F1524A52770F972BF1EE9809D13CE7DD599467F8ECE9ADD85CE85A34CD45355448C64F9E8A031DC2D596ACC6E5DD93D9B82DE2EF5CAF81363A8E47996A0DE24564A79
310
4115AACE09C55E14540231FDA13C319787134EBF34E3A022514E5B4D9E0826E25C02D5805B15ABE1BEF51B26383D445DD9E875EE33FE4C22DA16427D65A3BCA92CA6D28DD01DF5DC53330704308475351050232CCD31583787BA75774AFB06E5070DD0C8EF484E19968C5D83BA5B90B244D31E54D55A372320FE4786B7EA58
310
44E135AA5467CB7EA333A61683CC6A8C3257034C10CF46F40EF9F5BE59BE5BD30C3C72D235E95D10345C1D45445A5F0BB47E46A5EBE5570F9380B5FA629579952296A773720405982B9DE04011506178964401AA8BDF1FBF0A8EAB6861DD6580C0E38217056766716DAEB2D6FA0917D3E4116581EADB879C4E7CFFB11EFACD
310
3D641311495D92C8676CB409A72D18610D803CE8A626049E8EC1887CB5B44CC39883690DDA8399B4B9855B481E7D71D4A9D22F96E5BB73BF5793020C02137BF837504B0304140006080000CC70623B000000000000000000000000350000006662782F36394639363044362D344446342D343946362D394244322D32343142
310
43333846323333332F76657274696365732E62696E504B0304140006080800CC70623BF270F1330600000004000000360000006662782F36394639363044362D344446342D343946362D394244322D3234314243333846323333332F747269616E676C65732E62696E636660600000504B0304140006080000CC70623B0000
310
00000000000000000000370000006662782F36394639363044362D344446342D343946362D394244322D3234314243333846323333332F617474726962757465732E62696E504B0304140006080800CC70623B08DA0BD19000000041010000360000006662782F36394639363044362D344446342D343946362D394244322D
310
3234314243333846323333332F6469726563746F72792E786D6C858F410AC3201045AF22B36F53E9A60B35CBEEBAE80D244E44489C6234F4F835464A48035D0DF398FF9F8AF63D0E6CC63039F212F8F9020C7D47C6792B21C5FE7403D62A1188E2E60C98D7234A5830286103A55745067B9D86B8A3CF9C7F90C11DE607FB14
310
4396D7B6A82D282E9A152AD114D5EF2CB866EEE831B8EEA07A7BB5A8D7D61A2BAAEB7FD5F70921FF497D00504B0304140006080800CC70623BCA768048FE000000A00100003B0000006662782F36394639363044362D344446342D343946362D394244322D3234314243333846323333332F7265736F75726365732F636F72
310
652E786D6C8D50596E833010BD0A9ADFCA60D600328E9AA639412F609909B1126CE4A5EAF16B0295DABFFECC8CDEA2797AECF8353F924FB44E193D409E5248504B332A3D0D10FC95B4901C39B3C6F85F3248B49871801506CE266BC2B243D2688FDA47549B11775038871E12F988C7004EDE7016A9083E2ADC3D5D84BC8B09
310
D33C8D74D471E6BC8D0192EDC93A815B742658898E651BCB59086ADC356A8C3FD555A1055ED7E7E254D615792D0F075295F585746FF53B694EE78A565DD736979A65AB9933AFE69F8CD2A2F038022F28ED489E135A7CE4554F9BBEA85E68DB53CAB255FEC71496F19FA6A0B42F8B3DEE6673C0F318E4497096AD7DC5F52C33
310
EEB55BFE0D504B010214000A0000080000CC70623B3DEE336E79000000790000001B00000000000000000000000000000000006175746F6465736B2D64657369676E2D7061636B6167652E786D6C504B01021400140006080800CC70623BD486FD9CA0000000F40000001300000000000000000000000000B20000005B436F
310
6E74656E745F54797065735D2E786D6C504B01021400140006080800CC70623BD9DDAED0EC0000007C010000080000000000000000000000000083010000636F72652E786D6C504B01021400140006080800CC70623B55019EA25F0000007C000000070000000000000000000000000095020000636E782E786D6C504B0102
310
1400140006080800CC70623BA24EB22D72010000D40300000C00000000000000000000000000190300006662782F636F72652E786D6C504B01021400140006080800CC70623B408A7D3B7C0000009D0000000B00000000000000000000000000B50400006662782F636E782E786D6C504B01021400140006080800CC70623B
310
449FB9BD290100001202000031000000000000000000000000005A0500006662782F36394639363044362D344446342D343946362D394244322D3234314243333846323333332F636F72652E786D6C504B01021400140006080800CC70623BAD7543B64E010000330300003000000000000000000000000000D20600006662
310
782F36394639363044362D344446342D343946362D394244322D3234314243333846323333332F636E782E786D6C504B01021400140006080800CC70623B8D05915C650500003B10000034000000000000000000000000006E0800006662782F36394639363044362D344446342D343946362D394244322D32343142433338
310
46323333332F6F626A656374732E786D6C504B01021400140006080000CC70623B0000000000000000000000003500000000000000000000000000250E00006662782F36394639363044362D344446342D343946362D394244322D3234314243333846323333332F76657274696365732E62696E504B010214001400060808
310
00CC70623BF270F13306000000040000003600000000000000000000000000780E00006662782F36394639363044362D344446342D343946362D394244322D3234314243333846323333332F747269616E676C65732E62696E504B01021400140006080000CC70623B00000000000000000000000037000000000000000000
310
00000000D20E00006662782F36394639363044362D344446342D343946362D394244322D3234314243333846323333332F617474726962757465732E62696E504B01021400140006080800CC70623B08DA0BD190000000410100003600000000000000000000000000270F00006662782F36394639363044362D344446342D
310
343946362D394244322D3234314243333846323333332F6469726563746F72792E786D6C504B01021400140006080800CC70623BCA768048FE000000A00100003B000000000000000000000000000B1000006662782F36394639363044362D344446342D343946362D394244322D3234314243333846323333332F7265736F
310
75726365732F636F72652E786D6C504B0506000000000E000E0080040000621100000000
  0
XRECORD
  5
176
102
{ACAD_REACTORS
330
173
102
}
330
173
100
AcDbXrecord
280
     1
270
     1
271
     1
  0
XRECORD
  5
177
102
{ACAD_REACTORS
330
173
102
}
330
173
100
AcDbXrecord
280
     1
270
     1
271
     1
  0
XRECORD
  5
1EA3
102
{ACAD_REACTORS
330
174E
102
}
330
174E
100
AcDbXrecord
280
     1
102
DISPLAYNAME
  1
Imperial24
102
FLAGS
 90
        0
  0
XRECORD
  5
1E9F
102
{ACAD_REACTORS
330
234
102
}
330
234
100
AcDbXrecord
280
     1
102
DISPLAYNAME
  1
Metric50
102
FLAGS
 90
        0
  0
CELLSTYLEMAP
  5
1E65
102
{ACAD_REACTORS
330
162
102
}
330
162
100
AcDbCellStyleMap
 90
        3
300
CELLSTYLE
  1
TABLEFORMAT_BEGIN
 90
        5
170
     1
 91
        0
 92
    32768
 62
   257
 93
        1
300
CONTENTFORMAT
  1
CONTENTFORMAT_BEGIN
 90
        0
 91
        0
 92
      512
 93
        0
300

 40
0.0
140
1.0
 94
        5
 62
     0
340
11
144
6.0
309
CONTENTFORMAT_END
171
     1
301
MARGIN
  1
CELLMARGIN_BEGIN
 40
1.5
 40
1.5
 40
1.5
 40
1.5
 40
4.5
 40
4.5
309
CELLMARGIN_END
 94
        6
 95
        1
302
GRIDFORMAT
  1
GRIDFORMAT_BEGIN
 90
        0
 91
        1
 62
     0
 92
       -2
340
14
 93
        0
 40
1.125
309
GRIDFORMAT_END
 95
        2
302
GRIDFORMAT
  1
GRIDFORMAT_BEGIN
 90
        0
 91
        1
 62
     0
 92
       -2
340
14
 93
        0
 40
1.125
309
GRIDFORMAT_END
 95
        4
302
GRIDFORMAT
  1
GRIDFORMAT_BEGIN
 90
        0
 91
        1
 62
     0
 92
       -2
340
14
 93
        0
 40
1.125
309
GRIDFORMAT_END
 95
        8
302
GRIDFORMAT
  1
GRIDFORMAT_BEGIN
 90
        0
 91
        1
 62
     0
 92
       -2
340
14
 93
        0
 40
1.125
309
GRIDFORMAT_END
 95
       16
302
GRIDFORMAT
  1
GRIDFORMAT_BEGIN
 90
        0
 91
        1
 62
     0
 92
       -2
340
14
 93
        0
 40
1.125
309
GRIDFORMAT_END
 95
       32
302
GRIDFORMAT
  1
GRIDFORMAT_BEGIN
 90
        0
 91
        1
 62
     0
 92
       -2
340
14
 93
        0
 40
1.125
309
GRIDFORMAT_END
309
TABLEFORMAT_END
  1
CELLSTYLE_BEGIN
 90
        1
 91
        1
300
_TITLE
309
CELLSTYLE_END
300
CELLSTYLE
  1
TABLEFORMAT_BEGIN
 90
        5
170
     1
 91
        0
 92
        0
 62
   257
 93
        1
300
CONTENTFORMAT
  1
CONTENTFORMAT_BEGIN
 90
        0
 91
        0
 92
      512
 93
        0
300

 40
0.0
140
1.0
 94
        5
 62
     0
340
11
144
4.5
309
CONTENTFORMAT_END
171
     1
301
MARGIN
  1
CELLMARGIN_BEGIN
 40
1.5
 40
1.5
 40
1.5
 40
1.5
 40
4.5
 40
4.5
309
CELLMARGIN_END
 94
        6
 95
        1
302
GRIDFORMAT
  1
GRIDFORMAT_BEGIN
 90
        0
 91
        1
 62
     0
 92
       -2
340
14
 93
        0
 40
1.125
309
GRIDFORMAT_END
 95
        2
302
GRIDFORMAT
  1
GRIDFORMAT_BEGIN
 90
        0
 91
        1
 62
     0
 92
       -2
340
14
 93
        0
 40
1.125
309
GRIDFORMAT_END
 95
        4
302
GRIDFORMAT
  1
GRIDFORMAT_BEGIN
 90
        0
 91
        1
 62
     0
 92
       -2
340
14
 93
        0
 40
1.125
309
GRIDFORMAT_END
 95
        8
302
GRIDFORMAT
  1
GRIDFORMAT_BEGIN
 90
        0
 91
        1
 62
     0
 92
       -2
340
14
 93
        0
 40
1.125
309
GRIDFORMAT_END
 95
       16
302
GRIDFORMAT
  1
GRIDFORMAT_BEGIN
 90
        0
 91
        1
 62
     0
 92
       -2
340
14
 93
        0
 40
1.125
309
GRIDFORMAT_END
 95
       32
302
GRIDFORMAT
  1
GRIDFORMAT_BEGIN
 90
        0
 91
        1
 62
     0
 92
       -2
340
14
 93
        0
 40
1.125
309
GRIDFORMAT_END
309
TABLEFORMAT_END
  1
CELLSTYLE_BEGIN
 90
        2
 91
        1
300
_HEADER
309
CELLSTYLE_END
300
CELLSTYLE
  1
TABLEFORMAT_BEGIN
 90
        5
170
     1
 91
        0
 92
        0
 62
   257
 93
        1
300
CONTENTFORMAT
  1
CONTENTFORMAT_BEGIN
 90
        0
 91
        0
 92
      512
 93
        0
300

 40
0.0
140
1.0
 94
        2
 62
     0
340
11
144
4.5
309
CONTENTFORMAT_END
171
     1
301
MARGIN
  1
CELLMARGIN_BEGIN
 40
1.5
 40
1.5
 40
1.5
 40
1.5
 40
4.5
 40
4.5
309
CELLMARGIN_END
 94
        6
 95
        1
302
GRIDFORMAT
  1
GRIDFORMAT_BEGIN
 90
        0
 91
        1
 62
     0
 92
       -2
340
14
 93
        0
 40
1.125
309
GRIDFORMAT_END
 95
        2
302
GRIDFORMAT
  1
GRIDFORMAT_BEGIN
 90
        0
 91
        1
 62
     0
 92
       -2
340
14
 93
        0
 40
1.125
309
GRIDFORMAT_END
 95
        4
302
GRIDFORMAT
  1
GRIDFORMAT_BEGIN
 90
        0
 91
        1
 62
     0
 92
       -2
340
14
 93
        0
 40
1.125
309
GRIDFORMAT_END
 95
        8
302
GRIDFORMAT
  1
GRIDFORMAT_BEGIN
 90
        0
 91
        1
 62
     0
 92
       -2
340
14
 93
        0
 40
1.125
309
GRIDFORMAT_END
 95
       16
302
GRIDFORMAT
  1
GRIDFORMAT_BEGIN
 90
        0
 91
        1
 62
     0
 92
       -2
340
14
 93
        0
 40
1.125
309
GRIDFORMAT_END
 95
       32
302
GRIDFORMAT
  1
GRIDFORMAT_BEGIN
 90
        0
 91
        1
 62
     0
 92
       -2
340
14
 93
        0
 40
1.125
309
GRIDFORMAT_END
309
TABLEFORMAT_END
  1
CELLSTYLE_BEGIN
 90
        3
 91
        2
300
_DATA
309
CELLSTYLE_END
  0
XRECORD
  5
1E7A
102
{ACAD_REACTORS
330
1E79
102
}
330
1E79
100
AcDbXrecord
280
     1
102
RTVSPost2010Prop28
280
     1
102
RTVSPost2010PropOp28
 70
     1
102
RTVSPost2010Prop29
280
     1
102
RTVSPost2010PropOp29
 70
     1
102
RTVSPost2010Prop30
280
     0
102
RTVSPost2010PropOp30
 70
     1
102
RTVSPost2010Prop31
280
     0
102
RTVSPost2010PropOp31
 70
     1
102
RTVSPost2010Prop32
280
     0
102
RTVSPost2010PropOp32
 70
     1
102
RTVSPost2010Prop33
280
     0
102
RTVSPost2010PropOp33
 70
     1
102
RTVSPost2010Prop34
280
     0
102
RTVSPost2010PropOp34
 70
     1
102
RTVSPost2010Prop35
280
     0
102
RTVSPost2010PropOp35
 70
     1
102
RTVSPost2010Prop36
280
     0
102
RTVSPost2010PropOp36
 70
     1
102
RTVSPost2010Prop37
 90
       50
102
RTVSPost2010PropOp37
 70
     1
102
RTVSPost2010Prop38
140
0.0
102
RTVSPost2010PropOp38
 70
     1
102
RTVSPost2010Prop39
140
1.0
102
RTVSPost2010PropOp39
 70
     1
102
RTVSPost2010Prop40
 90
        0
102
RTVSPost2010PropOp40
 70
     1
102
RTVSPost2010Prop41ColorIndex
 90
       18
102
RTVSPost2010Prop41ColorRGB
 90
        0
102
RTVSPost2010PropOp41
 70
     1
102
RTVSPost2010Prop42
 90
       50
102
RTVSPost2010PropOp42
 70
     1
102
RTVSPost2010Prop43
 90
        3
102
RTVSPost2010PropOp43
 70
     1
102
RTVSPost2010Prop44ColorIndex
 90
        5
102
RTVSPost2010Prop44ColorRGB
 90
      255
102
RTVSPost2010PropOp44
 70
     1
102
RTVSPost2010Prop45
280
     0
102
RTVSPost2010PropOp45
 70
     1
102
RTVSPost2010Prop46
 90
       50
102
RTVSPost2010PropOp46
 70
     1
102
RTVSPost2010Prop47
 90
       50
102
RTVSPost2010PropOp47
 70
     1
102
RTVSPost2010Prop48
 90
       50
102
RTVSPost2010PropOp48
 70
     1
102
RTVSPost2010Prop49
280
     0
102
RTVSPost2010PropOp49
 70
     1
102
RTVSPost2010Prop50
 90
       50
102
RTVSPost2010PropOp50
 70
     1
102
RTVSPost2010Prop51ColorIndex
 90
      256
102
RTVSPost2010Prop51ColorRGB
 90
-16777216
102
RTVSPost2010PropOp51
 70
     0
102
RTVSPost2010Prop52
140
1.0
102
RTVSPost2010PropOp52
 70
     0
102
RTVSPost2010Prop53
 90
        2
102
RTVSPost2010PropOp53
 70
     1
102
RTVSPost2010Prop54
  1
strokes_ogs.tif
102
RTVSPost2010PropOp54
 70
     1
102
RTVSPost2010Prop55
280
     0
102
RTVSPost2010PropOp55
 70
     1
102
RTVSPost2010Prop56
140
1.0
102
RTVSPost2010PropOp56
 70
     1
102
RTVSPost2010Prop57
140
1.0
102
RTVSPost2010PropOp57
 70
     1
  0
XRECORD
  5
1EA2
102
{ACAD_REACTORS
330
1EA1
102
}
330
1EA1
100
AcDbXrecord
280
     1
102
RTVSPost2010Prop28
280
     0
102
RTVSPost2010PropOp28
 70
     1
102
RTVSPost2010Prop29
280
     1
102
RTVSPost2010PropOp29
 70
     1
102
RTVSPost2010Prop30
280
     1
102
RTVSPost2010PropOp30
 70
     1
102
RTVSPost2010Prop31
280
     0
102
RTVSPost2010PropOp31
 70
     1
102
RTVSPost2010Prop32
280
     0
102
RTVSPost2010PropOp32
 70
     1
102
RTVSPost2010Prop33
280
     0
102
RTVSPost2010PropOp33
 70
     1
102
RTVSPost2010Prop34
280
     0
102
RTVSPost2010PropOp34
 70
     1
102
RTVSPost2010Prop35
280
     0
102
RTVSPost2010PropOp35
 70
     1
102
RTVSPost2010Prop36
280
     0
102
RTVSPost2010PropOp36
 70
     1
102
RTVSPost2010Prop37
 90
       50
102
RTVSPost2010PropOp37
 70
     1
102
RTVSPost2010Prop38
140
0.0
102
RTVSPost2010PropOp38
 70
     1
102
RTVSPost2010Prop39
140
1.0
102
RTVSPost2010PropOp39
 70
     1
102
RTVSPost2010Prop40
 90
        0
102
RTVSPost2010PropOp40
 70
     1
102
RTVSPost2010Prop41ColorIndex
 90
       18
102
RTVSPost2010Prop41ColorRGB
 90
        0
102
RTVSPost2010PropOp41
 70
     1
102
RTVSPost2010Prop42
 90
       50
102
RTVSPost2010PropOp42
 70
     1
102
RTVSPost2010Prop43
 90
        3
102
RTVSPost2010PropOp43
 70
     1
102
RTVSPost2010Prop44ColorIndex
 90
        5
102
RTVSPost2010Prop44ColorRGB
 90
      255
102
RTVSPost2010PropOp44
 70
     1
102
RTVSPost2010Prop45
280
     0
102
RTVSPost2010PropOp45
 70
     1
102
RTVSPost2010Prop46
 90
       50
102
RTVSPost2010PropOp46
 70
     1
102
RTVSPost2010Prop47
 90
       50
102
RTVSPost2010PropOp47
 70
     1
102
RTVSPost2010Prop48
 90
       50
102
RTVSPost2010PropOp48
 70
     1
102
RTVSPost2010Prop49
280
     0
102
RTVSPost2010PropOp49
 70
     1
102
RTVSPost2010Prop50
 90
       50
102
RTVSPost2010PropOp50
 70
     1
102
RTVSPost2010Prop51ColorIndex
 90
      256
102
RTVSPost2010Prop51ColorRGB
 90
-16777216
102
RTVSPost2010PropOp51
 70
     0
102
RTVSPost2010Prop52
140
1.0
102
RTVSPost2010PropOp52
 70
     0
102
RTVSPost2010Prop53
 90
        2
102
RTVSPost2010PropOp53
 70
     1
102
RTVSPost2010Prop54
  1
strokes_ogs.tif
102
RTVSPost2010PropOp54
 70
     1
102
RTVSPost2010Prop55
280
     0
102
RTVSPost2010PropOp55
 70
     1
102
RTVSPost2010Prop56
140
1.0
102
RTVSPost2010PropOp56
 70
     1
102
RTVSPost2010Prop57
140
1.0
102
RTVSPost2010PropOp57
 70
     1
  0
XRECORD
  5
1E78
102
{ACAD_REACTORS
330
1E77
102
}
330
1E77
100
AcDbXrecord
280
     1
102
RTVSPost2010Prop28
280
     0
102
RTVSPost2010PropOp28
 70
     1
102
RTVSPost2010Prop29
280
     1
102
RTVSPost2010PropOp29
 70
     1
102
RTVSPost2010Prop30
280
     1
102
RTVSPost2010PropOp30
 70
     1
102
RTVSPost2010Prop31
280
     0
102
RTVSPost2010PropOp31
 70
     1
102
RTVSPost2010Prop32
280
     0
102
RTVSPost2010PropOp32
 70
     1
102
RTVSPost2010Prop33
280
     0
102
RTVSPost2010PropOp33
 70
     1
102
RTVSPost2010Prop34
280
     0
102
RTVSPost2010PropOp34
 70
     1
102
RTVSPost2010Prop35
280
     0
102
RTVSPost2010PropOp35
 70
     1
102
RTVSPost2010Prop36
280
     0
102
RTVSPost2010PropOp36
 70
     1
102
RTVSPost2010Prop37
 90
       50
102
RTVSPost2010PropOp37
 70
     1
102
RTVSPost2010Prop38
140
0.0
102
RTVSPost2010PropOp38
 70
     1
102
RTVSPost2010Prop39
140
1.0
102
RTVSPost2010PropOp39
 70
     1
102
RTVSPost2010Prop40
 90
        0
102
RTVSPost2010PropOp40
 70
     1
102
RTVSPost2010Prop41ColorIndex
 90
       18
102
RTVSPost2010Prop41ColorRGB
 90
        0
102
RTVSPost2010PropOp41
 70
     1
102
RTVSPost2010Prop42
 90
       50
102
RTVSPost2010PropOp42
 70
     1
102
RTVSPost2010Prop43
 90
        3
102
RTVSPost2010PropOp43
 70
     1
102
RTVSPost2010Prop44ColorIndex
 90
        5
102
RTVSPost2010Prop44ColorRGB
 90
      255
102
RTVSPost2010PropOp44
 70
     1
102
RTVSPost2010Prop45
280
     0
102
RTVSPost2010PropOp45
 70
     1
102
RTVSPost2010Prop46
 90
       50
102
RTVSPost2010PropOp46
 70
     1
102
RTVSPost2010Prop47
 90
       50
102
RTVSPost2010PropOp47
 70
     1
102
RTVSPost2010Prop48
 90
       50
102
RTVSPost2010PropOp48
 70
     1
102
RTVSPost2010Prop49
280
     0
102
RTVSPost2010PropOp49
 70
     1
102
RTVSPost2010Prop50
 90
       50
102
RTVSPost2010PropOp50
 70
     1
102
RTVSPost2010Prop51ColorIndex
 90
      256
102
RTVSPost2010Prop51ColorRGB
 90
-16777216
102
RTVSPost2010PropOp51
 70
     0
102
RTVSPost2010Prop52
140
1.0
102
RTVSPost2010PropOp52
 70
     0
102
RTVSPost2010Prop53
 90
        2
102
RTVSPost2010PropOp53
 70
     1
102
RTVSPost2010Prop54
  1
strokes_ogs.tif
102
RTVSPost2010PropOp54
 70
     1
102
RTVSPost2010Prop55
280
     0
102
RTVSPost2010PropOp55
 70
     1
102
RTVSPost2010Prop56
140
1.0
102
RTVSPost2010PropOp56
 70
     1
102
RTVSPost2010Prop57
140
1.0
102
RTVSPost2010PropOp57
 70
     1
  0
XRECORD
  5
1E86
102
{ACAD_REACTORS
330
1E85
102
}
330
1E85
100
AcDbXrecord
280
     1
102
RTVSPost2010Prop28
280
     0
102
RTVSPost2010PropOp28
 70
     1
102
RTVSPost2010Prop29
280
     1
102
RTVSPost2010PropOp29
 70
     1
102
RTVSPost2010Prop30
280
     1
102
RTVSPost2010PropOp30
 70
     1
102
RTVSPost2010Prop31
280
     0
102
RTVSPost2010PropOp31
 70
     1
102
RTVSPost2010Prop32
280
     0
102
RTVSPost2010PropOp32
 70
     1
102
RTVSPost2010Prop33
280
     0
102
RTVSPost2010PropOp33
 70
     1
102
RTVSPost2010Prop34
280
     0
102
RTVSPost2010PropOp34
 70
     1
102
RTVSPost2010Prop35
280
     0
102
RTVSPost2010PropOp35
 70
     1
102
RTVSPost2010Prop36
280
     0
102
RTVSPost2010PropOp36
 70
     1
102
RTVSPost2010Prop37
 90
       50
102
RTVSPost2010PropOp37
 70
     1
102
RTVSPost2010Prop38
140
0.0
102
RTVSPost2010PropOp38
 70
     1
102
RTVSPost2010Prop39
140
1.0
102
RTVSPost2010PropOp39
 70
     1
102
RTVSPost2010Prop40
 90
        0
102
RTVSPost2010PropOp40
 70
     1
102
RTVSPost2010Prop41ColorIndex
 90
       18
102
RTVSPost2010Prop41ColorRGB
 90
        0
102
RTVSPost2010PropOp41
 70
     1
102
RTVSPost2010Prop42
 90
       50
102
RTVSPost2010PropOp42
 70
     1
102
RTVSPost2010Prop43
 90
        3
102
RTVSPost2010PropOp43
 70
     1
102
RTVSPost2010Prop44ColorIndex
 90
        5
102
RTVSPost2010Prop44ColorRGB
 90
      255
102
RTVSPost2010PropOp44
 70
     1
102
RTVSPost2010Prop45
280
     0
102
RTVSPost2010PropOp45
 70
     1
102
RTVSPost2010Prop46
 90
       50
102
RTVSPost2010PropOp46
 70
     1
102
RTVSPost2010Prop47
 90
       50
102
RTVSPost2010PropOp47
 70
     1
102
RTVSPost2010Prop48
 90
       50
102
RTVSPost2010PropOp48
 70
     1
102
RTVSPost2010Prop49
280
     0
102
RTVSPost2010PropOp49
 70
     1
102
RTVSPost2010Prop50
 90
       50
102
RTVSPost2010PropOp50
 70
     1
102
RTVSPost2010Prop51ColorIndex
 90
      256
102
RTVSPost2010Prop51ColorRGB
 90
-16777216
102
RTVSPost2010PropOp51
 70
     0
102
RTVSPost2010Prop52
140
1.0
102
RTVSPost2010PropOp52
 70
     0
102
RTVSPost2010Prop53
 90
        2
102
RTVSPost2010PropOp53
 70
     1
102
RTVSPost2010Prop54
  1
strokes_ogs.tif
102
RTVSPost2010PropOp54
 70
     1
102
RTVSPost2010Prop55
280
     0
102
RTVSPost2010PropOp55
 70
     1
102
RTVSPost2010Prop56
140
1.0
102
RTVSPost2010PropOp56
 70
     1
102
RTVSPost2010Prop57
140
1.0
102
RTVSPost2010PropOp57
 70
     1
  0
XRECORD
  5
1E8E
102
{ACAD_REACTORS
330
1E8D
102
}
330
1E8D
100
AcDbXrecord
280
     1
102
RTVSPost2010Prop28
280
     0
102
RTVSPost2010PropOp28
 70
     1
102
RTVSPost2010Prop29
280
     1
102
RTVSPost2010PropOp29
 70
     1
102
RTVSPost2010Prop30
280
     1
102
RTVSPost2010PropOp30
 70
     1
102
RTVSPost2010Prop31
280
     0
102
RTVSPost2010PropOp31
 70
     1
102
RTVSPost2010Prop32
280
     0
102
RTVSPost2010PropOp32
 70
     1
102
RTVSPost2010Prop33
280
     0
102
RTVSPost2010PropOp33
 70
     1
102
RTVSPost2010Prop34
280
     0
102
RTVSPost2010PropOp34
 70
     1
102
RTVSPost2010Prop35
280
     0
102
RTVSPost2010PropOp35
 70
     1
102
RTVSPost2010Prop36
280
     0
102
RTVSPost2010PropOp36
 70
     1
102
RTVSPost2010Prop37
 90
       50
102
RTVSPost2010PropOp37
 70
     1
102
RTVSPost2010Prop38
140
0.0
102
RTVSPost2010PropOp38
 70
     1
102
RTVSPost2010Prop39
140
1.0
102
RTVSPost2010PropOp39
 70
     1
102
RTVSPost2010Prop40
 90
        0
102
RTVSPost2010PropOp40
 70
     1
102
RTVSPost2010Prop41ColorIndex
 90
       18
102
RTVSPost2010Prop41ColorRGB
 90
        0
102
RTVSPost2010PropOp41
 70
     1
102
RTVSPost2010Prop42
 90
       50
102
RTVSPost2010PropOp42
 70
     1
102
RTVSPost2010Prop43
 90
        3
102
RTVSPost2010PropOp43
 70
     1
102
RTVSPost2010Prop44ColorIndex
 90
        5
102
RTVSPost2010Prop44ColorRGB
 90
      255
102
RTVSPost2010PropOp44
 70
     1
102
RTVSPost2010Prop45
280
     0
102
RTVSPost2010PropOp45
 70
     1
102
RTVSPost2010Prop46
 90
       50
102
RTVSPost2010PropOp46
 70
     1
102
RTVSPost2010Prop47
 90
       50
102
RTVSPost2010PropOp47
 70
     1
102
RTVSPost2010Prop48
 90
       50
102
RTVSPost2010PropOp48
 70
     1
102
RTVSPost2010Prop49
280
     0
102
RTVSPost2010PropOp49
 70
     1
102
RTVSPost2010Prop50
 90
       50
102
RTVSPost2010PropOp50
 70
     1
102
RTVSPost2010Prop51ColorIndex
 90
      256
102
RTVSPost2010Prop51ColorRGB
 90
-16777216
102
RTVSPost2010PropOp51
 70
     0
102
RTVSPost2010Prop52
140
1.0
102
RTVSPost2010PropOp52
 70
     0
102
RTVSPost2010Prop53
 90
        2
102
RTVSPost2010PropOp53
 70
     1
102
RTVSPost2010Prop54
  1
strokes_ogs.tif
102
RTVSPost2010PropOp54
 70
     1
102
RTVSPost2010Prop55
280
     0
102
RTVSPost2010PropOp55
 70
     1
102
RTVSPost2010Prop56
140
1.0
102
RTVSPost2010PropOp56
 70
     1
102
RTVSPost2010Prop57
140
1.0
102
RTVSPost2010PropOp57
 70
     1
  0
XRECORD
  5
1E80
102
{ACAD_REACTORS
330
1E7F
102
}
330
1E7F
100
AcDbXrecord
280
     1
102
RTVSPost2010Prop28
280
     0
102
RTVSPost2010PropOp28
 70
     1
102
RTVSPost2010Prop29
280
     1
102
RTVSPost2010PropOp29
 70
     1
102
RTVSPost2010Prop30
280
     1
102
RTVSPost2010PropOp30
 70
     1
102
RTVSPost2010Prop31
280
     0
102
RTVSPost2010PropOp31
 70
     1
102
RTVSPost2010Prop32
280
     0
102
RTVSPost2010PropOp32
 70
     1
102
RTVSPost2010Prop33
280
     0
102
RTVSPost2010PropOp33
 70
     1
102
RTVSPost2010Prop34
280
     0
102
RTVSPost2010PropOp34
 70
     1
102
RTVSPost2010Prop35
280
     0
102
RTVSPost2010PropOp35
 70
     1
102
RTVSPost2010Prop36
280
     0
102
RTVSPost2010PropOp36
 70
     1
102
RTVSPost2010Prop37
 90
       50
102
RTVSPost2010PropOp37
 70
     1
102
RTVSPost2010Prop38
140
0.0
102
RTVSPost2010PropOp38
 70
     1
102
RTVSPost2010Prop39
140
1.0
102
RTVSPost2010PropOp39
 70
     1
102
RTVSPost2010Prop40
 90
        0
102
RTVSPost2010PropOp40
 70
     1
102
RTVSPost2010Prop41ColorIndex
 90
       18
102
RTVSPost2010Prop41ColorRGB
 90
        0
102
RTVSPost2010PropOp41
 70
     1
102
RTVSPost2010Prop42
 90
       50
102
RTVSPost2010PropOp42
 70
     1
102
RTVSPost2010Prop43
 90
        3
102
RTVSPost2010PropOp43
 70
     1
102
RTVSPost2010Prop44ColorIndex
 90
        5
102
RTVSPost2010Prop44ColorRGB
 90
      255
102
RTVSPost2010PropOp44
 70
     1
102
RTVSPost2010Prop45
280
     0
102
RTVSPost2010PropOp45
 70
     1
102
RTVSPost2010Prop46
 90
       50
102
RTVSPost2010PropOp46
 70
     1
102
RTVSPost2010Prop47
 90
       50
102
RTVSPost2010PropOp47
 70
     1
102
RTVSPost2010Prop48
 90
       50
102
RTVSPost2010PropOp48
 70
     1
102
RTVSPost2010Prop49
280
     0
102
RTVSPost2010PropOp49
 70
     1
102
RTVSPost2010Prop50
 90
       50
102
RTVSPost2010PropOp50
 70
     1
102
RTVSPost2010Prop51ColorIndex
 90
      256
102
RTVSPost2010Prop51ColorRGB
 90
-16777216
102
RTVSPost2010PropOp51
 70
     0
102
RTVSPost2010Prop52
140
1.0
102
RTVSPost2010PropOp52
 70
     0
102
RTVSPost2010Prop53
 90
        2
102
RTVSPost2010PropOp53
 70
     1
102
RTVSPost2010Prop54
  1
strokes_ogs.tif
102
RTVSPost2010PropOp54
 70
     1
102
RTVSPost2010Prop55
280
     0
102
RTVSPost2010PropOp55
 70
     1
102
RTVSPost2010Prop56
140
1.0
102
RTVSPost2010PropOp56
 70
     1
102
RTVSPost2010Prop57
140
1.0
102
RTVSPost2010PropOp57
 70
     1
  0
XRECORD
  5
1E84
102
{ACAD_REACTORS
330
1E83
102
}
330
1E83
100
AcDbXrecord
280
     1
102
RTVSPost2010Prop28
280
     0
102
RTVSPost2010PropOp28
 70
     1
102
RTVSPost2010Prop29
280
     1
102
RTVSPost2010PropOp29
 70
     1
102
RTVSPost2010Prop30
280
     1
102
RTVSPost2010PropOp30
 70
     1
102
RTVSPost2010Prop31
280
     0
102
RTVSPost2010PropOp31
 70
     1
102
RTVSPost2010Prop32
280
     0
102
RTVSPost2010PropOp32
 70
     1
102
RTVSPost2010Prop33
280
     0
102
RTVSPost2010PropOp33
 70
     1
102
RTVSPost2010Prop34
280
     0
102
RTVSPost2010PropOp34
 70
     1
102
RTVSPost2010Prop35
280
     0
102
RTVSPost2010PropOp35
 70
     1
102
RTVSPost2010Prop36
280
     0
102
RTVSPost2010PropOp36
 70
     1
102
RTVSPost2010Prop37
 90
       50
102
RTVSPost2010PropOp37
 70
     1
102
RTVSPost2010Prop38
140
0.0
102
RTVSPost2010PropOp38
 70
     1
102
RTVSPost2010Prop39
140
1.0
102
RTVSPost2010PropOp39
 70
     1
102
RTVSPost2010Prop40
 90
        0
102
RTVSPost2010PropOp40
 70
     1
102
RTVSPost2010Prop41ColorIndex
 90
       18
102
RTVSPost2010Prop41ColorRGB
 90
        0
102
RTVSPost2010PropOp41
 70
     1
102
RTVSPost2010Prop42
 90
       50
102
RTVSPost2010PropOp42
 70
     1
102
RTVSPost2010Prop43
 90
        3
102
RTVSPost2010PropOp43
 70
     1
102
RTVSPost2010Prop44ColorIndex
 90
        5
102
RTVSPost2010Prop44ColorRGB
 90
      255
102
RTVSPost2010PropOp44
 70
     1
102
RTVSPost2010Prop45
280
     0
102
RTVSPost2010PropOp45
 70
     1
102
RTVSPost2010Prop46
 90
       50
102
RTVSPost2010PropOp46
 70
     1
102
RTVSPost2010Prop47
 90
       50
102
RTVSPost2010PropOp47
 70
     1
102
RTVSPost2010Prop48
 90
       50
102
RTVSPost2010PropOp48
 70
     1
102
RTVSPost2010Prop49
280
     0
102
RTVSPost2010PropOp49
 70
     1
102
RTVSPost2010Prop50
 90
       50
102
RTVSPost2010PropOp50
 70
     1
102
RTVSPost2010Prop51ColorIndex
 90
      256
102
RTVSPost2010Prop51ColorRGB
 90
-16777216
102
RTVSPost2010PropOp51
 70
     0
102
RTVSPost2010Prop52
140
1.0
102
RTVSPost2010PropOp52
 70
     0
102
RTVSPost2010Prop53
 90
        2
102
RTVSPost2010PropOp53
 70
     1
102
RTVSPost2010Prop54
  1
strokes_ogs.tif
102
RTVSPost2010PropOp54
 70
     1
102
RTVSPost2010Prop55
280
     0
102
RTVSPost2010PropOp55
 70
     1
102
RTVSPost2010Prop56
140
1.0
102
RTVSPost2010PropOp56
 70
     1
102
RTVSPost2010Prop57
140
1.0
102
RTVSPost2010PropOp57
 70
     1
  0
XRECORD
  5
1E94
102
{ACAD_REACTORS
330
1E93
102
}
330
1E93
100
AcDbXrecord
280
     1
102
RTVSPost2010Prop28
280
     0
102
RTVSPost2010PropOp28
 70
     1
102
RTVSPost2010Prop29
280
     1
102
RTVSPost2010PropOp29
 70
     1
102
RTVSPost2010Prop30
280
     1
102
RTVSPost2010PropOp30
 70
     1
102
RTVSPost2010Prop31
280
     0
102
RTVSPost2010PropOp31
 70
     1
102
RTVSPost2010Prop32
280
     0
102
RTVSPost2010PropOp32
 70
     1
102
RTVSPost2010Prop33
280
     0
102
RTVSPost2010PropOp33
 70
     1
102
RTVSPost2010Prop34
280
     0
102
RTVSPost2010PropOp34
 70
     1
102
RTVSPost2010Prop35
280
     0
102
RTVSPost2010PropOp35
 70
     1
102
RTVSPost2010Prop36
280
     0
102
RTVSPost2010PropOp36
 70
     1
102
RTVSPost2010Prop37
 90
       50
102
RTVSPost2010PropOp37
 70
     1
102
RTVSPost2010Prop38
140
0.0
102
RTVSPost2010PropOp38
 70
     1
102
RTVSPost2010Prop39
140
1.0
102
RTVSPost2010PropOp39
 70
     1
102
RTVSPost2010Prop40
 90
        0
102
RTVSPost2010PropOp40
 70
     1
102
RTVSPost2010Prop41ColorIndex
 90
       18
102
RTVSPost2010Prop41ColorRGB
 90
        0
102
RTVSPost2010PropOp41
 70
     1
102
RTVSPost2010Prop42
 90
       50
102
RTVSPost2010PropOp42
 70
     1
102
RTVSPost2010Prop43
 90
        3
102
RTVSPost2010PropOp43
 70
     1
102
RTVSPost2010Prop44ColorIndex
 90
        5
102
RTVSPost2010Prop44ColorRGB
 90
      255
102
RTVSPost2010PropOp44
 70
     1
102
RTVSPost2010Prop45
280
     0
102
RTVSPost2010PropOp45
 70
     1
102
RTVSPost2010Prop46
 90
       50
102
RTVSPost2010PropOp46
 70
     1
102
RTVSPost2010Prop47
 90
       50
102
RTVSPost2010PropOp47
 70
     1
102
RTVSPost2010Prop48
 90
       50
102
RTVSPost2010PropOp48
 70
     1
102
RTVSPost2010Prop49
280
     0
102
RTVSPost2010PropOp49
 70
     1
102
RTVSPost2010Prop50
 90
       50
102
RTVSPost2010PropOp50
 70
     1
102
RTVSPost2010Prop51ColorIndex
 90
      256
102
RTVSPost2010Prop51ColorRGB
 90
-16777216
102
RTVSPost2010PropOp51
 70
     0
102
RTVSPost2010Prop52
140
1.0
102
RTVSPost2010PropOp52
 70
     0
102
RTVSPost2010Prop53
 90
        2
102
RTVSPost2010PropOp53
 70
     1
102
RTVSPost2010Prop54
  1
strokes_ogs.tif
102
RTVSPost2010PropOp54
 70
     1
102
RTVSPost2010Prop55
280
     0
102
RTVSPost2010PropOp55
 70
     1
102
RTVSPost2010Prop56
140
1.0
102
RTVSPost2010PropOp56
 70
     1
102
RTVSPost2010Prop57
140
1.0
102
RTVSPost2010PropOp57
 70
     1
  0
XRECORD
  5
1E8C
102
{ACAD_REACTORS
330
1E8B
102
}
330
1E8B
100
AcDbXrecord
280
     1
102
RTVSPost2010Prop28
280
     0
102
RTVSPost2010PropOp28
 70
     1
102
RTVSPost2010Prop29
280
     1
102
RTVSPost2010PropOp29
 70
     1
102
RTVSPost2010Prop30
280
     1
102
RTVSPost2010PropOp30
 70
     1
102
RTVSPost2010Prop31
280
     0
102
RTVSPost2010PropOp31
 70
     1
102
RTVSPost2010Prop32
280
     0
102
RTVSPost2010PropOp32
 70
     1
102
RTVSPost2010Prop33
280
     0
102
RTVSPost2010PropOp33
 70
     1
102
RTVSPost2010Prop34
280
     0
102
RTVSPost2010PropOp34
 70
     1
102
RTVSPost2010Prop35
280
     0
102
RTVSPost2010PropOp35
 70
     1
102
RTVSPost2010Prop36
280
     0
102
RTVSPost2010PropOp36
 70
     1
102
RTVSPost2010Prop37
 90
       50
102
RTVSPost2010PropOp37
 70
     1
102
RTVSPost2010Prop38
140
0.0
102
RTVSPost2010PropOp38
 70
     1
102
RTVSPost2010Prop39
140
1.0
102
RTVSPost2010PropOp39
 70
     1
102
RTVSPost2010Prop40
 90
        0
102
RTVSPost2010PropOp40
 70
     1
102
RTVSPost2010Prop41ColorIndex
 90
       18
102
RTVSPost2010Prop41ColorRGB
 90
        0
102
RTVSPost2010PropOp41
 70
     1
102
RTVSPost2010Prop42
 90
       50
102
RTVSPost2010PropOp42
 70
     1
102
RTVSPost2010Prop43
 90
        3
102
RTVSPost2010PropOp43
 70
     1
102
RTVSPost2010Prop44ColorIndex
 90
        5
102
RTVSPost2010Prop44ColorRGB
 90
      255
102
RTVSPost2010PropOp44
 70
     1
102
RTVSPost2010Prop45
280
     0
102
RTVSPost2010PropOp45
 70
     1
102
RTVSPost2010Prop46
 90
       50
102
RTVSPost2010PropOp46
 70
     1
102
RTVSPost2010Prop47
 90
       50
102
RTVSPost2010PropOp47
 70
     1
102
RTVSPost2010Prop48
 90
       50
102
RTVSPost2010PropOp48
 70
     1
102
RTVSPost2010Prop49
280
     0
102
RTVSPost2010PropOp49
 70
     1
102
RTVSPost2010Prop50
 90
       50
102
RTVSPost2010PropOp50
 70
     1
102
RTVSPost2010Prop51ColorIndex
 90
      256
102
RTVSPost2010Prop51ColorRGB
 90
-16777216
102
RTVSPost2010PropOp51
 70
     0
102
RTVSPost2010Prop52
140
1.0
102
RTVSPost2010PropOp52
 70
     0
102
RTVSPost2010Prop53
 90
        2
102
RTVSPost2010PropOp53
 70
     1
102
RTVSPost2010Prop54
  1
strokes_ogs.tif
102
RTVSPost2010PropOp54
 70
     1
102
RTVSPost2010Prop55
280
     0
102
RTVSPost2010PropOp55
 70
     1
102
RTVSPost2010Prop56
140
1.0
102
RTVSPost2010PropOp56
 70
     1
102
RTVSPost2010Prop57
140
1.0
102
RTVSPost2010PropOp57
 70
     1
  0
XRECORD
  5
1E70
102
{ACAD_REACTORS
330
1E6F
102
}
330
1E6F
100
AcDbXrecord
280
     1
102
RTVSPost2010Prop28
280
     0
102
RTVSPost2010PropOp28
 70
     1
102
RTVSPost2010Prop29
280
     1
102
RTVSPost2010PropOp29
 70
     1
102
RTVSPost2010Prop30
280
     1
102
RTVSPost2010PropOp30
 70
     1
102
RTVSPost2010Prop31
280
     0
102
RTVSPost2010PropOp31
 70
     1
102
RTVSPost2010Prop32
280
     0
102
RTVSPost2010PropOp32
 70
     1
102
RTVSPost2010Prop33
280
     0
102
RTVSPost2010PropOp33
 70
     1
102
RTVSPost2010Prop34
280
     0
102
RTVSPost2010PropOp34
 70
     1
102
RTVSPost2010Prop35
280
     0
102
RTVSPost2010PropOp35
 70
     1
102
RTVSPost2010Prop36
280
     0
102
RTVSPost2010PropOp36
 70
     1
102
RTVSPost2010Prop37
 90
       50
102
RTVSPost2010PropOp37
 70
     1
102
RTVSPost2010Prop38
140
0.0
102
RTVSPost2010PropOp38
 70
     1
102
RTVSPost2010Prop39
140
1.0
102
RTVSPost2010PropOp39
 70
     1
102
RTVSPost2010Prop40
 90
        0
102
RTVSPost2010PropOp40
 70
     1
102
RTVSPost2010Prop41ColorIndex
 90
       18
102
RTVSPost2010Prop41ColorRGB
 90
        0
102
RTVSPost2010PropOp41
 70
     1
102
RTVSPost2010Prop42
 90
       50
102
RTVSPost2010PropOp42
 70
     1
102
RTVSPost2010Prop43
 90
        3
102
RTVSPost2010PropOp43
 70
     1
102
RTVSPost2010Prop44ColorIndex
 90
        5
102
RTVSPost2010Prop44ColorRGB
 90
      255
102
RTVSPost2010PropOp44
 70
     1
102
RTVSPost2010Prop45
280
     0
102
RTVSPost2010PropOp45
 70
     1
102
RTVSPost2010Prop46
 90
       50
102
RTVSPost2010PropOp46
 70
     1
102
RTVSPost2010Prop47
 90
       50
102
RTVSPost2010PropOp47
 70
     1
102
RTVSPost2010Prop48
 90
       50
102
RTVSPost2010PropOp48
 70
     1
102
RTVSPost2010Prop49
280
     0
102
RTVSPost2010PropOp49
 70
     1
102
RTVSPost2010Prop50
 90
       50
102
RTVSPost2010PropOp50
 70
     1
102
RTVSPost2010Prop51ColorIndex
 90
      256
102
RTVSPost2010Prop51ColorRGB
 90
-16777216
102
RTVSPost2010PropOp51
 70
     0
102
RTVSPost2010Prop52
140
1.0
102
RTVSPost2010PropOp52
 70
     0
102
RTVSPost2010Prop53
 90
        2
102
RTVSPost2010PropOp53
 70
     1
102
RTVSPost2010Prop54
  1
strokes_ogs.tif
102
RTVSPost2010PropOp54
 70
     1
102
RTVSPost2010Prop55
280
     0
102
RTVSPost2010PropOp55
 70
     1
102
RTVSPost2010Prop56
140
1.0
102
RTVSPost2010PropOp56
 70
     1
102
RTVSPost2010Prop57
140
1.0
102
RTVSPost2010PropOp57
 70
     1
  0
XRECORD
  5
1E72
102
{ACAD_REACTORS
330
1E71
102
}
330
1E71
100
AcDbXrecord
280
     1
102
RTVSPost2010Prop28
280
     0
102
RTVSPost2010PropOp28
 70
     1
102
RTVSPost2010Prop29
280
     1
102
RTVSPost2010PropOp29
 70
     1
102
RTVSPost2010Prop30
280
     1
102
RTVSPost2010PropOp30
 70
     1
102
RTVSPost2010Prop31
280
     0
102
RTVSPost2010PropOp31
 70
     1
102
RTVSPost2010Prop32
280
     0
102
RTVSPost2010PropOp32
 70
     1
102
RTVSPost2010Prop33
280
     0
102
RTVSPost2010PropOp33
 70
     1
102
RTVSPost2010Prop34
280
     0
102
RTVSPost2010PropOp34
 70
     1
102
RTVSPost2010Prop35
280
     0
102
RTVSPost2010PropOp35
 70
     1
102
RTVSPost2010Prop36
280
     0
102
RTVSPost2010PropOp36
 70
     1
102
RTVSPost2010Prop37
 90
       50
102
RTVSPost2010PropOp37
 70
     1
102
RTVSPost2010Prop38
140
0.0
102
RTVSPost2010PropOp38
 70
     1
102
RTVSPost2010Prop39
140
1.0
102
RTVSPost2010PropOp39
 70
     1
102
RTVSPost2010Prop40
 90
        0
102
RTVSPost2010PropOp40
 70
     1
102
RTVSPost2010Prop41ColorIndex
 90
       18
102
RTVSPost2010Prop41ColorRGB
 90
        0
102
RTVSPost2010PropOp41
 70
     1
102
RTVSPost2010Prop42
 90
       50
102
RTVSPost2010PropOp42
 70
     1
102
RTVSPost2010Prop43
 90
        3
102
RTVSPost2010PropOp43
 70
     1
102
RTVSPost2010Prop44ColorIndex
 90
        5
102
RTVSPost2010Prop44ColorRGB
 90
      255
102
RTVSPost2010PropOp44
 70
     1
102
RTVSPost2010Prop45
280
     0
102
RTVSPost2010PropOp45
 70
     1
102
RTVSPost2010Prop46
 90
       50
102
RTVSPost2010PropOp46
 70
     1
102
RTVSPost2010Prop47
 90
       50
102
RTVSPost2010PropOp47
 70
     1
102
RTVSPost2010Prop48
 90
       50
102
RTVSPost2010PropOp48
 70
     1
102
RTVSPost2010Prop49
280
     0
102
RTVSPost2010PropOp49
 70
     1
102
RTVSPost2010Prop50
 90
       50
102
RTVSPost2010PropOp50
 70
     1
102
RTVSPost2010Prop51ColorIndex
 90
      256
102
RTVSPost2010Prop51ColorRGB
 90
-16777216
102
RTVSPost2010PropOp51
 70
     0
102
RTVSPost2010Prop52
140
1.0
102
RTVSPost2010PropOp52
 70
     0
102
RTVSPost2010Prop53
 90
        2
102
RTVSPost2010PropOp53
 70
     1
102
RTVSPost2010Prop54
  1
strokes_ogs.tif
102
RTVSPost2010PropOp54
 70
     1
102
RTVSPost2010Prop55
280
     0
102
RTVSPost2010PropOp55
 70
     1
102
RTVSPost2010Prop56
140
1.0
102
RTVSPost2010PropOp56
 70
     1
102
RTVSPost2010Prop57
140
1.0
102
RTVSPost2010PropOp57
 70
     1
  0
XRECORD
  5
1E74
102
{ACAD_REACTORS
330
1E73
102
}
330
1E73
100
AcDbXrecord
280
     1
102
RTVSPost2010Prop28
280
     0
102
RTVSPost2010PropOp28
 70
     1
102
RTVSPost2010Prop29
280
     1
102
RTVSPost2010PropOp29
 70
     1
102
RTVSPost2010Prop30
280
     1
102
RTVSPost2010PropOp30
 70
     1
102
RTVSPost2010Prop31
280
     0
102
RTVSPost2010PropOp31
 70
     1
102
RTVSPost2010Prop32
280
     0
102
RTVSPost2010PropOp32
 70
     1
102
RTVSPost2010Prop33
280
     0
102
RTVSPost2010PropOp33
 70
     1
102
RTVSPost2010Prop34
280
     0
102
RTVSPost2010PropOp34
 70
     1
102
RTVSPost2010Prop35
280
     0
102
RTVSPost2010PropOp35
 70
     1
102
RTVSPost2010Prop36
280
     0
102
RTVSPost2010PropOp36
 70
     1
102
RTVSPost2010Prop37
 90
       50
102
RTVSPost2010PropOp37
 70
     1
102
RTVSPost2010Prop38
140
0.0
102
RTVSPost2010PropOp38
 70
     1
102
RTVSPost2010Prop39
140
1.0
102
RTVSPost2010PropOp39
 70
     1
102
RTVSPost2010Prop40
 90
        0
102
RTVSPost2010PropOp40
 70
     1
102
RTVSPost2010Prop41ColorIndex
 90
       18
102
RTVSPost2010Prop41ColorRGB
 90
        0
102
RTVSPost2010PropOp41
 70
     1
102
RTVSPost2010Prop42
 90
       50
102
RTVSPost2010PropOp42
 70
     1
102
RTVSPost2010Prop43
 90
        3
102
RTVSPost2010PropOp43
 70
     1
102
RTVSPost2010Prop44ColorIndex
 90
        5
102
RTVSPost2010Prop44ColorRGB
 90
      255
102
RTVSPost2010PropOp44
 70
     1
102
RTVSPost2010Prop45
280
     0
102
RTVSPost2010PropOp45
 70
     1
102
RTVSPost2010Prop46
 90
       50
102
RTVSPost2010PropOp46
 70
     1
102
RTVSPost2010Prop47
 90
       50
102
RTVSPost2010PropOp47
 70
     1
102
RTVSPost2010Prop48
 90
       50
102
RTVSPost2010PropOp48
 70
     1
102
RTVSPost2010Prop49
280
     0
102
RTVSPost2010PropOp49
 70
     1
102
RTVSPost2010Prop50
 90
       50
102
RTVSPost2010PropOp50
 70
     1
102
RTVSPost2010Prop51ColorIndex
 90
      256
102
RTVSPost2010Prop51ColorRGB
 90
-16777216
102
RTVSPost2010PropOp51
 70
     0
102
RTVSPost2010Prop52
140
1.0
102
RTVSPost2010PropOp52
 70
     0
102
RTVSPost2010Prop53
 90
        2
102
RTVSPost2010PropOp53
 70
     1
102
RTVSPost2010Prop54
  1
strokes_ogs.tif
102
RTVSPost2010PropOp54
 70
     1
102
RTVSPost2010Prop55
280
     0
102
RTVSPost2010PropOp55
 70
     1
102
RTVSPost2010Prop56
140
1.0
102
RTVSPost2010PropOp56
 70
     1
102
RTVSPost2010Prop57
140
1.0
102
RTVSPost2010PropOp57
 70
     1
  0
XRECORD
  5
1E76
102
{ACAD_REACTORS
330
1E75
102
}
330
1E75
100
AcDbXrecord
280
     1
102
RTVSPost2010Prop28
280
     0
102
RTVSPost2010PropOp28
 70
     1
102
RTVSPost2010Prop29
280
     1
102
RTVSPost2010PropOp29
 70
     1
102
RTVSPost2010Prop30
280
     1
102
RTVSPost2010PropOp30
 70
     1
102
RTVSPost2010Prop31
280
     0
102
RTVSPost2010PropOp31
 70
     1
102
RTVSPost2010Prop32
280
     0
102
RTVSPost2010PropOp32
 70
     1
102
RTVSPost2010Prop33
280
     0
102
RTVSPost2010PropOp33
 70
     1
102
RTVSPost2010Prop34
280
     0
102
RTVSPost2010PropOp34
 70
     1
102
RTVSPost2010Prop35
280
     0
102
RTVSPost2010PropOp35
 70
     1
102
RTVSPost2010Prop36
280
     0
102
RTVSPost2010PropOp36
 70
     1
102
RTVSPost2010Prop37
 90
       50
102
RTVSPost2010PropOp37
 70
     1
102
RTVSPost2010Prop38
140
0.0
102
RTVSPost2010PropOp38
 70
     1
102
RTVSPost2010Prop39
140
1.0
102
RTVSPost2010PropOp39
 70
     1
102
RTVSPost2010Prop40
 90
        0
102
RTVSPost2010PropOp40
 70
     1
102
RTVSPost2010Prop41ColorIndex
 90
       18
102
RTVSPost2010Prop41ColorRGB
 90
        0
102
RTVSPost2010PropOp41
 70
     1
102
RTVSPost2010Prop42
 90
       50
102
RTVSPost2010PropOp42
 70
     1
102
RTVSPost2010Prop43
 90
        3
102
RTVSPost2010PropOp43
 70
     1
102
RTVSPost2010Prop44ColorIndex
 90
        5
102
RTVSPost2010Prop44ColorRGB
 90
      255
102
RTVSPost2010PropOp44
 70
     1
102
RTVSPost2010Prop45
280
     0
102
RTVSPost2010PropOp45
 70
     1
102
RTVSPost2010Prop46
 90
       50
102
RTVSPost2010PropOp46
 70
     1
102
RTVSPost2010Prop47
 90
       50
102
RTVSPost2010PropOp47
 70
     1
102
RTVSPost2010Prop48
 90
       50
102
RTVSPost2010PropOp48
 70
     1
102
RTVSPost2010Prop49
280
     0
102
RTVSPost2010PropOp49
 70
     1
102
RTVSPost2010Prop50
 90
       50
102
RTVSPost2010PropOp50
 70
     1
102
RTVSPost2010Prop51ColorIndex
 90
      256
102
RTVSPost2010Prop51ColorRGB
 90
-16777216
102
RTVSPost2010PropOp51
 70
     0
102
RTVSPost2010Prop52
140
1.0
102
RTVSPost2010PropOp52
 70
     0
102
RTVSPost2010Prop53
 90
        2
102
RTVSPost2010PropOp53
 70
     1
102
RTVSPost2010Prop54
  1
strokes_ogs.tif
102
RTVSPost2010PropOp54
 70
     1
102
RTVSPost2010Prop55
280
     0
102
RTVSPost2010PropOp55
 70
     1
102
RTVSPost2010Prop56
140
1.0
102
RTVSPost2010PropOp56
 70
     1
102
RTVSPost2010Prop57
140
1.0
102
RTVSPost2010PropOp57
 70
     1
  0
XRECORD
  5
1E7E
102
{ACAD_REACTORS
330
1E7D
102
}
330
1E7D
100
AcDbXrecord
280
     1
102
RTVSPost2010Prop28
280
     0
102
RTVSPost2010PropOp28
 70
     1
102
RTVSPost2010Prop29
280
     1
102
RTVSPost2010PropOp29
 70
     1
102
RTVSPost2010Prop30
280
     1
102
RTVSPost2010PropOp30
 70
     1
102
RTVSPost2010Prop31
280
     0
102
RTVSPost2010PropOp31
 70
     1
102
RTVSPost2010Prop32
280
     0
102
RTVSPost2010PropOp32
 70
     1
102
RTVSPost2010Prop33
280
     0
102
RTVSPost2010PropOp33
 70
     1
102
RTVSPost2010Prop34
280
     0
102
RTVSPost2010PropOp34
 70
     1
102
RTVSPost2010Prop35
280
     0
102
RTVSPost2010PropOp35
 70
     1
102
RTVSPost2010Prop36
280
     0
102
RTVSPost2010PropOp36
 70
     1
102
RTVSPost2010Prop37
 90
       50
102
RTVSPost2010PropOp37
 70
     1
102
RTVSPost2010Prop38
140
0.0
102
RTVSPost2010PropOp38
 70
     1
102
RTVSPost2010Prop39
140
1.0
102
RTVSPost2010PropOp39
 70
     1
102
RTVSPost2010Prop40
 90
        0
102
RTVSPost2010PropOp40
 70
     1
102
RTVSPost2010Prop41ColorIndex
 90
       18
102
RTVSPost2010Prop41ColorRGB
 90
        0
102
RTVSPost2010PropOp41
 70
     1
102
RTVSPost2010Prop42
 90
       50
102
RTVSPost2010PropOp42
 70
     1
102
RTVSPost2010Prop43
 90
        3
102
RTVSPost2010PropOp43
 70
     1
102
RTVSPost2010Prop44ColorIndex
 90
        5
102
RTVSPost2010Prop44ColorRGB
 90
      255
102
RTVSPost2010PropOp44
 70
     1
102
RTVSPost2010Prop45
280
     0
102
RTVSPost2010PropOp45
 70
     1
102
RTVSPost2010Prop46
 90
       50
102
RTVSPost2010PropOp46
 70
     1
102
RTVSPost2010Prop47
 90
       50
102
RTVSPost2010PropOp47
 70
     1
102
RTVSPost2010Prop48
 90
       50
102
RTVSPost2010PropOp48
 70
     1
102
RTVSPost2010Prop49
280
     0
102
RTVSPost2010PropOp49
 70
     1
102
RTVSPost2010Prop50
 90
       50
102
RTVSPost2010PropOp50
 70
     1
102
RTVSPost2010Prop51ColorIndex
 90
      256
102
RTVSPost2010Prop51ColorRGB
 90
-16777216
102
RTVSPost2010PropOp51
 70
     0
102
RTVSPost2010Prop52
140
1.0
102
RTVSPost2010PropOp52
 70
     0
102
RTVSPost2010Prop53
 90
        2
102
RTVSPost2010PropOp53
 70
     1
102
RTVSPost2010Prop54
  1
strokes_ogs.tif
102
RTVSPost2010PropOp54
 70
     1
102
RTVSPost2010Prop55
280
     0
102
RTVSPost2010PropOp55
 70
     1
102
RTVSPost2010Prop56
140
1.0
102
RTVSPost2010PropOp56
 70
     1
102
RTVSPost2010Prop57
140
1.0
102
RTVSPost2010PropOp57
 70
     1
  0
XRECORD
  5
1E90
102
{ACAD_REACTORS
330
1E8F
102
}
330
1E8F
100
AcDbXrecord
280
     1
102
RTVSPost2010Prop28
280
     0
102
RTVSPost2010PropOp28
 70
     1
102
RTVSPost2010Prop29
280
     1
102
RTVSPost2010PropOp29
 70
     1
102
RTVSPost2010Prop30
280
     1
102
RTVSPost2010PropOp30
 70
     1
102
RTVSPost2010Prop31
280
     0
102
RTVSPost2010PropOp31
 70
     1
102
RTVSPost2010Prop32
280
     0
102
RTVSPost2010PropOp32
 70
     1
102
RTVSPost2010Prop33
280
     0
102
RTVSPost2010PropOp33
 70
     1
102
RTVSPost2010Prop34
280
     0
102
RTVSPost2010PropOp34
 70
     1
102
RTVSPost2010Prop35
280
     0
102
RTVSPost2010PropOp35
 70
     1
102
RTVSPost2010Prop36
280
     0
102
RTVSPost2010PropOp36
 70
     1
102
RTVSPost2010Prop37
 90
       50
102
RTVSPost2010PropOp37
 70
     1
102
RTVSPost2010Prop38
140
0.0
102
RTVSPost2010PropOp38
 70
     1
102
RTVSPost2010Prop39
140
1.0
102
RTVSPost2010PropOp39
 70
     1
102
RTVSPost2010Prop40
 90
        0
102
RTVSPost2010PropOp40
 70
     1
102
RTVSPost2010Prop41ColorIndex
 90
       18
102
RTVSPost2010Prop41ColorRGB
 90
        0
102
RTVSPost2010PropOp41
 70
     1
102
RTVSPost2010Prop42
 90
       50
102
RTVSPost2010PropOp42
 70
     1
102
RTVSPost2010Prop43
 90
        3
102
RTVSPost2010PropOp43
 70
     1
102
RTVSPost2010Prop44ColorIndex
 90
        5
102
RTVSPost2010Prop44ColorRGB
 90
      255
102
RTVSPost2010PropOp44
 70
     1
102
RTVSPost2010Prop45
280
     0
102
RTVSPost2010PropOp45
 70
     1
102
RTVSPost2010Prop46
 90
       50
102
RTVSPost2010PropOp46
 70
     1
102
RTVSPost2010Prop47
 90
       50
102
RTVSPost2010PropOp47
 70
     1
102
RTVSPost2010Prop48
 90
       50
102
RTVSPost2010PropOp48
 70
     1
102
RTVSPost2010Prop49
280
     0
102
RTVSPost2010PropOp49
 70
     1
102
RTVSPost2010Prop50
 90
       50
102
RTVSPost2010PropOp50
 70
     1
102
RTVSPost2010Prop51ColorIndex
 90
      256
102
RTVSPost2010Prop51ColorRGB
 90
-16777216
102
RTVSPost2010PropOp51
 70
     0
102
RTVSPost2010Prop52
140
1.0
102
RTVSPost2010PropOp52
 70
     0
102
RTVSPost2010Prop53
 90
        2
102
RTVSPost2010PropOp53
 70
     1
102
RTVSPost2010Prop54
  1
strokes_ogs.tif
102
RTVSPost2010PropOp54
 70
     1
102
RTVSPost2010Prop55
280
     0
102
RTVSPost2010PropOp55
 70
     1
102
RTVSPost2010Prop56
140
1.0
102
RTVSPost2010PropOp56
 70
     1
102
RTVSPost2010Prop57
140
1.0
102
RTVSPost2010PropOp57
 70
     1
  0
XRECORD
  5
1E8A
102
{ACAD_REACTORS
330
1E89
102
}
330
1E89
100
AcDbXrecord
280
     1
102
RTVSPost2010Prop28
280
     0
102
RTVSPost2010PropOp28
 70
     1
102
RTVSPost2010Prop29
280
     1
102
RTVSPost2010PropOp29
 70
     1
102
RTVSPost2010Prop30
280
     1
102
RTVSPost2010PropOp30
 70
     1
102
RTVSPost2010Prop31
280
     0
102
RTVSPost2010PropOp31
 70
     1
102
RTVSPost2010Prop32
280
     0
102
RTVSPost2010PropOp32
 70
     1
102
RTVSPost2010Prop33
280
     0
102
RTVSPost2010PropOp33
 70
     1
102
RTVSPost2010Prop34
280
     0
102
RTVSPost2010PropOp34
 70
     1
102
RTVSPost2010Prop35
280
     0
102
RTVSPost2010PropOp35
 70
     1
102
RTVSPost2010Prop36
280
     0
102
RTVSPost2010PropOp36
 70
     1
102
RTVSPost2010Prop37
 90
       50
102
RTVSPost2010PropOp37
 70
     1
102
RTVSPost2010Prop38
140
0.0
102
RTVSPost2010PropOp38
 70
     1
102
RTVSPost2010Prop39
140
1.0
102
RTVSPost2010PropOp39
 70
     1
102
RTVSPost2010Prop40
 90
        0
102
RTVSPost2010PropOp40
 70
     1
102
RTVSPost2010Prop41ColorIndex
 90
       18
102
RTVSPost2010Prop41ColorRGB
 90
        0
102
RTVSPost2010PropOp41
 70
     1
102
RTVSPost2010Prop42
 90
       50
102
RTVSPost2010PropOp42
 70
     1
102
RTVSPost2010Prop43
 90
        3
102
RTVSPost2010PropOp43
 70
     1
102
RTVSPost2010Prop44ColorIndex
 90
        5
102
RTVSPost2010Prop44ColorRGB
 90
      255
102
RTVSPost2010PropOp44
 70
     1
102
RTVSPost2010Prop45
280
     0
102
RTVSPost2010PropOp45
 70
     1
102
RTVSPost2010Prop46
 90
       50
102
RTVSPost2010PropOp46
 70
     1
102
RTVSPost2010Prop47
 90
       50
102
RTVSPost2010PropOp47
 70
     1
102
RTVSPost2010Prop48
 90
       50
102
RTVSPost2010PropOp48
 70
     1
102
RTVSPost2010Prop49
280
     0
102
RTVSPost2010PropOp49
 70
     1
102
RTVSPost2010Prop50
 90
       50
102
RTVSPost2010PropOp50
 70
     1
102
RTVSPost2010Prop51ColorIndex
 90
      256
102
RTVSPost2010Prop51ColorRGB
 90
-16777216
102
RTVSPost2010PropOp51
 70
     0
102
RTVSPost2010Prop52
140
1.0
102
RTVSPost2010PropOp52
 70
     0
102
RTVSPost2010Prop53
 90
        2
102
RTVSPost2010PropOp53
 70
     1
102
RTVSPost2010Prop54
  1
strokes_ogs.tif
102
RTVSPost2010PropOp54
 70
     1
102
RTVSPost2010Prop55
280
     0
102
RTVSPost2010PropOp55
 70
     1
102
RTVSPost2010Prop56
140
1.0
102
RTVSPost2010PropOp56
 70
     1
102
RTVSPost2010Prop57
140
1.0
102
RTVSPost2010PropOp57
 70
     1
  0
XRECORD
  5
1E92
102
{ACAD_REACTORS
330
1E91
102
}
330
1E91
100
AcDbXrecord
280
     1
102
RTVSPost2010Prop28
280
     0
102
RTVSPost2010PropOp28
 70
     1
102
RTVSPost2010Prop29
280
     1
102
RTVSPost2010PropOp29
 70
     1
102
RTVSPost2010Prop30
280
     1
102
RTVSPost2010PropOp30
 70
     1
102
RTVSPost2010Prop31
280
     0
102
RTVSPost2010PropOp31
 70
     1
102
RTVSPost2010Prop32
280
     0
102
RTVSPost2010PropOp32
 70
     1
102
RTVSPost2010Prop33
280
     0
102
RTVSPost2010PropOp33
 70
     1
102
RTVSPost2010Prop34
280
     0
102
RTVSPost2010PropOp34
 70
     1
102
RTVSPost2010Prop35
280
     0
102
RTVSPost2010PropOp35
 70
     1
102
RTVSPost2010Prop36
280
     0
102
RTVSPost2010PropOp36
 70
     1
102
RTVSPost2010Prop37
 90
       50
102
RTVSPost2010PropOp37
 70
     1
102
RTVSPost2010Prop38
140
0.0
102
RTVSPost2010PropOp38
 70
     1
102
RTVSPost2010Prop39
140
1.0
102
RTVSPost2010PropOp39
 70
     1
102
RTVSPost2010Prop40
 90
        0
102
RTVSPost2010PropOp40
 70
     1
102
RTVSPost2010Prop41ColorIndex
 90
       18
102
RTVSPost2010Prop41ColorRGB
 90
        0
102
RTVSPost2010PropOp41
 70
     1
102
RTVSPost2010Prop42
 90
       50
102
RTVSPost2010PropOp42
 70
     1
102
RTVSPost2010Prop43
 90
        3
102
RTVSPost2010PropOp43
 70
     1
102
RTVSPost2010Prop44ColorIndex
 90
        5
102
RTVSPost2010Prop44ColorRGB
 90
      255
102
RTVSPost2010PropOp44
 70
     1
102
RTVSPost2010Prop45
280
     0
102
RTVSPost2010PropOp45
 70
     1
102
RTVSPost2010Prop46
 90
       50
102
RTVSPost2010PropOp46
 70
     1
102
RTVSPost2010Prop47
 90
       50
102
RTVSPost2010PropOp47
 70
     1
102
RTVSPost2010Prop48
 90
       50
102
RTVSPost2010PropOp48
 70
     1
102
RTVSPost2010Prop49
280
     0
102
RTVSPost2010PropOp49
 70
     1
102
RTVSPost2010Prop50
 90
       50
102
RTVSPost2010PropOp50
 70
     1
102
RTVSPost2010Prop51ColorIndex
 90
      256
102
RTVSPost2010Prop51ColorRGB
 90
-16777216
102
RTVSPost2010PropOp51
 70
     0
102
RTVSPost2010Prop52
140
1.0
102
RTVSPost2010PropOp52
 70
     0
102
RTVSPost2010Prop53
 90
        2
102
RTVSPost2010PropOp53
 70
     1
102
RTVSPost2010Prop54
  1
strokes_ogs.tif
102
RTVSPost2010PropOp54
 70
     1
102
RTVSPost2010Prop55
280
     0
102
RTVSPost2010PropOp55
 70
     1
102
RTVSPost2010Prop56
140
1.0
102
RTVSPost2010PropOp56
 70
     1
102
RTVSPost2010Prop57
140
1.0
102
RTVSPost2010PropOp57
 70
     1
  0
XRECORD
  5
1E82
102
{ACAD_REACTORS
330
1E81
102
}
330
1E81
100
AcDbXrecord
280
     1
102
RTVSPost2010Prop28
280
     0
102
RTVSPost2010PropOp28
 70
     1
102
RTVSPost2010Prop29
280
     1
102
RTVSPost2010PropOp29
 70
     1
102
RTVSPost2010Prop30
280
     1
102
RTVSPost2010PropOp30
 70
     1
102
RTVSPost2010Prop31
280
     0
102
RTVSPost2010PropOp31
 70
     1
102
RTVSPost2010Prop32
280
     0
102
RTVSPost2010PropOp32
 70
     1
102
RTVSPost2010Prop33
280
     0
102
RTVSPost2010PropOp33
 70
     1
102
RTVSPost2010Prop34
280
     0
102
RTVSPost2010PropOp34
 70
     1
102
RTVSPost2010Prop35
280
     0
102
RTVSPost2010PropOp35
 70
     1
102
RTVSPost2010Prop36
280
     0
102
RTVSPost2010PropOp36
 70
     1
102
RTVSPost2010Prop37
 90
       50
102
RTVSPost2010PropOp37
 70
     1
102
RTVSPost2010Prop38
140
0.0
102
RTVSPost2010PropOp38
 70
     1
102
RTVSPost2010Prop39
140
1.0
102
RTVSPost2010PropOp39
 70
     1
102
RTVSPost2010Prop40
 90
        0
102
RTVSPost2010PropOp40
 70
     1
102
RTVSPost2010Prop41ColorIndex
 90
       18
102
RTVSPost2010Prop41ColorRGB
 90
        0
102
RTVSPost2010PropOp41
 70
     1
102
RTVSPost2010Prop42
 90
       50
102
RTVSPost2010PropOp42
 70
     1
102
RTVSPost2010Prop43
 90
        3
102
RTVSPost2010PropOp43
 70
     1
102
RTVSPost2010Prop44ColorIndex
 90
        5
102
RTVSPost2010Prop44ColorRGB
 90
      255
102
RTVSPost2010PropOp44
 70
     1
102
RTVSPost2010Prop45
280
     0
102
RTVSPost2010PropOp45
 70
     1
102
RTVSPost2010Prop46
 90
       50
102
RTVSPost2010PropOp46
 70
     1
102
RTVSPost2010Prop47
 90
       50
102
RTVSPost2010PropOp47
 70
     1
102
RTVSPost2010Prop48
 90
       50
102
RTVSPost2010PropOp48
 70
     1
102
RTVSPost2010Prop49
280
     0
102
RTVSPost2010PropOp49
 70
     1
102
RTVSPost2010Prop50
 90
       50
102
RTVSPost2010PropOp50
 70
     1
102
RTVSPost2010Prop51ColorIndex
 90
      256
102
RTVSPost2010Prop51ColorRGB
 90
-16777216
102
RTVSPost2010PropOp51
 70
     0
102
RTVSPost2010Prop52
140
1.0
102
RTVSPost2010PropOp52
 70
     0
102
RTVSPost2010Prop53
 90
        2
102
RTVSPost2010PropOp53
 70
     1
102
RTVSPost2010Prop54
  1
strokes_ogs.tif
102
RTVSPost2010PropOp54
 70
     1
102
RTVSPost2010Prop55
280
     0
102
RTVSPost2010PropOp55
 70
     1
102
RTVSPost2010Prop56
140
1.0
102
RTVSPost2010PropOp56
 70
     1
102
RTVSPost2010Prop57
140
1.0
102
RTVSPost2010PropOp57
 70
     1
  0
XRECORD
  5
1E9E
102
{ACAD_REACTORS
330
1E9D
102
}
330
1E9D
100
AcDbXrecord
280
     1
102
RTVSPost2010Prop28
280
     0
102
RTVSPost2010PropOp28
 70
     1
102
RTVSPost2010Prop29
280
     1
102
RTVSPost2010PropOp29
 70
     1
102
RTVSPost2010Prop30
280
     1
102
RTVSPost2010PropOp30
 70
     1
102
RTVSPost2010Prop31
280
     0
102
RTVSPost2010PropOp31
 70
     1
102
RTVSPost2010Prop32
280
     0
102
RTVSPost2010PropOp32
 70
     1
102
RTVSPost2010Prop33
280
     0
102
RTVSPost2010PropOp33
 70
     1
102
RTVSPost2010Prop34
280
     0
102
RTVSPost2010PropOp34
 70
     1
102
RTVSPost2010Prop35
280
     0
102
RTVSPost2010PropOp35
 70
     1
102
RTVSPost2010Prop36
280
     0
102
RTVSPost2010PropOp36
 70
     1
102
RTVSPost2010Prop37
 90
       50
102
RTVSPost2010PropOp37
 70
     1
102
RTVSPost2010Prop38
140
0.0
102
RTVSPost2010PropOp38
 70
     1
102
RTVSPost2010Prop39
140
1.0
102
RTVSPost2010PropOp39
 70
     1
102
RTVSPost2010Prop40
 90
        0
102
RTVSPost2010PropOp40
 70
     1
102
RTVSPost2010Prop41ColorIndex
 90
       18
102
RTVSPost2010Prop41ColorRGB
 90
        0
102
RTVSPost2010PropOp41
 70
     1
102
RTVSPost2010Prop42
 90
       50
102
RTVSPost2010PropOp42
 70
     1
102
RTVSPost2010Prop43
 90
        3
102
RTVSPost2010PropOp43
 70
     1
102
RTVSPost2010Prop44ColorIndex
 90
        5
102
RTVSPost2010Prop44ColorRGB
 90
      255
102
RTVSPost2010PropOp44
 70
     1
102
RTVSPost2010Prop45
280
     0
102
RTVSPost2010PropOp45
 70
     1
102
RTVSPost2010Prop46
 90
       50
102
RTVSPost2010PropOp46
 70
     1
102
RTVSPost2010Prop47
 90
       50
102
RTVSPost2010PropOp47
 70
     1
102
RTVSPost2010Prop48
 90
       50
102
RTVSPost2010PropOp48
 70
     1
102
RTVSPost2010Prop49
280
     0
102
RTVSPost2010PropOp49
 70
     1
102
RTVSPost2010Prop50
 90
       50
102
RTVSPost2010PropOp50
 70
     1
102
RTVSPost2010Prop51ColorIndex
 90
      256
102
RTVSPost2010Prop51ColorRGB
 90
-16777216
102
RTVSPost2010PropOp51
 70
     0
102
RTVSPost2010Prop52
140
1.0
102
RTVSPost2010PropOp52
 70
     0
102
RTVSPost2010Prop53
 90
        2
102
RTVSPost2010PropOp53
 70
     1
102
RTVSPost2010Prop54
  1
strokes_ogs.tif
102
RTVSPost2010PropOp54
 70
     1
102
RTVSPost2010Prop55
280
     0
102
RTVSPost2010PropOp55
 70
     1
102
RTVSPost2010Prop56
140
1.0
102
RTVSPost2010PropOp56
 70
     1
102
RTVSPost2010Prop57
140
1.0
102
RTVSPost2010PropOp57
 70
     1
  0
XRECORD
  5
1E9C
102
{ACAD_REACTORS
330
1E9B
102
}
330
1E9B
100
AcDbXrecord
280
     1
102
RTVSPost2010Prop28
280
     0
102
RTVSPost2010PropOp28
 70
     1
102
RTVSPost2010Prop29
280
     1
102
RTVSPost2010PropOp29
 70
     1
102
RTVSPost2010Prop30
280
     1
102
RTVSPost2010PropOp30
 70
     1
102
RTVSPost2010Prop31
280
     0
102
RTVSPost2010PropOp31
 70
     1
102
RTVSPost2010Prop32
280
     0
102
RTVSPost2010PropOp32
 70
     1
102
RTVSPost2010Prop33
280
     0
102
RTVSPost2010PropOp33
 70
     1
102
RTVSPost2010Prop34
280
     0
102
RTVSPost2010PropOp34
 70
     1
102
RTVSPost2010Prop35
280
     0
102
RTVSPost2010PropOp35
 70
     1
102
RTVSPost2010Prop36
280
     0
102
RTVSPost2010PropOp36
 70
     1
102
RTVSPost2010Prop37
 90
       50
102
RTVSPost2010PropOp37
 70
     1
102
RTVSPost2010Prop38
140
0.0
102
RTVSPost2010PropOp38
 70
     1
102
RTVSPost2010Prop39
140
1.0
102
RTVSPost2010PropOp39
 70
     1
102
RTVSPost2010Prop40
 90
        0
102
RTVSPost2010PropOp40
 70
     1
102
RTVSPost2010Prop41ColorIndex
 90
       18
102
RTVSPost2010Prop41ColorRGB
 90
        0
102
RTVSPost2010PropOp41
 70
     1
102
RTVSPost2010Prop42
 90
       50
102
RTVSPost2010PropOp42
 70
     1
102
RTVSPost2010Prop43
 90
        3
102
RTVSPost2010PropOp43
 70
     1
102
RTVSPost2010Prop44ColorIndex
 90
        5
102
RTVSPost2010Prop44ColorRGB
 90
      255
102
RTVSPost2010PropOp44
 70
     1
102
RTVSPost2010Prop45
280
     0
102
RTVSPost2010PropOp45
 70
     1
102
RTVSPost2010Prop46
 90
       50
102
RTVSPost2010PropOp46
 70
     1
102
RTVSPost2010Prop47
 90
       50
102
RTVSPost2010PropOp47
 70
     1
102
RTVSPost2010Prop48
 90
       50
102
RTVSPost2010PropOp48
 70
     1
102
RTVSPost2010Prop49
280
     0
102
RTVSPost2010PropOp49
 70
     1
102
RTVSPost2010Prop50
 90
       50
102
RTVSPost2010PropOp50
 70
     1
102
RTVSPost2010Prop51ColorIndex
 90
      256
102
RTVSPost2010Prop51ColorRGB
 90
-16777216
102
RTVSPost2010PropOp51
 70
     0
102
RTVSPost2010Prop52
140
1.0
102
RTVSPost2010PropOp52
 70
     0
102
RTVSPost2010Prop53
 90
        2
102
RTVSPost2010PropOp53
 70
     1
102
RTVSPost2010Prop54
  1
strokes_ogs.tif
102
RTVSPost2010PropOp54
 70
     1
102
RTVSPost2010Prop55
280
     0
102
RTVSPost2010PropOp55
 70
     1
102
RTVSPost2010Prop56
140
1.0
102
RTVSPost2010PropOp56
 70
     1
102
RTVSPost2010Prop57
140
1.0
102
RTVSPost2010PropOp57
 70
     1
  0
XRECORD
  5
1E96
102
{ACAD_REACTORS
330
1E95
102
}
330
1E95
100
AcDbXrecord
280
     1
102
RTVSPost2010Prop28
280
     0
102
RTVSPost2010PropOp28
 70
     1
102
RTVSPost2010Prop29
280
     1
102
RTVSPost2010PropOp29
 70
     1
102
RTVSPost2010Prop30
280
     1
102
RTVSPost2010PropOp30
 70
     1
102
RTVSPost2010Prop31
280
     0
102
RTVSPost2010PropOp31
 70
     1
102
RTVSPost2010Prop32
280
     0
102
RTVSPost2010PropOp32
 70
     1
102
RTVSPost2010Prop33
280
     0
102
RTVSPost2010PropOp33
 70
     1
102
RTVSPost2010Prop34
280
     0
102
RTVSPost2010PropOp34
 70
     1
102
RTVSPost2010Prop35
280
     0
102
RTVSPost2010PropOp35
 70
     1
102
RTVSPost2010Prop36
280
     0
102
RTVSPost2010PropOp36
 70
     1
102
RTVSPost2010Prop37
 90
       50
102
RTVSPost2010PropOp37
 70
     1
102
RTVSPost2010Prop38
140
0.0
102
RTVSPost2010PropOp38
 70
     1
102
RTVSPost2010Prop39
140
1.0
102
RTVSPost2010PropOp39
 70
     1
102
RTVSPost2010Prop40
 90
        0
102
RTVSPost2010PropOp40
 70
     1
102
RTVSPost2010Prop41ColorIndex
 90
       18
102
RTVSPost2010Prop41ColorRGB
 90
        0
102
RTVSPost2010PropOp41
 70
     1
102
RTVSPost2010Prop42
 90
       50
102
RTVSPost2010PropOp42
 70
     1
102
RTVSPost2010Prop43
 90
        3
102
RTVSPost2010PropOp43
 70
     1
102
RTVSPost2010Prop44ColorIndex
 90
        5
102
RTVSPost2010Prop44ColorRGB
 90
      255
102
RTVSPost2010PropOp44
 70
     1
102
RTVSPost2010Prop45
280
     0
102
RTVSPost2010PropOp45
 70
     1
102
RTVSPost2010Prop46
 90
       50
102
RTVSPost2010PropOp46
 70
     1
102
RTVSPost2010Prop47
 90
       50
102
RTVSPost2010PropOp47
 70
     1
102
RTVSPost2010Prop48
 90
       50
102
RTVSPost2010PropOp48
 70
     1
102
RTVSPost2010Prop49
280
     0
102
RTVSPost2010PropOp49
 70
     1
102
RTVSPost2010Prop50
 90
       50
102
RTVSPost2010PropOp50
 70
     1
102
RTVSPost2010Prop51ColorIndex
 90
      256
102
RTVSPost2010Prop51ColorRGB
 90
-16777216
102
RTVSPost2010PropOp51
 70
     0
102
RTVSPost2010Prop52
140
1.0
102
RTVSPost2010PropOp52
 70
     0
102
RTVSPost2010Prop53
 90
        2
102
RTVSPost2010PropOp53
 70
     1
102
RTVSPost2010Prop54
  1
strokes_ogs.tif
102
RTVSPost2010PropOp54
 70
     1
102
RTVSPost2010Prop55
280
     0
102
RTVSPost2010PropOp55
 70
     1
102
RTVSPost2010Prop56
140
1.0
102
RTVSPost2010PropOp56
 70
     1
102
RTVSPost2010Prop57
140
1.0
102
RTVSPost2010PropOp57
 70
     1
  0
XRECORD
  5
1E98
102
{ACAD_REACTORS
330
1E97
102
}
330
1E97
100
AcDbXrecord
280
     1
102
RTVSPost2010Prop28
280
     0
102
RTVSPost2010PropOp28
 70
     1
102
RTVSPost2010Prop29
280
     1
102
RTVSPost2010PropOp29
 70
     1
102
RTVSPost2010Prop30
280
     1
102
RTVSPost2010PropOp30
 70
     1
102
RTVSPost2010Prop31
280
     0
102
RTVSPost2010PropOp31
 70
     1
102
RTVSPost2010Prop32
280
     0
102
RTVSPost2010PropOp32
 70
     1
102
RTVSPost2010Prop33
280
     0
102
RTVSPost2010PropOp33
 70
     1
102
RTVSPost2010Prop34
280
     0
102
RTVSPost2010PropOp34
 70
     1
102
RTVSPost2010Prop35
280
     0
102
RTVSPost2010PropOp35
 70
     1
102
RTVSPost2010Prop36
280
     0
102
RTVSPost2010PropOp36
 70
     1
102
RTVSPost2010Prop37
 90
       50
102
RTVSPost2010PropOp37
 70
     1
102
RTVSPost2010Prop38
140
0.0
102
RTVSPost2010PropOp38
 70
     1
102
RTVSPost2010Prop39
140
1.0
102
RTVSPost2010PropOp39
 70
     1
102
RTVSPost2010Prop40
 90
        0
102
RTVSPost2010PropOp40
 70
     1
102
RTVSPost2010Prop41ColorIndex
 90
       18
102
RTVSPost2010Prop41ColorRGB
 90
        0
102
RTVSPost2010PropOp41
 70
     1
102
RTVSPost2010Prop42
 90
       50
102
RTVSPost2010PropOp42
 70
     1
102
RTVSPost2010Prop43
 90
        3
102
RTVSPost2010PropOp43
 70
     1
102
RTVSPost2010Prop44ColorIndex
 90
        5
102
RTVSPost2010Prop44ColorRGB
 90
      255
102
RTVSPost2010PropOp44
 70
     1
102
RTVSPost2010Prop45
280
     0
102
RTVSPost2010PropOp45
 70
     1
102
RTVSPost2010Prop46
 90
       50
102
RTVSPost2010PropOp46
 70
     1
102
RTVSPost2010Prop47
 90
       50
102
RTVSPost2010PropOp47
 70
     1
102
RTVSPost2010Prop48
 90
       50
102
RTVSPost2010PropOp48
 70
     1
102
RTVSPost2010Prop49
280
     0
102
RTVSPost2010PropOp49
 70
     1
102
RTVSPost2010Prop50
 90
       50
102
RTVSPost2010PropOp50
 70
     1
102
RTVSPost2010Prop51ColorIndex
 90
      256
102
RTVSPost2010Prop51ColorRGB
 90
-16777216
102
RTVSPost2010PropOp51
 70
     0
102
RTVSPost2010Prop52
140
1.0
102
RTVSPost2010PropOp52
 70
     0
102
RTVSPost2010Prop53
 90
        2
102
RTVSPost2010PropOp53
 70
     1
102
RTVSPost2010Prop54
  1
strokes_ogs.tif
102
RTVSPost2010PropOp54
 70
     1
102
RTVSPost2010Prop55
280
     0
102
RTVSPost2010PropOp55
 70
     1
102
RTVSPost2010Prop56
140
1.0
102
RTVSPost2010PropOp56
 70
     1
102
RTVSPost2010Prop57
140
1.0
102
RTVSPost2010PropOp57
 70
     1
  0
XRECORD
  5
1E88
102
{ACAD_REACTORS
330
1E87
102
}
330
1E87
100
AcDbXrecord
280
     1
102
RTVSPost2010Prop28
280
     0
102
RTVSPost2010PropOp28
 70
     1
102
RTVSPost2010Prop29
280
     1
102
RTVSPost2010PropOp29
 70
     1
102
RTVSPost2010Prop30
280
     1
102
RTVSPost2010PropOp30
 70
     1
102
RTVSPost2010Prop31
280
     0
102
RTVSPost2010PropOp31
 70
     1
102
RTVSPost2010Prop32
280
     0
102
RTVSPost2010PropOp32
 70
     1
102
RTVSPost2010Prop33
280
     0
102
RTVSPost2010PropOp33
 70
     1
102
RTVSPost2010Prop34
280
     0
102
RTVSPost2010PropOp34
 70
     1
102
RTVSPost2010Prop35
280
     0
102
RTVSPost2010PropOp35
 70
     1
102
RTVSPost2010Prop36
280
     0
102
RTVSPost2010PropOp36
 70
     1
102
RTVSPost2010Prop37
 90
       50
102
RTVSPost2010PropOp37
 70
     1
102
RTVSPost2010Prop38
140
0.0
102
RTVSPost2010PropOp38
 70
     1
102
RTVSPost2010Prop39
140
1.0
102
RTVSPost2010PropOp39
 70
     1
102
RTVSPost2010Prop40
 90
        0
102
RTVSPost2010PropOp40
 70
     1
102
RTVSPost2010Prop41ColorIndex
 90
       18
102
RTVSPost2010Prop41ColorRGB
 90
        0
102
RTVSPost2010PropOp41
 70
     1
102
RTVSPost2010Prop42
 90
       50
102
RTVSPost2010PropOp42
 70
     1
102
RTVSPost2010Prop43
 90
        3
102
RTVSPost2010PropOp43
 70
     1
102
RTVSPost2010Prop44ColorIndex
 90
        5
102
RTVSPost2010Prop44ColorRGB
 90
      255
102
RTVSPost2010PropOp44
 70
     1
102
RTVSPost2010Prop45
280
     0
102
RTVSPost2010PropOp45
 70
     1
102
RTVSPost2010Prop46
 90
       50
102
RTVSPost2010PropOp46
 70
     1
102
RTVSPost2010Prop47
 90
       50
102
RTVSPost2010PropOp47
 70
     1
102
RTVSPost2010Prop48
 90
       50
102
RTVSPost2010PropOp48
 70
     1
102
RTVSPost2010Prop49
280
     0
102
RTVSPost2010PropOp49
 70
     1
102
RTVSPost2010Prop50
 90
       50
102
RTVSPost2010PropOp50
 70
     1
102
RTVSPost2010Prop51ColorIndex
 90
      256
102
RTVSPost2010Prop51ColorRGB
 90
-16777216
102
RTVSPost2010PropOp51
 70
     0
102
RTVSPost2010Prop52
140
1.0
102
RTVSPost2010PropOp52
 70
     0
102
RTVSPost2010Prop53
 90
        2
102
RTVSPost2010PropOp53
 70
     1
102
RTVSPost2010Prop54
  1
strokes_ogs.tif
102
RTVSPost2010PropOp54
 70
     1
102
RTVSPost2010Prop55
280
     0
102
RTVSPost2010PropOp55
 70
     1
102
RTVSPost2010Prop56
140
1.0
102
RTVSPost2010PropOp56
 70
     1
102
RTVSPost2010Prop57
140
1.0
102
RTVSPost2010PropOp57
 70
     1
  0
XRECORD
  5
1E7C
102
{ACAD_REACTORS
330
1E7B
102
}
330
1E7B
100
AcDbXrecord
280
     1
102
RTVSPost2010Prop28
280
     0
102
RTVSPost2010PropOp28
 70
     1
102
RTVSPost2010Prop29
280
     1
102
RTVSPost2010PropOp29
 70
     1
102
RTVSPost2010Prop30
280
     1
102
RTVSPost2010PropOp30
 70
     1
102
RTVSPost2010Prop31
280
     0
102
RTVSPost2010PropOp31
 70
     1
102
RTVSPost2010Prop32
280
     0
102
RTVSPost2010PropOp32
 70
     1
102
RTVSPost2010Prop33
280
     0
102
RTVSPost2010PropOp33
 70
     1
102
RTVSPost2010Prop34
280
     0
102
RTVSPost2010PropOp34
 70
     1
102
RTVSPost2010Prop35
280
     0
102
RTVSPost2010PropOp35
 70
     1
102
RTVSPost2010Prop36
280
     0
102
RTVSPost2010PropOp36
 70
     1
102
RTVSPost2010Prop37
 90
       50
102
RTVSPost2010PropOp37
 70
     1
102
RTVSPost2010Prop38
140
0.0
102
RTVSPost2010PropOp38
 70
     1
102
RTVSPost2010Prop39
140
1.0
102
RTVSPost2010PropOp39
 70
     1
102
RTVSPost2010Prop40
 90
        0
102
RTVSPost2010PropOp40
 70
     1
102
RTVSPost2010Prop41ColorIndex
 90
       18
102
RTVSPost2010Prop41ColorRGB
 90
        0
102
RTVSPost2010PropOp41
 70
     1
102
RTVSPost2010Prop42
 90
       50
102
RTVSPost2010PropOp42
 70
     1
102
RTVSPost2010Prop43
 90
        3
102
RTVSPost2010PropOp43
 70
     1
102
RTVSPost2010Prop44ColorIndex
 90
        5
102
RTVSPost2010Prop44ColorRGB
 90
      255
102
RTVSPost2010PropOp44
 70
     1
102
RTVSPost2010Prop45
280
     0
102
RTVSPost2010PropOp45
 70
     1
102
RTVSPost2010Prop46
 90
       50
102
RTVSPost2010PropOp46
 70
     1
102
RTVSPost2010Prop47
 90
       50
102
RTVSPost2010PropOp47
 70
     1
102
RTVSPost2010Prop48
 90
       50
102
RTVSPost2010PropOp48
 70
     1
102
RTVSPost2010Prop49
280
     0
102
RTVSPost2010PropOp49
 70
     1
102
RTVSPost2010Prop50
 90
       50
102
RTVSPost2010PropOp50
 70
     1
102
RTVSPost2010Prop51ColorIndex
 90
      256
102
RTVSPost2010Prop51ColorRGB
 90
-16777216
102
RTVSPost2010PropOp51
 70
     0
102
RTVSPost2010Prop52
140
1.0
102
RTVSPost2010PropOp52
 70
     0
102
RTVSPost2010Prop53
 90
        2
102
RTVSPost2010PropOp53
 70
     1
102
RTVSPost2010Prop54
  1
strokes_ogs.tif
102
RTVSPost2010PropOp54
 70
     1
102
RTVSPost2010Prop55
280
     0
102
RTVSPost2010PropOp55
 70
     1
102
RTVSPost2010Prop56
140
1.0
102
RTVSPost2010PropOp56
 70
     1
102
RTVSPost2010Prop57
140
1.0
102
RTVSPost2010PropOp57
 70
     1
  0
XRECORD
  5
1E9A
102
{ACAD_REACTORS
330
1E99
102
}
330
1E99
100
AcDbXrecord
280
     1
102
RTVSPost2010Prop28
280
     0
102
RTVSPost2010PropOp28
 70
     1
102
RTVSPost2010Prop29
280
     1
102
RTVSPost2010PropOp29
 70
     1
102
RTVSPost2010Prop30
280
     1
102
RTVSPost2010PropOp30
 70
     1
102
RTVSPost2010Prop31
280
     0
102
RTVSPost2010PropOp31
 70
     1
102
RTVSPost2010Prop32
280
     0
102
RTVSPost2010PropOp32
 70
     1
102
RTVSPost2010Prop33
280
     0
102
RTVSPost2010PropOp33
 70
     1
102
RTVSPost2010Prop34
280
     0
102
RTVSPost2010PropOp34
 70
     1
102
RTVSPost2010Prop35
280
     0
102
RTVSPost2010PropOp35
 70
     1
102
RTVSPost2010Prop36
280
     0
102
RTVSPost2010PropOp36
 70
     1
102
RTVSPost2010Prop37
 90
       50
102
RTVSPost2010PropOp37
 70
     1
102
RTVSPost2010Prop38
140
0.0
102
RTVSPost2010PropOp38
 70
     1
102
RTVSPost2010Prop39
140
1.0
102
RTVSPost2010PropOp39
 70
     1
102
RTVSPost2010Prop40
 90
        0
102
RTVSPost2010PropOp40
 70
     1
102
RTVSPost2010Prop41ColorIndex
 90
       18
102
RTVSPost2010Prop41ColorRGB
 90
        0
102
RTVSPost2010PropOp41
 70
     1
102
RTVSPost2010Prop42
 90
       50
102
RTVSPost2010PropOp42
 70
     1
102
RTVSPost2010Prop43
 90
        3
102
RTVSPost2010PropOp43
 70
     1
102
RTVSPost2010Prop44ColorIndex
 90
        5
102
RTVSPost2010Prop44ColorRGB
 90
      255
102
RTVSPost2010PropOp44
 70
     1
102
RTVSPost2010Prop45
280
     0
102
RTVSPost2010PropOp45
 70
     1
102
RTVSPost2010Prop46
 90
       50
102
RTVSPost2010PropOp46
 70
     1
102
RTVSPost2010Prop47
 90
       50
102
RTVSPost2010PropOp47
 70
     1
102
RTVSPost2010Prop48
 90
       50
102
RTVSPost2010PropOp48
 70
     1
102
RTVSPost2010Prop49
280
     0
102
RTVSPost2010PropOp49
 70
     1
102
RTVSPost2010Prop50
 90
       50
102
RTVSPost2010PropOp50
 70
     1
102
RTVSPost2010Prop51ColorIndex
 90
      256
102
RTVSPost2010Prop51ColorRGB
 90
-16777216
102
RTVSPost2010PropOp51
 70
     0
102
RTVSPost2010Prop52
140
1.0
102
RTVSPost2010PropOp52
 70
     0
102
RTVSPost2010Prop53
 90
        2
102
RTVSPost2010PropOp53
 70
     1
102
RTVSPost2010Prop54
  1
strokes_ogs.tif
102
RTVSPost2010PropOp54
 70
     1
102
RTVSPost2010Prop55
280
     0
102
RTVSPost2010PropOp55
 70
     1
102
RTVSPost2010Prop56
140
1.0
102
RTVSPost2010PropOp56
 70
     1
102
RTVSPost2010Prop57
140
1.0
102
RTVSPost2010PropOp57
 70
     1
  0
ENDSEC
  0
EOF
