  0
SECTION
  2
HEADER
  9
$ACADVER
  1
AC1024
  9
$ACADMAINTVER
 70
   155
  9
$DWGCODEPAGE
  3
ANSI_936
  9
$LASTSAVEDBY
  1
Administrator
  9
$INSBASE
 10
0.0
 20
0.0
 30
0.0
  9
$EXTMIN
 10
105.0912523431384
 20
109.6074499238028
 30
0.0
  9
$EXTMAX
 10
1239.059336092919
 20
749.172361694702
 30
0.0
  9
$LIMMIN
 10
0.0
 20
0.0
  9
$LIMMAX
 10
420.0
 20
297.0
  9
$ORTHOMODE
 70
     0
  9
$REGENMODE
 70
     1
  9
$FILLMODE
 70
     1
  9
$QTEXTMODE
 70
     0
  9
$MIRRTEXT
 70
     0
  9
$LTSCALE
 40
1.0
  9
$ATTMODE
 70
     1
  9
$TEXTSIZE
 40
2.5
  9
$TRACEWID
 40
1.0
  9
$TEXTSTYLE
  7
Standard
  9
$CLAYER
  8
0
  9
$CELTYPE
  6
ByLayer
  9
$CECOLOR
 62
   256
  9
$CELTSCALE
 40
1.0
  9
$DISPSILH
 70
     0
  9
$DIMSCALE
 40
1.0
  9
$DIMASZ
 40
8.0
  9
$DIMEXO
 40
2.5
  9
$DIMDLI
 40
3.75
  9
$DIMRND
 40
0.0
  9
$DIMDLE
 40
0.0
  9
$DIMEXE
 40
5.0
  9
$DIMTP
 40
0.0
  9
$DIMTM
 40
0.0
  9
$DIMTXT
 40
9.0
  9
$DIMCEN
 40
-0.09
  9
$DIMTSZ
 40
0.0
  9
$DIMTOL
 70
     0
  9
$DIMLIM
 70
     0
  9
$DIMTIH
 70
     0
  9
$DIMTOH
 70
     0
  9
$DIMSE1
 70
     0
  9
$DIMSE2
 70
     0
  9
$DIMTAD
 70
     1
  9
$DIMZIN
 70
     8
  9
$DIMBLK
  1

  9
$DIMASO
 70
     1
  9
$DIMSHO
 70
     1
  9
$DIMPOST
  1
 mm\X
  9
$DIMAPOST
  1
 "
  9
$DIMALT
 70
     1
  9
$DIMALTD
 70
     5
  9
$DIMALTF
 40
0.03937007874016
  9
$DIMLFAC
 40
1.0
  9
$DIMTOFL
 70
     1
  9
$DIMTVP
 40
0.0
  9
$DIMTIX
 70
     0
  9
$DIMSOXD
 70
     0
  9
$DIMSAH
 70
     0
  9
$DIMBLK1
  1

  9
$DIMBLK2
  1

  9
$DIMSTYLE
  2
dimensions
  9
$DIMCLRD
 70
   256
  9
$DIMCLRE
 70
   256
  9
$DIMCLRT
 70
   256
  9
$DIMTFAC
 40
1.0
  9
$DIMGAP
 40
2.5
  9
$DIMJUST
 70
     0
  9
$DIMSD1
 70
     0
  9
$DIMSD2
 70
     0
  9
$DIMTOLJ
 70
     0
  9
$DIMTZIN
 70
     8
  9
$DIMALTZ
 70
     0
  9
$DIMALTTZ
 70
     0
  9
$DIMUPT
 70
     0
  9
$DIMDEC
 70
     2
  9
$DIMTDEC
 70
     2
  9
$DIMALTU
 70
     7
  9
$DIMALTTD
 70
     5
  9
$DIMTXSTY
  7
Standard
  9
$DIMAUNIT
 70
     0
  9
$DIMADEC
 70
     0
  9
$DIMALTRND
 40
0.0
  9
$DIMAZIN
 70
     0
  9
$DIMDSEP
 70
    44
  9
$DIMATFIT
 70
     3
  9
$DIMFRAC
 70
     0
  9
$DIMLDRBLK
  1

  9
$DIMLUNIT
 70
     2
  9
$DIMLWD
 70
    -2
  9
$DIMLWE
 70
    -2
  9
$DIMTMOVE
 70
     0
  9
$DIMFXL
 40
1.0
  9
$DIMFXLON
 70
     0
  9
$DIMJOGANG
 40
0.7853981633974483
  9
$DIMTFILL
 70
     0
  9
$DIMTFILLCLR
 70
     0
  9
$DIMARCSYM
 70
     0
  9
$DIMLTYPE
  6

  9
$DIMLTEX1
  6

  9
$DIMLTEX2
  6

  9
$DIMTXTDIRECTION
 70
     0
  9
$LUNITS
 70
     2
  9
$LUPREC
 70
     4
  9
$SKETCHINC
 40
1.0
  9
$FILLETRAD
 40
45.0
  9
$AUNITS
 70
     0
  9
$AUPREC
 70
     0
  9
$MENU
  1
.
  9
$ELEVATION
 40
0.0
  9
$PELEVATION
 40
0.0
  9
$THICKNESS
 40
0.0
  9
$LIMCHECK
 70
     0
  9
$CHAMFERA
 40
0.0
  9
$CHAMFERB
 40
0.0
  9
$CHAMFERC
 40
0.0
  9
$CHAMFERD
 40
0.0
  9
$SKPOLY
 70
     0
  9
$TDCREATE
 40
2457578.486263484
  9
$TDUCREATE
 40
2457578.152930150
  9
$TDUPDATE
 40
2457661.669471227
  9
$TDUUPDATE
 40
2457661.336137894
  9
$TDINDWG
 40
0.1930548611
  9
$TDUSRTIMER
 40
0.1930546991
  9
$USRTIMER
 70
     1
  9
$ANGBASE
 50
0.0
  9
$ANGDIR
 70
     0
  9
$PDMODE
 70
     0
  9
$PDSIZE
 40
0.0
  9
$PLINEWID
 40
0.0
  9
$SPLFRAME
 70
     0
  9
$SPLINETYPE
 70
     6
  9
$SPLINESEGS
 70
     8
  9
$HANDSEED
  5
1E93
  9
$SURFTAB1
 70
     6
  9
$SURFTAB2
 70
     6
  9
$SURFTYPE
 70
     6
  9
$SURFU
 70
     6
  9
$SURFV
 70
     6
  9
$UCSBASE
  2

  9
$UCSNAME
  2

  9
$UCSORG
 10
0.0
 20
0.0
 30
0.0
  9
$UCSXDIR
 10
1.0
 20
0.0
 30
0.0
  9
$UCSYDIR
 10
0.0
 20
1.0
 30
0.0
  9
$UCSORTHOREF
  2

  9
$UCSORTHOVIEW
 70
     0
  9
$UCSORGTOP
 10
0.0
 20
0.0
 30
0.0
  9
$UCSORGBOTTOM
 10
0.0
 20
0.0
 30
0.0
  9
$UCSORGLEFT
 10
0.0
 20
0.0
 30
0.0
  9
$UCSORGRIGHT
 10
0.0
 20
0.0
 30
0.0
  9
$UCSORGFRONT
 10
0.0
 20
0.0
 30
0.0
  9
$UCSORGBACK
 10
0.0
 20
0.0
 30
0.0
  9
$PUCSBASE
  2

  9
$PUCSNAME
  2

  9
$PUCSORG
 10
0.0
 20
0.0
 30
0.0
  9
$PUCSXDIR
 10
1.0
 20
0.0
 30
0.0
  9
$PUCSYDIR
 10
0.0
 20
1.0
 30
0.0
  9
$PUCSORTHOREF
  2

  9
$PUCSORTHOVIEW
 70
     0
  9
$PUCSORGTOP
 10
0.0
 20
0.0
 30
0.0
  9
$PUCSORGBOTTOM
 10
0.0
 20
0.0
 30
0.0
  9
$PUCSORGLEFT
 10
0.0
 20
0.0
 30
0.0
  9
$PUCSORGRIGHT
 10
0.0
 20
0.0
 30
0.0
  9
$PUCSORGFRONT
 10
0.0
 20
0.0
 30
0.0
  9
$PUCSORGBACK
 10
0.0
 20
0.0
 30
0.0
  9
$USERI1
 70
     0
  9
$USERI2
 70
     0
  9
$USERI3
 70
     0
  9
$USERI4
 70
     0
  9
$USERI5
 70
     0
  9
$USERR1
 40
0.0
  9
$USERR2
 40
0.0
  9
$USERR3
 40
0.0
  9
$USERR4
 40
0.0
  9
$USERR5
 40
0.0
  9
$WORLDVIEW
 70
     1
  9
$SHADEDGE
 70
     3
  9
$SHADEDIF
 70
    70
  9
$TILEMODE
 70
     1
  9
$MAXACTVP
 70
    64
  9
$PINSBASE
 10
0.0
 20
0.0
 30
0.0
  9
$PLIMCHECK
 70
     0
  9
$PEXTMIN
 10
0.0
 20
0.0
 30
0.0
  9
$PEXTMAX
 10
0.0
 20
0.0
 30
0.0
  9
$PLIMMIN
 10
0.0
 20
0.0
  9
$PLIMMAX
 10
12.0
 20
9.0
  9
$UNITMODE
 70
     0
  9
$VISRETAIN
 70
     1
  9
$PLINEGEN
 70
     0
  9
$PSLTSCALE
 70
     1
  9
$TREEDEPTH
 70
  3020
  9
$CMLSTYLE
  2
Standard
  9
$CMLJUST
 70
     0
  9
$CMLSCALE
 40
20.0
  9
$PROXYGRAPHICS
 70
     1
  9
$MEASUREMENT
 70
     1
  9
$CELWEIGHT
370
     5
  9
$ENDCAPS
280
     0
  9
$JOINSTYLE
280
     0
  9
$LWDISPLAY
290
     0
  9
$INSUNITS
 70
     4
  9
$HYPERLINKBASE
  1

  9
$STYLESHEET
  1

  9
$XEDIT
290
     1
  9
$CEPSNTYPE
380
     0
  9
$PSTYLEMODE
290
     1
  9
$FINGERPRINTGUID
  2
{99D701DE-15BE-41AC-AF27-FA7FFA4958C5}
  9
$VERSIONGUID
  2
{4FF5D076-D36E-4E39-98C3-F9131CEE986F}
  9
$EXTNAMES
290
     1
  9
$PSVPSCALE
 40
0.0
  9
$OLESTARTUP
290
     0
  9
$SORTENTS
280
   127
  9
$INDEXCTL
280
     0
  9
$HIDETEXT
280
     1
  9
$XCLIPFRAME
280
     2
  9
$HALOGAP
280
     0
  9
$OBSCOLOR
 70
   257
  9
$OBSLTYPE
280
     0
  9
$INTERSECTIONDISPLAY
280
     0
  9
$INTERSECTIONCOLOR
 70
   257
  9
$DIMASSOC
280
     2
  9
$PROJECTNAME
  1

  9
$CAMERADISPLAY
290
     0
  9
$LENSLENGTH
 40
50.0
  9
$CAMERAHEIGHT
 40
0.0
  9
$STEPSPERSEC
 40
2.0
  9
$STEPSIZE
 40
6.0
  9
$3DDWFPREC
 40
2.0
  9
$PSOLWIDTH
 40
5.0
  9
$PSOLHEIGHT
 40
80.0
  9
$LOFTANG1
 40
1.570796326794896
  9
$LOFTANG2
 40
1.570796326794896
  9
$LOFTMAG1
 40
0.0
  9
$LOFTMAG2
 40
0.0
  9
$LOFTPARAM
 70
     7
  9
$LOFTNORMALS
280
     1
  9
$LATITUDE
 40
37.795
  9
$LONGITUDE
 40
-122.394
  9
$NORTHDIRECTION
 40
0.0
  9
$TIMEZONE
 70
 -8000
  9
$LIGHTGLYPHDISPLAY
280
     1
  9
$TILEMODELIGHTSYNCH
280
     1
  9
$CMATERIAL
347
EC
  9
$SOLIDHIST
280
     0
  9
$SHOWHIST
280
     1
  9
$DWFFRAME
280
     2
  9
$DGNFRAME
280
     0
  9
$REALWORLDSCALE
290
     1
  9
$INTERFERECOLOR
 62
     1
  9
$INTERFEREOBJVS
345
F9
  9
$INTERFEREVPVS
346
F6
  9
$CSHADOW
280
     0
  9
$SHADOWPLANELOCATION
 40
0.0
  0
ENDSEC
  0
SECTION
  2
CLASSES
  0
CLASS
  1
ACDBDICTIONARYWDFLT
  2
AcDbDictionaryWithDefault
  3
ObjectDBX Classes
 90
        0
 91
        1
280
     0
281
     0
  0
CLASS
  1
DICTIONARYVAR
  2
AcDbDictionaryVar
  3
ObjectDBX Classes
 90
        0
 91
        9
280
     0
281
     0
  0
CLASS
  1
TABLESTYLE
  2
AcDbTableStyle
  3
ObjectDBX Classes
 90
     4095
 91
        1
280
     0
281
     0
  0
CLASS
  1
MATERIAL
  2
AcDbMaterial
  3
ObjectDBX Classes
 90
     1153
 91
        3
280
     0
281
     0
  0
CLASS
  1
VISUALSTYLE
  2
AcDbVisualStyle
  3
ObjectDBX Classes
 90
     4095
 91
       24
280
     0
281
     0
  0
CLASS
  1
SCALE
  2
AcDbScale
  3
ObjectDBX Classes
 90
     1153
 91
       17
280
     0
281
     0
  0
CLASS
  1
MLEADERSTYLE
  2
AcDbMLeaderStyle
  3
ACDB_MLEADERSTYLE_CLASS
 90
     4095
 91
        3
280
     0
281
     0
  0
CLASS
  1
CELLSTYLEMAP
  2
AcDbCellStyleMap
  3
ObjectDBX Classes
 90
     1152
 91
        1
280
     0
281
     0
  0
CLASS
  1
EXACXREFPANELOBJECT
  2
ExAcXREFPanelObject
  3
EXAC_ESW
 90
     1025
 91
        0
280
     0
281
     0
  0
CLASS
  1
NPOCOLLECTION
  2
AcDbImpNonPersistentObjectsCollection
  3
ObjectDBX Classes
 90
     1153
 91
        0
280
     0
281
     0
  0
CLASS
  1
LAYER_INDEX
  2
AcDbLayerIndex
  3
ObjectDBX Classes
 90
        0
 91
        0
280
     0
281
     0
  0
CLASS
  1
SPATIAL_INDEX
  2
AcDbSpatialIndex
  3
ObjectDBX Classes
 90
        0
 91
        0
280
     0
281
     0
  0
CLASS
  1
IDBUFFER
  2
AcDbIdBuffer
  3
ObjectDBX Classes
 90
        0
 91
        0
280
     0
281
     0
  0
CLASS
  1
ACDBSECTIONVIEWSTYLE
  2
AcDbSectionViewStyle
  3
ObjectDBX Classes
 90
     1025
 91
        2
280
     0
281
     0
  0
CLASS
  1
ACDBDETAILVIEWSTYLE
  2
AcDbDetailViewStyle
  3
ObjectDBX Classes
 90
     1025
 91
        2
280
     0
281
     0
  0
CLASS
  1
MULTILEADER
  2
AcDbMLeader
  3
ACDB_MLEADER_CLASS
 90
     1025
 91
        0
280
     0
281
     1
  0
CLASS
  1
DIMASSOC
  2
AcDbDimAssoc
  3
"AcDbDimAssoc|Product Desc:     AcDim ARX App For Dimension|Company:          Autodesk, Inc.|WEB Address:      www.autodesk.com"
 90
        0
 91
        3
280
     0
281
     0
  0
CLASS
  1
SORTENTSTABLE
  2
AcDbSortentsTable
  3
ObjectDBX Classes
 90
        0
 91
        2
280
     0
281
     0
  0
CLASS
  1
ACDBASSOCPERSSUBENTMANAGER
  2
AcDbAssocPersSubentManager
  3
ObjectDBX Classes
 90
     1024
 91
        1
280
     0
281
     0
  0
ENDSEC
  0
SECTION
  2
TABLES
  0
TABLE
  2
VPORT
  5
8
330
0
100
AcDbSymbolTable
 70
     1
  0
VPORT
  5
EA
330
8
100
AcDbSymbolTableRecord
100
AcDbViewportTableRecord
  2
*Active
 70
     0
 10
0.0
 20
0.0
 11
1.0
 21
1.0
 12
914.5364093830835
 22
414.3001532253873
 13
0.0
 23
0.0
 14
10.0
 24
10.0
 15
10.0
 25
10.0
 16
0.0
 26
0.0
 36
1.0
 17
0.0
 27
0.0
 37
0.0
 40
1163.549491923073
 41
2.197368421052631
 42
50.0
 43
0.0
 44
0.0
 50
0.0
 51
0.0
 71
     0
 72
  1000
 73
     1
 74
     3
 75
     0
 76
     1
 77
     0
 78
     0
281
     0
 65
     1
110
0.0
120
0.0
130
0.0
111
1.0
121
0.0
131
0.0
112
0.0
122
1.0
132
0.0
 79
     0
146
0.0
348
F5
 60
     3
 61
     5
292
     1
282
     1
141
0.0
142
0.0
 63
   250
421
  3355443
1001
ACAD_NAV_VCDISPLAY
1070
     3
  0
ENDTAB
  0
TABLE
  2
LTYPE
  5
5
330
0
100
AcDbSymbolTable
 70
     7
  0
LTYPE
  5
14
330
5
100
AcDbSymbolTableRecord
100
AcDbLinetypeTableRecord
  2
ByBlock
 70
     0
  3

 72
    65
 73
     0
 40
0.0
  0
LTYPE
  5
15
330
5
100
AcDbSymbolTableRecord
100
AcDbLinetypeTableRecord
  2
ByLayer
 70
     0
  3

 72
    65
 73
     0
 40
0.0
  0
LTYPE
  5
16
330
5
100
AcDbSymbolTableRecord
100
AcDbLinetypeTableRecord
  2
Continuous
 70
     0
  3
Solid line
 72
    65
 73
     0
 40
0.0
  0
LTYPE
  5
2BB
330
5
100
AcDbSymbolTableRecord
100
AcDbLinetypeTableRecord
  2
ACAD_ISO08W100
 70
     0
  3
ISO long-dash short-dash ____ __ ____ __ ____ _
 72
    65
 73
     4
 40
36.0
 49
24.0
 74
     0
 49
-3.0
 74
     0
 49
6.0
 74
     0
 49
-3.0
 74
     0
  0
LTYPE
  5
2BC
330
5
100
AcDbSymbolTableRecord
100
AcDbLinetypeTableRecord
  2
New Line1
 70
     0
  3

 72
    65
 73
     2
 40
1.3
 49
0.6000000000000001
 74
     4
 75
     0
340
0
 46
1.0
 50
0.0
 44
0.0
 45
0.0
 49
-0.7000000000000001
 74
     4
 75
     0
340
0
 46
1.0
 50
0.0
 44
0.0
 45
0.0
  0
LTYPE
  5
6C4
330
5
100
AcDbSymbolTableRecord
100
AcDbLinetypeTableRecord
  2
HIDDENX2
 70
     0
  3
Hidden (2x) ____ ____ ____ ____ ____ ____ ____
 72
    65
 73
     2
 40
19.05
 49
12.7
 74
     0
 49
-6.349999999999997
 74
     0
  0
LTYPE
  5
6C5
330
5
100
AcDbSymbolTableRecord
100
AcDbLinetypeTableRecord
  2
HIDDEN
 70
     0
  3
Hidden __ __ __ __ __ __ __ __ __ __ __ __ __ __
 72
    65
 73
     2
 40
9.524999999999996
 49
6.349999999999997
 74
     0
 49
-3.174999999999998
 74
     0
  0
LTYPE
  5
6C6
330
5
100
AcDbSymbolTableRecord
100
AcDbLinetypeTableRecord
  2
HIDDEN2
 70
     0
  3
Hidden (.5x) _ _ _ _ _ _ _ _ _ _ _ _ _ _ _ _ _
 72
    65
 73
     2
 40
4.762499999999998
 49
3.174999999999998
 74
     0
 49
-1.587499999999999
 74
     0
  0
LTYPE
  5
8F1
330
5
100
AcDbSymbolTableRecord
100
AcDbLinetypeTableRecord
  2
ACAD_ISO04W100
 70
     0
  3
ISO long-dash dot ____ . ____ . ____ . ____ . _
 72
    65
 73
     4
 40
30.5
 49
24.0
 74
     0
 49
-3.0
 74
     0
 49
0.5
 74
     0
 49
-3.0
 74
     0
  0
ENDTAB
  0
TABLE
  2
LAYER
  5
2
102
{ACAD_XDICTIONARY
360
1FF
102
}
330
0
100
AcDbSymbolTable
 70
     5
  0
LAYER
  5
10
102
{ACAD_XDICTIONARY
360
13C
102
}
330
2
100
AcDbSymbolTableRecord
100
AcDbLayerTableRecord
  2
0
 70
     0
 62
     7
  6
Continuous
370
    -3
390
F
347
EE
  0
LAYER
  5
2BD
330
2
100
AcDbSymbolTableRecord
100
AcDbLayerTableRecord
  2
centerline
 70
     0
 62
    10
  6
Continuous
370
    -3
390
F
347
EE
1001
AcAecLayerStandard
1000

1000

1001
AcCmTransparency
1071
        0
  0
LAYER
  5
2BE
330
2
100
AcDbSymbolTableRecord
100
AcDbLayerTableRecord
  2
dimensions
 70
     0
 62
   210
  6
Continuous
370
    -3
390
F
347
EE
1001
AcAecLayerStandard
1000

1000

1001
AcCmTransparency
1071
        0
  0
LAYER
  5
2BF
330
2
100
AcDbSymbolTableRecord
100
AcDbLayerTableRecord
  2
note
 70
     0
 62
     2
  6
Continuous
370
    -3
390
F
347
EE
1001
AcAecLayerStandard
1000

1000

1001
AcCmTransparency
1071
        0
  0
LAYER
  5
2C0
330
2
100
AcDbSymbolTableRecord
100
AcDbLayerTableRecord
  2
Defpoints
 70
     0
 62
     7
  6
Continuous
290
     0
370
    -3
390
F
347
EE
  0
ENDTAB
  0
TABLE
  2
STYLE
  5
3
330
0
100
AcDbSymbolTable
 70
     2
  0
STYLE
  5
11
330
3
100
AcDbSymbolTableRecord
100
AcDbTextStyleTableRecord
  2
Standard
 70
     0
 40
0.0
 41
1.0
 50
0.0
 71
     0
 42
2.5
  3
arial.ttf
  4

1001
ACAD
1000
Arial
1071
       34
  0
STYLE
  5
132
330
3
100
AcDbSymbolTableRecord
100
AcDbTextStyleTableRecord
  2
Annotative
 70
     0
 40
0.0
 41
1.0
 50
0.0
 71
     0
 42
2.5
  3
arial.ttf
  4

1001
AcadAnnotative
1000
AnnotativeData
1002
{
1070
     1
1070
     1
1002
}
1001
ACAD
1000
Arial
1071
       34
  0
ENDTAB
  0
TABLE
  2
VIEW
  5
6
330
0
100
AcDbSymbolTable
 70
     0
  0
ENDTAB
  0
TABLE
  2
UCS
  5
7
330
0
100
AcDbSymbolTable
 70
     0
  0
ENDTAB
  0
TABLE
  2
APPID
  5
9
330
0
100
AcDbSymbolTable
 70
    19
  0
APPID
  5
12
330
9
100
AcDbSymbolTableRecord
100
AcDbRegAppTableRecord
  2
ACAD
 70
     0
  0
APPID
  5
9E
330
9
100
AcDbSymbolTableRecord
100
AcDbRegAppTableRecord
  2
ACAD_PSEXT
 70
     0
  0
APPID
  5
133
330
9
100
AcDbSymbolTableRecord
100
AcDbRegAppTableRecord
  2
AcadAnnoPO
 70
     0
  0
APPID
  5
134
330
9
100
AcDbSymbolTableRecord
100
AcDbRegAppTableRecord
  2
AcadAnnotative
 70
     0
  0
APPID
  5
135
330
9
100
AcDbSymbolTableRecord
100
AcDbRegAppTableRecord
  2
ACAD_DSTYLE_DIMJAG
 70
     0
  0
APPID
  5
136
330
9
100
AcDbSymbolTableRecord
100
AcDbRegAppTableRecord
  2
ACAD_DSTYLE_DIMTALN
 70
     0
  0
APPID
  5
165
330
9
100
AcDbSymbolTableRecord
100
AcDbRegAppTableRecord
  2
ACAD_MLEADERVER
 70
     0
  0
APPID
  5
217
330
9
100
AcDbSymbolTableRecord
100
AcDbRegAppTableRecord
  2
ACAD_NAV_VCDISPLAY
 70
     0
  0
APPID
  5
2C2
330
9
100
AcDbSymbolTableRecord
100
AcDbRegAppTableRecord
  2
AcAecLayerStandard
 70
     0
  0
APPID
  5
2C3
330
9
100
AcDbSymbolTableRecord
100
AcDbRegAppTableRecord
  2
AcCmTransparency
 70
     0
  0
APPID
  5
2C4
330
9
100
AcDbSymbolTableRecord
100
AcDbRegAppTableRecord
  2
ACAD_DSTYLE_DIMBREAK
 70
     0
  0
APPID
  5
2C5
330
9
100
AcDbSymbolTableRecord
100
AcDbRegAppTableRecord
  2
GradientColor1ACI
 70
     0
  0
APPID
  5
2C6
330
9
100
AcDbSymbolTableRecord
100
AcDbRegAppTableRecord
  2
GradientColor2ACI
 70
     0
  0
APPID
  5
69D
330
9
100
AcDbSymbolTableRecord
100
AcDbRegAppTableRecord
  2
ACAD_EXEMPT_FROM_CAD_STANDARDS
 70
     0
  0
APPID
  5
D16
330
9
100
AcDbSymbolTableRecord
100
AcDbRegAppTableRecord
  2
ACAD_DSTYLE_DIMRADIAL_EXTENSION
 70
     0
  0
APPID
  5
1673
330
9
100
AcDbSymbolTableRecord
100
AcDbRegAppTableRecord
  2
ACAD_STEPID
 70
     0
  0
APPID
  5
18AC
330
9
100
AcDbSymbolTableRecord
100
AcDbRegAppTableRecord
  2
GENIUS_GENODEF_13
 70
     0
  0
APPID
  5
18AD
330
9
100
AcDbSymbolTableRecord
100
AcDbRegAppTableRecord
  2
GENIUS_GENFIL_13
 70
     0
  0
APPID
  5
18AE
330
9
100
AcDbSymbolTableRecord
100
AcDbRegAppTableRecord
  2
GENIUS_GENOBJ-N-CHA_13
 70
     0
  0
ENDTAB
  0
TABLE
  2
DIMSTYLE
  5
A
330
0
100
AcDbSymbolTable
 70
     4
100
AcDbDimStyleTable
 71
     3
340
2C1
340
1B0
340
27
  0
DIMSTYLE
105
1B0
330
A
100
AcDbSymbolTableRecord
100
AcDbDimStyleTableRecord
  2
Standard
 70
     0
340
11
  0
DIMSTYLE
105
137
330
A
100
AcDbSymbolTableRecord
100
AcDbDimStyleTableRecord
  2
Annotative
 70
     0
 40
0.0
 41
2.5
 42
0.625
 43
3.75
 44
1.25
 73
     0
 74
     0
 77
     1
 78
     8
140
2.5
141
2.5
143
0.03937007874016
147
0.625
171
     3
172
     1
271
     2
272
     2
274
     3
278
    44
283
     0
284
     8
340
11
1001
AcadAnnotative
1000
AnnotativeData
1002
{
1070
     1
1070
     1
1002
}
1001
ACAD_DSTYLE_DIMJAG
1070
   388
1040
1.5
1001
ACAD_DSTYLE_DIMTALN
1070
   392
1070
     0
  0
DIMSTYLE
105
27
330
A
100
AcDbSymbolTableRecord
100
AcDbDimStyleTableRecord
  2
ISO-25
 70
     0
 41
2.5
 42
0.625
 43
3.75
 44
1.25
 73
     0
 74
     0
 77
     1
 78
     8
140
2.5
141
2.5
143
0.03937007874016
147
0.625
171
     3
172
     1
271
     2
272
     2
274
     3
278
    44
283
     0
284
     8
340
11
  0
DIMSTYLE
105
2C1
102
{ACAD_REACTORS
330
1D92
330
1DD0
330
1E1C
102
}
330
A
100
AcDbSymbolTableRecord
100
AcDbDimStyleTableRecord
  2
dimensions
 70
     0
  3
 mm\X
  4
 "
 41
8.0
 42
2.5
 43
3.75
 44
5.0
 73
     0
 74
     0
 77
     1
 78
     8
140
9.0
141
-0.09
143
0.03937007874016
147
2.5
170
     1
171
     5
172
     1
176
   256
177
   256
178
   256
271
     2
272
     2
273
     7
274
     5
278
    44
283
     0
284
     8
340
11
1001
ACAD_DSTYLE_DIMBREAK
1070
   391
1040
3.75
1001
ACAD_DSTYLE_DIMJAG
1070
   388
1040
2.5
1001
ACAD_DSTYLE_DIMTALN
1070
   392
1070
     0
  0
ENDTAB
  0
TABLE
  2
BLOCK_RECORD
  5
1
330
0
100
AcDbSymbolTable
 70
    12
  0
BLOCK_RECORD
  5
1F
102
{ACAD_XDICTIONARY
360
1CE
102
}
330
1
100
AcDbSymbolTableRecord
100
AcDbBlockTableRecord
  2
*Model_Space
340
22
 70
     0
280
     1
281
     0
  0
BLOCK_RECORD
  5
D2
330
1
100
AcDbSymbolTableRecord
100
AcDbBlockTableRecord
  2
*Paper_Space
340
D3
 70
     0
280
     1
281
     0
  0
BLOCK_RECORD
  5
D6
330
1
100
AcDbSymbolTableRecord
100
AcDbBlockTableRecord
  2
*Paper_Space0
340
D7
 70
     0
280
     1
281
     0
  0
BLOCK_RECORD
  5
18AF
102
{ACAD_XDICTIONARY
360
18D0
102
}
330
1
100
AcDbSymbolTableRecord
100
AcDbBlockTableRecord
  2
A$C725603B4
340
0
 70
     1
280
     1
281
     0
  0
BLOCK_RECORD
  5
1D93
330
1
100
AcDbSymbolTableRecord
100
AcDbBlockTableRecord
  2
*D8
340
0
 70
     0
280
     1
281
     0
  0
BLOCK_RECORD
  5
1DD1
330
1
100
AcDbSymbolTableRecord
100
AcDbBlockTableRecord
  2
*D10
340
0
 70
     0
280
     1
281
     0
  0
BLOCK_RECORD
  5
1E1D
330
1
100
AcDbSymbolTableRecord
100
AcDbBlockTableRecord
  2
*D11
340
0
 70
     0
280
     1
281
     0
  0
ENDTAB
  0
ENDSEC
  0
SECTION
  2
BLOCKS
  0
BLOCK
  5
20
330
1F
100
AcDbEntity
  8
0
100
AcDbBlockBegin
  2
*Model_Space
 70
     0
 10
0.0
 20
0.0
 30
0.0
  3
*Model_Space
  1

  0
ENDBLK
  5
21
330
1F
100
AcDbEntity
  8
0
100
AcDbBlockEnd
  0
BLOCK
  5
D4
330
D2
100
AcDbEntity
 67
     1
  8
0
100
AcDbBlockBegin
  2
*Paper_Space
 70
     0
 10
0.0
 20
0.0
 30
0.0
  3
*Paper_Space
  1

  0
ENDBLK
  5
D5
330
D2
100
AcDbEntity
 67
     1
  8
0
100
AcDbBlockEnd
  0
BLOCK
  5
D8
330
D6
100
AcDbEntity
 67
     1
  8
0
100
AcDbBlockBegin
  2
*Paper_Space0
 70
     0
 10
0.0
 20
0.0
 30
0.0
  3
*Paper_Space0
  1

  0
ENDBLK
  5
D9
330
D6
100
AcDbEntity
 67
     1
  8
0
100
AcDbBlockEnd
  0
BLOCK
  5
18D2
330
18AF
100
AcDbEntity
  8
0
100
AcDbBlockBegin
  2
A$C725603B4
 70
     0
 10
0.0
 20
0.0
 30
0.0
  3
A$C725603B4
  1

  0
LINE
  5
18B0
330
18AF
100
AcDbEntity
  8
0
  6
ByBlock
370
    25
100
AcDbLine
 10
59.99987988437351
 20
455.9998483248055
 30
0.0
 11
735.9998798843735
 21
455.9998483248055
 31
0.0
  0
LINE
  5
18B1
330
18AF
100
AcDbEntity
  8
0
  6
ByBlock
370
    25
100
AcDbLine
 10
-0.0001201156264869
 20
395.9998483248055
 30
0.0
 11
59.99987988437351
 21
455.9998483248055
 31
0.0
1001
GENIUS_GENFIL_13
1070
     0
1040
60.0
1040
60.0
1040
0.0
1040
0.0
1002
{
1002
}
1001
GENIUS_GENODEF_13
1002
{
1000
HIER
1070
     0
1002
}
1002
{
1000
MANEDIT
1070
     0
1002
}
1002
{
1000
NOSEL
1070
     0
1002
}
1002
{
1000
BEHIND
1070
     0
1002
}
1002
{
1000
OTHER
1070
     0
1002
}
1002
{
1000
REACTOR
1002
}
1001
GENIUS_GENOBJ-N-CHA_13
1002
{
1000
OWNER
1000
GEN
1002
}
  0
LINE
  5
18B2
330
18AF
100
AcDbEntity
  8
0
  6
ByBlock
370
    25
100
AcDbLine
 10
102.9998798843735
 20
427.9998483248054
 30
0.0
 11
307.9998798843735
 21
427.9998483248054
 31
0.0
  0
ARC
  5
18B3
330
18AF
100
AcDbEntity
  8
0
  6
ByBlock
370
    25
100
AcDbCircle
 10
307.9998798843735
 20
352.9998483248055
 30
0.0
 40
75.0
100
AcDbArc
 50
0.0
 51
90.0
  0
LINE
  5
18B4
330
18AF
100
AcDbEntity
  8
0
  6
ByBlock
370
    25
100
AcDbLine
 10
487.9998798843735
 20
427.9998483248054
 30
0.0
 11
692.9998798843735
 21
427.9998483248054
 31
0.0
  0
LINE
  5
18B5
330
18AF
100
AcDbEntity
  8
0
  6
ByBlock
370
    25
100
AcDbLine
 10
59.99987988437351
 20
-0.0001516751945019
 30
0.0
 11
735.9998798843735
 21
-0.0001516751945019
 31
0.0
  0
LINE
  5
18B6
330
18AF
100
AcDbEntity
  8
0
  6
ByBlock
370
    25
100
AcDbLine
 10
102.9998798843735
 20
27.9998483248055
 30
0.0
 11
307.9998798843735
 21
27.9998483248055
 31
0.0
  0
ARC
  5
18B7
330
18AF
100
AcDbEntity
  8
0
  6
ByBlock
370
    25
100
AcDbCircle
 10
102.9998798843735
 20
102.9998483248055
 30
0.0
 40
75.0
100
AcDbArc
 50
180.0
 51
270.0
  0
LINE
  5
18B8
330
18AF
100
AcDbEntity
  8
0
  6
ByBlock
370
    25
100
AcDbLine
 10
487.9998798843735
 20
27.9998483248055
 30
0.0
 11
692.9998798843735
 21
27.9998483248055
 31
0.0
  0
ARC
  5
18B9
330
18AF
100
AcDbEntity
  8
0
  6
ByBlock
370
    25
100
AcDbCircle
 10
487.9998798843735
 20
102.9998483248055
 30
0.0
 40
75.0
100
AcDbArc
 50
180.0
 51
270.0
  0
LINE
  5
18BA
330
18AF
100
AcDbEntity
  8
0
  6
ByBlock
370
    25
100
AcDbLine
 10
-0.0001201156264869
 20
395.9998483248055
 30
0.0
 11
-0.0001201156264869
 21
59.99984832480549
 31
0.0
  0
LINE
  5
18BB
330
18AF
100
AcDbEntity
  8
0
  6
ByBlock
370
    25
100
AcDbLine
 10
59.99987988437351
 20
-0.0001516751945019
 30
0.0
 11
-0.0001201156264869
 21
59.99984832480549
 31
0.0
1001
GENIUS_GENFIL_13
1070
     0
1040
60.0
1040
60.0
1040
0.0
1040
0.0
1002
{
1002
}
1001
GENIUS_GENODEF_13
1002
{
1000
HIER
1070
     0
1002
}
1002
{
1000
MANEDIT
1070
     0
1002
}
1002
{
1000
NOSEL
1070
     0
1002
}
1002
{
1000
BEHIND
1070
     0
1002
}
1002
{
1000
OTHER
1070
     0
1002
}
1002
{
1000
REACTOR
1002
}
1001
GENIUS_GENOBJ-N-CHA_13
1002
{
1000
OWNER
1000
GEN
1002
}
  0
LINE
  5
18BC
330
18AF
100
AcDbEntity
  8
0
  6
ByBlock
370
    25
100
AcDbLine
 10
27.99987988437351
 20
352.9998483248055
 30
0.0
 11
27.99987988437351
 21
102.9998483248055
 31
0.0
  0
ARC
  5
18BD
330
18AF
100
AcDbEntity
  8
0
  6
ByBlock
370
    25
100
AcDbCircle
 10
102.9998798843735
 20
352.9998483248055
 30
0.0
 40
75.0
100
AcDbArc
 50
90.0
 51
180.0
  0
LINE
  5
18BE
330
18AF
100
AcDbEntity
  8
0
  6
ByBlock
370
    25
100
AcDbLine
 10
795.9998798843735
 20
395.9998483248055
 30
0.0
 11
795.9998798843735
 21
59.99984832480549
 31
0.0
  0
LINE
  5
18BF
330
18AF
100
AcDbEntity
  8
0
  6
ByBlock
370
    25
100
AcDbLine
 10
735.9998798843735
 20
455.9998483248055
 30
0.0
 11
795.9998798843735
 21
395.9998483248055
 31
0.0
1001
GENIUS_GENFIL_13
1070
     0
1040
60.0
1040
60.0
1040
0.0
1040
0.0
1002
{
1002
}
1001
GENIUS_GENODEF_13
1002
{
1000
HIER
1070
     0
1002
}
1002
{
1000
MANEDIT
1070
     0
1002
}
1002
{
1000
NOSEL
1070
     0
1002
}
1002
{
1000
BEHIND
1070
     0
1002
}
1002
{
1000
OTHER
1070
     0
1002
}
1002
{
1000
REACTOR
1002
}
1001
GENIUS_GENOBJ-N-CHA_13
1002
{
1000
OWNER
1000
GEN
1002
}
  0
LINE
  5
18C0
330
18AF
100
AcDbEntity
  8
0
  6
ByBlock
370
    25
100
AcDbLine
 10
735.9998798843735
 20
-0.0001516751945019
 30
0.0
 11
795.9998798843735
 21
59.99984832480549
 31
0.0
1001
GENIUS_GENFIL_13
1070
     0
1040
60.0
1040
60.0
1040
0.0
1040
0.0
1002
{
1002
}
1001
GENIUS_GENODEF_13
1002
{
1000
HIER
1070
     0
1002
}
1002
{
1000
MANEDIT
1070
     0
1002
}
1002
{
1000
NOSEL
1070
     0
1002
}
1002
{
1000
BEHIND
1070
     0
1002
}
1002
{
1000
OTHER
1070
     0
1002
}
1002
{
1000
REACTOR
1002
}
1001
GENIUS_GENOBJ-N-CHA_13
1002
{
1000
OWNER
1000
GEN
1002
}
  0
LINE
  5
18C1
330
18AF
100
AcDbEntity
  8
0
  6
ByBlock
370
    25
100
AcDbLine
 10
767.9998798843735
 20
352.9998483248055
 30
0.0
 11
767.9998798843735
 21
102.9998483248055
 31
0.0
  0
ARC
  5
18C2
330
18AF
100
AcDbEntity
  8
0
  6
ByBlock
370
    25
100
AcDbCircle
 10
692.9998798843735
 20
102.9998483248055
 30
0.0
 40
75.0
100
AcDbArc
 50
270.0
 51
0.0
  0
ARC
  5
18C3
330
18AF
100
AcDbEntity
  8
0
  6
ByBlock
370
    25
100
AcDbCircle
 10
692.9998798843735
 20
352.9998483248055
 30
0.0
 40
75.0
100
AcDbArc
 50
0.0
 51
90.0
  0
LINE
  5
18C4
330
18AF
100
AcDbEntity
  8
0
  6
ByBlock
370
    25
100
AcDbLine
 10
412.9998798843734
 20
352.9998483248055
 30
0.0
 11
412.999879884359
 21
102.9998483248055
 31
0.0
  0
ARC
  5
18C5
330
18AF
100
AcDbEntity
  8
0
  6
ByBlock
370
    25
100
AcDbCircle
 10
487.9998798843735
 20
352.9998483248055
 30
0.0
 40
75.0
100
AcDbArc
 50
90.0
 51
180.0
  0
LINE
  5
18C6
330
18AF
100
AcDbEntity
  8
0
  6
ByBlock
370
    25
100
AcDbLine
 10
382.9998798843735
 20
352.9998483248055
 30
0.0
 11
382.9998798843735
 21
102.9998483248055
 31
0.0
  0
ARC
  5
18C7
330
18AF
100
AcDbEntity
  8
0
  6
ByBlock
370
    25
100
AcDbCircle
 10
307.9998798843735
 20
102.9998483248055
 30
0.0
 40
75.0
100
AcDbArc
 50
270.0
 51
0.0
  0
ARC
  5
18C8
330
18AF
100
AcDbEntity
  8
0
  6
ByBlock
370
    25
100
AcDbCircle
 10
397.9998798843735
 20
97.85278950125212
 30
0.0
 40
15.14705882352845
100
AcDbArc
 50
3.273154083686361
 51
176.7268459163136
  0
ARC
  5
18C9
330
18AF
100
AcDbEntity
  8
0
  6
ByBlock
370
    25
100
AcDbCircle
 10
397.9998798843735
 20
360.1469071483298
 30
0.0
 40
15.14705882352845
100
AcDbArc
 50
183.2731540836863
 51
356.7268459163137
  0
CIRCLE
  5
18CA
330
18AF
100
AcDbEntity
  8
0
  6
ByBlock
370
    25
100
AcDbCircle
 10
590.4998798843735
 20
272.9998483248055
 30
0.0
 40
45.0
  0
CIRCLE
  5
18CB
330
18AF
100
AcDbEntity
  8
0
  6
ByBlock
370
    25
100
AcDbCircle
 10
590.4998798843735
 20
272.9998483248055
 30
0.0
 40
58.0
  0
CIRCLE
  5
18CC
330
18AF
100
AcDbEntity
  8
0
  6
ByBlock
370
    25
100
AcDbCircle
 10
590.4998798843735
 20
272.9998483248055
 30
0.0
 40
55.0
  0
CIRCLE
  5
18CD
330
18AF
100
AcDbEntity
  8
0
  6
ByBlock
370
    25
100
AcDbCircle
 10
205.4998798843735
 20
272.9998483248055
 30
0.0
 40
45.0
  0
CIRCLE
  5
18CE
330
18AF
100
AcDbEntity
  8
0
  6
ByBlock
370
    25
100
AcDbCircle
 10
205.4998798843735
 20
272.9998483248055
 30
0.0
 40
58.0
  0
CIRCLE
  5
18CF
330
18AF
100
AcDbEntity
  8
0
  6
ByBlock
370
    25
100
AcDbCircle
 10
205.4998798843735
 20
272.9998483248055
 30
0.0
 40
55.0
  0
ENDBLK
  5
18D3
330
18AF
100
AcDbEntity
  8
0
100
AcDbBlockEnd
  0
BLOCK
  5
1D94
330
1D93
100
AcDbEntity
  8
0
370
     5
100
AcDbBlockBegin
  2
*D8
 70
     1
 10
0.0
 20
0.0
 30
0.0
  3
*D8
  1

  0
LINE
  5
1E08
330
1D93
100
AcDbEntity
  8
dimensions
440
 16777216
370
    -2
100
AcDbLine
 10
236.8231221088549
 20
729.1723616947019
 30
0.0
 11
114.1267230116242
 21
729.1723616947019
 31
0.0
  0
LINE
  5
1E09
330
1D93
100
AcDbEntity
  8
dimensions
440
 16777216
370
    -2
100
AcDbLine
 10
236.8231221088549
 20
183.172361694702
 30
0.0
 11
114.1267230116241
 21
183.172361694702
 31
0.0
  0
LINE
  5
1E0A
330
1D93
100
AcDbEntity
  8
dimensions
440
 16777216
370
    -2
100
AcDbLine
 10
119.1267230116242
 20
721.1723616947019
 30
0.0
 11
119.1267230116241
 21
191.172361694702
 31
0.0
  0
SOLID
  5
1E0B
330
1D93
100
AcDbEntity
  8
dimensions
440
 16777216
370
     5
100
AcDbTrace
 10
117.7933896782909
 20
721.1723616947019
 30
0.0
 11
120.4600563449575
 21
721.1723616947019
 31
0.0
 12
119.1267230116242
 22
729.1723616947019
 32
0.0
 13
119.1267230116242
 23
729.1723616947019
 33
0.0
  0
SOLID
  5
1E0C
330
1D93
100
AcDbEntity
  8
dimensions
440
 16777216
370
     5
100
AcDbTrace
 10
117.7933896782908
 20
191.172361694702
 30
0.0
 11
120.4600563449574
 21
191.172361694702
 31
0.0
 12
119.1267230116241
 22
183.172361694702
 32
0.0
 13
119.1267230116241
 23
183.172361694702
 33
0.0
  0
MTEXT
  5
1E0D
330
1D93
100
AcDbEntity
  8
dimensions
440
 16777216
370
     5
100
AcDbMText
 10
112.0315661221289
 20
456.1723616947019
 30
0.0
 40
9.0
 41
0.0
 46
0.0
 71
     5
 72
     1
  1
546 mm
 11
0.0000000000000001
 21
1.0
 31
0.0
 73
     1
 44
1.0
  0
MTEXT
  5
1E0E
330
1D93
100
AcDbEntity
  8
dimensions
440
 16777216
370
     5
100
AcDbMText
 10
127.4527803103962
 20
456.1723616947019
 30
0.0
 40
9.0
 41
0.0
 46
0.0
 71
     5
 72
     1
  1
[21 1/2 "]
 11
0.0000000000000001
 21
1.0
 31
0.0
 73
     1
 44
1.0
  0
POINT
  5
1E0F
330
1D93
100
AcDbEntity
  8
Defpoints
 62
     0
440
 16777216
370
     5
100
AcDbPoint
 10
239.3231221088549
 20
729.1723616947019
 30
0.0
  0
POINT
  5
1E10
330
1D93
100
AcDbEntity
  8
Defpoints
 62
     0
440
 16777216
370
     5
100
AcDbPoint
 10
239.323122108855
 20
183.172361694702
 30
0.0
  0
POINT
  5
1E11
330
1D93
100
AcDbEntity
  8
Defpoints
 62
     0
440
 16777216
370
     5
100
AcDbPoint
 10
119.1267230116241
 20
183.172361694702
 30
0.0
  0
ENDBLK
  5
1D95
330
1D93
100
AcDbEntity
  8
0
370
     5
100
AcDbBlockEnd
  0
BLOCK
  5
1DD2
330
1DD1
100
AcDbEntity
  8
0
370
     5
100
AcDbBlockBegin
  2
*D10
 70
     1
 10
0.0
 20
0.0
 30
0.0
  3
*D10
  1

  0
LINE
  5
1E12
330
1DD1
100
AcDbEntity
  8
dimensions
440
 16777216
370
    -2
100
AcDbLine
 10
194.3231221088549
 20
225.672361694702
 30
0.0
 11
194.3231221088549
 21
118.9253216836937
 31
0.0
  0
LINE
  5
1E13
330
1DD1
100
AcDbEntity
  8
dimensions
440
 16777216
370
    -2
100
AcDbLine
 10
817.3231221088549
 20
225.6723616947019
 30
0.0
 11
817.3231221088549
 21
118.9253216836937
 31
0.0
  0
LINE
  5
1E14
330
1DD1
100
AcDbEntity
  8
dimensions
440
 16777216
370
    -2
100
AcDbLine
 10
202.3231221088549
 20
123.9253216836937
 30
0.0
 11
809.3231221088549
 21
123.9253216836937
 31
0.0
  0
SOLID
  5
1E15
330
1DD1
100
AcDbEntity
  8
dimensions
440
 16777216
370
     5
100
AcDbTrace
 10
202.3231221088549
 20
125.258655017027
 30
0.0
 11
202.3231221088549
 21
122.5919883503604
 31
0.0
 12
194.3231221088549
 22
123.9253216836937
 32
0.0
 13
194.3231221088549
 23
123.9253216836937
 33
0.0
  0
SOLID
  5
1E16
330
1DD1
100
AcDbEntity
  8
dimensions
440
 16777216
370
     5
100
AcDbTrace
 10
809.3231221088549
 20
125.258655017027
 30
0.0
 11
809.3231221088549
 21
122.5919883503604
 31
0.0
 12
817.3231221088549
 22
123.9253216836937
 32
0.0
 13
817.3231221088549
 23
123.9253216836937
 33
0.0
  0
MTEXT
  5
1E17
330
1DD1
100
AcDbEntity
  8
dimensions
440
 16777216
370
     5
100
AcDbMText
 10
505.8231221088549
 20
131.0235481502694
 30
0.0
 40
9.0
 41
0.0
 46
0.0
 71
     5
 72
     1
  1
623 mm
 73
     1
 44
1.0
  0
MTEXT
  5
1E18
330
1DD1
100
AcDbEntity
  8
dimensions
440
 16777216
370
     5
100
AcDbMText
 10
505.8231221088549
 20
115.5992643849215
 30
0.0
 40
9.0
 41
0.0
 46
0.0
 71
     5
 72
     1
  1
[24 17/32 "]
 73
     1
 44
1.0
  0
POINT
  5
1E19
330
1DD1
100
AcDbEntity
  8
Defpoints
 62
     0
440
 16777216
370
     5
100
AcDbPoint
 10
194.3231221088549
 20
228.172361694702
 30
0.0
  0
POINT
  5
1E1A
330
1DD1
100
AcDbEntity
  8
Defpoints
 62
     0
440
 16777216
370
     5
100
AcDbPoint
 10
817.3231221088549
 20
228.1723616947019
 30
0.0
  0
POINT
  5
1E1B
330
1DD1
100
AcDbEntity
  8
Defpoints
 62
     0
440
 16777216
370
     5
100
AcDbPoint
 10
817.3231221088549
 20
123.9253216836937
 30
0.0
  0
ENDBLK
  5
1DD3
330
1DD1
100
AcDbEntity
  8
0
370
     5
100
AcDbBlockEnd
  0
BLOCK
  5
1E1E
330
1E1D
100
AcDbEntity
  8
0
370
     5
100
AcDbBlockBegin
  2
*D11
 70
     1
 10
0.0
 20
0.0
 30
0.0
  3
*D11
  1

  0
LINE
  5
1E26
330
1E1D
100
AcDbEntity
  8
dimensions
440
 16777216
370
    -2
100
AcDbLine
 10
737.7052242778043
 20
655.9757838363559
 30
0.0
 11
801.011116947242
 21
707.5389821639243
 31
0.0
  0
MTEXT
  5
1E27
330
1E1D
100
AcDbEntity
  8
dimensions
440
 16777216
370
     5
100
AcDbMText
 10
766.25676576513
 20
679.2312618683324
 30
0.0
 40
9.0
 41
0.0
 46
0.0
 71
     5
 72
     1
  1
R45 mm\P [R1 25/32 "]
 11
0.7753512118483123
 21
0.6315302829519371
 31
0.0
 73
     1
 44
1.0
  0
SOLID
  5
1E28
330
1E1D
100
AcDbEntity
  8
dimensions
440
 16777216
370
     5
100
AcDbTrace
 10
800.1690765699727
 20
708.572783779722
 30
0.0
 11
801.8531573245113
 21
706.5051805481265
 31
0.0
 12
807.2139266420286
 22
712.5912244275398
 32
0.0
 13
807.2139266420286
 23
712.5912244275398
 33
0.0
  0
POINT
  5
1E29
330
1E1D
100
AcDbEntity
  8
Defpoints
 62
     0
440
 16777216
370
     5
100
AcDbPoint
 10
807.2139266420286
 20
712.5912244275398
 30
0.0
  0
POINT
  5
1E2A
330
1E1D
100
AcDbEntity
  8
Defpoints
 62
     0
440
 16777216
370
     5
100
AcDbPoint
 10
772.3231221088544
 20
684.1723616947024
 30
0.0
  0
ENDBLK
  5
1E1F
330
1E1D
100
AcDbEntity
  8
0
370
     5
100
AcDbBlockEnd
  0
ENDSEC
  0
SECTION
  2
ENTITIES
  0
LINE
  5
40A
330
1F
100
AcDbEntity
  8
0
  6
ByBlock
370
    40
100
AcDbLine
 10
970.563188448677
 20
299.575424228912
 30
0.0
 11
960.0619319410863
 21
299.575424228912
 31
0.0
  0
LINE
  5
40B
330
1F
100
AcDbEntity
  8
0
  6
ByBlock
370
    40
100
AcDbLine
 10
960.0619319410863
 20
299.575424228912
 30
0.0
 11
960.0619319410863
 21
297.8952363149669
 31
0.0
  0
LINE
  5
40C
330
1F
100
AcDbEntity
  8
0
  6
ByBlock
370
    40
100
AcDbLine
 10
960.0619319410863
 20
297.8952363149669
 30
0.0
 11
960.9522233889434
 21
297.8873648593544
 31
0.0
  0
SPLINE
  5
40D
330
1F
100
AcDbEntity
  8
0
  6
ByBlock
370
    40
100
AcDbSpline
210
0.0
220
0.0
230
1.0
 70
  1064
 71
     3
 72
    16
 73
    12
 74
    10
 42
0.000000001
 43
0.0000000001
 44
0.00001
 40
0.0
 40
0.0
 40
0.0
 40
0.0
 40
0.6984490405482556
 40
1.101524395308146
 40
1.435308117826997
 40
1.757414530803964
 40
2.12615898618432
 40
2.560650883203103
 40
2.953942983776489
 40
3.387252736814899
 40
3.55836694352368
 40
3.55836694352368
 40
3.55836694352368
 40
3.55836694352368
 10
960.9522233889434
 20
297.8873648593599
 30
0.0
 10
961.1854252266471
 20
297.8745433419322
 30
0.0
 10
961.5532079829378
 20
297.854322519207
 30
0.0
 10
962.0179954611352
 20
297.7328760031623
 30
0.0
 10
962.347575507985
 20
297.6039089291786
 30
0.0
 10
962.6402833053859
 20
297.4226253000713
 30
0.0
 10
962.8925026714634
 20
297.1329084871082
 30
0.0
 10
963.0253622859058
 20
296.7526048378955
 30
0.0
 10
963.150721666267
 20
296.3500177889734
 30
0.0
 10
963.1643280025681
 20
296.0152209313867
 30
0.0
 10
963.1760043732734
 20
295.8142401616491
 30
0.0
 10
963.1793099882779
 20
295.7573419126259
 30
0.0
 11
960.9522233889434
 21
297.8873648593599
 31
0.0
 11
961.6473731634565
 21
297.8195573875209
 31
0.0
 11
962.0376565101983
 21
297.7188168749612
 31
0.0
 11
962.3468684727832
 21
297.5931206713078
 31
0.0
 11
962.6177175107509
 21
297.418783813722
 31
0.0
 11
962.8586230977806
 21
297.1396118747459
 31
0.0
 11
963.0272841682659
 21
296.7391912810226
 31
0.0
 11
963.1306943173852
 21
296.3597377035819
 31
0.0
 11
963.1696683328751
 21
295.9281842674992
 31
0.0
 11
963.1793099882779
 21
295.7573419126259
 31
0.0
  0
LINE
  5
40E
330
1F
100
AcDbEntity
  8
0
  6
ByBlock
370
    40
100
AcDbLine
 10
963.1793099882671
 20
295.7573419126245
 30
0.0
 11
963.1793099882671
 21
280.5084263103827
 31
0.0
  0
LINE
  5
40F
330
1F
100
AcDbEntity
  8
0
  6
ByBlock
370
    40
100
AcDbLine
 10
963.1793099882671
 20
280.5084263103827
 30
0.0
 11
967.2155649545993
 21
279.9102662803006
 31
0.0
  0
LINE
  5
410
330
1F
100
AcDbEntity
  8
0
  6
ByBlock
370
    40
100
AcDbLine
 10
967.2155649545993
 20
279.9102662803006
 30
0.0
 11
967.2155649545993
 21
281.1219762716072
 31
0.0
  0
LINE
  5
411
330
1F
100
AcDbEntity
  8
0
  6
ByBlock
370
    40
100
AcDbLine
 10
967.2155649545993
 20
281.1219762716072
 30
0.0
 11
970.3892991565899
 21
285.1424545901661
 31
0.0
  0
LINE
  5
412
330
1F
100
AcDbEntity
  8
0
  6
ByBlock
370
    40
100
AcDbLine
 10
970.3892991565899
 20
285.1424545901661
 30
0.0
 11
974.2640903444792
 21
279.1310627712677
 31
0.0
  0
LINE
  5
413
330
1F
100
AcDbEntity
  8
0
  6
ByBlock
370
    40
100
AcDbLine
 10
975.4194035495977
 20
277.3386977088221
 30
0.0
 11
976.5550494253671
 21
275.5768447480342
 31
0.0
  0
LINE
  5
414
330
1F
100
AcDbEntity
  8
0
  6
ByBlock
370
    40
100
AcDbLine
 10
974.2640903444792
 20
279.1310627712677
 30
0.0
 11
979.1032507692795
 21
278.855561825038
 31
0.0
  0
LINE
  5
415
330
1F
100
AcDbEntity
  8
0
  6
ByBlock
370
    40
100
AcDbLine
 10
981.3178458478919
 20
275.3761310761608
 30
0.0
 11
980.2177034786183
 21
277.1046047031295
 31
0.0
  0
LINE
  5
416
330
1F
100
AcDbEntity
  8
0
  6
ByBlock
370
    40
100
AcDbLine
 10
979.1032507692795
 20
278.855561825038
 30
0.0
 11
973.1430781568375
 21
288.2198054542444
 31
0.0
  0
LINE
  5
417
330
1F
100
AcDbEntity
  8
0
  6
ByBlock
370
    40
100
AcDbLine
 10
973.1430781568375
 20
288.2198054542444
 30
0.0
 11
973.1430781568375
 21
288.321887291081
 31
0.0
  0
LINE
  5
418
330
1F
100
AcDbEntity
  8
0
  6
ByBlock
370
    40
100
AcDbLine
 10
973.1430781568375
 20
288.321887291081
 30
0.0
 11
979.0401047162957
 21
295.7418107894628
 31
0.0
  0
SPLINE
  5
419
330
1F
100
AcDbEntity
  8
0
  6
ByBlock
370
    40
100
AcDbSpline
210
0.0
220
0.0
230
1.0
 70
  1064
 71
     3
 72
    13
 73
     9
 74
     7
 42
0.000000001
 43
0.0000000001
 44
0.00001
 40
0.0
 40
0.0
 40
0.0
 40
0.0
 40
0.5320116973352328
 40
1.739439817880094
 40
2.602657132305716
 40
3.357799301985334
 40
4.169179111383311
 40
5.071984388788681
 40
5.071984388788681
 40
5.071984388788681
 40
5.071984388788681
 10
979.0401047163065
 20
295.7418107894655
 30
0.0
 10
979.1553174574019
 20
295.8770611949768
 30
0.0
 10
979.5320114857327
 20
296.3192694056404
 30
0.0
 10
980.2319674761291
 20
296.8408999808608
 30
0.0
 10
981.0105051987463
 20
297.3792203551858
 30
0.0
 10
981.7830763747901
 20
297.6454951152847
 30
0.0
 10
982.591966733263
 20
297.804244367571
 30
0.0
 10
983.1620076629448
 20
297.8499041179508
 30
0.0
 10
983.4622295955796
 20
297.8739516166283
 30
0.0
 11
979.0401047163065
 21
295.7418107894655
 31
0.0
 11
979.3942658047868
 21
296.1388074764893
 31
0.0
 11
980.3291668836255
 21
296.9029034384396
 31
0.0
 11
981.059827825549
 21
297.3625540882506
 31
0.0
 11
981.7686931943628
 21
297.6228415933769
 31
0.0
 11
982.5639260678576
 21
297.7839064002465
 31
0.0
 11
983.4622295955796
 21
297.8739516166283
 31
0.0
  0
LINE
  5
41A
330
1F
100
AcDbEntity
  8
0
  6
ByBlock
370
    40
100
AcDbLine
 10
983.4622295955796
 20
297.8739516166243
 30
0.0
 11
984.6965651836484
 21
297.8739516166243
 31
0.0
  0
LINE
  5
41B
330
1F
100
AcDbEntity
  8
0
  6
ByBlock
370
    40
100
AcDbLine
 10
984.6965651836484
 20
297.8739516166243
 30
0.0
 11
984.6965651836484
 21
299.575424228912
 31
0.0
  0
LINE
  5
41C
330
1F
100
AcDbEntity
  8
0
  6
ByBlock
370
    40
100
AcDbLine
 10
984.6965651836484
 20
299.575424228912
 30
0.0
 11
973.4724561169949
 21
299.575424228912
 31
0.0
  0
LINE
  5
41D
330
1F
100
AcDbEntity
  8
0
  6
ByBlock
370
    40
100
AcDbLine
 10
973.4724561169949
 20
299.575424228912
 30
0.0
 11
973.4724561169949
 21
297.881434794148
 31
0.0
  0
LINE
  5
41E
330
1F
100
AcDbEntity
  8
0
  6
ByBlock
370
    40
100
AcDbLine
 10
973.4724561169949
 20
297.881434794148
 30
0.0
 11
974.9246795373032
 21
297.881434794148
 31
0.0
  0
LINE
  5
41F
330
1F
100
AcDbEntity
  8
0
  6
ByBlock
370
    40
100
AcDbLine
 10
970.563188448677
 20
299.575424228912
 30
0.0
 11
970.563188448677
 21
297.8753635369116
 31
0.0
  0
LINE
  5
420
330
1F
100
AcDbEntity
  8
0
  6
ByBlock
370
    40
100
AcDbLine
 10
970.563188448677
 20
297.8753635369116
 30
0.0
 11
969.3901656410719
 21
297.8753635369116
 31
0.0
  0
SPLINE
  5
421
330
1F
100
AcDbEntity
  8
0
  6
ByBlock
370
    40
100
AcDbSpline
210
0.0
220
0.0
230
1.0
 70
  1064
 71
     3
 72
    16
 73
    12
 74
    10
 42
0.000000001
 43
0.0000000001
 44
0.00001
 40
0.0
 40
0.0
 40
0.0
 40
0.0
 40
0.3055958489131552
 40
0.7341859163720239
 40
1.179343254133831
 40
1.603799947093641
 40
1.994382051114304
 40
2.340980592652306
 40
2.764850919114866
 40
3.093231178724004
 40
3.262616870212144
 40
3.262616870212144
 40
3.262616870212144
 40
3.262616870212144
 10
969.3901656410934
 20
297.875363536913
 30
0.0
 10
969.2882168178364
 20
297.8733858389274
 30
0.0
 10
969.0432874757261
 20
297.8686344720057
 30
0.0
 10
968.6545304585388
 20
297.8004859962936
 30
0.0
 10
968.236163736215
 20
297.6897603207248
 30
0.0
 10
967.8507409979417
 20
297.506771218253
 30
0.0
 10
967.5781944941151
 20
297.2207956597757
 30
0.0
 10
967.3908365705932
 20
296.8806633717548
 30
0.0
 10
967.2632809594174
 20
296.5338162062987
 30
0.0
 10
967.2258606365089
 20
296.2276802698227
 30
0.0
 10
967.2114918648087
 20
296.062453487303
 30
0.0
 10
967.2066022890454
 20
296.0062281614289
 30
0.0
 11
969.3901656410934
 21
297.875363536913
 31
0.0
 11
969.0848239204344
 21
297.8629033403686
 31
0.0
 11
968.6615416685974
 21
297.795660636644
 31
0.0
 11
968.2332348921411
 21
297.6743413858849
 31
0.0
 11
967.8561239478577
 21
297.4795316841244
 31
0.0
 11
967.5830342434908
 21
297.2002891491301
 31
0.0
 11
967.410367133073
 21
296.8997619157947
 31
0.0
 11
967.270223634852
 21
296.4997296001477
 31
0.0
 11
967.2219474588946
 21
296.1749173378547
 31
0.0
 11
967.2066022890454
 21
296.0062281614289
 31
0.0
  0
LINE
  5
422
330
1F
100
AcDbEntity
  8
0
  6
ByBlock
370
    40
100
AcDbLine
 10
967.2066022890238
 20
296.0062281614249
 30
0.0
 11
967.2066022890238
 21
284.1055756285468
 31
0.0
  0
LINE
  5
423
330
1F
100
AcDbEntity
  8
0
  6
ByBlock
370
    40
100
AcDbLine
 10
967.2066022890238
 20
284.1055756285468
 30
0.0
 11
976.312263127064
 21
295.4875239455626
 31
0.0
  0
SPLINE
  5
424
330
1F
100
AcDbEntity
  8
0
  6
ByBlock
370
    40
100
AcDbSpline
210
0.0
220
0.0
230
1.0
 70
  1064
 71
     3
 72
    19
 73
    15
 74
    13
 42
0.000000001
 43
0.0000000001
 44
0.00001
 40
0.0
 40
0.0
 40
0.0
 40
0.0
 40
0.6428212795953204
 40
1.135483650371325
 40
1.471127125781469
 40
1.671954051368746
 40
1.80956704747014
 40
1.96835224257294
 40
2.090654401779121
 40
2.277007358319591
 40
2.633446982954374
 40
3.193794753237609
 40
3.931899967402413
 40
4.445783206326426
 40
4.445783206326426
 40
4.445783206326426
 40
4.445783206326426
 10
976.312263127064
 20
295.4875239455653
 30
0.0
 10
976.4502387799064
 20
295.6514462874494
 30
0.0
 10
976.6939598621496
 20
295.9409997684062
 30
0.0
 10
976.9706875821333
 20
296.3485544758656
 30
0.0
 10
977.1189363476151
 20
296.6576444936172
 30
0.0
 10
977.1987093016123
 20
296.870197138784
 30
0.0
 10
977.2109359742032
 20
297.0359489114529
 30
0.0
 10
977.2106542377244
 20
297.1775466845508
 30
0.0
 10
977.1502117323134
 20
297.3241787707438
 30
0.0
 10
976.9979709237416
 20
297.493766158647
 30
0.0
 10
976.6420429693951
 20
297.620696591781
 30
0.0
 10
976.1122504933162
 20
297.7577736909038
 30
0.0
 10
975.5130374037616
 20
297.8598708694537
 30
0.0
 10
975.0958965331037
 20
297.8751595140625
 30
0.0
 10
974.9246795373139
 20
297.8814347941506
 30
0.0
 11
976.312263127064
 21
295.4875239455653
 31
0.0
 11
976.7165336640223
 21
295.9873084295661
 31
0.0
 11
976.9873148029812
 21
296.3988831935675
 31
0.0
 11
977.1329581187091
 21
296.7012812212879
 31
0.0
 11
977.1950177879652
 21
296.8922787382683
 31
0.0
 11
977.2088012812421
 21
297.0291997082075
 31
0.0
 11
977.1990917268848
 21
297.1876877605584
 31
0.0
 11
977.1536673081017
 21
297.3012414497311
 31
0.0
 11
977.0309059492332
 21
297.4414451343479
 31
0.0
 11
976.7081820892759
 21
297.5927676912391
 31
0.0
 11
976.1666198113472
 21
297.7366423686007
 31
0.0
 11
975.4377921419438
 21
297.8533022824079
 31
0.0
 11
974.9246795373139
 21
297.8814347941506
 31
0.0
  0
LINE
  5
425
330
1F
100
AcDbEntity
  8
0
  6
ByBlock
370
    40
100
AcDbLine
 10
963.1793099882671
 20
278.7717290579224
 30
0.0
 11
963.1793099882671
 21
277.1278302664124
 31
0.0
  0
LINE
  5
426
330
1F
100
AcDbEntity
  8
0
  6
ByBlock
370
    40
100
AcDbLine
 10
963.1793099882671
 20
278.7717290579224
 30
0.0
 11
967.2155649545993
 21
278.178427009784
 31
0.0
  0
LINE
  5
427
330
1F
100
AcDbEntity
  8
0
  6
ByBlock
370
    40
100
AcDbLine
 10
967.2155649545993
 20
278.178427009784
 30
0.0
 11
967.2155649545993
 21
276.5102803133256
 31
0.0
  0
LINE
  5
428
330
1F
100
AcDbEntity
  8
0
  6
ByBlock
370
    40
100
AcDbLine
 10
967.2155649545993
 20
274.7942790101419
 30
0.0
 11
967.2155649545993
 21
273.9727178924671
 31
0.0
  0
LINE
  5
429
330
1F
100
AcDbEntity
  8
0
  6
ByBlock
370
    40
100
AcDbLine
 10
963.1793099882671
 20
275.3960394369613
 30
0.0
 11
963.1793099882671
 21
274.1217460788778
 31
0.0
  0
SPLINE
  5
42A
330
1F
100
AcDbEntity
  8
0
  6
ByBlock
370
    40
100
AcDbSpline
210
0.0
220
0.0
230
1.0
 70
  1064
 71
     3
 72
     9
 73
     5
 74
     3
 42
0.000000001
 43
0.0000000001
 44
0.00001
 40
0.0
 40
0.0
 40
0.0
 40
0.0
 40
1.939160541358475
 40
4.083491386926663
 40
4.083491386926663
 40
4.083491386926663
 40
4.083491386926663
 10
963.1793099882779
 20
277.1278302664151
 30
0.0
 10
963.8165064000347
 20
277.0189218519905
 30
0.0
 10
965.1583169431512
 20
276.7895821130768
 30
0.0
 10
966.5072241890403
 20
276.6064480332896
 30
0.0
 10
967.2155649545993
 20
276.5102803133282
 30
0.0
 11
963.1793099882779
 21
277.1278302664151
 31
0.0
 11
965.0924995952353
 21
276.8115248238564
 31
0.0
 11
967.2155649545993
 21
276.5102803133282
 31
0.0
  0
SPLINE
  5
42B
330
1F
100
AcDbEntity
  8
0
  6
ByBlock
370
    40
100
AcDbSpline
210
0.0
220
0.0
230
1.0
 70
  1064
 71
     3
 72
    12
 73
     8
 74
     6
 42
0.000000001
 43
0.0000000001
 44
0.00001
 40
0.0
 40
0.0
 40
0.0
 40
0.0
 40
0.7378387909216569
 40
1.739329685161375
 40
2.918036203794887
 40
3.722408190218116
 40
4.081526235798974
 40
4.081526235798974
 40
4.081526235798974
 40
4.081526235798974
 10
963.1793099882779
 20
275.3960394369654
 30
0.0
 10
963.4210447901146
 20
275.3505189196864
 30
0.0
 10
963.9908935456205
 20
275.2432120283148
 30
0.0
 10
964.9553752948966
 20
275.1147908909194
 30
0.0
 10
965.9384114404764
 20
274.9628040091914
 30
0.0
 10
966.7107171656143
 20
274.8467983798355
 30
0.0
 10
967.0964929793713
 20
274.8066660805118
 30
0.0
 10
967.2155649545993
 20
274.7942790101447
 30
0.0
 11
963.1793099882779
 21
275.3960394369654
 31
0.0
 11
963.9054216984051
 21
275.2650132342235
 31
0.0
 11
964.8962715381744
 21
275.1194089544988
 31
0.0
 11
966.0619612557631
 21
274.9447191168522
 31
0.0
 11
966.8585521089012
 21
274.8331068180706
 31
0.0
 11
967.2155649545993
 21
274.7942790101447
 31
0.0
  0
SPLINE
  5
42C
330
1F
100
AcDbEntity
  8
0
  6
ByBlock
370
    40
100
AcDbSpline
210
0.0
220
0.0
230
1.0
 70
  1064
 71
     3
 72
    15
 73
    11
 74
     9
 42
0.000000001
 43
0.0000000001
 44
0.00001
 40
0.0
 40
0.0
 40
0.0
 40
0.0
 40
0.4291264613674638
 40
0.8302336984715948
 40
1.238147453305213
 40
1.678472873763323
 40
2.148185575521042
 40
2.611488568079254
 40
3.091262070967062
 40
3.392695926230774
 40
3.392695926230774
 40
3.392695926230774
 40
3.392695926230774
 10
963.1793099882779
 20
274.1217460788805
 30
0.0
 10
963.1667001263766
 20
273.9785985846777
 30
0.0
 10
963.1423037462267
 20
273.701650215751
 30
0.0
 10
962.9782451377
 20
273.314481246014
 30
0.0
 10
962.7184115143979
 20
272.9876057662853
 30
0.0
 10
962.3958283190974
 20
272.6793477959685
 30
0.0
 10
961.9642728073912
 20
272.5093796435895
 30
0.0
 10
961.5176608501709
 20
272.3590251054754
 30
0.0
 10
961.1029681787176
 20
272.3125816182828
 30
0.0
 10
960.8433901614056
 20
272.294523551203
 30
0.0
 10
960.7432303233247
 20
272.2875557305319
 30
0.0
 11
963.1793099882779
 21
274.1217460788805
 31
0.0
 11
963.1186082986436
 21
273.6969345621801
 31
0.0
 11
962.9641381152927
 21
273.3267643606338
 31
0.0
 11
962.7179364077173
 21
273.0015285222496
 31
0.0
 11
962.3882189526467
 21
272.7096845986821
 31
0.0
 11
961.9618133476436
 21
272.5126864204812
 31
0.0
 11
961.5189761890745
 21
272.3765067086888
 31
0.0
 11
961.0438191152477
 21
272.3101111571385
 31
0.0
 11
960.7432303233247
 21
272.2875557305319
 31
0.0
  0
LINE
  5
42D
330
1F
100
AcDbEntity
  8
0
  6
ByBlock
370
    40
100
AcDbLine
 10
960.743230323303
 20
272.2875557305291
 30
0.0
 11
960.0619319410863
 21
272.2875557305291
 31
0.0
  0
LINE
  5
42E
330
1F
100
AcDbEntity
  8
0
  6
ByBlock
370
    40
100
AcDbLine
 10
960.0619319410863
 20
272.2875557305291
 30
0.0
 11
960.0619319410863
 21
270.638927006049
 31
0.0
  0
LINE
  5
42F
330
1F
100
AcDbEntity
  8
0
  6
ByBlock
370
    40
100
AcDbLine
 10
960.0619319410863
 20
270.638927006049
 30
0.0
 11
970.5583676209865
 21
270.638927006049
 31
0.0
  0
LINE
  5
430
330
1F
100
AcDbEntity
  8
0
  6
ByBlock
370
    40
100
AcDbLine
 10
970.5583676209865
 20
270.638927006049
 30
0.0
 11
970.5583676209865
 21
272.2948977160243
 31
0.0
  0
LINE
  5
431
330
1F
100
AcDbEntity
  8
0
  6
ByBlock
370
    40
100
AcDbLine
 10
970.5583676209865
 20
272.2948977160243
 30
0.0
 11
969.7900906432055
 21
272.2948977160243
 31
0.0
  0
SPLINE
  5
432
330
1F
100
AcDbEntity
  8
0
  6
ByBlock
370
    40
100
AcDbSpline
210
0.0
220
0.0
230
1.0
 70
  1064
 71
     3
 72
    15
 73
    11
 74
     9
 42
0.000000001
 43
0.0000000001
 44
0.00001
 40
0.0
 40
0.0
 40
0.0
 40
0.0
 40
0.322322961533645
 40
0.6664017522729504
 40
1.039422504497046
 40
1.397825398547009
 40
1.935597208069932
 40
2.285784443559148
 40
2.994511258241783
 40
3.424656378651937
 40
3.424656378651937
 40
3.424656378651937
 40
3.424656378651937
 10
967.2155649545993
 20
273.972717892471
 30
0.0
 10
967.2241228103004
 20
273.8650488287346
 30
0.0
 10
967.2418161511902
 20
273.6424433637123
 30
0.0
 10
967.3703134747782
 20
273.3170878397511
 30
0.0
 10
967.5597093516286
 20
273.0065344280429
 30
0.0
 10
967.8953815346474
 20
272.7424359702792
 30
0.0
 10
968.2589586087543
 20
272.5299755487455
 30
0.0
 10
968.7803980328329
 20
272.412865030829
 30
0.0
 10
969.2658092061545
 20
272.2990867184542
 30
0.0
 10
969.6463591897593
 20
272.2960461286261
 30
0.0
 10
969.7900906432055
 20
272.2948977160282
 30
0.0
 11
967.2155649545993
 21
273.972717892471
 31
0.0
 11
967.2563722426097
 21
273.6529885432128
 31
0.0
 11
967.375399157494
 21
273.3301529693215
 31
0.0
 11
967.5790961025668
 21
273.0176597115417
 31
0.0
 11
967.8518463119987
 21
272.7851517380907
 31
0.0
 11
968.3250343153632
 21
272.5296294639356
 31
0.0
 11
968.6632391431436
 21
272.4388076914045
 31
0.0
 11
969.3602221901663
 21
272.3103229451772
 31
0.0
 11
969.7900906432055
 21
272.2948977160282
 31
0.0
  0
SPLINE
  5
433
330
1F
100
AcDbEntity
  8
0
  6
ByBlock
370
    40
100
AcDbSpline
210
0.0
220
0.0
230
1.0
 70
  1064
 71
     3
 72
    13
 73
     9
 74
     7
 42
0.000000001
 43
0.0000000001
 44
0.00001
 40
0.0
 40
0.0
 40
0.0
 40
0.0
 40
0.5442119540311808
 40
1.36751333915367
 40
2.191597675678792
 40
3.327297788281143
 40
4.266612873492285
 40
4.804215764154205
 40
4.804215764154205
 40
4.804215764154205
 40
4.804215764154205
 10
980.2177034786291
 20
277.1046047031308
 30
0.0
 10
980.0364137291118
 20
277.1109666805994
 30
0.0
 10
979.5808630031856
 20
277.1269532626421
 30
0.0
 10
978.8505039223331
 20
277.1466000788043
 30
0.0
 10
977.9246604759883
 20
277.2069917591888
 30
0.0
 10
976.9592285529686
 20
277.2497916759145
 30
0.0
 10
976.0897172460326
 20
277.298698634033
 30
0.0
 10
975.5982860753595
 20
277.3280233998488
 30
0.0
 10
975.4194035495652
 20
277.338697708868
 30
0.0
 11
980.2177034786291
 21
277.1046047031308
 31
0.0
 11
979.673805912382
 21
277.1231003334504
 31
0.0
 11
978.8510060523226
 21
277.1518329113141
 31
0.0
 11
978.0282061922415
 21
277.1978262147027
 31
0.0
 11
976.893953703176
 21
277.2551501784002
 31
0.0
 11
975.9560650691346
 21
277.3068970569642
 31
0.0
 11
975.4194035495652
 21
277.338697708868
 31
0.0
  0
LINE
  5
434
330
1F
100
AcDbEntity
  8
0
  6
ByBlock
370
    40
100
AcDbLine
 10
976.5550494253671
 20
275.5768447480357
 30
0.0
 11
981.3178458478919
 21
275.3761310761608
 31
0.0
  0
LINE
  5
435
330
1F
100
AcDbEntity
  8
0
  6
ByBlock
370
    40
100
AcDbLine
 10
974.4223628707906
 20
270.6389270060478
 30
0.0
 11
994.7938906492053
 21
270.6389270060478
 31
0.0
  0
LINE
  5
436
330
1F
100
AcDbEntity
  8
0
  6
ByBlock
370
    40
100
AcDbLine
 10
974.4223628707906
 20
270.638927006049
 30
0.0
 11
974.4223628707906
 21
272.291579703355
 31
0.0
  0
LINE
  5
437
330
1F
100
AcDbEntity
  8
0
  6
ByBlock
370
    40
100
AcDbLine
 10
974.4223628707906
 20
272.291579703355
 30
0.0
 11
975.5343444938697
 21
272.291579703355
 31
0.0
  0
LINE
  5
438
330
1F
100
AcDbEntity
  8
0
  6
ByBlock
370
    40
100
AcDbLine
 10
994.7938906492053
 20
270.638927006049
 30
0.0
 11
994.7938906492053
 21
272.2944388419332
 31
0.0
  0
LINE
  5
439
330
1F
100
AcDbEntity
  8
0
  6
ByBlock
370
    40
100
AcDbLine
 10
994.7938906492053
 20
272.2944388419332
 30
0.0
 11
994.0264284592039
 21
272.2944388419332
 31
0.0
  0
SPLINE
  5
43A
330
1F
100
AcDbEntity
  8
0
  6
ByBlock
370
    40
100
AcDbSpline
210
0.0
220
0.0
230
1.0
 70
  1064
 71
     3
 72
    18
 73
    14
 74
    12
 42
0.000000001
 43
0.0000000001
 44
0.00001
 40
0.0
 40
0.0
 40
0.0
 40
0.0
 40
0.2416534064703982
 40
0.8010458337659445
 40
1.524549840071488
 40
2.166445646889189
 40
2.459312578656489
 40
2.579942411499532
 40
2.705795519325036
 40
2.911444149780918
 40
3.152107913421342
 40
3.46800885071555
 40
3.707597477296141
 40
3.707597477296141
 40
3.707597477296141
 40
3.707597477296141
 10
975.5343444938697
 20
272.2915797033577
 30
0.0
 10
975.6149091739715
 20
272.2911584210617
 30
0.0
 10
975.8819693503077
 20
272.2897619316309
 30
0.0
 10
976.3893688493022
 20
272.3275602240756
 30
0.0
 10
977.027205603203
 20
272.391419191553
 30
0.0
 10
977.5729651277865
 20
272.4990830279389
 30
0.0
 10
977.8986710969199
 20
272.6371949822267
 30
0.0
 10
978.0373878653174
 20
272.7629452722972
 30
0.0
 10
978.0634832781917
 20
272.9193485075232
 30
0.0
 10
978.0284311089609
 20
273.1067837205342
 30
0.0
 10
977.9583027095881
 20
273.3533708651876
 30
0.0
 10
977.8095072007376
 20
273.5760475104509
 30
0.0
 10
977.727104299209
 20
273.7417901918601
 30
0.0
 10
977.6915630410332
 20
273.8132767939263
 30
0.0
 11
975.5343444938697
 21
272.2915797033577
 31
0.0
 11
975.775996969692
 21
272.292250365486
 31
0.0
 11
976.3343981950981
 21
272.3255363862821
 31
0.0
 11
977.0533805121699
 21
272.4062982267656
 31
0.0
 11
977.6787980324863
 21
272.5508082682559
 31
0.0
 11
977.9411596977336
 21
272.6809520208199
 31
0.0
 11
978.0242680512959
 21
272.7683851846645
 31
0.0
 11
978.053193017515
 21
272.8908692696657
 31
0.0
 11
978.0276630003884
 21
273.0949270493113
 31
0.0
 11
977.9553505848895
 21
273.3244699901618
 31
0.0
 11
977.8021704822059
 21
273.6007474925488
 31
0.0
 11
977.6915630410332
 21
273.8132767939263
 31
0.0
  0
SPLINE
  5
43B
330
1F
100
AcDbEntity
  8
0
  6
ByBlock
370
    40
100
AcDbSpline
210
0.0
220
0.0
230
1.0
 70
  1064
 71
     3
 72
    10
 73
     6
 74
     4
 42
0.000000001
 43
0.0000000001
 44
0.00001
 40
0.0
 40
0.0
 40
0.0
 40
0.0
 40
1.618794802624157
 40
3.51149956866334
 40
4.815974762758298
 40
4.815974762758298
 40
4.815974762758298
 40
4.815974762758298
 10
977.691563041044
 20
273.8132767939263
 30
0.0
 10
978.2304052918712
 20
273.7843749587715
 30
0.0
 10
979.3992651920202
 20
273.7216809215067
 30
0.0
 10
981.0041724259097
 20
273.6781544462061
 30
0.0
 10
982.0697501560667
 20
273.6609077744713
 30
0.0
 10
982.5045144588907
 20
273.6538709933896
 30
0.0
 11
977.691563041044
 21
273.8132767939263
 31
0.0
 11
979.3083735929611
 21
273.7331503175742
 31
0.0
 11
981.2002429196748
 21
273.6769205920976
 31
0.0
 11
982.5045144588907
 21
273.6538709933896
 31
0.0
  0
SPLINE
  5
43C
330
1F
100
AcDbEntity
  8
0
  6
ByBlock
370
    40
100
AcDbSpline
210
0.0
220
0.0
230
1.0
 70
  1064
 71
     3
 72
    21
 73
    17
 74
    15
 42
0.000000001
 43
0.0000000001
 44
0.00001
 40
0.0
 40
0.0
 40
0.0
 40
0.0
 40
0.201501902418798
 40
0.6237132230095027
 40
1.029260856641456
 40
1.605095088509553
 40
2.362257678295199
 40
3.282229649415019
 40
3.991867954186481
 40
4.645735147801751
 40
5.448967314990031
 40
6.026472635782106
 40
6.384100231882507
 40
6.78108543273481
 40
7.150730792332276
 40
7.422570167285069
 40
7.422570167285069
 40
7.422570167285069
 40
7.422570167285069
 10
982.5045144588907
 20
273.6538709933896
 30
0.0
 10
982.5415152009947
 20
273.5975158721934
 30
0.0
 10
982.6560444031233
 20
273.4230786393315
 30
0.0
 10
982.9246829892635
 20
273.2036733136732
 30
0.0
 10
983.2568606171617
 20
272.8733752958638
 30
0.0
 10
983.7768951150939
 20
272.5951081727691
 30
0.0
 10
984.5113795861536
 20
272.4192081221906
 30
0.0
 10
985.3037438100022
 20
272.3396155838383
 30
0.0
 10
986.0630770827702
 20
272.2888955730439
 30
0.0
 10
986.7864589001474
 20
272.278485523631
 30
0.0
 10
987.4614746261491
 20
272.3719085556837
 30
0.0
 10
988.0165165800358
 20
272.5617242801594
 30
0.0
 10
988.3808776452509
 20
272.8236727668242
 30
0.0
 10
988.6212182034016
 20
273.1166166179295
 30
0.0
 10
988.7614371098381
 20
273.4411838936448
 30
0.0
 10
988.7785355986926
 20
273.6552249071039
 30
0.0
 10
988.7857813557195
 20
273.7459281961757
 30
0.0
 11
982.5045144588907
 21
273.6538709933896
 31
0.0
 11
982.6205538185938
 21
273.4891351937644
 31
0.0
 11
982.9237906708058
 21
273.1953498798099
 31
0.0
 11
983.2270275230291
 21
272.9260613828437
 31
0.0
 11
983.7293441895413
 21
272.6445244773854
 31
0.0
 11
984.4603446263786
 21
272.4472086171139
 31
0.0
 11
985.3738575259757
 21
272.3383848609032
 31
0.0
 11
986.0821118039602
 21
272.2940858618685
 31
0.0
 11
986.7359789975756
 21
272.2940858618685
 31
0.0
 11
987.5305328812647
 21
272.4118400138995
 31
0.0
 11
988.0703976846689
 21
272.6169214357506
 31
0.0
 11
988.3599868415565
 21
272.8267680885847
 31
0.0
 11
988.6108735789022
 21
273.1344255193737
 31
0.0
 11
988.751560268944
 21
273.4762514211382
 31
0.0
 11
988.7857813557195
 21
273.7459281961757
 31
0.0
  0
LINE
  5
43D
330
1F
100
AcDbEntity
  8
0
  6
ByBlock
370
    40
100
AcDbLine
 10
988.7857813557086
 20
273.7459281961742
 30
0.0
 11
992.0051436733784
 21
273.9970382194242
 31
0.0
  0
SPLINE
  5
43E
330
1F
100
AcDbEntity
  8
0
  6
ByBlock
370
    40
100
AcDbSpline
210
0.0
220
0.0
230
1.0
 70
  1064
 71
     3
 72
    14
 73
    10
 74
     8
 42
0.000000001
 43
0.0000000001
 44
0.00001
 40
0.0
 40
0.0
 40
0.0
 40
0.0
 40
0.4191123856175651
 40
0.8983584057262753
 40
1.275631401451493
 40
1.687158347677049
 40
2.186221466583554
 40
2.730326684864659
 40
3.102283187204085
 40
3.102283187204085
 40
3.102283187204085
 40
3.102283187204085
 10
992.0051436733892
 20
273.997038219427
 30
0.0
 10
992.0019426464053
 20
273.8573583557124
 30
0.0
 10
991.9950813137491
 20
273.5579575649346
 30
0.0
 10
992.0741243910137
 20
273.1324709494114
 30
0.0
 10
992.2971879790138
 20
272.7624228989891
 30
0.0
 10
992.6563187079821
 20
272.504674872465
 30
0.0
 10
993.1321577701391
 20
272.3890327220271
 30
0.0
 10
993.5965007605965
 20
272.3036700380463
 30
0.0
 10
993.9022730705824
 20
272.2971046453813
 30
0.0
 10
994.0264284592148
 20
272.2944388419346
 30
0.0
 11
992.0051436733892
 21
273.997038219427
 31
0.0
 11
992.009149713311
 21
273.5779449798942
 31
0.0
 11
992.1109981858473
 21
273.1096463183201
 31
0.0
 11
992.309738505234
 21
272.788963922867
 31
0.0
 11
992.6408818389246
 21
272.5446311170016
 31
0.0
 11
993.1176684883535
 21
272.3971913408929
 31
0.0
 11
993.6548173324384
 21
272.3104641372085
 31
0.0
 11
994.0264284592148
 21
272.2944388419346
 31
0.0
  0
LINE
  5
43F
330
1F
100
AcDbEntity
  8
0
  6
ByBlock
370
    40
100
AcDbLine
 10
988.8191876547047
 20
275.4316198282173
 30
0.0
 11
988.8191876547047
 21
277.1376784104238
 31
0.0
  0
LINE
  5
440
330
1F
100
AcDbEntity
  8
0
  6
ByBlock
370
    40
100
AcDbLine
 10
988.8191876547047
 20
278.8556677190561
 30
0.0
 11
988.8191876547047
 21
286.2929578369848
 31
0.0
  0
LINE
  5
441
330
1F
100
AcDbEntity
  8
0
  6
ByBlock
370
    40
100
AcDbLine
 10
991.9637931935367
 20
275.7114271313301
 30
0.0
 11
991.9637931935367
 21
277.4097201519463
 31
0.0
  0
LINE
  5
442
330
1F
100
AcDbEntity
  8
0
  6
ByBlock
370
    40
100
AcDbLine
 10
991.9637931935367
 20
279.1379105846614
 30
0.0
 11
991.9637931935367
 21
284.0131301476802
 31
0.0
  0
LINE
  5
443
330
1F
100
AcDbEntity
  8
0
  6
ByBlock
370
    40
100
AcDbLine
 10
991.9637931935367
 20
286.5920025540134
 30
0.0
 11
991.9637931935367
 21
290.6808531125364
 31
0.0
  0
LINE
  5
444
330
1F
100
AcDbEntity
  8
0
  6
ByBlock
370
    40
100
AcDbLine
 10
991.9637931935367
 20
290.6808531125364
 30
0.0
 11
985.90177210858
 21
288.4939297781894
 31
0.0
  0
LINE
  5
445
330
1F
100
AcDbEntity
  8
0
  6
ByBlock
370
    40
100
AcDbLine
 10
985.90177210858
 20
288.4939297781894
 30
0.0
 11
986.3801204345595
 21
287.3783009624931
 31
0.0
  0
LINE
  5
446
330
1F
100
AcDbEntity
  8
0
  6
ByBlock
370
    40
100
AcDbLine
 10
988.8191876547047
 20
275.4316198282173
 30
0.0
 11
991.9637931935367
 21
275.7114271313301
 31
0.0
  0
LINE
  5
447
330
1F
100
AcDbEntity
  8
0
  6
ByBlock
370
    40
100
AcDbLine
 10
988.819187654694
 20
277.1376784104238
 30
0.0
 11
991.9637931935367
 21
277.4097201519463
 31
0.0
  0
LINE
  5
448
330
1F
100
AcDbEntity
  8
0
  6
ByBlock
370
    40
100
AcDbLine
 10
988.8191876547047
 20
278.8556677190561
 30
0.0
 11
991.9637931935367
 21
279.1379105846614
 31
0.0
  0
SPLINE
  5
449
330
1F
100
AcDbEntity
  8
0
  6
ByBlock
370
    40
100
AcDbSpline
210
0.0
220
0.0
230
1.0
 70
  1064
 71
     3
 72
    15
 73
    11
 74
     9
 42
0.000000001
 43
0.0000000001
 44
0.00001
 40
0.0
 40
0.0
 40
0.0
 40
0.0
 40
0.4817385404314738
 40
0.9802059982371893
 40
1.524002765011894
 40
1.941119099665938
 40
2.239717894155035
 40
2.498821086733845
 40
2.752472685216341
 40
3.026521163674579
 40
3.026521163674579
 40
3.026521163674579
 40
3.026521163674579
 10
986.3801204345813
 20
287.3783009624972
 30
0.0
 10
986.5407513028584
 20
287.3763811138923
 30
0.0
 10
986.8675911285579
 20
287.3724747477615
 30
0.0
 10
987.3743562223882
 20
287.3532613749937
 30
0.0
 10
987.8634255643662
 20
287.3208576005899
 30
0.0
 10
988.2643932002693
 20
287.1972657075963
 30
0.0
 10
988.5630741935022
 20
287.0447421325971
 30
0.0
 10
988.7075194883207
 20
286.8074214613197
 30
0.0
 10
988.8048846721044
 20
286.5618631911187
 30
0.0
 10
988.8142987021863
 20
286.3848733167873
 30
0.0
 10
988.8191876547047
 20
286.2929578369863
 30
0.0
 11
986.3801204345813
 21
287.3783009624972
 31
0.0
 11
986.8617958106664
 21
287.3705001029044
 31
0.0
 11
987.359902740285
 21
287.3515450730365
 31
0.0
 11
987.9007181294323
 21
287.2946799834286
 31
0.0
 11
988.299217252946
 21
287.1714546402807
 31
0.0
 11
988.554653222056
 21
287.0168140707164
 31
0.0
 11
988.701382921479
 21
286.8032611271362
 31
0.0
 11
988.7894479007277
 21
286.5653878565852
 31
0.0
 11
988.8191876547047
 21
286.2929578369863
 31
0.0
  0
SPLINE
  5
44A
330
1F
100
AcDbEntity
  8
0
  6
ByBlock
370
    40
100
AcDbSpline
210
0.0
220
0.0
230
1.0
 70
  1064
 71
     3
 72
    47
 73
    43
 74
    41
 42
0.000000001
 43
0.0000000001
 44
0.00001
 40
0.0
 40
0.0
 40
0.0
 40
0.0
 40
0.9432489188914244
 40
2.005656407232386
 40
3.10482973129932
 40
3.978692795636373
 40
4.686313682601265
 40
5.307615966896681
 40
5.552632395149215
 40
5.790420684777479
 40
5.957793021580834
 40
6.335796823727698
 40
6.841427643314568
 40
7.496037429658581
 40
7.937203671325042
 40
8.4082715694356
 40
8.75516746686519
 40
9.050737336652934
 40
9.548852177541673
 40
9.986874413028283
 40
10.54226943830802
 40
11.08226741727615
 40
11.58011307609216
 40
12.14318714363241
 40
12.72123038001533
 40
13.38841928999667
 40
13.98437585101437
 40
14.46513550781696
 40
15.14069138334761
 40
15.67156687379381
 40
16.08797630967219
 40
16.57053510560325
 40
17.06114523961436
 40
17.7237836775192
 40
18.62946876336069
 40
19.29102756780024
 40
20.07320851944815
 40
20.82902679416215
 40
21.95700160300104
 40
22.98290468878491
 40
23.85414445296941
 40
24.07975993204295
 40
24.07975993204295
 40
24.07975993204295
 40
24.07975993204295
 10
991.9637931935476
 20
284.0131301476843
 30
0.0
 10
992.1701057756676
 20
284.2504619082275
 30
0.0
 10
992.6087939564169
 20
284.7551070306758
 30
0.0
 10
993.3085398713895
 20
285.5168046875852
 30
0.0
 10
993.9878826233897
 20
286.2701210084146
 30
0.0
 10
994.7070290750014
 20
286.8103576824118
 30
0.0
 10
995.3578958044071
 20
287.1528095428234
 30
0.0
 10
995.8240425535224
 20
287.3910181557395
 30
0.0
 10
996.1823120021779
 20
287.4995478727542
 30
0.0
 10
996.3993643679739
 20
287.4768796143094
 30
0.0
 10
996.6645297743765
 20
287.4683526775438
 30
0.0
 10
996.9536935649502
 20
287.2379579509727
 30
0.0
 10
997.3595294062837
 20
286.9391466183911
 30
0.0
 10
997.8085585624247
 20
286.6428063571186
 30
0.0
 10
998.2917643236955
 20
286.4348467359603
 30
0.0
 10
998.7125160653654
 20
286.3787240996967
 30
0.0
 10
999.0833095426612
 20
286.3832808646638
 30
0.0
 10
999.4642465932844
 20
286.4056123428504
 30
0.0
 10
999.859967665286
 20
286.5248498452087
 30
0.0
 10
1000.321086171966
 20
286.722404386464
 30
0.0
 10
1000.697149041646
 20
287.0813584505268
 30
0.0
 10
1001.022425167425
 20
287.502313361418
 30
0.0
 10
1001.243605529621
 20
287.997336898615
 30
0.0
 10
1001.29325123819
 20
288.5474570429127
 30
0.0
 10
1001.238718210216
 20
289.1546252068599
 30
0.0
 10
1000.963533621053
 20
289.7176948891753
 30
0.0
 10
1000.587562521587
 20
290.166178666106
 30
0.0
 10
1000.122538701268
 20
290.5259121194627
 30
0.0
 10
999.582273668329
 20
290.7314936687047
 30
0.0
 10
999.0387754460705
 20
290.7422065755331
 30
0.0
 10
998.5615259652281
 20
290.7476480507439
 30
0.0
 10
998.1035809226346
 20
290.6671926513745
 30
0.0
 10
997.5694065319785
 20
290.5581947423075
 30
0.0
 10
996.9141520019773
 20
290.3493402197014
 30
0.0
 10
996.2278077814065
 20
290.0599940030845
 30
0.0
 10
995.54041028197
 20
289.6839124139442
 30
0.0
 10
994.9114774463392
 20
289.3055757908642
 30
0.0
 10
994.1988839434849
 20
288.7730540194492
 30
0.0
 10
993.4583330837794
 20
288.1452321509369
 30
0.0
 10
992.7358269682283
 20
287.4421843664786
 30
0.0
 10
992.237332538453
 20
286.9378374892497
 30
0.0
 10
992.0104594140575
 20
286.6510025101403
 30
0.0
 10
991.9637931935476
 20
286.5920025540161
 30
0.0
 11
991.9637931935476
 21
284.0131301476843
 31
0.0
 11
992.5856799668189
 21
284.7223377084307
 31
0.0
 11
993.2994340622993
 21
285.5092714810366
 31
0.0
 11
994.065538272668
 21
286.2974759819093
 31
0.0
 11
994.7647619860683
 21
286.8216160908793
 31
0.0
 11
995.3836612041477
 21
287.1646774229027
 31
0.0
 11
995.9481054389033
 21
287.4243295638951
 31
0.0
 11
996.1858197737907
 21
287.4837008120099
 31
0.0
 11
996.423534108678
 21
287.4777707468021
 31
0.0
 11
996.5899545127856
 21
287.4599452531575
 31
0.0
 11
996.9167523116515
 21
287.2699713783907
 31
0.0
 11
997.3238746058385
 21
286.9701148071903
 31
0.0
 11
997.8793561750183
 21
286.6237707604985
 31
0.0
 11
998.2880401457773
 21
286.4576230405902
 31
0.0
 11
998.7536913621859
 21
286.3863916620585
 31
0.0
 11
999.1005872596154
 21
286.3863916620585
 31
0.0
 11
999.3952009411549
 21
286.4101472209068
 31
0.0
 11
999.8760615294601
 21
286.5401144834316
 31
0.0
 11
1000.272455784549
 21
286.7264879614626
 31
0.0
 11
1000.689355532091
 21
287.0934460443615
 31
0.0
 11
1001.012486785938
 21
287.5260937186612
 31
0.0
 11
1001.209393832836
 21
287.9833441039902
 31
0.0
 11
1001.276002733868
 21
288.5424645381006
 31
0.0
 11
1001.209393832836
 21
289.1166572212928
 31
0.0
 11
1000.929582129293
 21
289.7223357269064
 31
0.0
 11
1000.54630277336
 21
290.1786921204582
 31
0.0
 11
1000.163274221985
 21
290.4692415593502
 31
0.0
 11
999.5303878137001
 21
290.705526419576
 31
0.0
 11
999.0007757565388
 21
290.7421304530401
 31
0.0
 11
998.5844192008606
 21
290.7354944276947
 31
0.0
 11
998.1069535616368
 21
290.6655690754174
 31
0.0
 11
997.6273151549902
 21
290.5623930003626
 31
0.0
 11
996.9944287466832
 21
290.3660654842844
 31
0.0
 11
996.1606292515886
 21
290.0124500481175
 31
0.0
 11
995.5777164937963
 21
289.6996038102713
 31
0.0
 11
994.9113558875282
 21
289.2900057346718
 31
0.0
 11
994.3022341228147
 21
288.8425328973466
 31
0.0
 11
993.4416145299477
 21
288.1133819625265
 31
0.0
 11
992.7011082356711
 21
287.4033625476108
 31
0.0
 11
992.1050909744399
 21
286.767892523919
 31
0.0
 11
991.9637931935476
 21
286.5920025540161
 31
0.0
  0
SPLINE
  5
44B
330
1F
100
AcDbEntity
  8
0
  6
ByBlock
370
    40
100
AcDbSpline
210
0.0
220
0.0
230
1.0
 70
  1065
 71
     3
 72
    35
 73
    31
 74
    29
 42
0.000000001
 43
0.0000000001
 44
0.00001
 40
0.0
 40
0.0
 40
0.0
 40
0.0
 40
0.407079356183124
 40
1.200483649927678
 40
1.892492057609512
 40
2.56739122207699
 40
3.233462460669789
 40
3.932061473792411
 40
4.500545153576553
 40
4.860905005923153
 40
5.286694420650727
 40
5.87907810576495
 40
6.32365866494493
 40
6.984974265307076
 40
7.620468838301875
 40
8.150507299286253
 40
8.745394967928554
 40
9.359873692744553
 40
10.00390077657784
 40
10.64187320629488
 40
11.23813421424807
 40
11.96401111807565
 40
12.77241979056591
 40
13.68677696130021
 40
14.21874411099144
 40
15.0326097628129
 40
15.52313565916869
 40
15.71199386150539
 40
15.96703528132254
 40
16.1461777648337
 40
16.1461777648337
 40
16.1461777648337
 40
16.1461777648337
 10
1007.494191476689
 20
298.5935014934839
 30
0.0
 10
1007.431521369998
 20
298.4730843500421
 30
0.0
 10
1007.246706204897
 20
298.117972233259
 30
0.0
 10
1006.899476042444
 20
297.5902575473123
 30
0.0
 10
1006.505467721682
 20
296.9877035485125
 30
0.0
 10
1006.119964624426
 20
296.4304541948623
 30
0.0
 10
1005.767026341256
 20
295.8476897085306
 30
0.0
 10
1005.51502049013
 20
295.2525383953465
 30
0.0
 10
1005.383933503343
 20
294.7206386273938
 30
0.0
 10
1005.378520470179
 20
294.2687056615855
 30
0.0
 10
1005.394684553301
 20
293.8052553568999
 30
0.0
 10
1005.609183841191
 20
293.3506999382256
 30
0.0
 10
1005.968531673515
 20
292.9118589698278
 30
0.0
 10
1006.42893932589
 20
292.5466542263834
 30
0.0
 10
1006.995520932841
 20
292.3021306867113
 30
0.0
 10
1007.586901880756
 20
292.2334160794939
 30
0.0
 10
1008.164330870734
 20
292.359948219226
 30
0.0
 10
1008.705688254467
 20
292.6743530379762
 30
0.0
 10
1009.158116043419
 20
293.1229623044816
 30
0.0
 10
1009.508772546187
 20
293.6481967454875
 30
0.0
 10
1009.688269798077
 20
294.2959958189957
 30
0.0
 10
1009.549268606182
 20
295.0065051845981
 30
0.0
 10
1009.31205804246
 20
295.78889232271
 30
0.0
 10
1008.913934714355
 20
296.4342585886862
 30
0.0
 10
1008.4887694047
 20
297.0551089966432
 30
0.0
 10
1008.135094145419
 20
297.5545193022654
 30
0.0
 10
1007.84692006062
 20
297.9615927301153
 30
0.0
 10
1007.699643426274
 20
298.2362838887018
 30
0.0
 10
1007.592136885949
 20
298.4140250413776
 30
0.0
 10
1007.522799709173
 20
298.5410793931928
 30
0.0
 10
1007.494191476689
 20
298.5935014934839
 30
0.0
 11
1007.494191476689
 21
298.5935014934839
 31
0.0
 11
1007.302105257491
 21
298.2345913562282
 31
0.0
 11
1006.881335268001
 21
297.561952530946
 31
0.0
 11
1006.499810889907
 21
296.9846183251156
 31
0.0
 11
1006.123922127282
 21
296.4240859707137
 31
0.0
 11
1005.786532087281
 21
295.8497873935007
 31
0.0
 11
1005.517244725918
 21
295.2051751859325
 31
0.0
 11
1005.393804377222
 21
294.6502552146801
 31
0.0
 11
1005.381378863567
 21
294.2901096471749
 31
0.0
 11
1005.416754233025
 21
293.8657923025733
 31
0.0
 11
1005.652838992354
 21
293.322485375687
 31
0.0
 11
1005.932107504033
 21
292.9765649050797
 31
0.0
 11
1006.451195219025
 21
292.5668256374636
 31
0.0
 11
1007.037163430985
 21
292.3208691232627
 31
0.0
 11
1007.564127427836
 21
292.2638628416287
 31
0.0
 11
1008.146157498851
 21
292.3868763967242
 31
0.0
 11
1008.680997777592
 21
292.6894156164747
 31
0.0
 11
1009.142778752043
 21
293.1383356721043
 31
0.0
 11
1009.485193316684
 21
293.6766302819606
 31
0.0
 11
1009.634231581483
 21
294.2539644877991
 31
0.0
 11
1009.543790137882
 21
294.9741850267937
 31
0.0
 11
1009.292088612778
 21
295.7424108555823
 31
0.0
 11
1008.839745596781
 21
296.5370395937683
 31
0.0
 11
1008.540854279404
 21
296.9770998495827
 31
0.0
 11
1008.072622901693
 21
297.6427849674438
 31
0.0
 11
1007.801230671883
 21
298.0513946988434
 31
0.0
 11
1007.708874337406
 21
298.2161300261772
 31
0.0
 11
1007.580966375303
 21
298.4367783414957
 31
0.0
 11
1007.494191476689
 21
298.5935014934839
 31
0.0
  0
SPLINE
  5
44C
330
1F
100
AcDbEntity
  8
0
  6
ByBlock
370
    40
100
AcDbSpline
210
0.0
220
0.0
230
1.0
 70
  1065
 71
     3
 72
    35
 73
    31
 74
    29
 42
0.000000001
 43
0.0000000001
 44
0.00001
 40
0.0
 40
0.0
 40
0.0
 40
0.0
 40
0.4070793561831776
 40
1.200483649939127
 40
1.892492057615007
 40
2.567391222082421
 40
3.233462460669865
 40
3.932061473800769
 40
4.500545153584911
 40
4.860905005931138
 40
5.286694420659601
 40
5.879078105769565
 40
6.323658664949688
 40
6.984974265303268
 40
7.620468838288004
 40
8.150507299293744
 40
8.745394967946612
 40
9.35987369275341
 40
10.0039007765867
 40
10.64187320630948
 40
11.23813421425996
 40
11.96401111808756
 40
12.77241979058111
 40
13.68677696131
 40
14.2187441109953
 40
15.03260976282919
 40
15.523135659179
 40
15.7119938615157
 40
15.9670352813328
 40
16.14617776483877
 40
16.14617776483877
 40
16.14617776483877
 40
16.14617776483877
 10
1014.178574627793
 20
298.5935014934839
 30
0.0
 10
1014.115904521103
 20
298.4730843500417
 30
0.0
 10
1013.931089356003
 20
298.1179722332539
 30
0.0
 10
1013.583859193521
 20
297.5902575473227
 30
0.0
 10
1013.18985087278
 20
296.9877035485077
 30
0.0
 10
1012.804347775516
 20
296.4304541948668
 30
0.0
 10
1012.451409492368
 20
295.8476897085219
 30
0.0
 10
1012.199403641209
 20
295.2525383953516
 30
0.0
 10
1012.068316654422
 20
294.7206386273941
 30
0.0
 10
1012.062903621274
 20
294.2687056615847
 30
0.0
 10
1012.079067704412
 20
293.8052553569032
 30
0.0
 10
1012.293566992282
 20
293.3506999382229
 30
0.0
 10
1012.65291482461
 20
292.9118589698315
 30
0.0
 10
1013.113322476972
 20
292.5466542263837
 30
0.0
 10
1013.679904083923
 20
292.3021306867063
 30
0.0
 10
1014.271285031846
 20
292.2334160794953
 30
0.0
 10
1014.848714021834
 20
292.3599482192208
 30
0.0
 10
1015.390071405564
 20
292.6743530379797
 30
0.0
 10
1015.842499194511
 20
293.1229623044846
 30
0.0
 10
1016.193155697297
 20
293.6481967454826
 30
0.0
 10
1016.372652949165
 20
294.295995818998
 30
0.0
 10
1016.23365175728
 20
295.0065051845998
 30
0.0
 10
1015.996441193539
 20
295.7888923227057
 30
0.0
 10
1015.598317865445
 20
296.4342585886827
 30
0.0
 10
1015.173152555809
 20
297.0551089966536
 30
0.0
 10
1014.819477296497
 20
297.5545193022541
 30
0.0
 10
1014.531303211714
 20
297.9615927301177
 30
0.0
 10
1014.384026577368
 20
298.2362838887019
 30
0.0
 10
1014.27652003704
 20
298.4140250413744
 30
0.0
 10
1014.207182860273
 20
298.5410793931925
 30
0.0
 10
1014.178574627793
 20
298.5935014934839
 30
0.0
 11
1014.178574627793
 21
298.5935014934839
 31
0.0
 11
1013.986488408596
 21
298.2345913562282
 31
0.0
 11
1013.565718419085
 21
297.561952530946
 31
0.0
 11
1013.184194041001
 21
296.9846183251156
 31
0.0
 11
1012.808305278376
 21
296.4240859707137
 31
0.0
 11
1012.470915238386
 21
295.8497873935007
 31
0.0
 11
1012.201627877001
 21
295.2051751859325
 31
0.0
 11
1012.078187528305
 21
294.6502552146801
 31
0.0
 11
1012.065762014661
 21
294.2901096471749
 31
0.0
 11
1012.10113738413
 21
293.8657923025733
 31
0.0
 11
1012.337222143447
 21
293.322485375687
 31
0.0
 11
1012.616490655127
 21
292.9765649050797
 31
0.0
 11
1013.135578370108
 21
292.5668256374636
 31
0.0
 11
1013.721546582058
 21
292.3208691232627
 31
0.0
 11
1014.24851057893
 21
292.2638628416287
 31
0.0
 11
1014.830540649955
 21
292.3868763967242
 31
0.0
 11
1015.365380928686
 21
292.6894156164747
 31
0.0
 11
1015.827161903136
 21
293.1383356721043
 31
0.0
 11
1016.169576467789
 21
293.6766302819606
 31
0.0
 11
1016.318614732577
 21
294.2539644877991
 31
0.0
 11
1016.228173288976
 21
294.9741850267937
 31
0.0
 11
1015.976471763862
 21
295.7424108555823
 31
0.0
 11
1015.524128747875
 21
296.5370395937683
 31
0.0
 11
1015.225237430509
 21
296.9770998495827
 31
0.0
 11
1014.757006052776
 21
297.6427849674438
 31
0.0
 11
1014.485613822977
 21
298.0513946988434
 31
0.0
 11
1014.3932574885
 21
298.2161300261772
 31
0.0
 11
1014.265349526397
 21
298.4367783414957
 31
0.0
 11
1014.178574627793
 21
298.5935014934839
 31
0.0
  0
LINE
  5
44D
330
1F
100
AcDbEntity
  8
0
  6
ByBlock
370
    40
100
AcDbLine
 10
1014.382950562661
 20
285.6570642372006
 30
0.0
 11
1014.382950562661
 21
282.6739590523544
 31
0.0
  0
LINE
  5
44E
330
1F
100
AcDbEntity
  8
0
  6
ByBlock
370
    40
100
AcDbLine
 10
1014.382950562661
 20
280.9431212690956
 30
0.0
 11
1014.382950562661
 21
279.2840443344847
 31
0.0
  0
LINE
  5
44F
330
1F
100
AcDbEntity
  8
0
  6
ByBlock
370
    40
100
AcDbLine
 10
1014.382950562661
 20
277.5418758909128
 30
0.0
 11
1014.382950562661
 21
274.3522067679168
 31
0.0
  0
LINE
  5
450
330
1F
100
AcDbEntity
  8
0
  6
ByBlock
370
    40
100
AcDbLine
 10
1017.580109913331
 20
273.2259179540508
 30
0.0
 11
1017.580109913331
 21
278.0642510995282
 31
0.0
  0
LINE
  5
451
330
1F
100
AcDbEntity
  8
0
  6
ByBlock
370
    40
100
AcDbLine
 10
1017.580109913331
 20
279.7847112686702
 30
0.0
 11
1017.580109913331
 21
281.4613313128673
 31
0.0
  0
LINE
  5
452
330
1F
100
AcDbEntity
  8
0
  6
ByBlock
370
    40
100
AcDbLine
 10
1017.580109913331
 20
283.1857095608075
 30
0.0
 11
1017.580109913331
 21
285.0915548637765
 31
0.0
  0
LINE
  5
453
330
1F
100
AcDbEntity
  8
0
  6
ByBlock
370
    40
100
AcDbLine
 10
1014.382950562661
 20
282.6739590523544
 30
0.0
 11
1017.580109913331
 21
283.1857095608075
 31
0.0
  0
LINE
  5
454
330
1F
100
AcDbEntity
  8
0
  6
ByBlock
370
    40
100
AcDbLine
 10
1017.580109913331
 20
281.4613313128673
 30
0.0
 11
1014.382950562661
 21
280.9431212690983
 31
0.0
  0
LINE
  5
455
330
1F
100
AcDbEntity
  8
0
  6
ByBlock
370
    40
100
AcDbLine
 10
1014.382950562661
 20
279.2840443344847
 30
0.0
 11
1017.580109913331
 21
279.7847112686729
 31
0.0
  0
LINE
  5
456
330
1F
100
AcDbEntity
  8
0
  6
ByBlock
370
    40
100
AcDbLine
 10
1014.382950562661
 20
277.5418758909142
 30
0.0
 11
1017.580109913331
 21
278.0642510995282
 31
0.0
  0
SPLINE
  5
457
330
1F
100
AcDbEntity
  8
0
  6
ByBlock
370
    40
100
AcDbSpline
210
0.0
220
0.0
230
1.0
 70
  1064
 71
     3
 72
    57
 73
    53
 74
    51
 42
0.000000001
 43
0.0000000001
 44
0.00001
 40
0.0
 40
0.0
 40
0.0
 40
0.0
 40
0.4158613599356711
 40
0.9648764066778428
 40
1.727440831984258
 40
2.265192598256884
 40
2.957789622548829
 40
3.551445308299483
 40
4.108225291134455
 40
4.804821202726525
 40
5.480584965702165
 40
6.128272094692059
 40
6.942075428248243
 40
7.508108285389285
 40
8.035419862081164
 40
8.637057169829885
 40
9.185735318618837
 40
9.645623278110772
 40
10.31246722860565
 40
10.817201498729
 40
11.3262221309953
 40
11.91619409685737
 40
12.37640011870663
 40
12.90701294412298
 40
13.48682432048553
 40
14.03218895335425
 40
14.45959129392555
 40
14.88775501605366
 40
15.4295414655654
 40
15.97442138135026
 40
16.19132815635315
 40
16.48586544286693
 40
16.87425067840495
 40
17.45230193826762
 40
17.99476474495986
 40
18.79715965726351
 40
19.59166378634795
 40
20.35753744607392
 40
21.1981018926902
 40
22.07138079224616
 40
23.06408843530189
 40
24.07863157015754
 40
25.24365983946218
 40
26.45867350580682
 40
27.65214272407454
 40
29.15241335185204
 40
30.70888670242608
 40
32.16150895895256
 40
32.82316149163771
 40
33.68883608584223
 40
34.80183087766905
 40
35.53703937954038
 40
35.53703937954038
 40
35.53703937954038
 40
35.53703937954038
 10
1014.382950562672
 20
285.6570642372032
 30
0.0
 10
1014.37090301579
 20
285.7954356300084
 30
0.0
 10
1014.34295044586
 20
286.1164832317802
 30
0.0
 10
1014.188399301139
 20
286.6727990889434
 30
0.0
 10
1013.956784367661
 20
287.2519980569167
 30
0.0
 10
1013.535061468676
 20
287.7719471064826
 30
0.0
 10
1013.082121107886
 20
288.1813814966534
 30
0.0
 10
1012.54431099057
 20
288.4927536291591
 30
0.0
 10
1011.945778587491
 20
288.6511059869791
 30
0.0
 10
1011.30623906464
 20
288.742646534682
 30
0.0
 10
1010.632212134835
 20
288.7053648238132
 30
0.0
 10
1009.919898795459
 20
288.6682551280327
 30
0.0
 10
1009.261123366307
 20
288.4823564089766
 30
0.0
 10
1008.697227483387
 20
288.1820305144602
 30
0.0
 10
1008.252456773787
 20
287.8293476724945
 30
0.0
 10
1007.881709172174
 20
287.4046891670425
 30
0.0
 10
1007.618318643746
 20
286.9348179519292
 30
0.0
 10
1007.38381748835
 20
286.4274923772835
 30
0.0
 10
1007.211497801608
 20
285.9108379559324
 30
0.0
 10
1006.955707415765
 20
285.4090896730484
 30
0.0
 10
1006.637545155952
 20
284.979605548107
 30
0.0
 10
1006.2864362329
 20
284.5868784631138
 30
0.0
 10
1005.814495018682
 20
284.3361181912839
 30
0.0
 10
1005.301979197379
 20
284.2058299548081
 30
0.0
 10
1004.744355001826
 20
284.216038979566
 30
0.0
 10
1004.236233270515
 20
284.3363126868821
 30
0.0
 10
1003.816946615561
 20
284.5504969305477
 30
0.0
 10
1003.46326681406
 20
284.8649904247066
 30
0.0
 10
1003.219137373525
 20
285.3140195269972
 30
0.0
 10
1003.09380109961
 20
285.7402038179671
 30
0.0
 10
1003.11099758594
 20
286.093102146755
 30
0.0
 10
1003.094594415008
 20
286.393268147161
 30
0.0
 10
1003.148457276738
 20
286.8107833038051
 30
0.0
 10
1003.269528709119
 20
287.3080048423135
 30
0.0
 10
1003.654893317764
 20
287.8313225766363
 30
0.0
 10
1004.14701588596
 20
288.3479363453295
 30
0.0
 10
1004.78112286832
 20
288.8219053247176
 30
0.0
 10
1005.481190937411
 20
289.2125433607217
 30
0.0
 10
1006.239613899959
 20
289.5435560887707
 30
0.0
 10
1007.090808625098
 20
289.8454270583364
 30
0.0
 10
1008.02499974186
 20
290.0749412842964
 30
0.0
 10
1009.069900111854
 20
290.2394128452743
 30
0.0
 10
1010.196496419069
 20
290.361653512296
 30
0.0
 10
1011.389035147041
 20
290.3538628292412
 30
0.0
 10
1012.691623826841
 20
290.2987539529075
 30
0.0
 10
1014.08957967779
 20
289.9904050861801
 30
0.0
 10
1015.43512042552
 20
289.2892943594333
 30
0.0
 10
1016.369604990527
 20
288.4663160060883
 30
0.0
 10
1016.908346058583
 20
287.6267629255437
 30
0.0
 10
1017.287997002043
 20
286.8320418199922
 30
0.0
 10
1017.552171639312
 20
285.9543966449276
 30
0.0
 10
1017.572159010343
 20
285.3371094495244
 30
0.0
 10
1017.580109913342
 20
285.0915548637793
 30
0.0
 11
1014.382950562672
 21
285.6570642372032
 31
0.0
 11
1014.335964467349
 21
286.0702627095309
 31
0.0
 11
1014.199283817208
 21
286.6019918900601
 31
0.0
 11
1013.890003955625
 21
287.2990216383221
 31
0.0
 11
1013.559200116859
 21
287.7229860028468
 31
0.0
 11
1013.041334583536
 21
288.1828837387127
 31
0.0
 11
1012.523672747164
 21
288.4734922320292
 31
0.0
 11
1011.98923986229
 21
288.6296506158949
 31
0.0
 11
1011.298571420587
 21
288.7203311964027
 31
0.0
 11
1010.622976552805
 21
288.7052236493214
 31
0.0
 11
1009.977664630865
 21
288.6498057780073
 31
0.0
 11
1009.194653574043
 21
288.4280636967483
 31
0.0
 11
1008.695528159684
 21
288.1611048682675
 31
0.0
 11
1008.282159159176
 21
287.8337158514504
 31
0.0
 11
1007.888073469462
 21
287.3791128166624
 31
0.0
 11
1007.610841927243
 21
286.9056253480247
 31
0.0
 11
1007.419231000944
 21
286.4875557506985
 31
0.0
 11
1007.176695838344
 21
285.866381419923
 31
0.0
 11
1006.944752916901
 21
285.4180967284273
 31
0.0
 11
1006.647287478133
 21
285.0050394481242
 31
0.0
 11
1006.232899992906
 21
284.5850990564131
 31
0.0
 11
1005.82958004168
 21
284.3634628691843
 31
0.0
 11
1005.315381053387
 21
284.2325072624512
 31
0.0
 11
1004.735591648739
 21
284.2375548774851
 31
0.0
 11
1004.206183288539
 21
284.3685104842155
 31
0.0
 11
1003.827035374818
 21
284.5657910464776
 31
0.0
 11
1003.509403938478
 21
284.8529050370723
 31
0.0
 11
1003.237196920888
 21
285.3213448906816
 31
0.0
 11
1003.106083987273
 21
285.8502149326245
 31
0.0
 11
1003.106559280139
 21
286.0671211868885
 31
0.0
 11
1003.104047017802
 21
286.3616477590086
 31
0.0
 11
1003.146212285456
 21
286.7477373618052
 31
0.0
 11
1003.308219255741
 21
287.3026220350553
 31
0.0
 11
1003.609283340531
 21
287.7538717591487
 31
0.0
 11
1004.164289616855
 21
288.3333591434214
 31
0.0
 11
1004.798194509859
 21
288.8123178031799
 31
0.0
 11
1005.464623015136
 21
289.1897240962071
 31
0.0
 11
1006.233171588833
 21
289.5301380776828
 31
0.0
 11
1007.057261529549
 21
289.8190875646534
 31
0.0
 11
1008.02040858479
 21
290.0595375897336
 31
0.0
 11
1009.021511170759
 21
290.2241321973276
 31
0.0
 11
1010.180954182027
 21
290.3380741645823
 31
0.0
 11
1011.395938560335
 21
290.3465103882984
 31
0.0
 11
1012.587090396042
 21
290.2721727851281
 31
0.0
 11
1014.048615976861
 21
289.9334178099861
 31
0.0
 11
1015.430835547035
 21
289.2178213099422
 31
0.0
 11
1016.497324852398
 21
288.2315596906433
 31
0.0
 11
1016.860856000333
 21
287.6787223018119
 31
0.0
 11
1017.234843591483
 21
286.8980009784723
 31
0.0
 11
1017.530951050596
 21
285.825118049495
 31
0.0
 11
1017.580109913342
 21
285.0915548637793
 31
0.0
  0
SPLINE
  5
458
330
1F
100
AcDbEntity
  8
0
  6
ByBlock
370
    40
100
AcDbSpline
210
0.0
220
0.0
230
1.0
 70
  1064
 71
     3
 72
    27
 73
    23
 74
    21
 42
0.000000001
 43
0.0000000001
 44
0.00001
 40
0.0
 40
0.0
 40
0.0
 40
0.0
 40
0.770931580933906
 40
1.559921413662384
 40
2.48537169179608
 40
3.237136492126586
 40
4.01049821730649
 40
4.888638810540939
 40
5.508127233969492
 40
6.046733363462895
 40
6.691845478271868
 40
7.306000008813301
 40
7.743627398819456
 40
8.178751819824945
 40
8.672999071917118
 40
9.166422221000912
 40
9.620069927728884
 40
10.07433262646399
 40
10.48699915064743
 40
10.98370492636598
 40
11.47378743817544
 40
11.71975971082326
 40
11.71975971082326
 40
11.71975971082326
 40
11.71975971082326
 10
1014.382950562672
 20
274.352206767918
 30
0.0
 10
1014.190473637746
 20
274.1817733677419
 30
0.0
 10
1013.801011220778
 20
273.8369143463799
 30
0.0
 10
1013.12524480122
 20
273.3542921327845
 30
0.0
 10
1012.400151563136
 20
272.9620427428122
 30
0.0
 10
1011.64422447353
 20
272.6504129324224
 30
0.0
 10
1010.879194439474
 20
272.4076102593175
 30
0.0
 10
1010.130831842419
 20
272.2775423245143
 30
0.0
 10
1009.454054377024
 20
272.22546113462
 30
0.0
 10
1008.852336475173
 20
272.2059928179115
 30
0.0
 10
1008.254956300299
 20
272.2658511260066
 30
0.0
 10
1007.698495397695
 20
272.3897133612608
 30
0.0
 10
1007.252174730901
 20
272.6120831382116
 30
0.0
 10
1006.876712015833
 20
272.8726941266592
 30
0.0
 10
1006.533311387608
 20
273.2026706612814
 30
0.0
 10
1006.239467318549
 20
273.5859379263992
 30
0.0
 10
1006.034353637168
 20
274.0095455816872
 30
0.0
 10
1005.928015418387
 20
274.4393683095371
 30
0.0
 10
1005.879901872615
 20
274.8915246362464
 30
0.0
 10
1005.874772089458
 20
275.3609544143089
 30
0.0
 10
1005.965258918535
 20
275.7640305100446
 30
0.0
 10
1006.028301643112
 20
276.0009968206648
 30
0.0
 10
1006.049369045384
 20
276.0801854125944
 30
0.0
 11
1014.382950562672
 21
274.352206767918
 31
0.0
 11
1013.797050249699
 21
273.8511515556518
 31
0.0
 11
1013.154318489061
 21
273.3935481902622
 31
0.0
 11
1012.341703476235
 21
272.9506993918796
 31
0.0
 11
1011.647232691549
 21
272.6628441431288
 31
0.0
 11
1010.908491770817
 21
272.4340424604238
 31
0.0
 11
1010.044137733944
 21
272.279048910792
 31
0.0
 11
1009.42673229345
 21
272.2282903764351
 31
0.0
 11
1008.888225469699
 21
272.2179480603249
 31
0.0
 11
1008.246104799901
 21
272.2800019569898
 31
0.0
 11
1007.650562831515
 21
272.430053785618
 31
0.0
 11
1007.257020333665
 21
272.6214748786828
 31
0.0
 11
1006.89973589203
 21
272.8698316573713
 31
0.0
 11
1006.542383551429
 21
273.2112692810564
 31
0.0
 11
1006.24614029433
 21
273.6058657035887
 31
0.0
 11
1006.049369045384
 21
274.0146166270222
 31
0.0
 11
1005.935434554128
 21
274.4543592007676
 31
0.0
 11
1005.888787953708
 21
274.8643808524531
 31
0.0
 11
1005.89401617531
 21
275.3610591118234
 31
0.0
 11
1005.987173578175
 21
275.8422062480227
 31
0.0
 11
1006.049369045384
 21
276.0801854125944
 31
0.0
  0
LINE
  5
459
330
1F
100
AcDbEntity
  8
0
  6
ByBlock
370
    40
100
AcDbLine
 10
1006.049369045384
 20
276.0801854125904
 30
0.0
 11
1002.436192633928
 21
275.4835431968245
 31
0.0
  0
SPLINE
  5
45A
330
1F
100
AcDbEntity
  8
0
  6
ByBlock
370
    40
100
AcDbSpline
210
0.0
220
0.0
230
1.0
 70
  1064
 71
     3
 72
    22
 73
    18
 74
    16
 42
0.000000001
 43
0.0000000001
 44
0.00001
 40
0.0
 40
0.0
 40
0.0
 40
0.0
 40
0.7415927503134575
 40
1.630531022340334
 40
2.574561889116433
 40
3.794108731983173
 40
5.136087092173125
 40
6.528627018037136
 40
7.770604261651691
 40
8.771152889308241
 40
9.654488375826879
 40
10.73859388174418
 40
11.77640103882586
 40
12.79305053595594
 40
13.56523829052061
 40
14.85260810947623
 40
15.94334062038527
 40
15.94334062038527
 40
15.94334062038527
 40
15.94334062038527
 10
1002.436192633949
 20
275.4835431968258
 30
0.0
 10
1002.420573071728
 20
275.2363396392395
 30
0.0
 10
1002.386230528942
 20
274.6928161631712
 30
0.0
 10
1002.502582894695
 20
273.8378378283146
 30
0.0
 10
1002.767404312364
 20
272.8500961379404
 30
0.0
 10
1003.380117933469
 20
271.8309367131756
 30
0.0
 10
1004.364958443848
 20
270.9353973661561
 30
0.0
 10
1005.54236128755
 20
270.2870168382237
 30
0.0
 10
1006.740231674912
 20
270.0396690991019
 30
0.0
 10
1007.780615766632
 20
269.969335406711
 30
0.0
 10
1008.769990814154
 20
269.9826722285519
 30
0.0
 10
1009.772818960603
 20
270.0524516193362
 30
0.0
 10
1010.789500356338
 20
270.3164452662716
 30
0.0
 10
1011.676782910928
 20
270.6351949909703
 30
0.0
 10
1012.613351355532
 20
271.0549564035301
 30
0.0
 10
1013.517273520483
 20
271.5986615284095
 30
0.0
 10
1014.137887104971
 20
272.0924543051108
 30
0.0
 10
1014.422535669002
 20
272.3189356589351
 30
0.0
 11
1002.436192633949
 21
275.4835431968258
 31
0.0
 11
1002.411681101574
 21
274.7423556415484
 31
0.0
 11
1002.518010906866
 21
273.8597995674202
 31
0.0
 11
1002.779761481273
 21
272.9527819743033
 31
0.0
 11
1003.401851951473
 21
271.9038310942176
 31
0.0
 11
1004.383331731766
 21
270.9886243634219
 31
0.0
 11
1005.611556411477
 21
270.3323991114888
 31
0.0
 11
1006.822059456987
 21
270.0545684967832
 31
0.0
 11
1007.81990289187
 21
269.9810427477821
 31
0.0
 11
1008.703200744603
 21
269.9891965874422
 31
0.0
 11
1009.782862452392
 21
270.0872544514517
 31
0.0
 11
1010.791094431459
 21
270.3332462636645
 31
0.0
 11
1011.748062679367
 21
270.6764487877113
 31
0.0
 11
1012.45142823063
 21
270.9951191967467
 31
0.0
 11
1013.555601470827
 21
271.6570274278423
 31
0.0
 11
1014.422535669002
 21
272.3189356589351
 31
0.0
  0
SPLINE
  5
45B
330
1F
100
AcDbEntity
  8
0
  6
ByBlock
370
    40
100
AcDbSpline
210
0.0
220
0.0
230
1.0
 70
  1064
 71
     3
 72
    19
 73
    15
 74
    13
 42
0.000000001
 43
0.0000000001
 44
0.00001
 40
0.0
 40
0.0
 40
0.0
 40
0.0
 40
0.2507975855838191
 40
0.972162580288781
 40
1.712096925994335
 40
2.364657031529392
 40
3.216852629282207
 40
4.040399051868322
 40
4.984539056630996
 40
5.748796678911748
 40
6.582734838258109
 40
7.319767182484001
 40
8.032721551872787
 40
8.510794747148949
 40
8.510794747148949
 40
8.510794747148949
 40
8.510794747148949
 10
1014.422535669002
 20
272.3189356589351
 30
0.0
 10
1014.438560119139
 20
272.236877914921
 30
0.0
 10
1014.500675433193
 20
271.9187988234987
 30
0.0
 10
1014.626215628979
 20
271.3624893888644
 30
0.0
 10
1014.952234510238
 20
270.7140619669615
 30
0.0
 10
1015.56173679857
 20
270.2553776303385
 30
0.0
 10
1016.301461454831
 20
269.9664399740234
 30
0.0
 10
1017.182494712513
 20
269.9858086400039
 30
0.0
 10
1018.03182850291
 20
270.0378924211789
 30
0.0
 10
1018.822288190719
 20
270.3728712754956
 30
0.0
 10
1019.473979362249
 20
270.8065316259125
 30
0.0
 10
1020.01475799169
 20
271.345740058985
 30
0.0
 10
1020.448255051177
 20
271.8201512989785
 30
0.0
 10
1020.698583931887
 20
272.1284158159666
 30
0.0
 10
1020.799064837133
 20
272.2521518293041
 30
0.0
 11
1014.422535669002
 21
272.3189356589351
 31
0.0
 11
1014.471219238871
 21
272.0729085487226
 31
0.0
 11
1014.653663802655
 21
271.3749963502826
 31
0.0
 11
1015.011830931068
 21
270.7275250041373
 31
0.0
 11
1015.52059800083
 21
270.3188799747272
 31
0.0
 11
1016.318614732587
 21
270.0198705557052
 31
0.0
 11
1017.14161828963
 21
269.9899731436076
 31
0.0
 11
1018.079371125686
 21
270.0996087539782
 31
0.0
 11
1018.788983383282
 21
270.3834047318994
 31
0.0
 11
1019.482299885285
 21
270.8468322684828
 31
0.0
 11
1020.015985881345
 21
271.3551588702311
 31
0.0
 11
1020.494809500212
 21
271.8833935480453
 31
0.0
 11
1020.799064837133
 21
272.2521518293041
 31
0.0
  0
LINE
  5
45C
330
1F
100
AcDbEntity
  8
0
  6
ByBlock
370
    40
100
AcDbLine
 10
1020.799064837122
 20
272.2521518293028
 30
0.0
 11
1020.021757294768
 21
273.1268364478212
 31
0.0
  0
SPLINE
  5
45D
330
1F
100
AcDbEntity
  8
0
  6
ByBlock
370
    40
100
AcDbSpline
210
0.0
220
0.0
230
1.0
 70
  1064
 71
     3
 72
    19
 73
    15
 74
    13
 42
0.000000001
 43
0.0000000001
 44
0.00001
 40
0.0
 40
0.0
 40
0.0
 40
0.0
 40
0.2928331051948194
 40
0.6780737066830991
 40
1.138524496099356
 40
1.561459501548021
 40
1.886577211200274
 40
2.109996625491062
 40
2.352487566739189
 40
2.509535280380636
 40
2.760006285023167
 40
3.006794218657325
 40
3.325797116056641
 40
3.582023480671742
 40
3.582023480671742
 40
3.582023480671742
 40
3.582023480671742
 10
1020.021757294778
 20
273.1268364478239
 30
0.0
 10
1019.945656785894
 20
273.0656688451007
 30
0.0
 10
1019.769441210455
 20
272.9240313650085
 30
0.0
 10
1019.471957765625
 20
272.6892879479438
 30
0.0
 10
1019.140918378264
 20
272.4219848457227
 30
0.0
 10
1018.77734740394
 20
272.2479607191457
 30
0.0
 10
1018.47150746273
 20
272.1262506541018
 30
0.0
 10
1018.208607023228
 20
272.117965639403
 30
0.0
 10
1017.994574303875
 20
272.0871943201919
 30
0.0
 10
1017.798002127169
 20
272.2070628136687
 30
0.0
 10
1017.711588662901
 20
272.4171953611241
 30
0.0
 10
1017.640588802136
 20
272.6774612558906
 30
0.0
 10
1017.593339112385
 20
272.9490558661748
 30
0.0
 10
1017.584186702853
 20
273.1405984685574
 30
0.0
 10
1017.580109913342
 20
273.2259179540536
 30
0.0
 11
1020.021757294778
 21
273.1268364478239
 31
0.0
 11
1019.793277221404
 21
272.9436750884469
 31
0.0
 11
1019.491669944751
 21
272.7040016195251
 31
0.0
 11
1019.121552595592
 21
272.4300890836205
 31
0.0
 11
1018.744577449272
 21
272.2383503084841
 31
0.0
 11
1018.436112375469
 21
272.1356331075241
 31
0.0
 11
1018.213743210441
 21
272.1139954291114
 31
0.0
 11
1017.97127594684
 21
272.1173840377992
 31
0.0
 11
1017.83656436716
 21
272.1981105802761
 31
0.0
 11
1017.716790563472
 21
272.4180877611764
 31
0.0
 11
1017.650045864478
 21
272.6556786476674
 31
0.0
 11
1017.597084658761
 21
272.9702544878684
 31
0.0
 11
1017.580109913342
 21
273.2259179540536
 31
0.0
  0
LINE
  5
45E
330
1F
100
AcDbEntity
  8
0
  6
ByBlock
370
    40
100
AcDbLine
 10
1013.214137491928
 20
280.7321097820207
 30
0.0
 11
1004.983422931896
 21
279.3197306197709
 31
0.0
  0
LINE
  5
45F
330
1F
100
AcDbEntity
  8
0
  6
ByBlock
370
    40
100
AcDbLine
 10
1003.126453681752
 20
277.3352766547553
 30
0.0
 11
1007.437767422914
 21
278.0684868603941
 31
0.0
  0
SPLINE
  5
460
330
1F
100
AcDbEntity
  8
0
  6
ByBlock
370
    40
100
AcDbSpline
210
0.0
220
0.0
230
1.0
 70
  1064
 71
     3
 72
    13
 73
     9
 74
     7
 42
0.000000001
 43
0.0000000001
 44
0.00001
 40
0.0
 40
0.0
 40
0.0
 40
0.0
 40
0.4304221307414425
 40
1.045523300501662
 40
1.659212858176642
 40
2.034877512697153
 40
2.404028123269878
 40
2.736819120380923
 40
2.736819120380923
 40
2.736819120380923
 40
2.736819120380923
 10
1004.983422931896
 20
279.3197306197749
 30
0.0
 10
1004.872557176616
 20
279.2286515344047
 30
0.0
 10
1004.603257059141
 20
279.0074145227789
 30
0.0
 10
1004.18377827251
 20
278.6470205091231
 30
0.0
 10
1003.800161671788
 20
278.2725314291304
 30
0.0
 10
1003.51192862966
 20
277.9233639309643
 30
0.0
 10
1003.289152477856
 20
277.6401295739534
 30
0.0
 10
1003.178780915224
 20
277.4333235380601
 30
0.0
 10
1003.126453681763
 20
277.3352766547579
 30
0.0
 11
1004.983422931896
 21
279.3197306197749
 31
0.0
 11
1004.651668507387
 21
279.0455004017998
 31
0.0
 11
1004.187646866548
 21
278.6417264974007
 31
0.0
 11
1003.753500777639
 21
278.2079845848719
 31
0.0
 11
1003.51157670589
 21
277.9205882102174
 31
0.0
 11
1003.291244510322
 21
277.6244026317661
 31
0.0
 11
1003.126453681763
 21
277.3352766547579
 31
0.0
  0
SPLINE
  5
461
330
1F
100
AcDbEntity
  8
0
  6
ByBlock
370
    40
100
AcDbSpline
210
0.0
220
0.0
230
1.0
 70
  1064
 71
     3
 72
    19
 73
    15
 74
    13
 42
0.000000001
 43
0.0000000001
 44
0.00001
 40
0.0
 40
0.0
 40
0.0
 40
0.0
 40
0.4257228058920481
 40
0.9925510402266739
 40
1.544728258319524
 40
2.001720156147008
 40
2.693625302300997
 40
3.319755655018183
 40
3.882313963642327
 40
4.527959660943941
 40
5.236671667816615
 40
5.706516843056156
 40
6.103390364956302
 40
6.425809953106682
 40
6.425809953106682
 40
6.425809953106682
 40
6.425809953106682
 10
1007.437767422924
 20
278.0684868603954
 30
0.0
 10
1007.543131090229
 20
278.1635876275518
 30
0.0
 10
1007.788781114465
 20
278.3853102227733
 30
0.0
 10
1008.202503757727
 20
278.6940488490213
 30
0.0
 10
1008.653803136697
 20
278.963262264589
 30
0.0
 10
1009.132539669491
 20
279.2675910116996
 30
0.0
 10
1009.662244632772
 20
279.5333640001942
 30
0.0
 10
1010.234824064513
 20
279.7887565458893
 30
0.0
 10
1010.805989795749
 20
280.0075964426778
 30
0.0
 10
1011.41014970714
 20
280.2162529513855
 30
0.0
 10
1011.995729879791
 20
280.3813061048135
 30
0.0
 10
1012.503994229601
 20
280.5126357120554
 30
0.0
 10
1012.888298458474
 20
280.6115022295236
 30
0.0
 10
1013.11328733704
 20
280.6947806437005
 30
0.0
 10
1013.214137491939
 20
280.7321097820247
 30
0.0
 11
1007.437767422924
 21
278.0684868603954
 31
0.0
 11
1007.757571626666
 21
278.3494942957525
 31
0.0
 11
1008.211747915162
 21
278.6886375489751
 31
0.0
 11
1008.679571899005
 21
278.9819639888373
 31
0.0
 11
1009.069515750812
 21
279.2202608354767
 31
0.0
 11
1009.684069434045
 21
279.5381546883566
 31
0.0
 11
1010.256457849668
 21
279.7919473601472
 31
0.0
 11
1010.781113281154
 21
279.9949461995879
 31
0.0
 11
1011.392068318377
 21
280.2037339121955
 31
0.0
 11
1012.073095104689
 21
280.3998849382221
 31
0.0
 11
1012.527678787075
 21
280.5186627324598
 31
0.0
 11
1012.910085851947
 21
280.6248391381312
 31
0.0
 11
1013.214137491939
 21
280.7321097820247
 31
0.0
  0
LINE
  5
462
330
1F
100
AcDbEntity
  8
0
  6
ByBlock
370
    40
100
AcDbLine
 10
1027.014877115591
 20
290.4596757993932
 30
0.0
 11
1027.014877115591
 21
284.3586270421894
 31
0.0
  0
LINE
  5
463
330
1F
100
AcDbEntity
  8
0
  6
ByBlock
370
    40
100
AcDbLine
 10
1027.014877115591
 20
282.651227135718
 30
0.0
 11
1027.014877115591
 21
280.9613350408168
 31
0.0
  0
LINE
  5
464
330
1F
100
AcDbEntity
  8
0
  6
ByBlock
370
    40
100
AcDbLine
 10
1027.014877115591
 20
279.2489581153287
 30
0.0
 11
1027.014877115591
 21
274.5489931580789
 31
0.0
  0
LINE
  5
465
330
1F
100
AcDbEntity
  8
0
  6
ByBlock
370
    40
100
AcDbLine
 10
1023.896955876568
 20
274.6609584369321
 30
0.0
 11
1023.896955876568
 21
278.9328997588193
 31
0.0
  0
LINE
  5
466
330
1F
100
AcDbEntity
  8
0
  6
ByBlock
370
    40
100
AcDbLine
 10
1023.896955876568
 20
280.6589723111015
 30
0.0
 11
1023.896955876568
 21
282.344063877025
 31
0.0
  0
LINE
  5
467
330
1F
100
AcDbEntity
  8
0
  6
ByBlock
370
    40
100
AcDbLine
 10
1023.896955876568
 20
284.0770195407127
 30
0.0
 11
1023.896955876568
 21
286.2027361305692
 31
0.0
  0
LINE
  5
468
330
1F
100
AcDbEntity
  8
0
  6
ByBlock
370
    40
100
AcDbLine
 10
1027.014877115591
 20
290.4596757993932
 30
0.0
 11
1021.084376358172
 21
288.8054699897728
 31
0.0
  0
LINE
  5
469
330
1F
100
AcDbEntity
  8
0
  6
ByBlock
370
    40
100
AcDbLine
 10
1021.084376358172
 20
288.8054699897728
 30
0.0
 11
1021.388563796116
 21
287.6079144993632
 31
0.0
  0
LINE
  5
46A
330
1F
100
AcDbEntity
  8
0
  6
ByBlock
370
    40
100
AcDbLine
 10
1021.388563796116
 20
287.6079144993632
 30
0.0
 11
1022.135724190593
 21
287.6079144993632
 31
0.0
  0
SPLINE
  5
46B
330
1F
100
AcDbEntity
  8
0
  6
ByBlock
370
    40
100
AcDbSpline
210
0.0
220
0.0
230
1.0
 70
  1064
 71
     3
 72
    14
 73
    10
 74
     8
 42
0.000000001
 43
0.0000000001
 44
0.00001
 40
0.0
 40
0.0
 40
0.0
 40
0.0
 40
0.4629777543077397
 40
1.027737148533354
 40
1.338313018635952
 40
1.631473578941913
 40
1.98387761571248
 40
2.287899203934087
 40
2.579465889906654
 40
2.579465889906654
 40
2.579465889906654
 40
2.579465889906654
 10
1022.135724190603
 20
287.607914499366
 30
0.0
 10
1022.289862053277
 20
287.5959907639876
 30
0.0
 10
1022.632023649575
 20
287.5695219635246
 30
0.0
 10
1023.066553896768
 20
287.46991414965
 30
0.0
 10
1023.43821423406
 20
287.3310503457457
 30
0.0
 10
1023.660109755304
 20
287.0896738035694
 30
0.0
 10
1023.801881820149
 20
286.8054287515658
 30
0.0
 10
1023.895730354976
 20
286.4998853462882
 30
0.0
 10
1023.896553104465
 20
286.3003952949296
 30
0.0
 10
1023.896955876568
 20
286.2027361305718
 30
0.0
 11
1022.135724190603
 21
287.607914499366
 31
0.0
 11
1022.596418781337
 21
287.5619917919891
 31
0.0
 11
1023.146672128947
 21
287.4348130720324
 31
0.0
 11
1023.430014579492
 21
287.3076343520786
 31
0.0
 11
1023.635341100114
 21
287.0983877653718
 31
0.0
 11
1023.79958873683
 21
286.7866004677391
 31
0.0
 11
1023.881814403648
 21
286.4939093919933
 31
0.0
 11
1023.896955876568
 21
286.2027361305718
 31
0.0
  0
LINE
  5
46C
330
1F
100
AcDbEntity
  8
0
  6
ByBlock
370
    40
100
AcDbLine
 10
1023.896955876568
 20
284.0770195407127
 30
0.0
 11
1027.014877115591
 21
284.3586270421907
 31
0.0
  0
LINE
  5
46D
330
1F
100
AcDbEntity
  8
0
  6
ByBlock
370
    40
100
AcDbLine
 10
1023.896955876568
 20
282.344063877025
 30
0.0
 11
1027.014877115591
 21
282.651227135718
 31
0.0
  0
LINE
  5
46E
330
1F
100
AcDbEntity
  8
0
  6
ByBlock
370
    40
100
AcDbLine
 10
1023.896955876568
 20
280.6589723111015
 30
0.0
 11
1027.014877115591
 21
280.9613350408168
 31
0.0
  0
LINE
  5
46F
330
1F
100
AcDbEntity
  8
0
  6
ByBlock
370
    40
100
AcDbLine
 10
1023.896955876568
 20
278.9328997588193
 30
0.0
 11
1027.014877115591
 21
279.248958115326
 31
0.0
  0
SPLINE
  5
470
330
1F
100
AcDbEntity
  8
0
  6
ByBlock
370
    40
100
AcDbSpline
210
0.0
220
0.0
230
1.0
 70
  1064
 71
     3
 72
    23
 73
    19
 74
    17
 42
0.000000001
 43
0.0000000001
 44
0.00001
 40
0.0
 40
0.0
 40
0.0
 40
0.0
 40
0.882110409665011
 40
2.029022230914201
 40
2.932365424399191
 40
3.553800141344212
 40
4.372999959483187
 40
5.591310824403378
 40
6.724312867622643
 40
7.369283655830601
 40
8.130234472927817
 40
9.025775199609494
 40
10.39628732718396
 40
11.67945963984327
 40
12.55984994108374
 40
13.34987313314647
 40
14.0786269579632
 40
14.65345992908233
 40
14.65345992908233
 40
14.65345992908233
 40
14.65345992908233
 10
1023.896955876568
 20
274.6609584369348
 30
0.0
 10
1023.936114459484
 20
274.3691633125181
 30
0.0
 10
1024.026186670849
 20
273.6979788577979
 30
0.0
 10
1024.337994464582
 20
272.7635631565274
 30
0.0
 10
1024.777325209886
 20
271.9801877987947
 30
0.0
 10
1025.301764043292
 20
271.3976509274133
 30
0.0
 10
1025.958628729567
 20
270.7983794266842
 30
0.0
 10
1026.898261716443
 20
270.2830377048538
 30
0.0
 10
1027.876539839343
 20
270.0358126054855
 30
0.0
 10
1028.721226857903
 20
269.9806323140766
 30
0.0
 10
1029.490911343686
 20
269.9570299582527
 30
0.0
 10
1030.487644331429
 20
270.141533751157
 30
0.0
 10
1031.629994558997
 20
270.4659879242416
 30
0.0
 10
1032.686659474561
 20
270.9949441355717
 30
0.0
 10
1033.553078917113
 20
271.4630528281424
 30
0.0
 10
1034.220529874286
 20
271.9043588314058
 30
0.0
 10
1034.800493490376
 20
272.2935546602016
 30
0.0
 10
1035.136477306375
 20
272.5694802780175
 30
0.0
 10
1035.284633590101
 20
272.6911531449041
 30
0.0
 11
1023.896955876568
 21
274.6609584369348
 31
0.0
 11
1024.038185758474
 21
273.7902271952211
 31
0.0
 11
1024.401173714577
 21
272.7022720171715
 31
0.0
 11
1024.855417902039
 21
271.9214447998098
 31
0.0
 11
1025.263762377917
 21
271.4530049462057
 31
0.0
 11
1025.876279091712
 21
270.9090273571817
 31
0.0
 11
1026.942564700114
 21
270.3196918288977
 31
0.0
 11
1028.040355436026
 21
270.039425651694
 31
0.0
 11
1028.683155095641
 21
269.9865492369026
 31
0.0
 11
1029.444098983405
 21
269.9833018202423
 31
0.0
 11
1030.328619017839
 21
270.1233643128292
 31
0.0
 11
1031.641921121585
 21
270.515207490804
 31
0.0
 11
1032.802790011505
 21
271.0619383243883
 31
0.0
 11
1033.572560766882
 21
271.4891854035882
 31
0.0
 11
1034.23708810064
 21
271.916432482788
 31
0.0
 11
1034.835278129306
 21
272.3326665837343
 31
0.0
 11
1035.284633590101
 21
272.6911531449041
 31
0.0
  0
LINE
  5
471
330
1F
100
AcDbEntity
  8
0
  6
ByBlock
370
    40
100
AcDbLine
 10
1035.284633590079
 20
272.6911531449013
 30
0.0
 11
1035.284633590079
 21
270.388275856894
 31
0.0
  0
LINE
  5
472
330
1F
100
AcDbEntity
  8
0
  6
ByBlock
370
    40
100
AcDbLine
 10
1035.284633590079
 20
274.6189185103509
 30
0.0
 11
1035.284633590079
 21
279.4206123243644
 31
0.0
  0
LINE
  5
473
330
1F
100
AcDbEntity
  8
0
  6
ByBlock
370
    40
100
AcDbLine
 10
1035.284633590079
 20
281.129953621231
 30
0.0
 11
1035.284633590079
 21
282.8307880983673
 31
0.0
  0
LINE
  5
474
330
1F
100
AcDbEntity
  8
0
  6
ByBlock
370
    40
100
AcDbLine
 10
1035.284633590079
 20
284.5263278744217
 30
0.0
 11
1035.284633590079
 21
286.5591754073177
 31
0.0
  0
SPLINE
  5
475
330
1F
100
AcDbEntity
  8
0
  6
ByBlock
370
    40
100
AcDbSpline
210
0.0
220
0.0
230
1.0
 70
  1064
 71
     3
 72
    20
 73
    16
 74
    14
 42
0.000000001
 43
0.0000000001
 44
0.00001
 40
0.0
 40
0.0
 40
0.0
 40
0.0
 40
0.3432688877368689
 40
0.933504526466849
 40
2.144482440061454
 40
2.976099304380486
 40
3.820613861021539
 40
4.420728418695478
 40
5.29358306582241
 40
6.153606626126159
 40
6.942477745641356
 40
7.979326296877188
 40
8.767272788138562
 40
9.497887286764001
 40
10.12875246034872
 40
10.12875246034872
 40
10.12875246034872
 40
10.12875246034872
 10
1027.014877115602
 20
274.5489931580817
 30
0.0
 10
1027.015883135933
 20
274.4341508761186
 30
0.0
 10
1027.018618963638
 20
274.121842380149
 30
0.0
 10
1027.222794718427
 20
273.4310920973342
 30
0.0
 10
1027.775944577292
 20
272.6627547630676
 30
0.0
 10
1028.72473715342
 20
272.3747849552908
 30
0.0
 10
1029.478030719141
 20
272.298724380963
 30
0.0
 10
1030.252641957034
 20
272.3027996637522
 30
0.0
 10
1031.024397406225
 20
272.4108843797755
 30
0.0
 10
1031.845441784276
 20
272.6032780886699
 30
0.0
 10
1032.674514786864
 20
272.9469782183129
 30
0.0
 10
1033.450414607242
 20
273.3465365427989
 30
0.0
 10
1034.162990283413
 20
273.8143357521571
 30
0.0
 10
1034.754804875191
 20
274.2183300478857
 30
0.0
 10
1035.1168662054
 20
274.4920743495928
 30
0.0
 10
1035.284633590101
 20
274.6189185103536
 30
0.0
 11
1027.014877115602
 21
274.5489931580817
 31
0.0
 11
1027.029543295646
 21
274.2060377200857
 31
0.0
 11
1027.185914650482
 21
273.6368926519233
 31
0.0
 11
1027.940747629889
 21
272.6899530126569
 31
0.0
 11
1028.721450121303
 21
272.4034390881792
 31
0.0
 11
1029.560545736998
 21
272.3079226806857
 31
0.0
 11
1030.160636937127
 21
272.3132173817662
 31
0.0
 11
1031.026348953644
 21
272.4246531905087
 31
0.0
 11
1031.861031135505
 21
272.6318877908059
 31
0.0
 11
1032.593932743828
 21
272.9237317143733
 31
0.0
 11
1033.513692349746
 21
273.4023726920601
 31
0.0
 11
1034.177540693699
 21
273.8268312286946
 31
0.0
 11
1034.778582479593
 21
274.242218177468
 31
0.0
 11
1035.284633590101
 21
274.6189185103536
 31
0.0
  0
LINE
  5
476
330
1F
100
AcDbEntity
  8
0
  6
ByBlock
370
    40
100
AcDbLine
 10
1038.410974302857
 20
290.4622172559147
 30
0.0
 11
1032.488010332383
 21
288.7992575405066
 31
0.0
  0
LINE
  5
477
330
1F
100
AcDbEntity
  8
0
  6
ByBlock
370
    40
100
AcDbLine
 10
1032.488010332383
 20
288.7992575405066
 30
0.0
 11
1032.813042757715
 21
287.6180803254343
 31
0.0
  0
LINE
  5
478
330
1F
100
AcDbEntity
  8
0
  6
ByBlock
370
    40
100
AcDbLine
 10
1032.813042757715
 20
287.6180803254343
 30
0.0
 11
1033.591097188873
 21
287.6063966850497
 31
0.0
  0
LINE
  5
479
330
1F
100
AcDbEntity
  8
0
  6
ByBlock
370
    40
100
AcDbLine
 10
1038.410974302857
 20
290.4622172559147
 30
0.0
 11
1038.410974302857
 21
284.3329300929472
 31
0.0
  0
LINE
  5
47A
330
1F
100
AcDbEntity
  8
0
  6
ByBlock
370
    40
100
AcDbLine
 10
1038.410974302857
 20
282.617694028874
 30
0.0
 11
1038.410974302857
 21
280.9247663053551
 31
0.0
  0
LINE
  5
47B
330
1F
100
AcDbEntity
  8
0
  6
ByBlock
370
    40
100
AcDbLine
 10
1038.410974302857
 20
279.2082242150073
 30
0.0
 11
1038.410974302857
 21
274.4398870178096
 31
0.0
  0
LINE
  5
47C
330
1F
100
AcDbEntity
  8
0
  6
ByBlock
370
    40
100
AcDbLine
 10
1041.170524716549
 20
270.8385725348004
 30
0.0
 11
1041.170524716549
 21
272.3360198944196
 31
0.0
  0
LINE
  5
47D
330
1F
100
AcDbEntity
  8
0
  6
ByBlock
370
    40
100
AcDbLine
 10
1035.284633590079
 20
284.5263278744217
 30
0.0
 11
1038.410974302857
 21
284.3329300929472
 31
0.0
  0
LINE
  5
47E
330
1F
100
AcDbEntity
  8
0
  6
ByBlock
370
    40
100
AcDbLine
 10
1035.284633590079
 20
282.8307880983673
 30
0.0
 11
1038.410974302857
 21
282.617694028874
 31
0.0
  0
LINE
  5
47F
330
1F
100
AcDbEntity
  8
0
  6
ByBlock
370
    40
100
AcDbLine
 10
1035.284633590079
 20
281.129953621231
 30
0.0
 11
1038.410974302857
 21
280.9247663053551
 31
0.0
  0
LINE
  5
480
330
1F
100
AcDbEntity
  8
0
  6
ByBlock
370
    40
100
AcDbLine
 10
1035.284633590079
 20
279.4206123243644
 30
0.0
 11
1038.410974302857
 21
279.2082242150073
 31
0.0
  0
SPLINE
  5
481
330
1F
100
AcDbEntity
  8
0
  6
ByBlock
370
    40
100
AcDbSpline
210
0.0
220
0.0
230
1.0
 70
  1064
 71
     3
 72
    14
 73
    10
 74
     8
 42
0.000000001
 43
0.0000000001
 44
0.00001
 40
0.0
 40
0.0
 40
0.0
 40
0.0
 40
0.4082138058049772
 40
0.9179974623349075
 40
1.273330157853917
 40
1.540851995615694
 40
1.816770951621096
 40
2.0620312436016
 40
2.211171338319441
 40
2.211171338319441
 40
2.211171338319441
 40
2.211171338319441
 10
1033.591097188884
 20
287.6063966850526
 30
0.0
 10
1033.727190566439
 20
287.5967554495375
 30
0.0
 10
1034.033239439503
 20
287.5750740913599
 30
0.0
 10
1034.44343818199
 20
287.4666127278729
 30
0.0
 10
1034.812955833957
 20
287.3693131747499
 30
0.0
 10
1035.054348130247
 20
287.1785362201962
 30
0.0
 10
1035.194122646327
 20
286.9529647358158
 30
0.0
 10
1035.2742822552
 20
286.7407247704638
 30
0.0
 10
1035.281793324986
 20
286.6089900764027
 30
0.0
 10
1035.284633590101
 20
286.5591754073189
 30
0.0
 11
1033.591097188884
 21
287.6063966850526
 31
0.0
 11
1033.997336796315
 21
287.5662981488706
 31
0.0
 11
1034.494425241225
 21
287.4532386317937
 31
0.0
 11
1034.82991410974
 21
287.3361551418926
 31
0.0
 11
1035.040061458063
 21
287.1706074881118
 31
0.0
 11
1035.1911366923
 21
286.9397232229844
 31
0.0
 11
1035.270442702934
 21
286.7076388256208
 31
0.0
 11
1035.284633590101
 21
286.5591754073189
 31
0.0
  0
SPLINE
  5
482
330
1F
100
AcDbEntity
  8
0
  6
ByBlock
370
    40
100
AcDbSpline
210
0.0
220
0.0
230
1.0
 70
  1064
 71
     3
 72
    15
 73
    11
 74
     9
 42
0.000000001
 43
0.0000000001
 44
0.00001
 40
0.0
 40
0.0
 40
0.0
 40
0.0
 40
0.5324050919056981
 40
0.9890382617381314
 40
1.448031486114172
 40
1.865225342889685
 40
2.379432988156373
 40
2.903009404741652
 40
3.509658382574105
 40
4.010206164669749
 40
4.010206164669749
 40
4.010206164669749
 40
4.010206164669749
 10
1038.410974302868
 20
274.4398870178096
 30
0.0
 10
1038.41869263779
 20
274.2616148597012
 30
0.0
 10
1038.433030833783
 20
273.9304422468687
 30
0.0
 10
1038.58677995038
 20
273.4693812902606
 30
0.0
 10
1038.781732145318
 20
273.0655273656689
 30
0.0
 10
1039.118020057533
 20
272.7329594726602
 30
0.0
 10
1039.558942226306
 20
272.518848907745
 30
0.0
 10
1040.088750356424
 20
272.3644237734906
 30
0.0
 10
1040.635292937953
 20
272.3475796040406
 30
0.0
 10
1041.003888119335
 20
272.3396188411825
 30
0.0
 10
1041.17052471656
 20
272.3360198944222
 30
0.0
 11
1038.410974302868
 21
274.4398870178096
 31
0.0
 11
1038.46040476154
 21
273.9097815456227
 31
0.0
 11
1038.595659533051
 21
273.4736393686038
 31
0.0
 11
1038.810831406004
 21
273.0682064578612
 31
0.0
 11
1039.105988279396
 21
272.7733622036855
 31
0.0
 11
1039.560979355694
 21
272.5337946287926
 31
0.0
 11
1040.065129294705
 21
272.3924967059509
 31
0.0
 11
1040.670109221544
 21
272.3475270447689
 31
0.0
 11
1041.17052471656
 21
272.3360198944222
 31
0.0
  0
SPLINE
  5
483
330
1F
100
AcDbEntity
  8
0
  6
ByBlock
370
    40
100
AcDbSpline
210
0.0
220
0.0
230
1.0
 70
  1064
 71
     3
 72
    12
 73
     8
 74
     6
 42
0.000000001
 43
0.0000000001
 44
0.00001
 40
0.0
 40
0.0
 40
0.0
 40
0.0
 40
1.042803564623597
 40
2.317864565557651
 40
3.699689860231365
 40
4.854214726723167
 40
5.904039174046934
 40
5.904039174046934
 40
5.904039174046934
 40
5.904039174046934
 10
1035.284633590101
 20
270.3882758568953
 30
0.0
 10
1035.630103409707
 20
270.4268625946694
 30
0.0
 10
1036.397987487305
 20
270.5126302648434
 30
0.0
 10
1037.627408506924
 20
270.6115308943126
 30
0.0
 10
1038.894667246773
 20
270.7008845206451
 30
0.0
 10
1040.086788232621
 20
270.790803412842
 30
0.0
 10
1040.82090200468
 20
270.8231618051538
 30
0.0
 10
1041.17052471656
 20
270.8385725348019
 30
0.0
 11
1035.284633590101
 21
270.3882758568953
 31
0.0
 11
1036.321518939428
 21
270.4992174935405
 31
0.0
 11
1037.592044684745
 21
270.6066646274706
 31
0.0
 11
1038.970190316022
 21
270.707440438031
 31
0.0
 11
1040.121960742381
 21
270.7871433383056
 31
0.0
 11
1041.17052471656
 21
270.8385725348019
 31
0.0
  0
LINE
  5
484
330
1F
100
AcDbEntity
  8
0
  6
ByBlock
370
    40
100
AcDbLine
 10
1057.812972521767
 20
283.684223316551
 30
0.0
 11
1059.085671034486
 21
284.2532271926835
 31
0.0
  0
LINE
  5
485
330
1F
100
AcDbEntity
  8
0
  6
ByBlock
370
    40
100
AcDbLine
 10
1059.085671034486
 20
284.2532271926835
 30
0.0
 11
1056.485140035909
 21
290.5209178418943
 31
0.0
  0
LINE
  5
486
330
1F
100
AcDbEntity
  8
0
  6
ByBlock
370
    40
100
AcDbLine
 10
1056.485140035909
 20
290.5209178418943
 30
0.0
 11
1054.58064149859
 21
289.6523397786229
 31
0.0
  0
LINE
  5
487
330
1F
100
AcDbEntity
  8
0
  6
ByBlock
370
    40
100
AcDbLine
 10
1044.871834006241
 20
283.5947428682875
 30
0.0
 11
1049.87958760255
 21
282.8067854534655
 31
0.0
  0
SPLINE
  5
488
330
1F
100
AcDbEntity
  8
0
  6
ByBlock
370
    40
100
AcDbSpline
210
0.0
220
0.0
230
1.0
 70
  1064
 71
     3
 72
    28
 73
    24
 74
    22
 42
0.000000001
 43
0.0000000001
 44
0.00001
 40
0.0
 40
0.0
 40
0.0
 40
0.0
 40
0.1561663907071719
 40
0.4175774702010543
 40
0.9320939524683991
 40
1.730761577069706
 40
2.454750174367884
 40
3.242736449176509
 40
3.900859347883752
 40
4.595380092829615
 40
5.272344600930719
 40
6.166667836593092
 40
7.180336228139732
 40
8.155083280954444
 40
9.081379991783521
 40
9.950244626299024
 40
10.68291538461707
 40
11.36107872245577
 40
12.17178846780759
 40
12.74747950017098
 40
13.53440732179194
 40
14.23890033027832
 40
14.72038487083632
 40
14.72038487083632
 40
14.72038487083632
 40
14.72038487083632
 10
1054.5806414986
 20
289.6523397786241
 30
0.0
 10
1054.528973798541
 20
289.6464632430751
 30
0.0
 10
1054.390818159649
 20
289.6307498182019
 30
0.0
 10
1054.076852395832
 20
289.6229693259421
 30
0.0
 10
1053.578100929457
 20
289.8125425807537
 30
0.0
 10
1052.927073149655
 20
289.9934614497552
 30
0.0
 10
1052.188219031073
 20
290.2167851970856
 30
0.0
 10
1051.471200221489
 20
290.329607428689
 30
0.0
 10
1050.758179269171
 20
290.3648038775063
 30
0.0
 10
1050.080742407637
 20
290.3620857235643
 30
0.0
 10
1049.329166480112
 20
290.2825108447485
 30
0.0
 10
1048.477517525724
 20
290.1347458510467
 30
0.0
 10
1047.571773143482
 20
289.802239272391
 30
0.0
 10
1046.70042566513
 20
289.3638092089513
 30
0.0
 10
1045.966163080761
 20
288.797037893563
 30
0.0
 10
1045.374069257043
 20
288.1912767041151
 30
0.0
 10
1044.965215487595
 20
287.5445723128749
 30
0.0
 10
1044.677664999309
 20
286.8606899481113
 30
0.0
 10
1044.512541817695
 20
286.1843333903463
 30
0.0
 10
1044.523121037468
 20
285.457227077919
 30
0.0
 10
1044.568906367677
 20
284.7699466093912
 30
0.0
 10
1044.688601279258
 20
284.1199775770459
 30
0.0
 10
1044.818925022048
 20
283.7464059219845
 30
0.0
 10
1044.871834006263
 20
283.5947428682888
 30
0.0
 11
1054.5806414986
 21
289.6523397786241
 31
0.0
 11
1054.425288628494
 21
289.6364203773737
 31
0.0
 11
1054.163877549
 21
289.6364203773737
 31
0.0
 11
1053.667535992871
 21
289.7719647250415
 31
0.0
 11
1052.90312925707
 21
290.0033784602619
 31
0.0
 11
1052.204991927366
 21
290.1951172353971
 31
0.0
 11
1051.427141193147
 21
290.3210958231134
 31
0.0
 11
1050.770082747379
 21
290.3585117107452
 31
0.0
 11
1050.075611962704
 21
290.3501813810458
 31
0.0
 11
1049.401918266387
 21
290.2837152334853
 31
0.0
 11
1048.523237544384
 21
290.1171792354976
 31
0.0
 11
1047.567423579192
 21
289.7796243926002
 31
0.0
 11
1046.70286584539
 21
289.3294336087158
 31
0.0
 11
1045.965686601197
 21
288.7685482742451
 31
0.0
 11
1045.368039764396
 21
288.1378787795229
 31
0.0
 11
1044.97442936757
 21
287.5199165674054
 31
0.0
 11
1044.710098631872
 21
286.8953889259405
 31
0.0
 11
1044.533968673364
 21
286.104042902431
 31
0.0
 11
1044.526296088455
 21
285.5284030009436
 31
0.0
 11
1044.586726182131
 21
284.7437988968124
 31
0.0
 11
1044.722727842477
 21
284.0525580217268
 31
0.0
 11
1044.871834006263
 21
283.5947428682888
 31
0.0
  0
SPLINE
  5
489
330
1F
100
AcDbEntity
  8
0
  6
ByBlock
370
    40
100
AcDbSpline
210
0.0
220
0.0
230
1.0
 70
  1064
 71
     3
 72
    33
 73
    29
 74
    27
 42
0.000000001
 43
0.0000000001
 44
0.00001
 40
0.0
 40
0.0
 40
0.0
 40
0.0
 40
0.6923164701735736
 40
1.749854631714609
 40
2.870346305408454
 40
3.997883207374254
 40
5.019550517876762
 40
6.059657901341257
 40
7.071486751588832
 40
8.062988069710225
 40
8.641894605564726
 40
9.449427388450551
 40
10.03688031917102
 40
10.73847529151738
 40
11.0826320326005
 40
11.65834940378702
 40
12.18428536483964
 40
12.61016769403753
 40
13.06659813989799
 40
13.52265107048925
 40
13.99747125392243
 40
14.53041563412652
 40
15.09569545166402
 40
15.53168123306122
 40
16.1239013452496
 40
16.7678178176205
 40
17.75452896229547
 40
18.25747659994025
 40
18.25747659994025
 40
18.25747659994025
 40
18.25747659994025
 10
1057.812972521778
 20
283.6842233165537
 30
0.0
 10
1057.691818101787
 20
283.8806019452224
 30
0.0
 10
1057.385595973457
 20
284.3769559505799
 30
0.0
 10
1056.825655944858
 20
285.1562450738154
 30
0.0
 10
1056.05890436772
 20
285.9504237315963
 30
0.0
 10
1055.257314615591
 20
286.6909372995764
 30
0.0
 10
1054.397593630101
 20
287.318638539784
 30
0.0
 10
1053.536364464818
 20
287.8757924571679
 30
0.0
 10
1052.617175661999
 20
288.3137259441331
 30
0.0
 10
1051.788863051278
 20
288.56140045832
 30
0.0
 10
1051.00412284339
 20
288.6853508552833
 30
0.0
 10
1050.344363392402
 20
288.6909919609733
 30
0.0
 10
1049.645200767616
 20
288.6308679755079
 30
0.0
 10
1049.125167527661
 20
288.4491853994157
 30
0.0
 10
1048.642816299829
 20
288.2076580881271
 30
0.0
 10
1048.222907862312
 20
287.9605736598207
 30
0.0
 10
1047.879621636757
 20
287.5782156392716
 30
0.0
 10
1047.600710936555
 20
287.2002113923358
 30
0.0
 10
1047.409750422649
 20
286.791329553526
 30
0.0
 10
1047.321952761042
 20
286.3353865151647
 30
0.0
 10
1047.263451764869
 20
285.8497289713802
 30
0.0
 10
1047.305911674198
 20
285.3237235490039
 30
0.0
 10
1047.434462020872
 20
284.8247939791223
 30
0.0
 10
1047.675339803862
 20
284.3482853983919
 30
0.0
 10
1048.016209871243
 20
283.9023470905734
 30
0.0
 10
1048.585096489665
 20
283.4179183490833
 30
0.0
 10
1049.230854366953
 20
283.1054903422846
 30
0.0
 10
1049.692086789702
 20
282.9226342739243
 30
0.0
 10
1049.847810879124
 20
282.860897298516
 30
0.0
 11
1057.812972521778
 21
283.6842233165537
 31
0.0
 11
1057.444009455291
 21
284.2700290441135
 31
0.0
 11
1056.818999328865
 21
285.1231112822243
 31
0.0
 11
1056.053166714433
 21
285.9410367051637
 31
0.0
 11
1055.216922855989
 21
286.6973671055236
 31
0.0
 11
1054.397178450076
 21
287.3071401799731
 31
0.0
 11
1053.516936051479
 21
287.8612129990592
 31
0.0
 11
1052.601454081441
 21
288.2921310710052
 31
0.0
 11
1051.650732539855
 21
288.5735620824454
 31
0.0
 11
1051.078547821183
 21
288.6615247164023
 31
0.0
 11
1050.271161029938
 21
288.6768793495344
 31
0.0
 11
1049.687297686435
 21
288.6120369102984
 31
0.0
 11
1049.021208676083
 21
288.391671451323
 31
0.0
 11
1048.712607804316
 21
288.2393252522309
 31
0.0
 11
1048.228216468966
 21
287.9281733187267
 31
0.0
 11
1047.86488901797
 21
287.5479078871116
 31
0.0
 11
1047.61814411852
 21
287.2007872842681
 31
0.0
 11
1047.427823272835
 21
286.7859298056012
 31
0.0
 11
1047.328351264693
 21
286.3408572327582
 31
0.0
 11
1047.280754078498
 21
285.8684287043416
 31
0.0
 11
1047.319728093999
 21
285.3369113118633
 31
0.0
 11
1047.466797288335
 21
284.7910982264647
 31
0.0
 11
1047.661463668835
 21
284.4009846508436
 31
0.0
 11
1048.020445585006
 21
283.9299680427049
 31
0.0
 11
1048.509250354168
 21
283.5108042071524
 31
0.0
 11
1049.381820167824
 21
283.0501299151388
 31
0.0
 11
1049.847810879124
 21
282.860897298516
 31
0.0
  0
LINE
  5
48A
330
1F
100
AcDbEntity
  8
0
  6
ByBlock
370
    40
100
AcDbLine
 10
1049.87958760255
 20
282.8067854534655
 30
0.0
 11
1049.847810879114
 21
282.8608972985146
 31
0.0
  0
LINE
  5
48B
330
1F
100
AcDbEntity
  8
0
  6
ByBlock
370
    40
100
AcDbLine
 10
1046.448312563036
 20
281.6263141985336
 30
0.0
 11
1057.590874952667
 21
279.8207505340266
 31
0.0
  0
SPLINE
  5
48C
330
1F
100
AcDbEntity
  8
0
  6
ByBlock
370
    40
100
AcDbSpline
210
0.0
220
0.0
230
1.0
 70
  1064
 71
     3
 72
    22
 73
    18
 74
    16
 42
0.000000001
 43
0.0000000001
 44
0.00001
 40
0.0
 40
0.0
 40
0.0
 40
0.0
 40
0.273914967295293
 40
0.6563766362521149
 40
1.155216012125026
 40
2.130544510322509
 40
2.805485755697954
 40
3.871296429016452
 40
4.927485615285318
 40
6.078167966861004
 40
6.996009304597974
 40
8.013652382699431
 40
8.897862699230628
 40
10.60279468744079
 40
12.22589346499662
 40
13.00177706402456
 40
13.3813116063797
 40
13.3813116063797
 40
13.3813116063797
 40
13.3813116063797
 10
1046.448312563047
 20
281.6263141985336
 30
0.0
 10
1046.510616859176
 20
281.5592640973151
 30
0.0
 10
1046.659915324759
 20
281.3985933594848
 30
0.0
 10
1046.980450970744
 20
281.1806069275074
 30
0.0
 10
1047.514114588282
 20
280.8688985931152
 30
0.0
 10
1048.146754114299
 20
280.5302862001767
 30
0.0
 10
1048.975230324034
 20
280.1648022907849
 30
0.0
 10
1049.842219375353
 20
279.819700670466
 30
0.0
 10
1050.887571539125
 20
279.5046718075219
 30
0.0
 10
1051.894968337628
 20
279.2405194966579
 30
0.0
 10
1052.891372636546
 20
278.9840007367912
 30
0.0
 10
1053.809972661365
 20
278.7849116244184
 30
0.0
 10
1054.983648582521
 20
278.5226361307969
 30
0.0
 10
1056.375124304329
 20
278.3266733292996
 30
0.0
 10
1057.730544711261
 20
278.1414517478581
 30
0.0
 10
1058.635153169168
 20
277.9321120035571
 30
0.0
 10
1059.019252321078
 20
277.8998167159051
 30
0.0
 10
1059.14542213841
 20
277.8892082817979
 30
0.0
 11
1046.448312563047
 21
281.6263141985336
 31
0.0
 11
1046.640941974097
 21
281.4315750927875
 31
0.0
 11
1046.949814441779
 21
281.2060208267469
 31
0.0
 11
1047.378324915186
 21
280.9506397446323
 31
0.0
 11
1048.241320972437
 21
280.4962131998915
 31
0.0
 11
1048.85730053429
 21
280.2203239755852
 31
0.0
 11
1049.850255242463
 21
279.8330342405334
 31
0.0
 11
1050.858894615421
 21
279.5196938305778
 31
0.0
 11
1051.970333046646
 21
279.2217433517691
 31
0.0
 11
1052.860420797596
 21
278.9977421980498
 31
0.0
 11
1053.853239707806
 21
278.7743411104567
 31
0.0
 11
1054.718069037513
 21
278.5902267048833
 31
0.0
 11
1056.402099581322
 21
278.3240797305662
 31
0.0
 11
1058.005194538939
 21
278.0700399727167
 31
0.0
 11
1058.767768002252
 21
277.926941851515
 31
0.0
 11
1059.14542213841
 21
277.8892082817979
 31
0.0
  0
SPLINE
  5
48D
330
1F
100
AcDbEntity
  8
0
  6
ByBlock
370
    40
100
AcDbSpline
210
0.0
220
0.0
230
1.0
 70
  1064
 71
     3
 72
    12
 73
     8
 74
     6
 42
0.000000001
 43
0.0000000001
 44
0.00001
 40
0.0
 40
0.0
 40
0.0
 40
0.0
 40
0.2919701653829579
 40
0.8905553409634476
 40
1.455731027119888
 40
2.069474288087134
 40
2.504802581621714
 40
2.504802581621714
 40
2.504802581621714
 40
2.504802581621714
 10
1059.14542213841
 20
277.8892082817979
 30
0.0
 10
1059.108660310542
 20
277.979557353023
 30
0.0
 10
1058.996530901334
 20
278.2551363589296
 30
0.0
 10
1058.70818289938
 20
278.6504101439754
 30
0.0
 10
1058.355714145214
 20
279.125512380274
 30
0.0
 10
1057.980113865829
 20
279.514920757344
 30
0.0
 10
1057.705026616109
 20
279.7310601753483
 30
0.0
 10
1057.590874952688
 20
279.8207505340292
 30
0.0
 11
1059.14542213841
 21
277.8892082817979
 31
0.0
 11
1059.028228496002
 21
278.1566259843778
 31
0.0
 11
1058.701498596134
 21
278.6581753687428
 31
0.0
 11
1058.356028577303
 21
279.1054717160464
 31
0.0
 11
1057.927993396762
 21
279.5453201838193
 31
0.0
 11
1057.590874952688
 21
279.8207505340292
 31
0.0
  0
LINE
  5
48E
330
1F
100
AcDbEntity
  8
0
  6
ByBlock
370
    40
100
AcDbLine
 10
1048.502188860056
 20
270.7487744044665
 30
0.0
 11
1046.435208059564
 21
269.9536514941913
 31
0.0
  0
LINE
  5
48F
330
1F
100
AcDbEntity
  8
0
  6
ByBlock
370
    40
100
AcDbLine
 10
1046.435208059564
 20
269.9536514941913
 30
0.0
 11
1043.76331523122
 21
276.6128323412987
 31
0.0
  0
LINE
  5
490
330
1F
100
AcDbEntity
  8
0
  6
ByBlock
370
    40
100
AcDbLine
 10
1043.76331523122
 20
276.6128323412987
 30
0.0
 11
1044.833335283617
 21
277.0681060382248
 31
0.0
  0
LINE
  5
491
330
1F
100
AcDbEntity
  8
0
  6
ByBlock
370
    40
100
AcDbLine
 10
1059.611141253773
 20
276.1356385819123
 30
0.0
 11
1056.700787201749
 21
276.5946538675948
 31
0.0
  0
SPLINE
  5
492
330
1F
100
AcDbEntity
  8
0
  6
ByBlock
370
    40
100
AcDbSpline
210
0.0
220
0.0
230
1.0
 70
  1064
 71
     3
 72
    26
 73
    22
 74
    20
 42
0.000000001
 43
0.0000000001
 44
0.00001
 40
0.0
 40
0.0
 40
0.0
 40
0.0
 40
0.9874626877244169
 40
2.088659848864133
 40
3.911774260538614
 40
5.601371579600173
 40
6.869741714805924
 40
8.21249820096998
 40
9.204481735016466
 40
10.01626362023994
 40
10.6773169725124
 40
11.78046788397282
 40
12.46393654348609
 40
13.34180755213985
 40
14.10099056817393
 40
14.84406358881941
 40
15.47771409141521
 40
16.06537788536055
 40
16.72067455371915
 40
17.16495887556593
 40
17.28213625102779
 40
17.28213625102779
 40
17.28213625102779
 40
17.28213625102779
 10
1044.833335283628
 20
277.0681060382248
 30
0.0
 10
1045.035260755086
 20
276.8081019660434
 30
0.0
 10
1045.462369171373
 20
276.2581469420636
 30
0.0
 10
1046.311935593452
 20
275.2686501590407
 30
0.0
 10
1047.38474702443
 20
274.1618499200161
 30
0.0
 10
1048.641621221409
 20
273.1747959649324
 30
0.0
 10
1049.871644144593
 20
272.4284719288971
 30
0.0
 10
1051.000749205622
 20
272.001812341067
 30
0.0
 10
1052.028244172996
 20
271.7677066691169
 30
0.0
 10
1052.8501392013
 20
271.7302870259151
 30
0.0
 10
1053.711917710945
 20
271.7221440552893
 30
0.0
 10
1054.508362062546
 20
271.9692557244433
 30
0.0
 10
1055.286987588141
 20
272.3994153233994
 30
0.0
 10
1055.889141522374
 20
272.8953620045248
 30
0.0
 10
1056.391804393617
 20
273.5154252308509
 30
0.0
 10
1056.714563929322
 20
274.1576015570314
 30
0.0
 10
1056.871587606802
 20
274.7976859253448
 30
0.0
 10
1056.920572667487
 20
275.4224605572781
 30
0.0
 10
1056.884232877168
 20
275.9887751000509
 30
0.0
 10
1056.768368222326
 20
276.378827131087
 30
0.0
 10
1056.712456094596
 20
276.5573880932664
 30
0.0
 10
1056.700787201749
 20
276.5946538675987
 30
0.0
 11
1044.833335283628
 21
277.0681060382248
 31
0.0
 11
1045.445037209644
 21
276.2929265020162
 31
0.0
 11
1046.1615072644
 21
275.4566814133375
 31
0.0
 11
1047.444526422349
 21
274.1614563369925
 31
0.0
 11
1048.774667473583
 21
273.1196003563496
 31
0.0
 11
1049.867229987893
 21
272.4753411288595
 31
0.0
 11
1051.120848886767
 21
271.9942645886693
 31
0.0
 11
1052.090853739127
 21
271.7866064122863
 31
0.0
 11
1052.90088859066
 21
271.7333770174262
 31
0.0
 11
1053.561749379422
 21
271.7493317166859
 31
0.0
 11
1054.622331473356
 21
272.0528239826218
 31
0.0
 11
1055.220385704047
 21
272.3836722041515
 31
0.0
 11
1055.897202753497
 21
272.9427573402515
 31
0.0
 11
1056.372156130384
 21
273.5350226031349
 31
0.0
 11
1056.702552575282
 21
274.2006018269767
 31
0.0
 11
1056.857565950475
 21
274.8149989403742
 31
0.0
 11
1056.905570530517
 21
275.4006987739145
 31
0.0
 11
1056.850911850265
 21
276.0537119071936
 31
0.0
 11
1056.73568727833
 21
276.4827944827678
 31
0.0
 11
1056.700787201749
 21
276.5946538675987
 31
0.0
  0
SPLINE
  5
493
330
1F
100
AcDbEntity
  8
0
  6
ByBlock
370
    40
100
AcDbSpline
210
0.0
220
0.0
230
1.0
 70
  1064
 71
     3
 72
    27
 73
    23
 74
    21
 42
0.000000001
 43
0.0000000001
 44
0.00001
 40
0.0
 40
0.0
 40
0.0
 40
0.0
 40
0.4523147796017258
 40
1.286818317762137
 40
2.171759511929289
 40
3.117710362729721
 40
3.831204931935171
 40
4.79428803662895
 40
5.855224867943674
 40
6.929306556558918
 40
7.889027143283787
 40
9.043253523511197
 40
9.658049831900264
 40
10.40724775795657
 40
10.94791933060402
 40
12.38736094022821
 40
13.29997558915136
 40
13.89271654149961
 40
14.16234344060982
 40
14.47842161737979
 40
14.68047310260708
 40
14.86152451601693
 40
14.86152451601693
 40
14.86152451601693
 40
14.86152451601693
 10
1059.611141253784
 20
276.1356385819151
 30
0.0
 10
1059.616088735231
 20
275.9849656565413
 30
0.0
 10
1059.630164131481
 20
275.5563069234953
 30
0.0
 10
1059.608846703632
 20
274.830829659017
 30
0.0
 10
1059.435449431579
 20
273.9539691350562
 30
0.0
 10
1059.107187855255
 20
273.1657461843159
 30
0.0
 10
1058.636026185882
 20
272.4245256618688
 30
0.0
 10
1057.996588432178
 20
271.7666833740123
 30
0.0
 10
1057.194481850426
 20
271.1114968171683
 30
0.0
 10
1056.285973774156
 20
270.6101950094967
 30
0.0
 10
1055.289296403671
 20
270.2369742271727
 30
0.0
 10
1054.396882378177
 20
270.0312167011213
 30
0.0
 10
1053.55823759879
 20
269.9821316589227
 30
0.0
 10
1052.922295738383
 20
269.9694938966293
 30
0.0
 10
1052.016606691497
 20
270.0723467863768
 30
0.0
 10
1051.077972176358
 20
270.3036916693756
 30
0.0
 10
1050.13404471635
 20
270.5723170007698
 30
0.0
 10
1049.563237049421
 20
270.7265795573519
 30
0.0
 10
1049.180432230186
 20
270.8186064968651
 30
0.0
 10
1048.915818037653
 20
270.826673633039
 30
0.0
 10
1048.683734071155
 20
270.7986375532384
 30
0.0
 10
1048.56045131834
 20
270.7647767523534
 30
0.0
 10
1048.502188860067
 20
270.7487744044692
 30
0.0
 11
1059.611141253784
 21
276.1356385819151
 31
0.0
 11
1059.622684080672
 21
275.6834711096291
 31
0.0
 11
1059.586969216312
 21
274.8497321794681
 31
0.0
 11
1059.412061439462
 21
273.9822483544134
 31
0.0
 11
1059.049888271138
 21
273.1083755900613
 31
0.0
 11
1058.664493651117
 21
272.5079211895073
 31
0.0
 11
1058.007842599228
 21
271.8034082637216
 31
0.0
 11
1057.179610820594
 21
271.1403704963947
 31
0.0
 11
1056.241586388612
 21
270.6171481356133
 31
0.0
 11
1055.343826052732
 21
270.2778989883714
 31
0.0
 11
1054.215956067961
 21
270.0326484343106
 31
0.0
 11
1053.602760364361
 21
269.9883141372656
 31
0.0
 11
1052.853563000414
 21
269.987396389077
 31
0.0
 11
1052.315938863441
 21
270.0447203527718
 31
0.0
 11
1050.910497841483
 21
270.3557310942514
 31
0.0
 11
1050.030934432736
 21
270.5991108539297
 31
0.0
 11
1049.45800282527
 21
270.7510687749413
 31
0.0
 11
1049.194147382427
 21
270.8065572422632
 31
0.0
 11
1048.878281319642
 21
270.8181349886281
 31
0.0
 11
1048.677843525698
 21
270.7926498274262
 31
0.0
 11
1048.502188860067
 21
270.7487744044692
 31
0.0
  0
CIRCLE
  5
494
330
1F
100
AcDbEntity
  8
0
  6
ByBlock
370
    40
100
AcDbCircle
 10
1063.334449813525
 20
291.831621094407
 30
0.0
 40
3.624641230862821
  0
CIRCLE
  5
495
330
1F
100
AcDbEntity
  8
0
  6
ByBlock
370
    40
100
AcDbCircle
 10
1063.334449813525
 20
291.831621094407
 30
0.0
 40
3.198743230862822
  0
LINE
  5
496
330
1F
100
AcDbEntity
  8
0
  6
ByBlock
370
    40
100
AcDbLine
 10
1063.537185987983
 20
293.6381669259604
 30
0.0
 11
1061.891946132435
 21
293.6381669259604
 31
0.0
  0
LINE
  5
497
330
1F
100
AcDbEntity
  8
0
  6
ByBlock
370
    40
100
AcDbLine
 10
1061.891946132435
 20
293.6381669259604
 30
0.0
 11
1061.891946132435
 21
290.1221871402658
 31
0.0
  0
LINE
  5
498
330
1F
100
AcDbEntity
  8
0
  6
ByBlock
370
    40
100
AcDbLine
 10
1061.891946132435
 20
290.1221871402658
 30
0.0
 11
1062.651997148593
 21
290.1221871402658
 31
0.0
  0
LINE
  5
499
330
1F
100
AcDbEntity
  8
0
  6
ByBlock
370
    40
100
AcDbLine
 10
1062.651997148593
 20
290.1221871402658
 30
0.0
 11
1062.651997148593
 21
291.5825874764284
 31
0.0
  0
LINE
  5
49A
330
1F
100
AcDbEntity
  8
0
  6
ByBlock
370
    40
100
AcDbLine
 10
1063.606463319004
 20
292.1822600261153
 30
0.0
 11
1062.652577684872
 21
292.1822600261153
 31
0.0
  0
LINE
  5
49B
330
1F
100
AcDbEntity
  8
0
  6
ByBlock
370
    40
100
AcDbLine
 10
1062.652577684872
 20
292.1822600261153
 30
0.0
 11
1062.652577684872
 21
293.0049612694292
 31
0.0
  0
LINE
  5
49C
330
1F
100
AcDbEntity
  8
0
  6
ByBlock
370
    40
100
AcDbLine
 10
1062.652577684872
 20
293.0049612694292
 30
0.0
 11
1063.503450378934
 21
293.0049612694292
 31
0.0
  0
SPLINE
  5
49D
330
1F
100
AcDbEntity
  8
0
  6
ByBlock
370
    40
100
AcDbSpline
210
0.0
220
0.0
230
1.0
 70
  1064
 71
     3
 72
    16
 73
    12
 74
    10
 42
0.000000001
 43
0.0000000001
 44
0.00001
 40
0.0
 40
0.0
 40
0.0
 40
0.0
 40
0.1189330089558827
 40
0.242467302786044
 40
0.4605089660779227
 40
0.6047855347913291
 40
0.7949664150607437
 40
0.9861609447596805
 40
1.194326385949184
 40
1.276490729124274
 40
1.372104706727767
 40
1.372104706727767
 40
1.372104706727767
 40
1.372104706727767
 10
1063.503450378946
 20
293.0049612694292
 30
0.0
 10
1063.543078275373
 20
293.0041294578455
 30
0.0
 10
1063.623867193826
 20
293.0024336535189
 30
0.0
 10
1063.776775580147
 20
292.9773528510315
 30
0.0
 10
1063.91646097504
 20
292.8746128181318
 30
0.0
 10
1063.998540286845
 20
292.7064310828616
 30
0.0
 10
1064.019095300105
 20
292.5282524975281
 30
0.0
 10
1063.954181975759
 20
292.3317147879102
 30
0.0
 10
1063.818156208533
 20
292.2333424990718
 30
0.0
 10
1063.698782298762
 20
292.1816623525779
 30
0.0
 10
1063.638750200957
 20
292.1820510006808
 30
0.0
 10
1063.606463319014
 20
292.1822600261167
 30
0.0
 11
1063.503450378946
 21
293.0049612694292
 31
0.0
 11
1063.622266807004
 21
292.9996965716564
 31
0.0
 11
1063.743405380221
 21
292.9754856685118
 31
0.0
 11
1063.919436885192
 21
292.8468191375533
 31
0.0
 11
1063.984908478287
 21
292.7182532059179
 31
0.0
 11
1064.004904728381
 21
292.5291264833157
 31
0.0
 11
1063.940271687719
 21
292.3491878319881
 31
0.0
 11
1063.778560077993
 21
292.2181069173383
 31
0.0
 11
1063.701864783222
 21
292.1886313164209
 31
0.0
 11
1063.606463319014
 21
292.1822600261167
 31
0.0
  0
SPLINE
  5
49E
330
1F
100
AcDbEntity
  8
0
  6
ByBlock
370
    40
100
AcDbSpline
210
0.0
220
0.0
230
1.0
 70
  1064
 71
     3
 72
    16
 73
    12
 74
    10
 42
0.000000001
 43
0.0000000001
 44
0.00001
 40
0.0
 40
0.0
 40
0.0
 40
0.0
 40
0.4376892164896191
 40
0.8878744374961788
 40
1.370854652090117
 40
1.931455130618802
 40
2.249673326229556
 40
2.635452128204154
 40
2.978975618876934
 40
3.178135192653097
 40
3.255364721921533
 40
3.255364721921533
 40
3.255364721921533
 40
3.255364721921533
 10
1063.537185987994
 20
293.6381669259631
 30
0.0
 10
1063.682905163749
 20
293.6325027751933
 30
0.0
 10
1063.978503790199
 20
293.6210127624418
 30
0.0
 10
1064.429075674646
 20
293.4851857097655
 30
0.0
 10
1064.772851779544
 20
293.0715290795674
 30
0.0
 10
1064.779941429359
 20
292.6006181914852
 30
0.0
 10
1064.729069419092
 20
292.1755957271491
 30
0.0
 10
1064.493489282501
 20
291.8920548243497
 30
0.0
 10
1064.219778740519
 20
291.7387471829922
 30
0.0
 10
1064.01507396831
 20
291.6941249319423
 30
0.0
 10
1063.922879706208
 20
291.6939627176054
 30
0.0
 10
1063.897118489919
 20
291.6939173911554
 30
0.0
 11
1063.537185987994
 21
293.6381669259631
 31
0.0
 11
1063.973426760478
 21
293.6025882996044
 31
0.0
 11
1064.396895734508
 21
293.4498114648192
 31
0.0
 11
1064.704708978092
 21
293.0776275119633
 31
0.0
 11
1064.764955744528
 21
292.520273743105
 31
0.0
 11
1064.705225010348
 21
292.2077116542137
 31
0.0
 11
1064.46972078731
 21
291.9021579846499
 31
0.0
 11
1064.169519019587
 21
291.7351631125728
 31
0.0
 11
1063.974329816924
 21
291.695594046492
 31
0.0
 11
1063.897118489919
 21
291.6939173911554
 31
0.0
  0
SPLINE
  5
49F
330
1F
100
AcDbEntity
  8
0
  6
ByBlock
370
    40
100
AcDbSpline
210
0.0
220
0.0
230
1.0
 70
  1064
 71
     3
 72
    12
 73
     8
 74
     6
 42
0.000000001
 43
0.0000000001
 44
0.00001
 40
0.0
 40
0.0
 40
0.0
 40
0.0
 40
0.1414049231023855
 40
0.4506136632434274
 40
0.8891168658363932
 40
1.609399080722154
 40
1.970390304003602
 40
1.970390304003602
 40
1.970390304003602
 40
1.970390304003602
 10
1063.897118489919
 20
291.6939173911554
 30
0.0
 10
1063.935783575743
 20
291.6669670445985
 30
0.0
 10
1064.058997220506
 20
291.5810846430439
 30
0.0
 10
1064.281092770513
 20
291.3814467237244
 30
0.0
 10
1064.561130254526
 20
290.9773493036593
 30
0.0
 10
1064.832856431588
 20
290.550355917237
 30
0.0
 10
1065.008657985828
 20
290.2355902294934
 30
0.0
 10
1065.067350649385
 20
290.1305033507681
 30
0.0
 11
1063.897118489919
 21
291.6939173911554
 31
0.0
 11
1064.012064676019
 21
291.6115600807422
 31
0.0
 11
1064.241247503853
 21
291.4039901493802
 31
0.0
 11
1064.505391517359
 21
291.0539715801395
 31
0.0
 11
1064.889319519392
 21
290.4445408963567
 31
0.0
 11
1065.067350649385
 21
290.1305033507681
 31
0.0
  0
SPLINE
  5
4A0
330
1F
100
AcDbEntity
  8
0
  6
ByBlock
370
    40
100
AcDbSpline
210
0.0
220
0.0
230
1.0
 70
  1064
 71
     3
 72
    16
 73
    12
 74
    10
 42
0.000000001
 43
0.0000000001
 44
0.00001
 40
0.0
 40
0.0
 40
0.0
 40
0.0
 40
0.4059450214885715
 40
0.894348620890179
 40
1.17241583274618
 40
1.430392670549852
 40
1.624684621736175
 40
1.832533808369141
 40
1.982692175727117
 40
2.13066271930745
 40
2.229290844513466
 40
2.229290844513466
 40
2.229290844513466
 40
2.229290844513466
 10
1064.160359446957
 20
290.1305033507681
 30
0.0
 10
1064.087804524894
 20
290.2447647496608
 30
0.0
 10
1063.927956784309
 20
290.4964971742782
 30
0.0
 10
1063.69929872679
 20
290.8134259515114
 30
0.0
 10
1063.523438475818
 20
291.1073313791366
 30
0.0
 10
1063.373112114502
 20
291.2974794869161
 30
0.0
 10
1063.24297978124
 20
291.4798492074955
 30
0.0
 10
1063.066782969702
 20
291.5575544464385
 30
0.0
 10
1062.899397664722
 20
291.5780494750425
 30
0.0
 10
1062.767059263663
 20
291.5824548210022
 30
0.0
 10
1062.684869338388
 20
291.5825495779911
 30
0.0
 10
1062.651997148604
 20
291.5825874764284
 30
0.0
 11
1064.160359446957
 21
290.1305033507681
 31
0.0
 11
1063.93969115144
 21
290.4712332494049
 31
0.0
 11
1063.665549012872
 21
290.8754413193013
 31
0.0
 11
1063.51506110481
 21
291.1092676733263
 31
0.0
 11
1063.361283491079
 21
291.3164016742978
 31
0.0
 11
1063.234210546858
 21
291.463377281603
 31
0.0
 11
1063.046955340223
 21
291.5535813390066
 31
0.0
 11
1062.898467057174
 21
291.5759143881656
 31
0.0
 11
1062.750623814459
 21
291.5820509467157
 31
0.0
 11
1062.651997148604
 21
291.5825874764284
 31
0.0
  0
LINE
  5
4A1
330
1F
100
AcDbEntity
  8
0
  6
ByBlock
370
    40
100
AcDbLine
 10
1064.160359446957
 20
290.130503350764
 30
0.0
 11
1065.067350649364
 21
290.130503350764
 31
0.0
  0
LINE
  5
4A2
330
1F
100
AcDbEntity
  8
0
  6
ByBlock
370
    -3
100
AcDbLine
 10
940.88919012743
 20
315.1970327840893
 30
0.0
 11
1239.059336092918
 21
315.1970327840893
 31
0.0
  0
LINE
  5
4A3
330
1F
100
AcDbEntity
  8
0
  6
ByBlock
370
    -3
100
AcDbLine
 10
1088.277569993866
 20
315.1970327840893
 30
0.0
 11
1088.277569993866
 21
257.7175913308677
 31
0.0
  0
MTEXT
  5
4A4
330
1F
100
AcDbEntity
  8
0
  6
ByBlock
370
    -3
100
AcDbMText
 10
1105.878428013418
 20
292.0204695494089
 30
0.0
 40
14.85
 41
143.2278001120339
 46
0.0
 71
     1
 72
     5
  1
KTM25
 73
     1
 44
1.0
1001
ACAD
1000
ACAD_MTEXT_COLUMN_INFO_BEGIN
1070
    75
1070
     2
1070
    79
1070
     0
1070
    76
1070
     1
1070
    78
1070
     0
1070
    48
1040
143.2278001120339
1070
    49
1040
12.5
1070
    50
1070
     1
1040
0.0
1000
ACAD_MTEXT_COLUMN_INFO_END
  0
LINE
  5
4A5
330
1F
100
AcDbEntity
  8
0
  6
ByBlock
370
    -3
100
AcDbLine
 10
940.88919012743
 20
257.7175913308681
 30
0.0
 11
1239.059336092919
 21
257.7175913308681
 31
0.0
  0
LINE
  5
4A6
330
1F
100
AcDbEntity
  8
0
  6
ByBlock
370
    -3
100
AcDbLine
 10
940.88919012743
 20
169.9495421914872
 30
0.0
 11
1239.059336092918
 21
169.9495421914872
 31
0.0
  0
MTEXT
  5
4A7
330
1F
100
AcDbEntity
  8
0
  6
ByBlock
370
    -3
100
AcDbMText
 10
957.1099064002863
 20
237.5721242792494
 30
0.0
 40
11.88
 41
256.0623730560901
 46
0.0
 71
     1
 72
     5
  1
25 inch Topmount Single Bowl 18 gauge Stainless Steel Kitchen Sink 
 73
     1
 44
1.0
1001
ACAD
1000
ACAD_MTEXT_COLUMN_INFO_BEGIN
1070
    75
1070
     2
1070
    79
1070
     0
1070
    76
1070
     1
1070
    78
1070
     0
1070
    48
1040
256.0623730560901
1070
    49
1040
12.5
1070
    50
1070
     1
1040
0.0
1000
ACAD_MTEXT_COLUMN_INFO_END
  0
MTEXT
  5
4A8
330
1F
100
AcDbEntity
  8
0
  6
ByBlock
370
    -3
100
AcDbMText
 10
960.5665580916983
 20
155.0803779820267
 30
0.0
 40
12.87
 41
266.9781062566162
 46
0.0
 71
     1
 72
     5
  1
www.kraususa.com
 73
     1
 44
1.0
1001
ACAD
1000
ACAD_MTEXT_COLUMN_INFO_BEGIN
1070
    75
1070
     2
1070
    79
1070
     0
1070
    76
1070
     1
1070
    78
1070
     0
1070
    48
1040
266.9781062566162
1070
    49
1040
12.5
1070
    50
1070
     1
1040
0.0
1000
ACAD_MTEXT_COLUMN_INFO_END
  0
LINE
  5
4A9
330
1F
100
AcDbEntity
  8
0
  6
ByBlock
370
    -3
100
AcDbLine
 10
940.88919012743
 20
129.4825812801639
 30
0.0
 11
1239.059336092918
 21
129.4825812801639
 31
0.0
  0
LINE
  5
4AA
330
1F
100
AcDbEntity
  8
0
  6
ByBlock
370
    -3
100
AcDbLine
 10
940.88919012743
 20
315.1970327840893
 30
0.0
 11
940.88919012743
 21
129.4825812801639
 31
0.0
  0
LINE
  5
4AB
330
1F
100
AcDbEntity
  8
0
  6
ByBlock
370
    -3
100
AcDbLine
 10
1239.059336092918
 20
315.1970327840893
 30
0.0
 11
1239.059336092918
 21
129.4825812801639
 31
0.0
  0
LINE
  5
1AFD
330
1F
100
AcDbEntity
  8
centerline
  6
ACAD_ISO08W100
370
    -3
100
AcDbLine
 10
505.8231221088549
 20
163.1723616947019
 30
0.0
 11
505.8231221088549
 21
749.172361694702
 31
0.0
  0
LINE
  5
1AFE
330
1F
100
AcDbEntity
  8
centerline
  6
ACAD_ISO08W100
370
    -3
100
AcDbLine
 10
174.3231221088549
 20
456.1723616947019
 30
0.0
 11
837.3231221088548
 21
456.1723616947019
 31
0.0
  0
LWPOLYLINE
  5
1D90
102
{ACAD_REACTORS
330
1DAB
330
1DE9
330
1E2B
102
}
330
1F
100
AcDbEntity
  8
0
370
     5
100
AcDbPolyline
 90
        8
 70
     1
 43
0.0
 10
239.3231221088549
 20
183.172361694702
 10
772.3231221088549
 20
183.172361694702
 42
0.4142135623730951
 10
817.3231221088549
 20
228.172361694702
 10
817.3231221088549
 20
684.1723616947019
 42
0.4142135623730951
 10
772.3231221088549
 20
729.1723616947019
 10
239.3231221088549
 20
729.1723616947019
 42
0.4142135623730951
 10
194.3231221088549
 20
684.1723616947019
 10
194.3231221088549
 20
228.172361694702
 42
0.4142135623730951
  0
DIMENSION
  5
1D92
102
{ACAD_XDICTIONARY
360
1DA0
102
}
102
{ACAD_REACTORS
330
1DAB
102
}
330
1F
100
AcDbEntity
  8
dimensions
370
     5
100
AcDbDimension
280
     0
  2
*D8
 10
119.1267230116241
 20
183.172361694702
 30
0.0
 11
119.1267230116241
 21
456.1723616947019
 31
0.0
 70
    32
 71
     5
 42
546.0
 73
     0
 74
     0
 75
     0
  3
dimensions
100
AcDbAlignedDimension
 13
239.3231221088549
 23
729.1723616947019
 33
0.0
 14
239.323122108855
 24
183.172361694702
 34
0.0
 50
90.0
100
AcDbRotatedDimension
  0
DIMENSION
  5
1DD0
102
{ACAD_XDICTIONARY
360
1DDE
102
}
102
{ACAD_REACTORS
330
1DE9
102
}
330
1F
100
AcDbEntity
  8
dimensions
370
     5
100
AcDbDimension
280
     0
  2
*D10
 10
817.3231221088549
 20
123.9253216836937
 30
0.0
 11
505.8231221088549
 21
123.9253216836937
 31
0.0
 70
    32
 71
     5
 42
623.0
 73
     0
 74
     0
 75
     0
  3
dimensions
100
AcDbAlignedDimension
 13
194.3231221088549
 23
228.172361694702
 33
0.0
 14
817.3231221088549
 24
228.1723616947019
 34
0.0
100
AcDbRotatedDimension
  0
DIMENSION
  5
1E1C
102
{ACAD_XDICTIONARY
360
1E25
102
}
102
{ACAD_REACTORS
330
1E2B
102
}
330
1F
100
AcDbEntity
  8
dimensions
370
     5
100
AcDbDimension
280
     0
  2
*D11
 10
772.3231221088544
 20
684.1723616947024
 30
0.0
 11
766.25676576513
 21
679.2312618683324
 31
0.0
 70
   164
 71
     5
 42
45.00000000000023
 73
     0
 74
     0
 75
     0
  3
dimensions
100
AcDbRadialDimension
 15
807.2139266420286
 25
712.5912244275398
 35
0.0
 40
0.0
1001
ACAD
1000
DSTYLE
1002
{
1070
   288
1070
     1
1002
}
1001
ACAD_DSTYLE_DIMRADIAL_EXTENSION
1070
   387
1070
     1
1070
   388
1040
0.0
1070
   390
1040
1.570796326794896
  0
ENDSEC
  0
SECTION
  2
OBJECTS
  0
DICTIONARY
  5
C
330
0
100
AcDbDictionary
281
     1
  3
ACAD_ASSOCPERSSUBENTMANAGER
350
169E
  3
ACAD_CIP_PREVIOUS_PRODUCT_INFO
350
216
  3
ACAD_COLOR
350
6B
  3
ACAD_DETAILVIEWSTYLE
350
21B
  3
ACAD_GROUP
350
D
  3
ACAD_LAYOUT
350
1A
  3
ACAD_MATERIAL
350
6A
  3
ACAD_MLEADERSTYLE
350
12D
  3
ACAD_MLINESTYLE
350
17
  3
ACAD_PLOTSETTINGS
350
19
  3
ACAD_PLOTSTYLENAME
350
E
  3
ACAD_SCALELIST
350
10C
  3
ACAD_SECTIONVIEWSTYLE
350
219
  3
ACAD_TABLESTYLE
350
7E
  3
ACAD_VISUALSTYLE
350
EF
  3
ACDB_RECOMPOSE_DATA
350
1E56
  3
AcDbVariableDictionary
350
5E
  3
AcDsDecomposeData
350
1E5C
  3
AEC_PROPERTY_SET_DEFS
350
1338
  0
DICTIONARY
  5
1FF
330
2
100
AcDbDictionary
280
     1
281
     1
  3
ACAD_LAYERSTATES
360
200
  0
DICTIONARY
  5
13C
330
10
100
AcDbDictionary
280
     1
281
     1
  0
DICTIONARY
  5
1CE
330
1F
100
AcDbDictionary
280
     1
281
     1
  3
ACAD_SORTENTS
360
715
  0
DICTIONARY
  5
18D0
330
18AF
100
AcDbDictionary
280
     1
281
     1
  3
ACAD_SORTENTS
360
18D1
  0
DICTIONARY
  5
1DA0
330
1D92
100
AcDbDictionary
280
     1
281
     1
  3
ACAD_DIMASSOC
360
1DAB
  0
DICTIONARY
  5
1DDE
330
1DD0
100
AcDbDictionary
280
     1
281
     1
  3
ACAD_DIMASSOC
360
1DE9
  0
DICTIONARY
  5
1E25
330
1E1C
100
AcDbDictionary
280
     1
281
     1
  3
ACAD_DIMASSOC
360
1E2B
  0
ACDBASSOCPERSSUBENTMANAGER
  5
169E
102
{ACAD_REACTORS
330
C
102
}
330
C
100
AcDbAssocPersSubentManager
 90
        1
 90
        3
 90
        0
 90
        2
 90
        2
 90
        0
 90
        2
 90
        1
 90
        2
 90
        0
290
     0
  0
XRECORD
  5
216
102
{ACAD_REACTORS
330
C
102
}
330
C
100
AcDbXrecord
280
     1
300
ACD
300
2014
300
ACD_F_S
  0
DICTIONARY
  5
6B
102
{ACAD_REACTORS
330
C
102
}
330
C
100
AcDbDictionary
281
     1
  0
DICTIONARY
  5
21B
102
{ACAD_REACTORS
330
C
102
}
330
C
100
AcDbDictionary
281
     1
  3
Imperial24
350
130E
  3
Metric50
350
21C
  0
DICTIONARY
  5
D
102
{ACAD_REACTORS
330
C
102
}
330
C
100
AcDbDictionary
281
     1
  0
DICTIONARY
  5
1A
102
{ACAD_REACTORS
330
C
102
}
330
C
100
AcDbDictionary
281
     1
  3
Model
350
22
  3
布局1
350
D3
  3
布局2
350
D7
  0
DICTIONARY
  5
6A
102
{ACAD_REACTORS
330
C
102
}
330
C
100
AcDbDictionary
281
     1
  3
ByBlock
350
ED
  3
ByLayer
350
EC
  3
Global
350
EE
  0
DICTIONARY
  5
12D
102
{ACAD_REACTORS
330
C
102
}
330
C
100
AcDbDictionary
281
     1
  3
Annotative
350
13B
  3
leader
350
2C7
  3
Standard
350
12E
  0
DICTIONARY
  5
17
102
{ACAD_REACTORS
330
C
102
}
330
C
100
AcDbDictionary
281
     1
  3
Standard
350
18
  0
DICTIONARY
  5
19
102
{ACAD_REACTORS
330
C
102
}
330
C
100
AcDbDictionary
281
     1
  0
ACDBDICTIONARYWDFLT
  5
E
102
{ACAD_REACTORS
330
C
102
}
330
C
100
AcDbDictionary
281
     1
  3
Normal
350
F
100
AcDbDictionaryWithDefault
340
F
  0
DICTIONARY
  5
10C
102
{ACAD_REACTORS
330
C
102
}
330
C
100
AcDbDictionary
281
     1
  3
A0
350
10D
  3
A1
350
1BE
  3
A2
350
1BF
  3
A3
350
1C0
  3
A4
350
1C1
  3
A5
350
1C2
  3
A6
350
1C3
  3
A7
350
1C4
  3
A8
350
1C5
  3
A9
350
1C6
  3
B0
350
1C7
  3
B1
350
1C8
  3
B2
350
1C9
  3
B3
350
1CA
  3
B4
350
1CB
  3
B5
350
1CC
  3
B6
350
1CD
  0
DICTIONARY
  5
219
102
{ACAD_REACTORS
330
C
102
}
330
C
100
AcDbDictionary
281
     1
  3
Imperial24
350
130D
  3
Metric50
350
21A
  0
DICTIONARY
  5
7E
102
{ACAD_REACTORS
330
C
102
}
330
C
100
AcDbDictionary
281
     1
  3
Standard
350
7F
  0
DICTIONARY
  5
EF
102
{ACAD_REACTORS
330
C
102
}
330
C
100
AcDbDictionary
281
     1
  3
2dWireframe
350
F5
  3
Basic
350
F4
  3
Brighten
350
FB
  3
ColorChange
350
FF
  3
Conceptual
350
F8
  3
Dim
350
FA
  3
EdgeColorOff
350
1E6
  3
Facepattern
350
FE
  3
Flat
350
F0
  3
FlatWithEdges
350
F1
  3
Gouraud
350
F2
  3
GouraudWithEdges
350
F3
  3
Hidden
350
F7
  3
JitterOff
350
1E4
  3
Linepattern
350
FD
  3
OverhangOff
350
1E5
  3
Realistic
350
F9
  3
Shaded
350
1F3
  3
Shaded with edges
350
1F2
  3
Shades of Gray
350
1EF
  3
Sketchy
350
1F0
  3
Thicken
350
FC
  3
Wireframe
350
F6
  3
X-Ray
350
1F1
  0
XRECORD
  5
1E56
102
{ACAD_REACTORS
330
C
102
}
330
C
100
AcDbXrecord
280
     1
 90
        1
330
7F
330
4A4
330
4A7
330
4A8
  0
DICTIONARY
  5
5E
102
{ACAD_REACTORS
330
C
102
}
330
C
100
AcDbDictionary
281
     1
  3
CANNOSCALE
350
146
  3
CMLEADERSTYLE
350
145
  3
CTABLESTYLE
350
84
  3
CVIEWDETAILSTYLE
350
227
  3
CVIEWSECTIONSTYLE
350
228
  3
DIMASSOC
350
5F
  3
HIDETEXT
350
63
  3
LAYEREVAL
350
1AE
  3
LAYERNOTIFY
350
1AF
  0
DICTIONARY
  5
1E5C
102
{ACAD_REACTORS
330
C
102
}
330
C
100
AcDbDictionary
281
     1
  3
AcDsRecords
350
1E5E
  3
AcDsSchemas
350
1E5D
1001
ACAD
1070
     2
  0
DICTIONARY
  5
1338
102
{ACAD_REACTORS
330
C
102
}
330
C
100
AcDbDictionary
281
     1
  0
DICTIONARY
  5
200
102
{ACAD_REACTORS
330
1FF
102
}
330
1FF
100
AcDbDictionary
281
     1
  0
SORTENTSTABLE
  5
715
102
{ACAD_REACTORS
330
1CE
102
}
330
1CE
100
AcDbSortentsTable
330
1F
331
40D
  5
40D
331
446
  5
446
331
485
  5
485
331
442
  5
442
331
481
  5
481
331
43E
  5
43E
331
47D
  5
47D
331
479
  5
479
331
43A
  5
43A
331
434
  5
434
331
430
  5
430
331
475
  5
475
331
471
  5
471
331
46D
  5
46D
331
469
  5
469
331
4A8
  5
4A8
331
42C
  5
42C
331
428
  5
428
331
424
  5
424
331
420
  5
420
331
465
  5
465
331
4A4
  5
4A4
331
461
  5
461
331
4A0
  5
4A0
331
1D90
  5
1D90
331
45D
  5
45D
331
49C
  5
49C
331
459
  5
459
331
498
  5
498
331
41C
  5
41C
331
418
  5
418
331
414
  5
414
331
410
  5
410
331
455
  5
455
331
494
  5
494
331
1AFE
  5
1B05
331
451
  5
451
331
490
  5
490
331
44D
  5
44D
331
48C
  5
48C
331
449
  5
449
331
488
  5
488
331
40C
  5
40C
331
445
  5
445
331
484
  5
484
331
441
  5
441
331
480
  5
480
331
47C
  5
47C
331
43D
  5
43D
331
478
  5
478
331
439
  5
439
331
437
  5
437
331
433
  5
433
331
474
  5
474
331
470
  5
470
331
46C
  5
46C
331
4AB
  5
4AB
331
468
  5
468
331
42F
  5
42F
331
42B
  5
42B
331
427
  5
427
331
423
  5
423
331
4A7
  5
4A7
331
464
  5
464
331
4A3
  5
4A3
331
460
  5
460
331
49F
  5
49F
331
49B
  5
49B
331
45C
  5
45C
331
458
  5
458
331
41F
  5
41F
331
41B
  5
41B
331
417
  5
417
331
413
  5
413
331
497
  5
497
331
493
  5
493
331
454
  5
454
331
48F
  5
48F
331
450
  5
450
331
1AFD
  5
1AFE
331
48B
  5
48B
331
44C
  5
44C
331
448
  5
448
331
40F
  5
40F
331
40B
  5
40B
331
487
  5
487
331
444
  5
444
331
483
  5
483
331
47F
  5
47F
331
440
  5
440
331
47B
  5
47B
331
43C
  5
43C
331
438
  5
438
331
436
  5
436
331
432
  5
432
331
477
  5
477
331
473
  5
473
331
46F
  5
46F
331
4AA
  5
4AA
331
46B
  5
46B
331
42E
  5
42E
331
42A
  5
42A
331
426
  5
426
331
422
  5
422
331
4A6
  5
4A6
331
467
  5
467
331
4A2
  5
4A2
331
463
  5
463
331
45F
  5
45F
331
49E
  5
49E
331
49A
  5
49A
331
45B
  5
45B
331
41E
  5
41E
331
41A
  5
41A
331
416
  5
416
331
412
  5
412
331
496
  5
496
331
457
  5
457
331
492
  5
492
331
453
  5
453
331
44F
  5
44F
331
48E
  5
48E
331
44B
  5
44B
331
48A
  5
48A
331
40E
  5
40E
331
40A
  5
40A
331
447
  5
447
331
486
  5
486
331
443
  5
443
331
482
  5
482
331
43F
  5
43F
331
47E
  5
47E
331
47A
  5
47A
331
43B
  5
43B
331
435
  5
435
331
431
  5
431
331
476
  5
476
331
472
  5
472
331
46E
  5
46E
331
46A
  5
46A
331
4A9
  5
4A9
331
42D
  5
42D
331
429
  5
429
331
425
  5
425
331
421
  5
421
331
4A5
  5
4A5
331
466
  5
466
331
4A1
  5
4A1
331
462
  5
462
331
45E
  5
45E
331
49D
  5
49D
331
45A
  5
45A
331
499
  5
499
331
41D
  5
41D
331
419
  5
419
331
415
  5
415
331
411
  5
411
331
495
  5
495
331
456
  5
456
331
491
  5
491
331
452
  5
452
331
44E
  5
44E
331
48D
  5
48D
331
44A
  5
44A
331
489
  5
489
  0
SORTENTSTABLE
  5
18D1
102
{ACAD_REACTORS
330
18D0
102
}
330
18D0
100
AcDbSortentsTable
330
18AF
  0
DIMASSOC
  5
1DAB
102
{ACAD_REACTORS
330
1DA0
102
}
330
1DA0
100
AcDbDimAssoc
330
1D92
 90
        3
 70
     0
 71
     0
  1
AcDbOsnapPointRef
 72
     6
331
1D90
 73
     2
 91
        5
 40
1.0
 10
0.0
 20
0.0
 30
0.0
332
1D90
 74
     2
 92
        6
 75
     0
  1
AcDbOsnapPointRef
 72
     1
331
1D90
 73
     2
 91
        8
 40
4.712388980384689
 10
0.0
 20
0.0
 30
2.000000000000000E+50
 75
     0
  0
DIMASSOC
  5
1DE9
102
{ACAD_REACTORS
330
1DDE
102
}
330
1DDE
100
AcDbDimAssoc
330
1DD0
 90
        3
 70
     0
 71
     0
  1
AcDbOsnapPointRef
 72
     1
331
1D90
 73
     2
 91
        7
 40
1.0
 10
0.0
 20
0.0
 30
2.000000000000000E+50
 75
     0
  1
AcDbOsnapPointRef
 72
     6
331
1D90
 73
     2
 91
        3
 40
0.0
 10
0.0
 20
0.0
 30
0.0
332
1D90
 74
     2
 92
        2
 75
     0
  0
DIMASSOC
  5
1E2B
102
{ACAD_REACTORS
330
1E25
102
}
330
1E25
100
AcDbDimAssoc
330
1E1C
 90
        2
 70
     0
 71
     0
  1
AcDbOsnapPointRef
 72
     3
331
1D90
 73
     2
 91
        4
 40
0.0
 10
0.0
 20
0.0
 30
0.0
 75
     0
  0
ACDBDETAILVIEWSTYLE
  5
130E
102
{ACAD_XDICTIONARY
360
1364
102
}
102
{ACAD_REACTORS
330
21B
102
}
330
21B
100
AcDbModelDocViewStyle
 70
     0
  3
Imperial24
290
     0
100
AcDbDetailViewStyle
 70
     0
 71
     0
 90
        3
 71
     1
340
11
 62
   256
 40
0.24
340
0
 62
   256
 40
0.24
300

 40
0.36
280
     3
 71
     2
340
16
 90
       25
 62
   256
 71
     3
340
11
 62
   256
 40
0.24
 90
        1
 40
0.75
 90
        1
300
%<\AcVar ViewType \f "%tc1">% %<\AcVar ViewDetailId>%\PSCALE %<\AcVar ViewScale \f "%sn">%
 71
     4
340
16
 90
       25
 62
   256
340
16
 90
       25
 62
   256
280
     0
  0
ACDBDETAILVIEWSTYLE
  5
21C
102
{ACAD_XDICTIONARY
360
1360
102
}
102
{ACAD_REACTORS
330
21B
102
}
330
21B
100
AcDbModelDocViewStyle
 70
     0
  3
Metric50
290
     0
100
AcDbDetailViewStyle
 70
     0
 71
     0
 90
        3
 71
     1
340
11
 62
   256
 40
5.0
340
0
 62
   256
 40
5.0
300

 40
0.0
280
     1
 71
     2
340
16
 90
       25
 62
   256
 71
     3
340
11
 62
   256
 40
5.0
 90
        0
 40
15.0
 90
        1
300
%<\AcVar ViewDetailId>% (%<\AcVar ViewScale \f "%sn">%)
 71
     4
340
16
 90
       25
 62
   256
340
16
 90
       25
 62
   256
280
     0
  0
LAYOUT
  5
22
102
{ACAD_XDICTIONARY
360
205
102
}
102
{ACAD_REACTORS
330
1A
102
}
330
1A
100
AcDbPlotSettings
  1

  2
none_device
  4
ISO_A4_(210.00_x_297.00_MM)
  6

 40
7.5
 41
20.0
 42
7.5
 43
20.0
 44
210.0
 45
297.0
 46
11.54999923706054
 47
-13.65000009536743
 48
0.0
 49
0.0
140
0.0
141
0.0
142
1.0
143
8.704084754739808
 70
 11952
 72
     1
 73
     0
 74
     0
  7

 75
     0
147
0.1148885871608098
 76
     0
 77
     2
 78
   300
148
0.0
149
0.0
100
AcDbLayout
  1
Model
 70
     1
 71
     0
 10
0.0
 20
0.0
 11
12.0
 21
9.0
 12
0.0
 22
0.0
 32
0.0
 14
0.0
 24
0.0
 34
0.0
 15
0.0
 25
0.0
 35
0.0
146
0.0
 13
0.0
 23
0.0
 33
0.0
 16
1.0
 26
0.0
 36
0.0
 17
0.0
 27
1.0
 37
0.0
 76
     0
330
1F
331
EA
1001
ACAD_PSEXT
1000
None
1000
None
1000
Not applicable
1000
The layout will not be plotted unless a new plotter configuration name is selected.
1070
     0
  0
LAYOUT
  5
D3
102
{ACAD_REACTORS
330
1A
102
}
330
1A
100
AcDbPlotSettings
  1

  2
C:\Documents and Settings\basas\Application Data\Autodesk\AutoCAD 2005\R16.1\enu\plotters\Default Windows System Printer.pc3
  4

  6

 40
0.0
 41
0.0
 42
0.0
 43
0.0
 44
0.0
 45
0.0
 46
0.0
 47
0.0
 48
0.0
 49
0.0
140
0.0
141
0.0
142
1.0
143
1.0
 70
   688
 72
     0
 73
     0
 74
     5
  7

 75
    16
147
1.0
 76
     0
 77
     2
 78
   300
148
0.0
149
0.0
100
AcDbLayout
  1
布局1
 70
     1
 71
     1
 10
0.0
 20
0.0
 11
12.0
 21
9.0
 12
0.0
 22
0.0
 32
0.0
 14
0.0
 24
0.0
 34
0.0
 15
0.0
 25
0.0
 35
0.0
146
0.0
 13
0.0
 23
0.0
 33
0.0
 16
1.0
 26
0.0
 36
0.0
 17
0.0
 27
1.0
 37
0.0
 76
     0
330
D2
  0
LAYOUT
  5
D7
102
{ACAD_REACTORS
330
1A
102
}
330
1A
100
AcDbPlotSettings
  1

  2
C:\Documents and Settings\basas\Application Data\Autodesk\AutoCAD 2005\R16.1\enu\plotters\Default Windows System Printer.pc3
  4

  6

 40
0.0
 41
0.0
 42
0.0
 43
0.0
 44
0.0
 45
0.0
 46
0.0
 47
0.0
 48
0.0
 49
0.0
140
0.0
141
0.0
142
1.0
143
1.0
 70
   688
 72
     0
 73
     0
 74
     5
  7

 75
    16
147
1.0
 76
     0
 77
     2
 78
   300
148
0.0
149
0.0
100
AcDbLayout
  1
布局2
 70
     1
 71
     2
 10
0.0
 20
0.0
 11
12.0
 21
9.0
 12
0.0
 22
0.0
 32
0.0
 14
0.0
 24
0.0
 34
0.0
 15
0.0
 25
0.0
 35
0.0
146
0.0
 13
0.0
 23
0.0
 33
0.0
 16
1.0
 26
0.0
 36
0.0
 17
0.0
 27
1.0
 37
0.0
 76
     0
330
D6
  0
MATERIAL
  5
ED
102
{ACAD_XDICTIONARY
360
1F9
102
}
102
{ACAD_REACTORS
330
6A
102
}
330
6A
100
AcDbMaterial
  1
ByBlock
 94
       63
  0
MATERIAL
  5
EC
102
{ACAD_XDICTIONARY
360
1F7
102
}
102
{ACAD_REACTORS
330
6A
102
}
330
6A
100
AcDbMaterial
  1
ByLayer
 94
       63
  0
MATERIAL
  5
EE
102
{ACAD_XDICTIONARY
360
173
102
}
102
{ACAD_REACTORS
330
6A
102
}
330
6A
100
AcDbMaterial
  1
Global
 43
0.0007999999797903
 43
0.0
 43
0.0
 43
0.0
 43
0.0
 43
0.0007999999797903
 43
0.0
 43
0.0
 43
0.0
 43
0.0
 43
1.0
 43
0.0
 43
0.0
 43
0.0
 43
0.0
 43
1.0
 49
0.0007999999797903
 49
0.0
 49
0.0
 49
0.0
 49
0.0
 49
0.0007999999797903
 49
0.0
 49
0.0
 49
0.0
 49
0.0
 49
1.0
 49
0.0
 49
0.0
 49
0.0
 49
0.0
 49
1.0
142
0.0007999999797903
142
0.0
142
0.0
142
0.0
142
0.0
142
0.0007999999797903
142
0.0
142
0.0
142
0.0
142
0.0
142
1.0
142
0.0
142
0.0
142
0.0
142
0.0
142
1.0
144
0.0007999999797903
144
0.0
144
0.0
144
0.0
144
0.0
144
0.0007999999797903
144
0.0
144
0.0
144
0.0
144
0.0
144
1.0
144
0.0
144
0.0
144
0.0
144
0.0
144
1.0
 94
       63
1001
ACAD
1070
    -1
1070
     3
1070
     0
1000

1071
        0
1070
     0
  0
MLEADERSTYLE
  5
13B
102
{ACAD_REACTORS
330
12D
102
}
330
12D
100
AcDbMLeaderStyle
179
     2
170
     2
171
     1
172
     0
 90
        2
 40
0.0
 41
0.0
173
     1
 91
-1056964608
340
14
 92
       -2
290
     1
 42
2.0
291
     1
 43
8.0
  3
Standard
 44
4.0
300

342
11
174
     1
178
     1
175
     1
176
     0
 93
-1056964608
 45
4.0
292
     0
297
     0
 46
4.0
 94
-1056964608
 47
1.0
 49
1.0
140
1.0
293
     1
141
0.0
294
     1
177
     0
142
1.0
295
     0
296
     1
143
3.75
271
     0
272
     9
273
     9
  0
MLEADERSTYLE
  5
2C7
102
{ACAD_REACTORS
330
12D
102
}
330
12D
100
AcDbMLeaderStyle
179
     2
170
     2
171
     1
172
     0
 90
        2
 40
0.0
 41
0.0
173
     1
 91
-1023410174
340
14
 92
        5
290
     1
 42
2.0
291
     1
 43
8.0
  3
Standard
 44
10.0
300

342
11
174
     1
178
     1
175
     1
176
     0
 93
-1056964608
 45
4.0
292
     0
297
     0
 46
4.0
 94
-1056964608
 47
1.0
 49
1.0
140
1.0
293
     1
141
0.0
294
     1
177
     0
142
1.0
295
     0
296
     0
143
3.75
271
     0
272
     9
273
     9
  0
MLEADERSTYLE
  5
12E
102
{ACAD_REACTORS
330
12D
102
}
330
12D
100
AcDbMLeaderStyle
179
     2
170
     2
171
     1
172
     0
 90
        2
 40
0.0
 41
0.0
173
     1
 91
-1056964608
340
14
 92
       -2
290
     1
 42
2.0
291
     1
 43
8.0
  3
Standard
 44
4.0
300

342
11
174
     1
178
     1
175
     1
176
     0
 93
-1056964608
 45
4.0
292
     0
297
     0
 46
4.0
 94
-1056964608
 47
1.0
 49
1.0
140
1.0
293
     1
141
0.0
294
     1
177
     0
142
1.0
295
     0
296
     0
143
3.75
271
     0
272
     9
273
     9
  0
MLINESTYLE
  5
18
102
{ACAD_REACTORS
330
17
102
}
330
17
100
AcDbMlineStyle
  2
STANDARD
 70
     0
  3

 62
   256
 51
90.0
 52
90.0
 71
     2
 49
0.5
 62
   256
  6
BYLAYER
 49
-0.5
 62
   256
  6
BYLAYER
  0
ACDBPLACEHOLDER
  5
F
102
{ACAD_REACTORS
330
E
102
}
330
E
  0
SCALE
  5
10D
102
{ACAD_REACTORS
330
10C
102
}
330
10C
100
AcDbScale
 70
     0
300
1:1
140
1.0
141
1.0
290
     1
  0
SCALE
  5
1BE
102
{ACAD_REACTORS
330
10C
102
}
330
10C
100
AcDbScale
 70
     0
300
1:2
140
1.0
141
2.0
290
     0
  0
SCALE
  5
1BF
102
{ACAD_REACTORS
330
10C
102
}
330
10C
100
AcDbScale
 70
     0
300
1:4
140
1.0
141
4.0
290
     0
  0
SCALE
  5
1C0
102
{ACAD_REACTORS
330
10C
102
}
330
10C
100
AcDbScale
 70
     0
300
1:5
140
1.0
141
5.0
290
     0
  0
SCALE
  5
1C1
102
{ACAD_REACTORS
330
10C
102
}
330
10C
100
AcDbScale
 70
     0
300
1:8
140
1.0
141
8.0
290
     0
  0
SCALE
  5
1C2
102
{ACAD_REACTORS
330
10C
102
}
330
10C
100
AcDbScale
 70
     0
300
1:10
140
1.0
141
10.0
290
     0
  0
SCALE
  5
1C3
102
{ACAD_REACTORS
330
10C
102
}
330
10C
100
AcDbScale
 70
     0
300
1:16
140
1.0
141
16.0
290
     0
  0
SCALE
  5
1C4
102
{ACAD_REACTORS
330
10C
102
}
330
10C
100
AcDbScale
 70
     0
300
1:20
140
1.0
141
20.0
290
     0
  0
SCALE
  5
1C5
102
{ACAD_REACTORS
330
10C
102
}
330
10C
100
AcDbScale
 70
     0
300
1:30
140
1.0
141
30.0
290
     0
  0
SCALE
  5
1C6
102
{ACAD_REACTORS
330
10C
102
}
330
10C
100
AcDbScale
 70
     0
300
1:40
140
1.0
141
40.0
290
     0
  0
SCALE
  5
1C7
102
{ACAD_REACTORS
330
10C
102
}
330
10C
100
AcDbScale
 70
     0
300
1:50
140
1.0
141
50.0
290
     0
  0
SCALE
  5
1C8
102
{ACAD_REACTORS
330
10C
102
}
330
10C
100
AcDbScale
 70
     0
300
1:100
140
1.0
141
100.0
290
     0
  0
SCALE
  5
1C9
102
{ACAD_REACTORS
330
10C
102
}
330
10C
100
AcDbScale
 70
     0
300
2:1
140
2.0
141
1.0
290
     0
  0
SCALE
  5
1CA
102
{ACAD_REACTORS
330
10C
102
}
330
10C
100
AcDbScale
 70
     0
300
4:1
140
4.0
141
1.0
290
     0
  0
SCALE
  5
1CB
102
{ACAD_REACTORS
330
10C
102
}
330
10C
100
AcDbScale
 70
     0
300
8:1
140
8.0
141
1.0
290
     0
  0
SCALE
  5
1CC
102
{ACAD_REACTORS
330
10C
102
}
330
10C
100
AcDbScale
 70
     0
300
10:1
140
10.0
141
1.0
290
     0
  0
SCALE
  5
1CD
102
{ACAD_REACTORS
330
10C
102
}
330
10C
100
AcDbScale
 70
     0
300
100:1
140
100.0
141
1.0
290
     0
  0
ACDBSECTIONVIEWSTYLE
  5
130D
102
{ACAD_XDICTIONARY
360
1362
102
}
102
{ACAD_REACTORS
330
219
102
}
330
219
100
AcDbModelDocViewStyle
 70
     0
  3
Imperial24
290
     0
100
AcDbSectionViewStyle
 70
     0
 71
     0
 90
       78
 71
     1
340
11
 62
   256
 40
0.24
340
0
340
0
 62
   256
 40
0.24
300
I, O, Q, S, X, Z
 40
0.48
 90
        3
 40
0.18
 90
        1
 71
     2
340
16
 90
       25
 62
   256
340
16
 90
       50
 62
   256
 40
0.24
 40
0.0
 40
0.24
 71
     3
340
11
 62
   256
 40
0.24
 90
        1
 40
0.75
 90
        1
300
%<\AcVar ViewType \f "%tc1">% %<\AcVar ViewSectionStartId>%-%<\AcVar ViewSectionEndId>%\PSCALE %<\AcVar ViewScale \f "%sn">%
 71
     4
 62
   256
 62
   257
300
ANSI31
 40
1.0
 90
        0
290
     0
290
     0
 90
        6
 40
0.0
 40
1.570796326794896
 40
0.2617993877991494
 40
1.308996938995747
 40
-0.2617993877991494
 40
1.832595714594046
  0
ACDBSECTIONVIEWSTYLE
  5
21A
102
{ACAD_XDICTIONARY
360
135E
102
}
102
{ACAD_REACTORS
330
219
102
}
330
219
100
AcDbModelDocViewStyle
 70
     0
  3
Metric50
290
     0
100
AcDbSectionViewStyle
 70
     0
 71
     0
 90
      102
 71
     1
340
11
 62
   256
 40
5.0
340
0
340
0
 62
   256
 40
5.0
300
I, O, Q, S, X, Z
 40
10.0
 90
        0
 40
2.5
 90
        0
 71
     2
340
16
 90
       25
 62
   256
340
16
 90
       50
 62
   256
 40
5.0
 40
2.5
 40
5.0
 71
     3
340
11
 62
   256
 40
5.0
 90
        0
 40
15.0
 90
        1
300
%<\AcVar ViewSectionStartId>%-%<\AcVar ViewSectionEndId>% (%<\AcVar ViewScale \f "%sn">%)
 71
     4
 62
   256
 62
   257
300
ANSI31
 40
1.0
 90
        0
290
     0
290
     0
 90
        6
 40
0.0
 40
1.570796326794896
 40
0.2617993877991494
 40
1.308996938995747
 40
-0.2617993877991494
 40
1.832595714594045
  0
TABLESTYLE
  5
7F
102
{ACAD_XDICTIONARY
360
162
102
}
102
{ACAD_REACTORS
330
7E
102
}
330
7E
100
AcDbTableStyle
280
     0
  3
Standard
 70
     0
 71
     0
 40
1.5
 41
1.5
280
     0
281
     0
  7
Standard
140
4.5
170
     2
 62
     0
 63
     7
283
     0
 90
      512
 91
        0
  1

274
    -2
284
     1
 64
     0
275
    -2
285
     1
 65
     0
276
    -2
286
     1
 66
     0
277
    -2
287
     1
 67
     0
278
    -2
288
     1
 68
     0
279
    -2
289
     1
 69
     0
  7
Standard
140
6.0
170
     5
 62
     0
 63
     7
283
     0
 90
      512
 91
        0
  1

274
    -2
284
     1
 64
     0
275
    -2
285
     1
 65
     0
276
    -2
286
     1
 66
     0
277
    -2
287
     1
 67
     0
278
    -2
288
     1
 68
     0
279
    -2
289
     1
 69
     0
  7
Standard
140
4.5
170
     5
 62
     0
 63
     7
283
     0
 90
      512
 91
        0
  1

274
    -2
284
     1
 64
     0
275
    -2
285
     1
 65
     0
276
    -2
286
     1
 66
     0
277
    -2
287
     1
 67
     0
278
    -2
288
     1
 68
     0
279
    -2
289
     1
 69
     0
  0
VISUALSTYLE
  5
F5
102
{ACAD_XDICTIONARY
360
1E69
102
}
102
{ACAD_REACTORS
330
EF
102
}
330
EF
100
AcDbVisualStyle
  2
2dWireframe
 70
     4
177
     2
291
     0
 71
     0
176
     1
 72
     2
176
     1
 73
     1
176
     1
 90
        0
176
     1
 40
0.6
176
     1
 41
30.0
176
     1
 63
     7
421
 16777215
176
     1
 74
     1
176
     1
 91
        4
176
     1
 64
     7
176
     1
 65
   257
176
     1
 75
     1
176
     1
175
     1
176
     1
 42
1.0
176
     1
 92
        0
176
     1
 66
   257
176
     1
 43
1.0
176
     1
 76
     1
176
     1
 77
     6
176
     1
 78
     2
176
     1
 67
     7
176
     1
 79
     5
176
     1
170
     0
176
     1
171
     0
176
     1
290
     0
176
     1
 93
        1
176
     1
 44
0.0
176
     1
173
     0
176
     1
1001
ACAD
1000
AcDbSavedByObjectVersion
1070
     0
  0
VISUALSTYLE
  5
F4
102
{ACAD_XDICTIONARY
360
1E67
102
}
102
{ACAD_REACTORS
330
EF
102
}
330
EF
100
AcDbVisualStyle
  2
Basic
 70
     7
177
     2
291
     1
 71
     1
176
     1
 72
     0
176
     1
 73
     1
176
     1
 90
        0
176
     1
 40
0.6
176
     1
 41
30.0
176
     1
 63
     7
421
 16777215
176
     1
 74
     0
176
     1
 91
        4
176
     1
 64
     7
176
     1
 65
   257
176
     1
 75
     1
176
     1
175
     1
176
     1
 42
1.0
176
     1
 92
        8
176
     1
 66
     7
176
     1
 43
1.0
176
     1
 76
     1
176
     1
 77
     6
176
     1
 78
     2
176
     1
 67
     7
176
     1
 79
     5
176
     1
170
     0
176
     1
171
     0
176
     1
290
     0
176
     1
 93
        1
176
     1
 44
0.0
176
     1
173
     0
176
     1
1001
ACAD
1000
AcDbSavedByObjectVersion
1070
     0
  0
VISUALSTYLE
  5
FB
102
{ACAD_XDICTIONARY
360
1E75
102
}
102
{ACAD_REACTORS
330
EF
102
}
330
EF
100
AcDbVisualStyle
  2
Brighten
 70
    12
177
     2
291
     1
 71
     2
176
     1
 72
     2
176
     1
 73
     1
176
     1
 90
        0
176
     1
 40
0.6
176
     1
 41
30.0
176
     1
 63
     7
421
 16777215
176
     1
 74
     1
176
     1
 91
        4
176
     1
 64
     7
176
     1
 65
   257
176
     1
 75
     1
176
     1
175
     1
176
     1
 42
1.0
176
     1
 92
        8
176
     1
 66
     7
176
     1
 43
1.0
176
     1
 76
     1
176
     1
 77
     6
176
     1
 78
     2
176
     1
 67
     7
176
     1
 79
     5
176
     1
170
     0
176
     1
171
     0
176
     1
290
     0
176
     1
 93
        1
176
     1
 44
50.0
176
     1
173
     0
176
     1
1001
ACAD
1000
AcDbSavedByObjectVersion
1070
     0
  0
VISUALSTYLE
  5
FF
102
{ACAD_XDICTIONARY
360
1E7D
102
}
102
{ACAD_REACTORS
330
EF
102
}
330
EF
100
AcDbVisualStyle
  2
ColorChange
 70
    16
177
     2
291
     1
 71
     2
176
     1
 72
     2
176
     1
 73
     3
176
     1
 90
        0
176
     1
 40
0.6
176
     1
 41
30.0
176
     1
 63
     8
421
  8421504
176
     1
 74
     1
176
     1
 91
        4
176
     1
 64
     7
176
     1
 65
   257
176
     1
 75
     1
176
     1
175
     1
176
     1
 42
1.0
176
     1
 92
        8
176
     1
 66
     8
424
  8421504
176
     1
 43
1.0
176
     1
 76
     1
176
     1
 77
     6
176
     1
 78
     2
176
     1
 67
     7
176
     1
 79
     5
176
     1
170
     0
176
     1
171
     0
176
     1
290
     0
176
     1
 93
        1
176
     1
 44
0.0
176
     1
173
     0
176
     1
1001
ACAD
1000
AcDbSavedByObjectVersion
1070
     0
  0
VISUALSTYLE
  5
F8
102
{ACAD_XDICTIONARY
360
1E6F
102
}
102
{ACAD_REACTORS
330
EF
102
}
330
EF
100
AcDbVisualStyle
  2
Conceptual
 70
     9
177
     2
291
     0
 71
     3
176
     1
 72
     2
176
     1
 73
     1
176
     1
 90
        0
176
     1
 40
0.6
176
     1
 41
30.0
176
     1
 63
     7
421
 16777215
176
     1
 74
     2
176
     1
 91
        2
176
     1
 64
     7
176
     1
 65
   257
176
     1
 75
     1
176
     1
175
     1
176
     1
 42
40.0
176
     1
 92
        8
176
     1
 66
     7
176
     1
 43
1.0
176
     1
 76
     1
176
     1
 77
     6
176
     1
 78
     2
176
     1
 67
     7
176
     1
 79
     3
176
     1
170
     0
176
     1
171
     0
176
     1
290
     0
176
     1
 93
        1
176
     1
 44
0.0
176
     1
173
     0
176
     1
1001
ACAD
1000
AcDbSavedByObjectVersion
1070
     0
  0
VISUALSTYLE
  5
FA
102
{ACAD_XDICTIONARY
360
1E73
102
}
102
{ACAD_REACTORS
330
EF
102
}
330
EF
100
AcDbVisualStyle
  2
Dim
 70
    11
177
     2
291
     1
 71
     2
176
     1
 72
     2
176
     1
 73
     1
176
     1
 90
        0
176
     1
 40
0.6
176
     1
 41
30.0
176
     1
 63
     7
421
 16777215
176
     1
 74
     1
176
     1
 91
        4
176
     1
 64
     7
176
     1
 65
   257
176
     1
 75
     1
176
     1
175
     1
176
     1
 42
1.0
176
     1
 92
        8
176
     1
 66
     7
176
     1
 43
1.0
176
     1
 76
     1
176
     1
 77
     6
176
     1
 78
     2
176
     1
 67
     7
176
     1
 79
     5
176
     1
170
     0
176
     1
171
     0
176
     1
290
     0
176
     1
 93
        1
176
     1
 44
-50.0
176
     1
173
     0
176
     1
1001
ACAD
1000
AcDbSavedByObjectVersion
1070
     0
  0
VISUALSTYLE
  5
1E6
102
{ACAD_XDICTIONARY
360
1E83
102
}
102
{ACAD_REACTORS
330
EF
102
}
330
EF
100
AcDbVisualStyle
  2
EdgeColorOff
 70
    22
177
     2
291
     1
 71
     2
176
     0
 72
     2
176
     0
 73
     0
176
     0
 90
        0
176
     0
 40
0.6
176
     0
 41
30.0
176
     0
 63
     7
421
 16777215
176
     0
 74
     1
176
     0
 91
        4
176
     0
 64
     7
176
     0
 65
   257
176
     0
 75
     1
176
     0
175
     1
176
     0
 42
1.0
176
     0
 92
        8
176
     2
 66
     7
176
     0
 43
1.0
176
     0
 76
     1
176
     0
 77
     6
176
     0
 78
     2
176
     0
 67
     7
176
     0
 79
     5
176
     0
170
     0
176
     0
171
     0
176
     0
290
     0
176
     0
 93
        1
176
     0
 44
0.0
176
     0
173
     0
176
     0
1001
ACAD
1000
AcDbSavedByObjectVersion
1070
     0
  0
VISUALSTYLE
  5
FE
102
{ACAD_XDICTIONARY
360
1E7B
102
}
102
{ACAD_REACTORS
330
EF
102
}
330
EF
100
AcDbVisualStyle
  2
Facepattern
 70
    15
177
     2
291
     1
 71
     2
176
     1
 72
     2
176
     1
 73
     1
176
     1
 90
        0
176
     1
 40
0.6
176
     1
 41
30.0
176
     1
 63
     7
421
 16777215
176
     1
 74
     1
176
     1
 91
        4
176
     1
 64
     7
176
     1
 65
   257
176
     1
 75
     1
176
     1
175
     1
176
     1
 42
1.0
176
     1
 92
        8
176
     1
 66
     7
176
     1
 43
1.0
176
     1
 76
     1
176
     1
 77
     6
176
     1
 78
     2
176
     1
 67
     7
176
     1
 79
     5
176
     1
170
     0
176
     1
171
     0
176
     1
290
     0
176
     1
 93
        1
176
     1
 44
0.0
176
     1
173
     0
176
     1
1001
ACAD
1000
AcDbSavedByObjectVersion
1070
     0
  0
VISUALSTYLE
  5
F0
102
{ACAD_XDICTIONARY
360
1E5F
102
}
102
{ACAD_REACTORS
330
EF
102
}
330
EF
100
AcDbVisualStyle
  2
Flat
 70
     0
177
     2
291
     1
 71
     2
176
     1
 72
     1
176
     1
 73
     1
176
     1
 90
        2
176
     1
 40
0.6
176
     1
 41
30.0
176
     1
 63
     7
421
 16777215
176
     1
 74
     0
176
     1
 91
        0
176
     1
 64
     7
176
     1
 65
   257
176
     1
 75
     1
176
     1
175
     1
176
     1
 42
1.0
176
     1
 92
        8
176
     1
 66
     7
176
     1
 43
1.0
176
     1
 76
     1
176
     1
 77
     6
176
     1
 78
     2
176
     1
 67
     7
176
     1
 79
     5
176
     1
170
     0
176
     1
171
     0
176
     1
290
     0
176
     1
 93
       13
176
     1
 44
0.0
176
     1
173
     0
176
     1
1001
ACAD
1000
AcDbSavedByObjectVersion
1070
     0
  0
VISUALSTYLE
  5
F1
102
{ACAD_XDICTIONARY
360
1E61
102
}
102
{ACAD_REACTORS
330
EF
102
}
330
EF
100
AcDbVisualStyle
  2
FlatWithEdges
 70
     1
177
     2
291
     1
 71
     2
176
     1
 72
     1
176
     1
 73
     1
176
     1
 90
        2
176
     1
 40
0.6
176
     1
 41
30.0
176
     1
 63
     7
421
 16777215
176
     1
 74
     1
176
     1
 91
        0
176
     1
 64
     7
176
     1
 65
   257
176
     1
 75
     1
176
     1
175
     1
176
     1
 42
1.0
176
     1
 92
        0
176
     1
 66
   257
176
     1
 43
1.0
176
     1
 76
     1
176
     1
 77
     6
176
     1
 78
     2
176
     1
 67
     7
176
     1
 79
     5
176
     1
170
     0
176
     1
171
     0
176
     1
290
     0
176
     1
 93
       13
176
     1
 44
0.0
176
     1
173
     0
176
     1
1001
ACAD
1000
AcDbSavedByObjectVersion
1070
     0
  0
VISUALSTYLE
  5
F2
102
{ACAD_XDICTIONARY
360
1E63
102
}
102
{ACAD_REACTORS
330
EF
102
}
330
EF
100
AcDbVisualStyle
  2
Gouraud
 70
     2
177
     2
291
     1
 71
     2
176
     1
 72
     2
176
     1
 73
     1
176
     1
 90
        2
176
     1
 40
0.6
176
     1
 41
30.0
176
     1
 63
     7
421
 16777215
176
     1
 74
     0
176
     1
 91
        0
176
     1
 64
     7
176
     1
 65
   257
176
     1
 75
     1
176
     1
175
     1
176
     1
 42
1.0
176
     1
 92
        0
176
     1
 66
     7
176
     1
 43
1.0
176
     1
 76
     1
176
     1
 77
     6
176
     1
 78
     2
176
     1
 67
     7
176
     1
 79
     5
176
     1
170
     0
176
     1
171
     0
176
     1
290
     0
176
     1
 93
       13
176
     1
 44
0.0
176
     1
173
     0
176
     1
1001
ACAD
1000
AcDbSavedByObjectVersion
1070
     0
  0
VISUALSTYLE
  5
F3
102
{ACAD_XDICTIONARY
360
1E65
102
}
102
{ACAD_REACTORS
330
EF
102
}
330
EF
100
AcDbVisualStyle
  2
GouraudWithEdges
 70
     3
177
     2
291
     1
 71
     2
176
     1
 72
     2
176
     1
 73
     1
176
     1
 90
        2
176
     1
 40
0.6
176
     1
 41
30.0
176
     1
 63
     7
421
 16777215
176
     1
 74
     1
176
     1
 91
        0
176
     1
 64
     7
176
     1
 65
   257
176
     1
 75
     1
176
     1
175
     1
176
     1
 42
1.0
176
     1
 92
        0
176
     1
 66
   257
176
     1
 43
1.0
176
     1
 76
     1
176
     1
 77
     6
176
     1
 78
     2
176
     1
 67
     7
176
     1
 79
     5
176
     1
170
     0
176
     1
171
     0
176
     1
290
     0
176
     1
 93
       13
176
     1
 44
0.0
176
     1
173
     0
176
     1
1001
ACAD
1000
AcDbSavedByObjectVersion
1070
     0
  0
VISUALSTYLE
  5
F7
102
{ACAD_XDICTIONARY
360
1E6D
102
}
102
{ACAD_REACTORS
330
EF
102
}
330
EF
100
AcDbVisualStyle
  2
Hidden
 70
     6
177
     2
291
     0
 71
     1
176
     1
 72
     2
176
     1
 73
     2
176
     1
 90
        0
176
     1
 40
0.6
176
     1
 41
30.0
176
     1
 63
     7
421
 16777215
176
     1
 74
     2
176
     1
 91
        2
176
     1
 64
     7
176
     1
 65
   257
176
     1
 75
     2
176
     1
175
     1
176
     1
 42
40.0
176
     1
 92
        0
176
     1
 66
   257
176
     1
 43
1.0
176
     1
 76
     1
176
     1
 77
     6
176
     1
 78
     2
176
     1
 67
     7
176
     1
 79
     3
176
     1
170
     0
176
     1
171
     0
176
     1
290
     0
176
     1
 93
        1
176
     1
 44
0.0
176
     1
173
     0
176
     1
1001
ACAD
1000
AcDbSavedByObjectVersion
1070
     0
  0
VISUALSTYLE
  5
1E4
102
{ACAD_XDICTIONARY
360
1E7F
102
}
102
{ACAD_REACTORS
330
EF
102
}
330
EF
100
AcDbVisualStyle
  2
JitterOff
 70
    20
177
     2
291
     1
 71
     2
176
     0
 72
     2
176
     0
 73
     0
176
     0
 90
        0
176
     0
 40
0.6
176
     0
 41
30.0
176
     0
 63
     7
421
 16777215
176
     0
 74
     1
176
     0
 91
        4
176
     0
 64
     7
176
     0
 65
   257
176
     0
 75
     1
176
     0
175
     1
176
     0
 42
1.0
176
     0
 92
       10
176
     2
 66
     7
176
     0
 43
1.0
176
     0
 76
     1
176
     0
 77
     6
176
     0
 78
     2
176
     0
 67
     7
176
     0
 79
     5
176
     0
170
     0
176
     0
171
     0
176
     0
290
     0
176
     0
 93
        1
176
     0
 44
0.0
176
     0
173
     0
176
     0
1001
ACAD
1000
AcDbSavedByObjectVersion
1070
     0
  0
VISUALSTYLE
  5
FD
102
{ACAD_XDICTIONARY
360
1E79
102
}
102
{ACAD_REACTORS
330
EF
102
}
330
EF
100
AcDbVisualStyle
  2
Linepattern
 70
    14
177
     2
291
     1
 71
     2
176
     1
 72
     2
176
     1
 73
     1
176
     1
 90
        0
176
     1
 40
0.6
176
     1
 41
30.0
176
     1
 63
     7
421
 16777215
176
     1
 74
     1
176
     1
 91
        4
176
     1
 64
     7
176
     1
 65
   257
176
     1
 75
     7
176
     1
175
     7
176
     1
 42
1.0
176
     1
 92
        8
176
     1
 66
     7
176
     1
 43
1.0
176
     1
 76
     1
176
     1
 77
     6
176
     1
 78
     2
176
     1
 67
     7
176
     1
 79
     5
176
     1
170
     0
176
     1
171
     0
176
     1
290
     0
176
     1
 93
        1
176
     1
 44
0.0
176
     1
173
     0
176
     1
1001
ACAD
1000
AcDbSavedByObjectVersion
1070
     0
  0
VISUALSTYLE
  5
1E5
102
{ACAD_XDICTIONARY
360
1E81
102
}
102
{ACAD_REACTORS
330
EF
102
}
330
EF
100
AcDbVisualStyle
  2
OverhangOff
 70
    21
177
     2
291
     1
 71
     2
176
     0
 72
     2
176
     0
 73
     0
176
     0
 90
        0
176
     0
 40
0.6
176
     0
 41
30.0
176
     0
 63
     7
421
 16777215
176
     0
 74
     1
176
     0
 91
        4
176
     0
 64
     7
176
     0
 65
   257
176
     0
 75
     1
176
     0
175
     1
176
     0
 42
1.0
176
     0
 92
        9
176
     2
 66
     7
176
     0
 43
1.0
176
     0
 76
     1
176
     0
 77
     6
176
     0
 78
     2
176
     0
 67
     7
176
     0
 79
     5
176
     0
170
     0
176
     0
171
     0
176
     0
290
     0
176
     0
 93
        1
176
     0
 44
0.0
176
     0
173
     0
176
     0
1001
ACAD
1000
AcDbSavedByObjectVersion
1070
     0
  0
VISUALSTYLE
  5
F9
102
{ACAD_XDICTIONARY
360
1E71
102
}
102
{ACAD_REACTORS
330
EF
102
}
330
EF
100
AcDbVisualStyle
  2
Realistic
 70
     8
177
     2
291
     0
 71
     2
176
     1
 72
     3
176
     1
 73
     0
176
     1
 90
        2
176
     1
 40
0.6
176
     1
 41
30.0
176
     1
 63
     7
421
 16777215
176
     1
 74
     0
176
     1
 91
        0
176
     1
 64
     7
176
     1
 65
   257
176
     1
 75
     1
176
     1
175
     1
176
     1
 42
1.0
176
     1
 92
        8
176
     1
 66
   257
176
     1
 43
1.0
176
     1
 76
     1
176
     1
 77
     6
176
     1
 78
     2
176
     1
 67
     7
176
     1
 79
     3
176
     1
170
     0
176
     1
171
     0
176
     1
290
     0
176
     1
 93
       13
176
     1
 44
0.0
176
     1
173
     0
176
     1
1001
ACAD
1000
AcDbSavedByObjectVersion
1070
     0
  0
VISUALSTYLE
  5
1F3
102
{ACAD_XDICTIONARY
360
1E8D
102
}
102
{ACAD_REACTORS
330
EF
102
}
330
EF
100
AcDbVisualStyle
  2
Shaded
 70
    27
177
     2
291
     0
 71
     2
176
     1
 72
     2
176
     1
 73
     1
176
     1
 90
        2
176
     1
 40
0.6
176
     1
 41
30.0
176
     1
 63
     7
421
 16777215
176
     1
 74
     0
176
     1
 91
        4
176
     1
 64
     7
176
     1
 65
   257
176
     1
 75
     1
176
     1
175
     1
176
     1
 42
1.0
176
     1
 92
        8
176
     1
 66
   257
176
     1
 43
1.0
176
     1
 76
     1
176
     1
 77
     6
176
     1
 78
     2
176
     1
 67
     8
425
  7895160
176
     1
 79
     3
176
     1
170
     0
176
     1
171
     0
176
     1
290
     0
176
     1
 93
        5
176
     1
 44
0.0
176
     1
173
     0
176
     1
1001
ACAD
1000
AcDbSavedByObjectVersion
1070
     0
  0
VISUALSTYLE
  5
1F2
102
{ACAD_XDICTIONARY
360
1E8B
102
}
102
{ACAD_REACTORS
330
EF
102
}
330
EF
100
AcDbVisualStyle
  2
Shaded with edges
 70
    26
177
     2
291
     0
 71
     2
176
     1
 72
     2
176
     1
 73
     1
176
     1
 90
        2
176
     1
 40
0.6
176
     1
 41
30.0
176
     1
 63
     7
421
 16777215
176
     1
 74
     1
176
     1
 91
       10
176
     1
 64
     7
176
     1
 65
   257
176
     1
 75
     2
176
     1
175
     1
176
     1
 42
1.0
176
     1
 92
        8
176
     1
 66
   257
176
     1
 43
1.0
176
     1
 76
     1
176
     1
 77
     6
176
     1
 78
     2
176
     1
 67
     7
176
     1
 79
     3
176
     1
170
     0
176
     1
171
     0
176
     1
290
     0
176
     1
 93
        5
176
     1
 44
0.0
176
     1
173
     0
176
     1
1001
ACAD
1000
AcDbSavedByObjectVersion
1070
     0
  0
VISUALSTYLE
  5
1EF
102
{ACAD_XDICTIONARY
360
1E85
102
}
102
{ACAD_REACTORS
330
EF
102
}
330
EF
100
AcDbVisualStyle
  2
Shades of Gray
 70
    23
177
     2
291
     0
 71
     2
176
     1
 72
     2
176
     1
 73
     3
176
     1
 90
        0
176
     1
 40
0.6
176
     1
 41
30.0
176
     1
 63
     7
421
 16777215
176
     1
 74
     2
176
     1
 91
        2
176
     1
 64
     7
176
     1
 65
     7
176
     1
 75
     1
176
     1
175
     1
176
     1
 42
40.0
176
     1
 92
        8
176
     1
 66
     7
176
     1
 43
1.0
176
     1
 76
     1
176
     1
 77
     6
176
     1
 78
     2
176
     1
 67
     7
176
     1
 79
     3
176
     1
170
     0
176
     1
171
     0
176
     1
290
     0
176
     1
 93
        1
176
     1
 44
0.0
176
     1
173
     0
176
     1
1001
ACAD
1000
AcDbSavedByObjectVersion
1070
     0
  0
VISUALSTYLE
  5
1F0
102
{ACAD_XDICTIONARY
360
1E87
102
}
102
{ACAD_REACTORS
330
EF
102
}
330
EF
100
AcDbVisualStyle
  2
Sketchy
 70
    24
177
     2
291
     0
 71
     1
176
     1
 72
     2
176
     1
 73
     2
176
     1
 90
        0
176
     1
 40
0.6
176
     1
 41
30.0
176
     1
 63
     7
421
 16777215
176
     1
 74
     2
176
     1
 91
        2
176
     1
 64
     7
176
     1
 65
     7
176
     1
 75
     1
176
     1
175
     1
176
     1
 42
40.0
176
     1
 92
       11
176
     1
 66
     7
176
     1
 43
1.0
176
     1
 76
     1
176
     1
 77
     6
176
     1
 78
     2
176
     1
 67
     7
176
     1
 79
     6
176
     1
170
     0
176
     1
171
     0
176
     1
290
     0
176
     1
 93
        1
176
     1
 44
0.0
176
     1
173
     0
176
     1
1001
ACAD
1000
AcDbSavedByObjectVersion
1070
     0
  0
VISUALSTYLE
  5
FC
102
{ACAD_XDICTIONARY
360
1E77
102
}
102
{ACAD_REACTORS
330
EF
102
}
330
EF
100
AcDbVisualStyle
  2
Thicken
 70
    13
177
     2
291
     1
 71
     2
176
     1
 72
     2
176
     1
 73
     1
176
     1
 90
        0
176
     1
 40
0.6
176
     1
 41
30.0
176
     1
 63
     7
421
 16777215
176
     1
 74
     1
176
     1
 91
        4
176
     1
 64
     7
176
     1
 65
   257
176
     1
 75
     1
176
     1
175
     1
176
     1
 42
1.0
176
     1
 92
       12
176
     1
 66
     7
176
     1
 43
1.0
176
     1
 76
     1
176
     1
 77
     6
176
     1
 78
     2
176
     1
 67
     7
176
     1
 79
     5
176
     1
170
     0
176
     1
171
     0
176
     1
290
     0
176
     1
 93
        1
176
     1
 44
0.0
176
     1
173
     0
176
     1
1001
ACAD
1000
AcDbSavedByObjectVersion
1070
     0
  0
VISUALSTYLE
  5
F6
102
{ACAD_XDICTIONARY
360
1E6B
102
}
102
{ACAD_REACTORS
330
EF
102
}
330
EF
100
AcDbVisualStyle
  2
Wireframe
 70
     5
177
     2
291
     0
 71
     0
176
     1
 72
     2
176
     1
 73
     0
176
     1
 90
        0
176
     1
 40
0.6
176
     1
 41
30.0
176
     1
 63
     7
421
 16777215
176
     1
 74
     1
176
     1
 91
        4
176
     1
 64
     7
176
     1
 65
   257
176
     1
 75
     1
176
     1
175
     1
176
     1
 42
1.0
176
     1
 92
        0
176
     1
 66
   257
176
     1
 43
1.0
176
     1
 76
     1
176
     1
 77
     6
176
     1
 78
     2
176
     1
 67
     7
176
     1
 79
     3
176
     1
170
     0
176
     1
171
     0
176
     1
290
     0
176
     1
 93
        1
176
     1
 44
0.0
176
     1
173
     0
176
     1
1001
ACAD
1000
AcDbSavedByObjectVersion
1070
     0
  0
VISUALSTYLE
  5
1F1
102
{ACAD_XDICTIONARY
360
1E89
102
}
102
{ACAD_REACTORS
330
EF
102
}
330
EF
100
AcDbVisualStyle
  2
X-Ray
 70
    25
177
     2
291
     0
 71
     2
176
     1
 72
     2
176
     1
 73
     1
176
     1
 90
        1
176
     1
 40
0.5
176
     1
 41
30.0
176
     1
 63
     7
421
 16777215
176
     1
 74
     1
176
     1
 91
        0
176
     1
 64
     7
176
     1
 65
   257
176
     1
 75
     1
176
     1
175
     1
176
     1
 42
1.0
176
     1
 92
        8
176
     1
 66
     7
176
     1
 43
1.0
176
     1
 76
     1
176
     1
 77
     6
176
     1
 78
     2
176
     1
 67
     7
176
     1
 79
     3
176
     1
170
     0
176
     1
171
     0
176
     1
290
     0
176
     1
 93
       13
176
     1
 44
0.0
176
     1
173
     0
176
     1
1001
ACAD
1000
AcDbSavedByObjectVersion
1070
     0
  0
DICTIONARYVAR
  5
146
102
{ACAD_REACTORS
330
5E
102
}
330
5E
100
DictionaryVariables
280
     0
  1
1:1
  0
DICTIONARYVAR
  5
145
102
{ACAD_REACTORS
330
5E
102
}
330
5E
100
DictionaryVariables
280
     0
  1
STANDARD
  0
DICTIONARYVAR
  5
84
102
{ACAD_REACTORS
330
5E
102
}
330
5E
100
DictionaryVariables
280
     0
  1
STANDARD
  0
DICTIONARYVAR
  5
227
102
{ACAD_REACTORS
330
5E
102
}
330
5E
100
DictionaryVariables
280
     0
  1
Metric50
  0
DICTIONARYVAR
  5
228
102
{ACAD_REACTORS
330
5E
102
}
330
5E
100
DictionaryVariables
280
     0
  1
Metric50
  0
DICTIONARYVAR
  5
5F
102
{ACAD_REACTORS
330
5E
102
}
330
5E
100
DictionaryVariables
280
     0
  1
2
  0
DICTIONARYVAR
  5
63
102
{ACAD_REACTORS
330
5E
102
}
330
5E
100
DictionaryVariables
280
     0
  1
1
  0
DICTIONARYVAR
  5
1AE
102
{ACAD_REACTORS
330
5E
102
}
330
5E
100
DictionaryVariables
280
     0
  1
0
  0
DICTIONARYVAR
  5
1AF
102
{ACAD_REACTORS
330
5E
102
}
330
5E
100
DictionaryVariables
280
     0
  1
0
  0
DICTIONARY
  5
1E5E
102
{ACAD_REACTORS
330
1E5C
102
}
330
1E5C
100
AcDbDictionary
281
     1
  0
DICTIONARY
  5
1E5D
102
{ACAD_REACTORS
330
1E5C
102
}
330
1E5C
100
AcDbDictionary
281
     1
  3
140698103981040
350
1E57
  3
140698103981056
350
1E58
  3
140698103981072
350
1E59
  3
140698103981088
350
1E5A
  3
140698103981104
350
1E5B
  0
DICTIONARY
  5
1364
330
130E
100
AcDbDictionary
280
     1
281
     1
  3
ACAD_XREC_ROUNDTRIP
360
1E92
  0
DICTIONARY
  5
1360
330
21C
100
AcDbDictionary
280
     1
281
     1
  3
ACAD_XREC_ROUNDTRIP
360
1E90
  0
DICTIONARY
  5
205
330
22
100
AcDbDictionary
280
     1
281
     1
  0
DICTIONARY
  5
1F9
330
ED
100
AcDbDictionary
280
     1
281
     1
  3
FBXASSET
360
1FA
  0
DICTIONARY
  5
1F7
330
EC
100
AcDbDictionary
280
     1
281
     1
  3
FBXASSET
360
1F8
  0
DICTIONARY
  5
173
330
EE
100
AcDbDictionary
280
     1
281
     1
  3
BUMPTILE
360
175
  3
DIFFUSETILE
360
174
  3
FBXASSET
360
1FB
  3
OPACITYTILE
360
176
  3
REFLECTIONTILE
360
177
  0
DICTIONARY
  5
1362
330
130D
100
AcDbDictionary
280
     1
281
     1
  3
ACAD_XREC_ROUNDTRIP
360
1E91
  0
DICTIONARY
  5
135E
330
21A
100
AcDbDictionary
280
     1
281
     1
  3
ACAD_XREC_ROUNDTRIP
360
1E8F
  0
DICTIONARY
  5
162
330
7F
100
AcDbDictionary
280
     1
281
     1
  3
ACAD_ROUNDTRIP_2008_TABLESTYLE_CELLSTYLEMAP
360
1E55
  0
DICTIONARY
  5
1E69
330
F5
100
AcDbDictionary
280
     1
281
     1
  3
ACAD_XREC_ROUNDTRIP
360
1E6A
  0
DICTIONARY
  5
1E67
330
F4
100
AcDbDictionary
280
     1
281
     1
  3
ACAD_XREC_ROUNDTRIP
360
1E68
  0
DICTIONARY
  5
1E75
330
FB
100
AcDbDictionary
280
     1
281
     1
  3
ACAD_XREC_ROUNDTRIP
360
1E76
  0
DICTIONARY
  5
1E7D
330
FF
100
AcDbDictionary
280
     1
281
     1
  3
ACAD_XREC_ROUNDTRIP
360
1E7E
  0
DICTIONARY
  5
1E6F
330
F8
100
AcDbDictionary
280
     1
281
     1
  3
ACAD_XREC_ROUNDTRIP
360
1E70
  0
DICTIONARY
  5
1E73
330
FA
100
AcDbDictionary
280
     1
281
     1
  3
ACAD_XREC_ROUNDTRIP
360
1E74
  0
DICTIONARY
  5
1E83
330
1E6
100
AcDbDictionary
280
     1
281
     1
  3
ACAD_XREC_ROUNDTRIP
360
1E84
  0
DICTIONARY
  5
1E7B
330
FE
100
AcDbDictionary
280
     1
281
     1
  3
ACAD_XREC_ROUNDTRIP
360
1E7C
  0
DICTIONARY
  5
1E5F
330
F0
100
AcDbDictionary
280
     1
281
     1
  3
ACAD_XREC_ROUNDTRIP
360
1E60
  0
DICTIONARY
  5
1E61
330
F1
100
AcDbDictionary
280
     1
281
     1
  3
ACAD_XREC_ROUNDTRIP
360
1E62
  0
DICTIONARY
  5
1E63
330
F2
100
AcDbDictionary
280
     1
281
     1
  3
ACAD_XREC_ROUNDTRIP
360
1E64
  0
DICTIONARY
  5
1E65
330
F3
100
AcDbDictionary
280
     1
281
     1
  3
ACAD_XREC_ROUNDTRIP
360
1E66
  0
DICTIONARY
  5
1E6D
330
F7
100
AcDbDictionary
280
     1
281
     1
  3
ACAD_XREC_ROUNDTRIP
360
1E6E
  0
DICTIONARY
  5
1E7F
330
1E4
100
AcDbDictionary
280
     1
281
     1
  3
ACAD_XREC_ROUNDTRIP
360
1E80
  0
DICTIONARY
  5
1E79
330
FD
100
AcDbDictionary
280
     1
281
     1
  3
ACAD_XREC_ROUNDTRIP
360
1E7A
  0
DICTIONARY
  5
1E81
330
1E5
100
AcDbDictionary
280
     1
281
     1
  3
ACAD_XREC_ROUNDTRIP
360
1E82
  0
DICTIONARY
  5
1E71
330
F9
100
AcDbDictionary
280
     1
281
     1
  3
ACAD_XREC_ROUNDTRIP
360
1E72
  0
DICTIONARY
  5
1E8D
330
1F3
100
AcDbDictionary
280
     1
281
     1
  3
ACAD_XREC_ROUNDTRIP
360
1E8E
  0
DICTIONARY
  5
1E8B
330
1F2
100
AcDbDictionary
280
     1
281
     1
  3
ACAD_XREC_ROUNDTRIP
360
1E8C
  0
DICTIONARY
  5
1E85
330
1EF
100
AcDbDictionary
280
     1
281
     1
  3
ACAD_XREC_ROUNDTRIP
360
1E86
  0
DICTIONARY
  5
1E87
330
1F0
100
AcDbDictionary
280
     1
281
     1
  3
ACAD_XREC_ROUNDTRIP
360
1E88
  0
DICTIONARY
  5
1E77
330
FC
100
AcDbDictionary
280
     1
281
     1
  3
ACAD_XREC_ROUNDTRIP
360
1E78
  0
DICTIONARY
  5
1E6B
330
F6
100
AcDbDictionary
280
     1
281
     1
  3
ACAD_XREC_ROUNDTRIP
360
1E6C
  0
DICTIONARY
  5
1E89
330
1F1
100
AcDbDictionary
280
     1
281
     1
  3
ACAD_XREC_ROUNDTRIP
360
1E8A
  0
XRECORD
  5
1E57
102
{ACAD_REACTORS
330
1E5D
102
}
330
1E5D
100
AcDbXrecord
280
     1
  1
AcDb_Thumbnail_Schema
102
{ATTRRECORD
341
1E58
  2
AcDbDs::TreatedAsObjectData
280
     1
291
     1
102
ATTRRECORD}
102
{ATTRRECORD
341
1E59
  2
AcDbDs::Legacy
280
     1
291
     1
102
ATTRRECORD}
  2
AcDbDs::ID
280
    10
 91
        8
102
{ATTRRECORD
341
1E5A
  2
AcDs:Indexable
280
     1
291
     1
102
ATTRRECORD}
102
{ATTRRECORD
341
1E5B
  2
AcDbDs::HandleAttribute
280
     7
282
     1
102
ATTRRECORD}
  2
Thumbnail_Data
280
    15
 91
        0
  0
XRECORD
  5
1E58
102
{ACAD_REACTORS
330
1E5D
102
}
330
1E5D
100
AcDbXrecord
280
     1
  1
AcDbDs::TreatedAsObjectDataSchema
  2
AcDbDs::TreatedAsObjectData
280
     1
 91
        0
  0
XRECORD
  5
1E59
102
{ACAD_REACTORS
330
1E5D
102
}
330
1E5D
100
AcDbXrecord
280
     1
  1
AcDbDs::LegacySchema
  2
AcDbDs::Legacy
280
     1
 91
        0
  0
XRECORD
  5
1E5A
102
{ACAD_REACTORS
330
1E5D
102
}
330
1E5D
100
AcDbXrecord
280
     1
  1
AcDbDs::IndexedPropertySchema
  2
AcDs:Indexable
280
     1
 91
        0
  0
XRECORD
  5
1E5B
102
{ACAD_REACTORS
330
1E5D
102
}
330
1E5D
100
AcDbXrecord
280
     1
  1
AcDbDs::HandleAttributeSchema
  2
AcDbDs::HandleAttribute
280
     7
 91
        1
284
     1
  0
XRECORD
  5
1E92
102
{ACAD_REACTORS
330
1364
102
}
330
1364
100
AcDbXrecord
280
     1
102
DISPLAYNAME
  1
Imperial24
102
FLAGS
 90
        0
  0
XRECORD
  5
1E90
102
{ACAD_REACTORS
330
1360
102
}
330
1360
100
AcDbXrecord
280
     1
102
DISPLAYNAME
  1
Metric50
102
FLAGS
 90
        0
  0
XRECORD
  5
1FA
102
{ACAD_REACTORS
330
1F9
102
}
330
1F9
100
AcDbXrecord
280
     1
 70
     1
 90
429727718
  1
D62C5603-E3A1-4AEA-B7FB-FE5D8D0755AF
310
504B03040A0000080000CC70623B3DEE336E79000000790000001B0000006175746F6465736B2D64657369676E2D7061636B6167652E786D6C3C3F786D6C2076657273696F6E3D22312E302220656E636F64696E673D227574662D3822203F3E3C666F726D6174733E3C666F726D61743E687474703A2F2F736368656D612E
310
6175746F6465736B2E636F6D2F64657369676E2D7061636B6167652F323030393C2F666F726D61743E3C2F666F726D6174733E504B0304140006080800CC70623BD486FD9CA0000000F4000000130000005B436F6E74656E745F54797065735D2E786D6C7D8EC10E82300C865F65E91D8A1E8C310C0EEA1BF002731658846E
310
D98AC1B77784ABF1D8FE5FBFBF75BBCE937A534CCEB38643598122B6FEE978D0B0485F9C41B54DDD7D022595594E1A469170414C76A4D9A4D207E29CF43ECE46F218070CC6BECC4078ACAA135ACF422C856C0E68EA1BF5669944DDD7BCDE7B1F8E415D77AECB980613C2E4AC91FC167A2B244592486606FC29C8FD7F045B9A
310
EF7053A7E60B504B0304140006080800CC70623B853B8169EB0000007C01000008000000636F72652E786D6C8D90416EC3201045AF62CDB6C206821CC7C244919D9CA01740401C94182C03558F5F9C3852BBEB6A467FFE9B197D7EFC9E1EC5975982F5AE035262288C535E5B377690E21535501C055FBC8FBF6C503839990E
310
5619041F179FE64D52DE45E362569DD7661365082642A11EB9E920A89B99642953CC8E702F67A9EE7234257977194EC9EAE275C4EABCCF5EAD5940D4AC6F0E35A568B8F43562CD7046CD199FD07E60174276A7BE677B5EADB0E0D14EEFFB6A31321A0D82627C4084204C3F096B71DD52F6819B16635EADF63F509AF53FA164
310
5DDCD1EDDD17164090FCC8732078B56691CB33A85CD7DCC40F504B0304140006080800CC70623B55019EA25F0000007C00000007000000636E782E786D6C4DCB3B0E80201045D1AD90E915ED2CF8AC45050C11660C8261F98AB1B07AC9C97D42D718D865D3E909258CFD00CCE24AC6E326A164D74DC0B4128928FF32603847
310
2BA13128B1252AC747C6BAB984FC68F0B87FE8960A5C09FE86CFB69FBA01504B0304140006080800CC70623BDBABAAF470010000D40300000C0000006662782F636F72652E786D6CC553D16E823014FD95A6AF4B694182CC941A83FA05FB810A9511A125A5257EFE2E82712ECEB8A7F100CD39F7F69E734AF9FADC366850B6
310
AF8DCE7018308C942E4C59EB2AC3DE1D498AD15A706B8CFB56869196ADCAF00863C12B6B7C374385D14E6907A836A59A41D9F7CA615434B0C8705F7CAA5606D23BA8E84F41278B93AC54100640439DE0BDB320004D43C63716C7C399D30917DCFBBA9CD9BA8469F5B156168B24CED3F7248AC8769F27244EB73B92EED8862C
310
B7F13E0C179B3C8F979C8ECD82BBBABDAA2BAC924E9558448CBD9330242CFA08E3154B5651FCC6D215639C8EE5774DBE2B5F6CF2B5768B68963BB5F5588420E442FC700B1139D4CB01F450C1E918227C2E09DF070D8140C84E1E9AAB8F1340832A9CB13130A5F1376A908D57309505ECF2A0DF179C4E9D30F5B239B87E3823
310
7A79C6F31DE1A8A5AEC08474B03C7837EAE4938639B44E5932B833D2C6B6B279CDC613877FA26EE21F4A2A4C63EC7F29A2F301D1F9F7A0E37D145F504B0304140006080800CC70623B9C113CC27E0000009D0000000B0000006662782F636E782E786D6C4DCCDF0A83201C86E15B91DFB94BFB330DD428C8FB886521330DA7
310
6397BF1A1DECE883878F57749FCDA1B7892F1BBC047A23808C7F84D9FA55424E0BE6803A256208E9EF06C84F9B91703228B1C690F78B66B34CD9A5439DF5CF0BFBF65E35BCA1B8D6A5C6F540381E886698B5741C695F9503EBA150A2F8958E3DC3EA0B504B0304140006080800CC70623B7DF2F77C2A010000120200003100
310
00006662782F41393633353835312D344632462D344230382D423046372D3739314545314133324237412F636F72652E786D6C8D51DB8EC22014FC15C2939B0D2DB4B45643319AE817EC0F6041255A68B86CFCFC856D4D76DF7CE190393373060EDB3DC707F856CE6B6B7A480A0C81328395DA5C7B18C3057510EC3873D686
310
3F34088C18550F330C39BB3A1BA7051AAC09CA84841A2BD5020AEF55806078A44B0FFD7053A328440C89E1EFC52486BBB8AA8214A99D789CF9E05200300FC927E4FB4D5B375D43103D5527440FB843077C5AA3F5861C8F645F5787F59E95B390B318B55CE45AA638FAA2957BD7248B390B7A7CC51F9C124149C82B8C378810
310
84AB2F42B7B8DD56F413775B8C5999E9FF4471926F8AA236A1AE96B8B3CC434E5839373893369E1FAF30EA395917409EB7F26AF8801C171837A4A6AC9C89E9F9C9B1A58BA30FD6A5EF5DDDCF894B9AD9B6A59C957943A9FCAE2FD5BC4DFE03504B0304140006080800CC70623BAD7543B64E01000033030000300000006662
310
782F41393633353835312D344632462D344230382D423046372D3739314545314133324237412F636E782E786D6CD593CD6EC32010845F0571AD6CE3D48AD20813A9873E410FBD12D82434182C7EAAE6EDBB2424CD25871E7B41D6EC30B3FA84F9E67BB2E40B4234DE8DB46F1925E094D7C6ED479AD3AE5951B2113C789FEE
310
6C943839C1488B4C05DF079FE72A69D8C96C13AAD6B8631503449F83828872B949AC57D26200B826A308D316B4064D6E46FCDA41C05550DC9E483A00797BFD207EFB092A45DE9514C1BBD22178396BD39D891265658C238DEA00936C654E5E433CB65A26D9F6EDB5EBC14EBF49A45CB856E66048291F6939A9A81BB5C89177
310
38143CA680F4AA299D66A042CEB3354A2684DC9D8D178FE0D9B8B41CAAD720F880EE7EF93C0C18769E099ECC04D5A102C8049A8A05632F4DDF376CF1DE0F6BB65C2F8627B65A33C6BB62177CEBBDAD973006829F89F22E814B54F4BC2BE347F8AA8F681390B50FA73F804400B5F542E796F19FF974E7F78DB802FE05E20750
310
4B0304140006080800CC70623BE75B7789680500003C100000340000006662782F41393633353835312D344632462D344230382D423046372D3739314545314133324237412F6F626A656374732E786D6CAD575B8F9B3818FD2B887D06C22499CB8AA1CA655245D5B455A356FB305264C061D8018C6C3393D95FBFC7600890
310
A4CD5EF210B0B1BFEBF98E3F7B1FF6596ABC522E1296DF9BAE3D320D9A872C4AF2F8DE2CE5CEBA358D0FBEC719939D65A691938CDE9B6ADAF4BD98B3B2D05311DD91329583D9D5FC0F438434A7A611A644887B5384CF34233629258BA878B12322891DEFF6B66BD70BFB62634E8AE781D082709A4B588AF91C528CDA28B73F
310
1C998EEF39EABBEFA97FBD6A7C7E9553F9D3D79FE442923C3C523610337627CB87ABE99D359D4CC6D6E4FACAB5E6ABF9D2726FC6A3C5F56271377BB88362213924694B38DD99FE47C48627A1E7D49F5A8BB5E1A74C0A599ED3B0F21F1E56366B89112D681E218F0915D0D6F17AD41FBA2A369DCF6335D62ABBD39779D5DDD1
310
11D4D8DE3CBB96B2E04FB8202E41051754A1AA8E8F76B4C6DFE810B580B1547F4B84911149794252234D024EF8BBE963A95AE27B3D310A9D5C215C7960FAEE415ED75694C6AFB17BCACA5D99A60A9AA65F217B0BFC53292ACB92BF283FAD0D3621576592CB5BED907C2FA8E9DF794E35E97BEA31BED21FEB401ABB94C44839
310
DCACBF0E1C5DA8DA5B2F4DFFD32AD86F543D9E565E7056502E157C00AD2671CD534549AB752FCA9CDA00677A313F04E51B22FF19E57B300579E3C97EB29F682D92935CEC18CF901B7B54FD8C51F362B56FC72FE0B3C1EAE335EDCCBF5AEC39ADB17DC238973F804BA5E6F6BFE7AF1FB32E523BE9F3BD571418E3631DCA4D48
310
5250CF639223210A9446CA30052EDF057BD35F8329C1ECD84552BF0DC8D18BE7BCE23BFE6BD960AB4A7DE79923A103BEBD80F911CBAA2C60DB19B01CF164A5583B772EE6D3FFA56666CBCDA74DC97724A48F9A58967497E489C4D979006FD7A05E227A1EBDD0F737C623387A9C844D3709995625106D157315F8B8392CD4E0
310
A0B9A720C4BE9829CEF37EA1E13111214D53925356365ADA634861B52519DD27A00AEB808EAF0628E6F435519D446F45CF2C9CF5214F0A15B2F6D06B79DA3EE3CBF7F56780D2F4E7EF73A0F5E5B02A38D07DC852C6B7C1FBB6664213E0C39E3EBA7FF4E1AD23EA2829407C85E586727488B751B2DB9502BC7B228A3FD68B6E
310
A65A22397E690AA8D158D7E404EC8CDA235CC3B7D1898680131CEC2CDF2638C65196279577750F15884AEE19F94199155B92B13297978469D4F8D358DF0AEF7631E28DC8F0D9F437D5D39A83B2231A1D52D543813A824EF8D44BCFF2FA6A31BD1E8DAD87F1CCB526B3879935BF59CDADD5C37479BB1CDD4CA7B3556B516589
310
EF352754B706114D9C885EC9131DE6EFEB43D99AFE2391C2F958179413D7CFEF6B1B6DB1E7600F00DE6E5C67454A339A4BA2E0FBA85ED26F045D454F463DBFCE484C2F90F2E5E3666003662ED8F755951A7D1BECD5B30B550B2785C8E7320B7292A4838DDA71BBC863ED7613CAF659337A3354231D4FF4A182A54904C2898C
310
98B28C4AD0CE056CCF332A80986E571EE9DBC305BB5FEB7E509220A58D25CF042D712A806AC0AD0C657FDEF80D2D9CEAA2EE4D1C76F60BFE74219A06527D6F82DF6412526107381E55E353090704D085B52408A8913C4ED159D79BDA71BB4BC506F4831350EB6F975CD22D69BF7AC49B91A2C0A9DDA3D5CA36AD20FC478E37
310
E61844E2352865EBCB61A275A65283CAAA9DD27703B4102F5AF51EF5F573B75CBB5AD38BC845F7A49F82A0966A49C2E3EA5EA0ECD326CD965F1DB402C6FA8B51A4658C5C5E2EC9E214602E55810345408596591009A82E7E7FFACA19EEA299B14A0081A705CB3296EBC14CDF658DCD336EA6D1136881AAEB87B81AB9EE53D5
310
F5EB8BC8362082DA24122F98680A4E7930C01A0079749CEA14382A0783E5EBA5A10F8C098456A03D6A4AEB6BB881E2513747552A5DB22C7EDAF83BD5528081A365F7FF06504B0304140006080000CC70623B000000000000000000000000350000006662782F41393633353835312D344632462D344230382D423046372D37
310
39314545314133324237412F76657274696365732E62696E504B0304140006080800CC70623BF270F1330600000004000000360000006662782F41393633353835312D344632462D344230382D423046372D3739314545314133324237412F747269616E676C65732E62696E636660600000504B0304140006080000CC7062
310
3B000000000000000000000000370000006662782F41393633353835312D344632462D344230382D423046372D3739314545314133324237412F617474726962757465732E62696E504B0304140006080800CC70623B08DA0BD19000000041010000360000006662782F41393633353835312D344632462D344230382D4230
310
46372D3739314545314133324237412F6469726563746F72792E786D6C858F410AC3201045AF22B36F53E9A60B35CBEEBAE80D244E44489C6234F4F835464A48035D0DF398FF9F8AF63D0E6CC63039F212F8F9020C7D47C6792B21C5FE7403D62A1188E2E60C98D7234A5830286103A55745067B9D86B8A3CF9C7F90C11DE6
310
07FB144396D7B6A82D282E9A152AD114D5EF2CB866EEE831B8EEA07A7BB5A8D7D61A2BAAEB7FD5F70921FF497D00504B0304140006080800CC70623BEDD1DC58FD000000A00100003B0000006662782F41393633353835312D344632462D344230382D423046372D3739314545314133324237412F7265736F75726365732F
310
636F72652E786D6C8D504B6E833010BD0A9A6D65B00922041947112427E8052C33A156828DFCA97AFC9A40A576D7CDCCE87D344F8F9FBFE667F689CE6B6B3A6039850C8DB2A336530731DC4903D95970676DF82583CCC8193B5861107C72362E3BA4AC096842428D1D7107A5F7182053CF7474E0D507CE32973124857FE48B
310
540F3961CEF244279DE03EB81420DB9EAC1384436FA353E879B1B182C7A8C75DA3C7F453DF353A1075D537A7BA6464B8F535A99AE14A9A2BBD90E350DD183B5CFABE3AF262350B1EF4FC9351399401471025A527C218A1E53BAB5A5AB765F5469B96525EACF23FA6B88CFF34456DC2A1DCE36E360F82A5202F42F062ED2BAD
310
579969AFDD8A6F504B010214000A0000080000CC70623B3DEE336E79000000790000001B00000000000000000000000000000000006175746F6465736B2D64657369676E2D7061636B6167652E786D6C504B01021400140006080800CC70623BD486FD9CA0000000F40000001300000000000000000000000000B20000005B
310
436F6E74656E745F54797065735D2E786D6C504B01021400140006080800CC70623B853B8169EB0000007C010000080000000000000000000000000083010000636F72652E786D6C504B01021400140006080800CC70623B55019EA25F0000007C000000070000000000000000000000000094020000636E782E786D6C504B
310
01021400140006080800CC70623BDBABAAF470010000D40300000C00000000000000000000000000180300006662782F636F72652E786D6C504B01021400140006080800CC70623B9C113CC27E0000009D0000000B00000000000000000000000000B20400006662782F636E782E786D6C504B01021400140006080800CC70
310
623B7DF2F77C2A010000120200003100000000000000000000000000590500006662782F41393633353835312D344632462D344230382D423046372D3739314545314133324237412F636F72652E786D6C504B01021400140006080800CC70623BAD7543B64E010000330300003000000000000000000000000000D2060000
310
6662782F41393633353835312D344632462D344230382D423046372D3739314545314133324237412F636E782E786D6C504B01021400140006080800CC70623BE75B7789680500003C10000034000000000000000000000000006E0800006662782F41393633353835312D344632462D344230382D423046372D3739314545
310
314133324237412F6F626A656374732E786D6C504B01021400140006080000CC70623B0000000000000000000000003500000000000000000000000000280E00006662782F41393633353835312D344632462D344230382D423046372D3739314545314133324237412F76657274696365732E62696E504B01021400140006
310
080800CC70623BF270F133060000000400000036000000000000000000000000007B0E00006662782F41393633353835312D344632462D344230382D423046372D3739314545314133324237412F747269616E676C65732E62696E504B01021400140006080000CC70623B0000000000000000000000003700000000000000
310
000000000000D50E00006662782F41393633353835312D344632462D344230382D423046372D3739314545314133324237412F617474726962757465732E62696E504B01021400140006080800CC70623B08DA0BD1900000004101000036000000000000000000000000002A0F00006662782F41393633353835312D344632
310
462D344230382D423046372D3739314545314133324237412F6469726563746F72792E786D6C504B01021400140006080800CC70623BEDD1DC58FD000000A00100003B000000000000000000000000000E1000006662782F41393633353835312D344632462D344230382D423046372D3739314545314133324237412F7265
310
736F75726365732F636F72652E786D6C504B0506000000000E000E0080040000641100000000
  0
XRECORD
  5
1F8
102
{ACAD_REACTORS
330
1F7
102
}
330
1F7
100
AcDbXrecord
280
     1
 70
     1
 90
429727718
  1
30362254-06B7-45E0-A893-8CFA70E3D6BC
310
504B03040A0000080000CC70623B3DEE336E79000000790000001B0000006175746F6465736B2D64657369676E2D7061636B6167652E786D6C3C3F786D6C2076657273696F6E3D22312E302220656E636F64696E673D227574662D3822203F3E3C666F726D6174733E3C666F726D61743E687474703A2F2F736368656D612E
310
6175746F6465736B2E636F6D2F64657369676E2D7061636B6167652F323030393C2F666F726D61743E3C2F666F726D6174733E504B0304140006080800CC70623BD486FD9CA0000000F4000000130000005B436F6E74656E745F54797065735D2E786D6C7D8EC10E82300C865F65E91D8A1E8C310C0EEA1BF002731658846E
310
D98AC1B77784ABF1D8FE5FBFBF75BBCE937A534CCEB38643598122B6FEE978D0B0485F9C41B54DDD7D022595594E1A469170414C76A4D9A4D207E29CF43ECE46F218070CC6BECC4078ACAA135ACF422C856C0E68EA1BF5669944DDD7BCDE7B1F8E415D77AECB980613C2E4AC91FC167A2B244592486606FC29C8FD7F045B9A
310
EF7053A7E60B504B0304140006080800CC70623B1EC5D7A3EB0000007C01000008000000636F72652E786D6C8D90416EC3201045AF82665B6103C6756C6122AB4D4ED00B204C5C94182C03558F5F9C3852BBEB6A467FFE9B197D71FC9E6FE8CBACC17AD7032D0820E3B41FAD9B7A48F1820F808E52ACDEC75F36404ECDA687
310
4D0629A6D5A76597B477D1B89855E747B38B2A041301E95B6E7A08FAD3CCAA50296647B8168BD2573599823EBB0CA76447F43862C7BCCF5EAC59410E4DDD9C7973C2755553CCCFA4C603E3040F1565ED3B1FDE4E432BCA0D9622DAF9795FAF464533826484B498524CD807E51D79ED187F21878E10516EF63F505AC67F42C9
310
BA58B1FDDD071640D2FCC87D2045B96591CB3DA85CB7DCE40F504B0304140006080800CC70623B55019EA25F0000007C00000007000000636E782E786D6C4DCB3B0E80201045D1AD90E915ED2CF8AC45050C11660C8261F98AB1B07AC9C97D42D718D865D3E909258CFD00CCE24AC6E326A164D74DC0B4128928FF32603847
310
2BA13128B1252AC747C6BAB984FC68F0B87FE8960A5C09FE86CFB69FBA01504B0304140006080800CC70623B8C9102E971010000D40300000C0000006662782F636F72652E786D6CC5535B6E833010BC8AE5DF0A6C08340F1947A84D4ED00B38C6A128602363A31CBFCB234A53A551FA553EC09AD9F5CE8C31DB9E9B1AF5CA
310
7695D1198E428A91D2D214952E33ECDD315861B4E5CC1AE3BE9561A445A3323CC098B3D21ADFCE9034DA29ED00D5A6503328BA4E398C640D8B0C77F253352214DE4145770A5B214FA2546114020D759C75CE8200340D19DE981F0F6746269C33EFAB6266AB02A655C74A59CCF365BADC27CB5D902ED22848F6340DF238A141
310
BE88E2F57B92BFEDF23523433367AE6A2EEAA455C2A902F398D2751045018D3FA264435F3771F242571B4A1919CA6F9A7C5B3CD9E42BED16F12C776AEB308F40C848FC700B1139D4891EF410CEC810227CC6846F8386402064270EF5C5C709A05E49676C024C61FC95EA45ED154CA5211D1FF4FB8291A913A68E9B83EBBB33
310
E2A7673CDE118E5AE8124C0807CB8377834E366998436B950D7A7746DAD846D4CFD978E0F04FD455FC5D49D2D4C6FE9722321F10997F0F32DC47FE05504B0304140006080800CC70623BFFEA85907E0000009D0000000B0000006662782F636E782E786D6C4DCCD10A83201886E15B91FFDC95D95A811AB6F23E625948A6C3
310
E9D8E5AF46073BFAE0E1E365ED67B3E8ADC3CB78C7815C7240DA3DFC64DCC221C519D7805AC182F7F1EF06C88D9BE6703008B6049F9E274D7A1E938DBB5AE3D6131B2589BA0D3D965551E0B2EA732C9B9A624AAEB41E3A557677029960D9AFB4EF11165F504B0304140006080800CC70623B4FEEA4082C0100001202000031
310
0000006662782F39464131463745442D413632322D343644302D413938332D3331353338454246344243312F636F72652E786D6C8D515B6EC32010BC0AE2AB55850DD871ED0813254D72825EC00192A2C460F1A872FC42ED48ED5F7E00CDCECCCEB26C731F6FE05B39AFADE921293004CA082BB5B9F43086336A21D870E6AC
310
0D7F68109861543DCC30E4ECE26C9C164858139409093556AA051CBC570102714B8F1E7AF1A5C6A11862480C7F2DA6415C878B2A4891CA89C7990F2E050073937C42DE1DB7E4F87ED8A36D4329AA9B3D46DBAEAD504556557BD81DEBDD0761E52CE42C462D17B996298E3E6BE59E35C962CE821E1FF18553435012728A7187
310
0841987E927A8D9B35ADDF70BBC6989599FE4F1427F9A4286A132ABAC49D651EF234CD5CE04CDA78BA3DC2A8FB645D00B9DF8B57E215725C60BCA2A463E54C4CE327C7A65E1C7DB02E7DEFCBF594B864C5CA6CDBD49C957943E9FA5D5FBAF336F90F504B0304140006080800CC70623BAD7543B64E01000033030000300000
310
006662782F39464131463745442D413632322D343644302D413938332D3331353338454246344243312F636E782E786D6CD593CD6EC32010845F0571AD6CE3D48AD20813A9873E410FBD12D82434182C7EAAE6EDBB2424CD25871E7B41D6EC30B3FA84F9E67BB2E40B4234DE8DB46F1925E094D7C6ED479AD3AE5951B2113C
310
789FEE6C943839C1488B4C05DF079FE72A69D8C96C13AAD6B8631503449F83828872B949AC57D26200B826A308D316B4064D6E46FCDA41C05550DC9E483A00797BFD207EFB092A45DE9514C1BBD22178396BD39D891265658C238DEA00936C654E5E433CB65A26D9F6EDB5EBC14EBF49A45CB856E66048291F6939A9A81BB5
310
C8917738143CA680F4AA299D66A042CEB3354A2684DC9D8D178FE0D9B8B41CAAD720F880EE7EF93C0C18769E099ECC04D5A102C8049A8A05632F4DDF376CF1DE0F6BB65C2F8627B65A33C6BB62177CEBBDAD973006829F89F22E814B54F4BC2BE347F8AA8F681390B50FA73F804400B5F542E796F19FF974E7F78DB802FE05
310
E207504B0304140006080800CC70623B16AB87BA640500003C100000340000006662782F39464131463745442D413632322D343644302D413938332D3331353338454246344243312F6F626A656374732E786D6CAD575B6FA33818FD2B887DE6924B3BED8A326A92B68A663B534DD4D13E548A0C38942D60649B369D5FBFC7
310
600890A493BDE42160637FD7F31D7FF63E6FB3D478A55C242CBF3247B66B1A340F5994E4F19559CA8D75611A9F7D8F33263BCB4C232719BD32D5B4E97B316765A1A722BA21652A07B3B7B33F0D11D29C9A46981221AE4C113ED38CD8A4942CA2E2C58E882476BCD9DA23BB5ED8171B73523C0F841684D35CC252CCE79062D4
310
468DFA43D7747CCF51DF7D4FFDEB5593E3AB9CCA9FBEFE241792E4E19EB28198C968BAB8199F5D5A67D3E9C49A9E8F47D6EC76B6B0469F26EEFC7C3EBFBCBEB98462213924694B38DD98FE1D62C393D073EA4FADC5DAF04326852CCF6958F90F0F2B9BB5C48816348F90C7840A68EB78EDF68723159BCEE7891A6B95DDE9D3
310
BCEAEEE8086A6C6F9E5D4B59F0175C10A7A0820BAA5055C7473B5AE3CFDD452D602CD5DF12616444529E90D448938013FE6EFA58AA96F85E4F8C42275708571E98FE6827AF6B2B4AE3D7D83D64E5A64C53054DD3AF90BD06FEA9149565C94FCA0F6B834DC85599E4F2423B24DF0B6AFA979E534DFA9E7A4CC6FA631D486393
310
921829879BF5D781A373557BCB85E97FB90DB62B558F8795179C15944B051F40AB495CF35451D26A4727654E6D8033BD98EF82F21D91FF8AF2DD9982BCF1643BDD4EB516C9492E368C67C88DED563FC36D5EACF66DFF057C3658BDBFA69DF9578B3DA735B64F18C7F20770A9D45CFCF7FCF563D6456A277DBEF78A02637CA2
310
43B90A490AEAB94F72244481D24819A6C0E59B606BFA4B3025981DBB48EAB701D97BF19C577CC77F2D1B6C55A9EF3C732474C0B727303F625995056C3B02963D9EAC146BE78EC5FCEC7FA999EBC5EACBAAE41B12D27B4D2C0BBA49F244E2ECDC81B76B502F113D8F5EE8FB1BE3111CDD4FC2AA9B844CAB1288B68AB90A7CDC
310
1C166AB0D3DC5310625FCC14E779BFD0709F8890A629C9292B1B2DED31A4B0DA928CEE135085754027E3018A397D4D5427D15BD1330B677DC8934285AC3DF45A9EB68FF8F2B8FC0A509AFEECFD0FF2DE25CC6047F7214B195F07EFEB9A094D800F7BFAE8FED187B78EA8A3A400F115961BCAD1215E47C966530AF0EE8128FE
310
58CEBB996A8964FFA529A046635D9353B0336A8F700DDF46271A024E70B0B37C9DE01847591E54DED53D54202AB947E4076556AC49C6CA5C9E1226B7F1A7B1BE15DEED62C41B91E1B3E9AFAAA735036547343A925075041DF0A9979E893B391F8FCFA6967B3EFB644DCF6E5CEBFAE272625DCC6FAF3FB93793C5F90CE1EF57
310
407342756B10D1C489E8953CD1617E5CEECAD6F4EF8914CE5D5D504E5C3F1F9736DA62CFC11E00BCDDB8CC8A9466349744C1F75EBDA4DF09BA8A9E8C7A7E9991989E20E5DBDD6A6003664ED8F7A04A8DBE0DF6EAD9B9AA858342E47399053949D2C146EDB85DE4B176BB0965FBAC19BD19AA918E27FA50C1D22402E144464C
310
59462568E704B6E71915404CB72B8FF4EDE184DDAF753F284990D2C6926782963815403548A70C657FDEF80D2D9CEAA2AE4C1C76F60BFE74219A06527D6582DF6412526107381E55E353090704D085B52408D0933C4ED159D79BDA71BB4BC506F4831350EB6F979CD22D69BF7AC49B91A2C0A9DDA3D5CA36AD20FC478E37E6
310
1844E2352865EBCB6EA275A652E3836BE04EFB400BF1A2556F515F1FBB35B2AB35BD889C744FFA1004B5544B121E57F70215746DD2F5E2C1412B602CBF19455AC6C8E5E9922C4E01E65215385004546899059180EAFCF7A707CE7017CD8CDB0410789AB32C63B91E5CEBBBACB17AC6CD347A022D5075FD106377347AAABA7E
310
7D11590744509B44E205134DC1290F06580320F78E537D3D73540E06CB970B431F185308AD40BBD794D6D77003C5A36E8EAA54BA64597CD8F83BD552A080A365F7FF06504B0304140006080000CC70623B000000000000000000000000350000006662782F39464131463745442D413632322D343644302D413938332D3331
310
353338454246344243312F76657274696365732E62696E504B0304140006080800CC70623BF270F1330600000004000000360000006662782F39464131463745442D413632322D343644302D413938332D3331353338454246344243312F747269616E676C65732E62696E636660600000504B0304140006080000CC70623B
310
000000000000000000000000370000006662782F39464131463745442D413632322D343644302D413938332D3331353338454246344243312F617474726962757465732E62696E504B0304140006080800CC70623B08DA0BD19000000041010000360000006662782F39464131463745442D413632322D343644302D413938
310
332D3331353338454246344243312F6469726563746F72792E786D6C858F410AC3201045AF22B36F53E9A60B35CBEEBAE80D244E44489C6234F4F835464A48035D0DF398FF9F8AF63D0E6CC63039F212F8F9020C7D47C6792B21C5FE7403D62A1188E2E60C98D7234A5830286103A55745067B9D86B8A3CF9C7F90C11DE607
310
FB144396D7B6A82D282E9A152AD114D5EF2CB866EEE831B8EEA07A7BB5A8D7D61A2BAAEB7FD5F70921FF497D00504B0304140006080800CC70623B0D6EF93BFE000000A00100003B0000006662782F39464131463745442D413632322D343644302D413938332D3331353338454246344243312F7265736F75726365732F63
310
6F72652E786D6C8D50596E833010BD0A9ADFCA60B334011947A8694ED00B586642AC041B79A97AFC9A40A5F6AF3F33A3B7689E1E3F7DCD8FEC139DD7D6F4C0720A191A65476DA61E62B892236427C19DB5E1970C322367EC618541F0C9D9B8EC90B226A009093576C41D94DE63804C3DD2D18357379C652E63480A7FCF17A9
310
EE72C29CE5894E3AC17D702940B63D59270887DE46A7D0F36263058F518FBB468FE9A7BE6A7420864373B8D4873369AA8691FA421B3294352543C5CAF65C0F6FEF43CB8BD52C78D0F34F46E550061C419494B6843142CB0F5677F4B52BEB177AEC28E5C52AFF638ACBF84F53D42654E51E77B379102C05791282176B5F693D
310
CB4C7BED567C03504B010214000A0000080000CC70623B3DEE336E79000000790000001B00000000000000000000000000000000006175746F6465736B2D64657369676E2D7061636B6167652E786D6C504B01021400140006080800CC70623BD486FD9CA0000000F40000001300000000000000000000000000B20000005B
310
436F6E74656E745F54797065735D2E786D6C504B01021400140006080800CC70623B1EC5D7A3EB0000007C010000080000000000000000000000000083010000636F72652E786D6C504B01021400140006080800CC70623B55019EA25F0000007C000000070000000000000000000000000094020000636E782E786D6C504B
310
01021400140006080800CC70623B8C9102E971010000D40300000C00000000000000000000000000180300006662782F636F72652E786D6C504B01021400140006080800CC70623BFFEA85907E0000009D0000000B00000000000000000000000000B30400006662782F636E782E786D6C504B01021400140006080800CC70
310
623B4FEEA4082C0100001202000031000000000000000000000000005A0500006662782F39464131463745442D413632322D343644302D413938332D3331353338454246344243312F636F72652E786D6C504B01021400140006080800CC70623BAD7543B64E010000330300003000000000000000000000000000D5060000
310
6662782F39464131463745442D413632322D343644302D413938332D3331353338454246344243312F636E782E786D6C504B01021400140006080800CC70623B16AB87BA640500003C1000003400000000000000000000000000710800006662782F39464131463745442D413632322D343644302D413938332D3331353338
310
454246344243312F6F626A656374732E786D6C504B01021400140006080000CC70623B0000000000000000000000003500000000000000000000000000270E00006662782F39464131463745442D413632322D343644302D413938332D3331353338454246344243312F76657274696365732E62696E504B01021400140006
310
080800CC70623BF270F133060000000400000036000000000000000000000000007A0E00006662782F39464131463745442D413632322D343644302D413938332D3331353338454246344243312F747269616E676C65732E62696E504B01021400140006080000CC70623B0000000000000000000000003700000000000000
310
000000000000D40E00006662782F39464131463745442D413632322D343644302D413938332D3331353338454246344243312F617474726962757465732E62696E504B01021400140006080800CC70623B08DA0BD190000000410100003600000000000000000000000000290F00006662782F39464131463745442D413632
310
322D343644302D413938332D3331353338454246344243312F6469726563746F72792E786D6C504B01021400140006080800CC70623B0D6EF93BFE000000A00100003B000000000000000000000000000D1000006662782F39464131463745442D413632322D343644302D413938332D3331353338454246344243312F7265
310
736F75726365732F636F72652E786D6C504B0506000000000E000E0080040000641100000000
  0
XRECORD
  5
175
102
{ACAD_REACTORS
330
173
102
}
330
173
100
AcDbXrecord
280
     1
270
     1
271
     1
  0
XRECORD
  5
174
102
{ACAD_REACTORS
330
173
102
}
330
173
100
AcDbXrecord
280
     1
270
     1
271
     1
  0
XRECORD
  5
1FB
102
{ACAD_REACTORS
330
173
102
}
330
173
100
AcDbXrecord
280
     1
 70
     0
 90
1673772943
  1
ECE7A1D2-D628-4531-984C-D00F80459256
310
504B03040A0000080000CC70623B3DEE336E79000000790000001B0000006175746F6465736B2D64657369676E2D7061636B6167652E786D6C3C3F786D6C2076657273696F6E3D22312E302220656E636F64696E673D227574662D3822203F3E3C666F726D6174733E3C666F726D61743E687474703A2F2F736368656D612E
310
6175746F6465736B2E636F6D2F64657369676E2D7061636B6167652F323030393C2F666F726D61743E3C2F666F726D6174733E504B0304140006080800CC70623BD486FD9CA0000000F4000000130000005B436F6E74656E745F54797065735D2E786D6C7D8EC10E82300C865F65E91D8A1E8C310C0EEA1BF002731658846E
310
D98AC1B77784ABF1D8FE5FBFBF75BBCE937A534CCEB38643598122B6FEE978D0B0485F9C41B54DDD7D022595594E1A469170414C76A4D9A4D207E29CF43ECE46F218070CC6BECC4078ACAA135ACF422C856C0E68EA1BF5669944DDD7BCDE7B1F8E415D77AECB980613C2E4AC91FC167A2B244592486606FC29C8FD7F045B9A
310
EF7053A7E60B504B0304140006080800CC70623BD9DDAED0EC0000007C01000008000000636F72652E786D6C8D90416EC3201045AF82665B61836D9CD8C2444DD39CA01740405C94182C03558F5F9C3852BBEB6A467FFE9B197D7EF89E6EE8CB2CC17A37002D0820E394D7D68D03A478C17B4007C117EFE32F1B20272733C0
310
2A83E0E3E2D3BC49CABB685CCCAAF3DA6CA20CC14440EA969B0182FA34932C648AD911AEC52CD5558EA6A0CF2EC329598D1E47ACCEFBECC59A050463A7EA5833865FEBDD0E37353BE3EE8DBDE3F6786A48D375FBF6CC78B9C282473B3DEFABC5C86834888A900E538A49F5419B9EB47DD5BC907D4F082F57FB1F28CDFA9F50
310
B22ED6D5F6EE030B20687EE43E10BC5CB3C8E51E54AE6B6EE207504B0304140006080800CC70623B55019EA25F0000007C00000007000000636E782E786D6C4DCB3B0E80201045D1AD90E915ED2CF8AC45050C11660C8261F98AB1B07AC9C97D42D718D865D3E909258CFD00CCE24AC6E326A164D74DC0B4128928FF326038
310
472BA13128B1252AC747C6BAB984FC68F0B87FE8960A5C09FE86CFB69FBA01504B0304140006080800CC70623BA24EB22D72010000D40300000C0000006662782F636F72652E786D6CC5535B6E833010BC8AE5DF0A6C5E49888CA3A6694ED00B38E05014B091B1518EDFE511A5A9D228FD2A1F60CDEC7A67C6986DCE4D8D7A
310
69BA4AAB0C073EC548AA5C17952A33ECECD15B61B4E1CC686DBF9561A44423333CC098B3D268D7CE50AE9595CA02AA74216750749DB418E5352C32DCE59FB211BE70162ABA93DF8AFC244AE9073ED050C759670D0840D390E18DF9F1706664C23973AE2A66B62A605A75ACA4C13C4976E1364A12EF355A2EBD384AF65EFA96
310
BC7B8BED2EA6719AAE16FB8491A199335B351775B991C2CA02F390D2D40B028F861F41BCA68B7518BFD0D59A524686F29B26D7164F36B94AD9289CE54E6D1DE6010819891F6E21228B3AD1831EC219194284CF98F06DD01008846CC5A1BEF83801D4CBDC6A1303536877A57A513B0953A94FC707FDBE6064EA84A9E3E6E0FA
310
EE8CF0E9198F7784A316AA0413C2C2F2E0ECA0934D1AE6D05A69BCDE9E91D2A611F573361E38FC1375157F5752AE6B6DFE4B11990F88CCBF0719EE23FF02504B0304140006080800CC70623B408A7D3B7C0000009D0000000B0000006662782F636E782E786D6C4DCCD10A83201886E15B91FFDC552A92A0064DBC8F581632
310
D3703A76F9ABD1C18E3E78F878E5F0D9027ABBFCF2292AE86E2D20171F69F6715550CB827B40839639A5F2770314A7CD293819B45C73AAFB45B35BA61ACAA1C1C7E7855C58C15BC331339661262CC762340413D68D77DA5B42298546CBE6573AF60CEB2F504B0304140006080800CC70623B449FB9BD290100001202000031
310
0000006662782F36394639363044362D344446342D343946362D394244322D3234314243333846323333332F636F72652E786D6C8D515B6EC32010BC0AE22B55850D98B871848994463E412FE002495162B07854397EA176A4F62F3F2C9A9D991D587EB84F37F0AD7D30CEF6905418026DA553C65E7A98E219ED203808EE9D
310
8B7F6810D871D23D2C3014FCE25D9A57483A1BB58D19B54EE9151C43D0110279CB971E06F9A5A7B11A53CC8C70ADE6515EC78BAE4895DB992778883E0700CB907242D17643D7E2538BD869608875438BBAE38922CAC8F1BDD90DB4691A5E2F42C153326A951B95E398B3D1FE599322163C9AE9115F7A3D46ADA0A018778810
310
84E907617BDCEE297BC5BB3DC6BC2EF47FA234AB2745C9D8D8D035EE220B50105E2F0DC1954B9FB747187D9F9D8FA0CCDB042D5FA0C015C65B42DF78BD10F3F3B363CB56C7109DCFDFBBB97E662ED92EB62D13BC2E1BCAE5777DB9966D8A1F504B0304140006080800CC70623BAD7543B64E01000033030000300000006662
310
782F36394639363044362D344446342D343946362D394244322D3234314243333846323333332F636E782E786D6CD593CD6EC32010845F0571AD6CE3D48AD20813A9873E410FBD12D82434182C7EAAE6EDBB2424CD25871E7B41D6EC30B3FA84F9E67BB2E40B4234DE8DB46F1925E094D7C6ED479AD3AE5951B2113C789FEE
310
6C943839C1488B4C05DF079FE72A69D8C96C13AAD6B8631503449F83828872B949AC57D26200B826A308D316B4064D6E46FCDA41C05550DC9E483A00797BFD207EFB092A45DE9514C1BBD22178396BD39D891265658C238DEA00936C654E5E433CB65A26D9F6EDB5EBC14EBF49A45CB856E66048291F6939A9A81BB5C89177
310
38143CA680F4AA299D66A042CEB3354A2684DC9D8D178FE0D9B8B41CAAD720F880EE7EF93C0C18769E099ECC04D5A102C8049A8A05632F4DDF376CF1DE0F6BB65C2F8627B65A33C6BB62177CEBBDAD973006829F89F22E814B54F4BC2BE347F8AA8F681390B50FA73F804400B5F542E796F19FF974E7F78DB802FE05E20750
310
4B0304140006080800CC70623B8D05915C650500003B100000340000006662782F36394639363044362D344446342D343946362D394244322D3234314243333846323333332F6F626A656374732E786D6CAD575B6FA33814FE2B887D06429276DA1565D4266D158D3A339A6846FB502932E050B66023DB74D2FDF5FB190C01
310
9276B2973C046C8ECFF53B17071F77456EBD502133CEAE6CDF9DD81665314F32965ED995DA3A17B6F5310C04E7AA47665B8C14F4CAD6DB7618A48257A5D94AE89654B91AEDDEDDFC61C998326A5B714EA4BCB265FC440BE2924AF184CA6737218AB8E976E7FA6E4338649B0A523E8D98964450A6A029F619B8588D52FE7039
310
B1BD30F0F4F730D0FF866AF6369557DB33949F31A9088B0F848DD8CCFCF9F2767A76E99CCDE733677E3EF59D9BBB9BA5E37F984D16E78BC5E5F5ED25044B25C0C96822E8D60EEFE11B91C581D77CEA34368A1F5329E68CD1B8B61F16D63A1B8E092D294B10C78C4A48EB593D192E7DED9BDEE7995E1B91FDEDD3ACEA9FE831
310
6A756F9F7D4D79F4274C90A7A04248AA51D5F8C718DAE06FB2F75AC4796EBE65D22A88A22223B995679120E2D50E41AA49C260C046A35368846B0BECD0DFF3EBEB8AD4F835768F69B9ADF25C43D30E6B646F807FAA64AD59F61715C7A54127C4AACA98BA3006A9D792DAE165E0D59B61A01FB3A9F9D838D2DAE62445C86166
310
F37564E842E7DE6A69879FEEA2DD5AE7E371E1A5E025154AC307D06A03D73EB5978C58FFA4C8E9033066E0F3BD53BEC1F39F91BE7B55103791EDE6BBB991A2046172CB4581D8B893FA674DDA17A77B3B7C413D1B511FD2743BFF8A38F03A658705E3ADF8015C3A3417FF3D7E439FF591DA0B5F18BC20C1B8981957AE6392A3
310
F43C640C01D1A0B4728E2DD4F26DB4B3C3152A252A3B4E913CEC1C72F012782FF88EFF8637AA552DBEF76408E8A8DE9E50F9E1CB3A2DA0DB1B6039A893B56063DC5B3E3FFB5F72E67AB9FEB4AEC496C4F4C1149625DD662C53E89D7BF0F6151A046260D1337DFDC94502430F83B0EE07A130A224BCAD7DAE1D9FB6CD422FF6
310
920702629C4BB9AE79C12F243C6432A6794E18E5552BA56B431AAB5D91317302B2B071E86C3A42B1A02F999E24061403B5D0EB639195DA655DD3EBEAB4FB862DDF579F014AD0E73C22F99E28DA57FB98E75C6CA2D74D53086D600F4786E0FE3144B771A8A7B900F03594DB8A633CBC49B2EDB69228BB479CF863B5E807AAAB
310
23872F6DFEB4129B949CA33823F58830E86D65621E10047D9DB34D862E8EAC3C2ABC2F7B2C40D67CDFE01F5545B92105AF983AC54D93D69E56FB8E797F88913F898A9FEC705D3F9D1B54EC8426FB500D40A03BD0119B06E1B95DDC7EB8F6975367793EBD70E66733DFB9BC982F9CE564727731999F5D4ECFCE3B8D6A4DC2A0
310
6D50FD148437D110834A64C6CDDF57FBACB5C307A2A477DFE4939736CFEF2B175371E0E10CF0DD1D5C15654E0BCA14D1E87DD02FF93782A162C0A3D95F1524A52770F972BF1EE9809D13CE7DD599467F8ECE9ADD85CE85A34CD45355448C64F9E8A031DC2D596ACC6E5DD93D9B82DE2EF5CAF81363A8E47996A0DE24564A79
310
4115AACE09C55E14540231FDA13C319787134EBF34E3A022514E5B4D9E0826E25C02D5805B15ABE1BEF51B26383D445DD9E875EE33FE4C22DA16427D65A3BCA92CA6D28DD01DF5DC53330704308475351050232CCD31583787BA75774AFB06E5070DD0C8EF484E19968C5D83BA5B90B244D31E54D55A372320FE4786B7EA58
310
44E135AA5467CB7EA333A61683CC6A8C3257034C10CF46F40EF9F5BE59BE5BD30C3C72D235E95D10345C1D45445A5F0BB47E46A5EBE5570F9380B5FA629579952296A773720405982B9DE04011506178964401AA8BDF1FBF0A8EAB6861DD6580C0E38217056766716DAEB2D6FA0917D3E4116581EADB879C4E7CFFB11EFACD
310
3D641311495D92C8676CB409A72D18610D803CE8A626049E8EC1887CB5B44CC39883690DDA8399B4B9855B481E7D71D4A9D22F96E5BB73BF5793020C02137BF837504B0304140006080000CC70623B000000000000000000000000350000006662782F36394639363044362D344446342D343946362D394244322D32343142
310
43333846323333332F76657274696365732E62696E504B0304140006080800CC70623BF270F1330600000004000000360000006662782F36394639363044362D344446342D343946362D394244322D3234314243333846323333332F747269616E676C65732E62696E636660600000504B0304140006080000CC70623B0000
310
00000000000000000000370000006662782F36394639363044362D344446342D343946362D394244322D3234314243333846323333332F617474726962757465732E62696E504B0304140006080800CC70623B08DA0BD19000000041010000360000006662782F36394639363044362D344446342D343946362D394244322D
310
3234314243333846323333332F6469726563746F72792E786D6C858F410AC3201045AF22B36F53E9A60B35CBEEBAE80D244E44489C6234F4F835464A48035D0DF398FF9F8AF63D0E6CC63039F212F8F9020C7D47C6792B21C5FE7403D62A1188E2E60C98D7234A5830286103A55745067B9D86B8A3CF9C7F90C11DE607FB14
310
4396D7B6A82D282E9A152AD114D5EF2CB866EEE831B8EEA07A7BB5A8D7D61A2BAAEB7FD5F70921FF497D00504B0304140006080800CC70623BCA768048FE000000A00100003B0000006662782F36394639363044362D344446342D343946362D394244322D3234314243333846323333332F7265736F75726365732F636F72
310
652E786D6C8D50596E833010BD0A9ADFCA60D600328E9AA639412F609909B1126CE4A5EAF16B0295DABFFECC8CDEA2797AECF8353F924FB44E193D409E5248504B332A3D0D10FC95B4901C39B3C6F85F3248B49871801506CE266BC2B243D2688FDA47549B11775038871E12F988C7004EDE7016A9083E2ADC3D5D84BC8B09
310
D33C8D74D471E6BC8D0192EDC93A815B742658898E651BCB59086ADC356A8C3FD555A1055ED7E7E254D615792D0F075295F585746FF53B694EE78A565DD736979A65AB9933AFE69F8CD2A2F038022F28ED489E135A7CE4554F9BBEA85E68DB53CAB255FEC71496F19FA6A0B42F8B3DEE6673C0F318E4497096AD7DC5F52C33
310
EEB55BFE0D504B010214000A0000080000CC70623B3DEE336E79000000790000001B00000000000000000000000000000000006175746F6465736B2D64657369676E2D7061636B6167652E786D6C504B01021400140006080800CC70623BD486FD9CA0000000F40000001300000000000000000000000000B20000005B436F
310
6E74656E745F54797065735D2E786D6C504B01021400140006080800CC70623BD9DDAED0EC0000007C010000080000000000000000000000000083010000636F72652E786D6C504B01021400140006080800CC70623B55019EA25F0000007C000000070000000000000000000000000095020000636E782E786D6C504B0102
310
1400140006080800CC70623BA24EB22D72010000D40300000C00000000000000000000000000190300006662782F636F72652E786D6C504B01021400140006080800CC70623B408A7D3B7C0000009D0000000B00000000000000000000000000B50400006662782F636E782E786D6C504B01021400140006080800CC70623B
310
449FB9BD290100001202000031000000000000000000000000005A0500006662782F36394639363044362D344446342D343946362D394244322D3234314243333846323333332F636F72652E786D6C504B01021400140006080800CC70623BAD7543B64E010000330300003000000000000000000000000000D20600006662
310
782F36394639363044362D344446342D343946362D394244322D3234314243333846323333332F636E782E786D6C504B01021400140006080800CC70623B8D05915C650500003B10000034000000000000000000000000006E0800006662782F36394639363044362D344446342D343946362D394244322D32343142433338
310
46323333332F6F626A656374732E786D6C504B01021400140006080000CC70623B0000000000000000000000003500000000000000000000000000250E00006662782F36394639363044362D344446342D343946362D394244322D3234314243333846323333332F76657274696365732E62696E504B010214001400060808
310
00CC70623BF270F13306000000040000003600000000000000000000000000780E00006662782F36394639363044362D344446342D343946362D394244322D3234314243333846323333332F747269616E676C65732E62696E504B01021400140006080000CC70623B00000000000000000000000037000000000000000000
310
00000000D20E00006662782F36394639363044362D344446342D343946362D394244322D3234314243333846323333332F617474726962757465732E62696E504B01021400140006080800CC70623B08DA0BD190000000410100003600000000000000000000000000270F00006662782F36394639363044362D344446342D
310
343946362D394244322D3234314243333846323333332F6469726563746F72792E786D6C504B01021400140006080800CC70623BCA768048FE000000A00100003B000000000000000000000000000B1000006662782F36394639363044362D344446342D343946362D394244322D3234314243333846323333332F7265736F
310
75726365732F636F72652E786D6C504B0506000000000E000E0080040000621100000000
  0
XRECORD
  5
176
102
{ACAD_REACTORS
330
173
102
}
330
173
100
AcDbXrecord
280
     1
270
     1
271
     1
  0
XRECORD
  5
177
102
{ACAD_REACTORS
330
173
102
}
330
173
100
AcDbXrecord
280
     1
270
     1
271
     1
  0
XRECORD
  5
1E91
102
{ACAD_REACTORS
330
1362
102
}
330
1362
100
AcDbXrecord
280
     1
102
DISPLAYNAME
  1
Imperial24
102
FLAGS
 90
        0
  0
XRECORD
  5
1E8F
102
{ACAD_REACTORS
330
135E
102
}
330
135E
100
AcDbXrecord
280
     1
102
DISPLAYNAME
  1
Metric50
102
FLAGS
 90
        0
  0
CELLSTYLEMAP
  5
1E55
102
{ACAD_REACTORS
330
162
102
}
330
162
100
AcDbCellStyleMap
 90
        3
300
CELLSTYLE
  1
TABLEFORMAT_BEGIN
 90
        5
170
     1
 91
        0
 92
    32768
 62
   257
 93
        1
300
CONTENTFORMAT
  1
CONTENTFORMAT_BEGIN
 90
        0
 91
        0
 92
      512
 93
        0
300

 40
0.0
140
1.0
 94
        5
 62
     0
340
11
144
6.0
309
CONTENTFORMAT_END
171
     1
301
MARGIN
  1
CELLMARGIN_BEGIN
 40
1.5
 40
1.5
 40
1.5
 40
1.5
 40
0.18
 40
0.18
309
CELLMARGIN_END
 94
        6
 95
        1
302
GRIDFORMAT
  1
GRIDFORMAT_BEGIN
 90
        0
 91
        1
 62
     0
 92
       -2
340
14
 93
        0
 40
1.125
309
GRIDFORMAT_END
 95
        2
302
GRIDFORMAT
  1
GRIDFORMAT_BEGIN
 90
        0
 91
        1
 62
     0
 92
       -2
340
14
 93
        0
 40
1.125
309
GRIDFORMAT_END
 95
        4
302
GRIDFORMAT
  1
GRIDFORMAT_BEGIN
 90
        0
 91
        1
 62
     0
 92
       -2
340
14
 93
        0
 40
1.125
309
GRIDFORMAT_END
 95
        8
302
GRIDFORMAT
  1
GRIDFORMAT_BEGIN
 90
        0
 91
        1
 62
     0
 92
       -2
340
14
 93
        0
 40
1.125
309
GRIDFORMAT_END
 95
       16
302
GRIDFORMAT
  1
GRIDFORMAT_BEGIN
 90
        0
 91
        1
 62
     0
 92
       -2
340
14
 93
        0
 40
1.125
309
GRIDFORMAT_END
 95
       32
302
GRIDFORMAT
  1
GRIDFORMAT_BEGIN
 90
        0
 91
        1
 62
     0
 92
       -2
340
14
 93
        0
 40
1.125
309
GRIDFORMAT_END
309
TABLEFORMAT_END
  1
CELLSTYLE_BEGIN
 90
        1
 91
        1
300
_TITLE
309
CELLSTYLE_END
300
CELLSTYLE
  1
TABLEFORMAT_BEGIN
 90
        5
170
     1
 91
        0
 92
        0
 62
   257
 93
        1
300
CONTENTFORMAT
  1
CONTENTFORMAT_BEGIN
 90
        0
 91
        0
 92
      512
 93
        0
300

 40
0.0
140
1.0
 94
        5
 62
     0
340
11
144
4.5
309
CONTENTFORMAT_END
171
     1
301
MARGIN
  1
CELLMARGIN_BEGIN
 40
1.5
 40
1.5
 40
1.5
 40
1.5
 40
0.18
 40
0.18
309
CELLMARGIN_END
 94
        6
 95
        1
302
GRIDFORMAT
  1
GRIDFORMAT_BEGIN
 90
        0
 91
        1
 62
     0
 92
       -2
340
14
 93
        0
 40
1.125
309
GRIDFORMAT_END
 95
        2
302
GRIDFORMAT
  1
GRIDFORMAT_BEGIN
 90
        0
 91
        1
 62
     0
 92
       -2
340
14
 93
        0
 40
1.125
309
GRIDFORMAT_END
 95
        4
302
GRIDFORMAT
  1
GRIDFORMAT_BEGIN
 90
        0
 91
        1
 62
     0
 92
       -2
340
14
 93
        0
 40
1.125
309
GRIDFORMAT_END
 95
        8
302
GRIDFORMAT
  1
GRIDFORMAT_BEGIN
 90
        0
 91
        1
 62
     0
 92
       -2
340
14
 93
        0
 40
1.125
309
GRIDFORMAT_END
 95
       16
302
GRIDFORMAT
  1
GRIDFORMAT_BEGIN
 90
        0
 91
        1
 62
     0
 92
       -2
340
14
 93
        0
 40
1.125
309
GRIDFORMAT_END
 95
       32
302
GRIDFORMAT
  1
GRIDFORMAT_BEGIN
 90
        0
 91
        1
 62
     0
 92
       -2
340
14
 93
        0
 40
1.125
309
GRIDFORMAT_END
309
TABLEFORMAT_END
  1
CELLSTYLE_BEGIN
 90
        2
 91
        1
300
_HEADER
309
CELLSTYLE_END
300
CELLSTYLE
  1
TABLEFORMAT_BEGIN
 90
        5
170
     1
 91
        0
 92
        0
 62
   257
 93
        1
300
CONTENTFORMAT
  1
CONTENTFORMAT_BEGIN
 90
        0
 91
        0
 92
      512
 93
        0
300

 40
0.0
140
1.0
 94
        2
 62
     0
340
11
144
4.5
309
CONTENTFORMAT_END
171
     1
301
MARGIN
  1
CELLMARGIN_BEGIN
 40
1.5
 40
1.5
 40
1.5
 40
1.5
 40
0.18
 40
0.18
309
CELLMARGIN_END
 94
        6
 95
        1
302
GRIDFORMAT
  1
GRIDFORMAT_BEGIN
 90
        0
 91
        1
 62
     0
 92
       -2
340
14
 93
        0
 40
1.125
309
GRIDFORMAT_END
 95
        2
302
GRIDFORMAT
  1
GRIDFORMAT_BEGIN
 90
        0
 91
        1
 62
     0
 92
       -2
340
14
 93
        0
 40
1.125
309
GRIDFORMAT_END
 95
        4
302
GRIDFORMAT
  1
GRIDFORMAT_BEGIN
 90
        0
 91
        1
 62
     0
 92
       -2
340
14
 93
        0
 40
1.125
309
GRIDFORMAT_END
 95
        8
302
GRIDFORMAT
  1
GRIDFORMAT_BEGIN
 90
        0
 91
        1
 62
     0
 92
       -2
340
14
 93
        0
 40
1.125
309
GRIDFORMAT_END
 95
       16
302
GRIDFORMAT
  1
GRIDFORMAT_BEGIN
 90
        0
 91
        1
 62
     0
 92
       -2
340
14
 93
        0
 40
1.125
309
GRIDFORMAT_END
 95
       32
302
GRIDFORMAT
  1
GRIDFORMAT_BEGIN
 90
        0
 91
        1
 62
     0
 92
       -2
340
14
 93
        0
 40
1.125
309
GRIDFORMAT_END
309
TABLEFORMAT_END
  1
CELLSTYLE_BEGIN
 90
        3
 91
        2
300
_DATA
309
CELLSTYLE_END
  0
XRECORD
  5
1E6A
102
{ACAD_REACTORS
330
1E69
102
}
330
1E69
100
AcDbXrecord
280
     1
102
RTVSPost2010Prop28
280
     1
102
RTVSPost2010PropOp28
 70
     1
102
RTVSPost2010Prop29
280
     1
102
RTVSPost2010PropOp29
 70
     1
102
RTVSPost2010Prop30
280
     0
102
RTVSPost2010PropOp30
 70
     1
102
RTVSPost2010Prop31
280
     0
102
RTVSPost2010PropOp31
 70
     1
102
RTVSPost2010Prop32
280
     0
102
RTVSPost2010PropOp32
 70
     1
102
RTVSPost2010Prop33
280
     0
102
RTVSPost2010PropOp33
 70
     1
102
RTVSPost2010Prop34
280
     0
102
RTVSPost2010PropOp34
 70
     1
102
RTVSPost2010Prop35
280
     0
102
RTVSPost2010PropOp35
 70
     1
102
RTVSPost2010Prop36
280
     0
102
RTVSPost2010PropOp36
 70
     1
102
RTVSPost2010Prop37
 90
       50
102
RTVSPost2010PropOp37
 70
     1
102
RTVSPost2010Prop38
140
0.0
102
RTVSPost2010PropOp38
 70
     1
102
RTVSPost2010Prop39
140
1.0
102
RTVSPost2010PropOp39
 70
     1
102
RTVSPost2010Prop40
 90
        0
102
RTVSPost2010PropOp40
 70
     1
102
RTVSPost2010Prop41ColorIndex
 90
       18
102
RTVSPost2010Prop41ColorRGB
 90
        0
102
RTVSPost2010PropOp41
 70
     1
102
RTVSPost2010Prop42
 90
       50
102
RTVSPost2010PropOp42
 70
     1
102
RTVSPost2010Prop43
 90
        3
102
RTVSPost2010PropOp43
 70
     1
102
RTVSPost2010Prop44ColorIndex
 90
        5
102
RTVSPost2010Prop44ColorRGB
 90
      255
102
RTVSPost2010PropOp44
 70
     1
102
RTVSPost2010Prop45
280
     0
102
RTVSPost2010PropOp45
 70
     1
102
RTVSPost2010Prop46
 90
       50
102
RTVSPost2010PropOp46
 70
     1
102
RTVSPost2010Prop47
 90
       50
102
RTVSPost2010PropOp47
 70
     1
102
RTVSPost2010Prop48
 90
       50
102
RTVSPost2010PropOp48
 70
     1
102
RTVSPost2010Prop49
280
     0
102
RTVSPost2010PropOp49
 70
     1
102
RTVSPost2010Prop50
 90
       50
102
RTVSPost2010PropOp50
 70
     1
102
RTVSPost2010Prop51ColorIndex
 90
      256
102
RTVSPost2010Prop51ColorRGB
 90
-16777216
102
RTVSPost2010PropOp51
 70
     0
102
RTVSPost2010Prop52
140
1.0
102
RTVSPost2010PropOp52
 70
     0
102
RTVSPost2010Prop53
 90
        2
102
RTVSPost2010PropOp53
 70
     1
102
RTVSPost2010Prop54
  1
strokes_ogs.tif
102
RTVSPost2010PropOp54
 70
     1
102
RTVSPost2010Prop55
280
     0
102
RTVSPost2010PropOp55
 70
     1
102
RTVSPost2010Prop56
140
1.0
102
RTVSPost2010PropOp56
 70
     1
102
RTVSPost2010Prop57
140
1.0
102
RTVSPost2010PropOp57
 70
     1
  0
XRECORD
  5
1E68
102
{ACAD_REACTORS
330
1E67
102
}
330
1E67
100
AcDbXrecord
280
     1
102
RTVSPost2010Prop28
280
     0
102
RTVSPost2010PropOp28
 70
     1
102
RTVSPost2010Prop29
280
     1
102
RTVSPost2010PropOp29
 70
     1
102
RTVSPost2010Prop30
280
     1
102
RTVSPost2010PropOp30
 70
     1
102
RTVSPost2010Prop31
280
     0
102
RTVSPost2010PropOp31
 70
     1
102
RTVSPost2010Prop32
280
     0
102
RTVSPost2010PropOp32
 70
     1
102
RTVSPost2010Prop33
280
     0
102
RTVSPost2010PropOp33
 70
     1
102
RTVSPost2010Prop34
280
     0
102
RTVSPost2010PropOp34
 70
     1
102
RTVSPost2010Prop35
280
     0
102
RTVSPost2010PropOp35
 70
     1
102
RTVSPost2010Prop36
280
     0
102
RTVSPost2010PropOp36
 70
     1
102
RTVSPost2010Prop37
 90
       50
102
RTVSPost2010PropOp37
 70
     1
102
RTVSPost2010Prop38
140
0.0
102
RTVSPost2010PropOp38
 70
     1
102
RTVSPost2010Prop39
140
1.0
102
RTVSPost2010PropOp39
 70
     1
102
RTVSPost2010Prop40
 90
        0
102
RTVSPost2010PropOp40
 70
     1
102
RTVSPost2010Prop41ColorIndex
 90
       18
102
RTVSPost2010Prop41ColorRGB
 90
        0
102
RTVSPost2010PropOp41
 70
     1
102
RTVSPost2010Prop42
 90
       50
102
RTVSPost2010PropOp42
 70
     1
102
RTVSPost2010Prop43
 90
        3
102
RTVSPost2010PropOp43
 70
     1
102
RTVSPost2010Prop44ColorIndex
 90
        5
102
RTVSPost2010Prop44ColorRGB
 90
      255
102
RTVSPost2010PropOp44
 70
     1
102
RTVSPost2010Prop45
280
     0
102
RTVSPost2010PropOp45
 70
     1
102
RTVSPost2010Prop46
 90
       50
102
RTVSPost2010PropOp46
 70
     1
102
RTVSPost2010Prop47
 90
       50
102
RTVSPost2010PropOp47
 70
     1
102
RTVSPost2010Prop48
 90
       50
102
RTVSPost2010PropOp48
 70
     1
102
RTVSPost2010Prop49
280
     0
102
RTVSPost2010PropOp49
 70
     1
102
RTVSPost2010Prop50
 90
       50
102
RTVSPost2010PropOp50
 70
     1
102
RTVSPost2010Prop51ColorIndex
 90
      256
102
RTVSPost2010Prop51ColorRGB
 90
-16777216
102
RTVSPost2010PropOp51
 70
     0
102
RTVSPost2010Prop52
140
1.0
102
RTVSPost2010PropOp52
 70
     0
102
RTVSPost2010Prop53
 90
        2
102
RTVSPost2010PropOp53
 70
     1
102
RTVSPost2010Prop54
  1
strokes_ogs.tif
102
RTVSPost2010PropOp54
 70
     1
102
RTVSPost2010Prop55
280
     0
102
RTVSPost2010PropOp55
 70
     1
102
RTVSPost2010Prop56
140
1.0
102
RTVSPost2010PropOp56
 70
     1
102
RTVSPost2010Prop57
140
1.0
102
RTVSPost2010PropOp57
 70
     1
  0
XRECORD
  5
1E76
102
{ACAD_REACTORS
330
1E75
102
}
330
1E75
100
AcDbXrecord
280
     1
102
RTVSPost2010Prop28
280
     0
102
RTVSPost2010PropOp28
 70
     1
102
RTVSPost2010Prop29
280
     1
102
RTVSPost2010PropOp29
 70
     1
102
RTVSPost2010Prop30
280
     1
102
RTVSPost2010PropOp30
 70
     1
102
RTVSPost2010Prop31
280
     0
102
RTVSPost2010PropOp31
 70
     1
102
RTVSPost2010Prop32
280
     0
102
RTVSPost2010PropOp32
 70
     1
102
RTVSPost2010Prop33
280
     0
102
RTVSPost2010PropOp33
 70
     1
102
RTVSPost2010Prop34
280
     0
102
RTVSPost2010PropOp34
 70
     1
102
RTVSPost2010Prop35
280
     0
102
RTVSPost2010PropOp35
 70
     1
102
RTVSPost2010Prop36
280
     0
102
RTVSPost2010PropOp36
 70
     1
102
RTVSPost2010Prop37
 90
       50
102
RTVSPost2010PropOp37
 70
     1
102
RTVSPost2010Prop38
140
0.0
102
RTVSPost2010PropOp38
 70
     1
102
RTVSPost2010Prop39
140
1.0
102
RTVSPost2010PropOp39
 70
     1
102
RTVSPost2010Prop40
 90
        0
102
RTVSPost2010PropOp40
 70
     1
102
RTVSPost2010Prop41ColorIndex
 90
       18
102
RTVSPost2010Prop41ColorRGB
 90
        0
102
RTVSPost2010PropOp41
 70
     1
102
RTVSPost2010Prop42
 90
       50
102
RTVSPost2010PropOp42
 70
     1
102
RTVSPost2010Prop43
 90
        3
102
RTVSPost2010PropOp43
 70
     1
102
RTVSPost2010Prop44ColorIndex
 90
        5
102
RTVSPost2010Prop44ColorRGB
 90
      255
102
RTVSPost2010PropOp44
 70
     1
102
RTVSPost2010Prop45
280
     0
102
RTVSPost2010PropOp45
 70
     1
102
RTVSPost2010Prop46
 90
       50
102
RTVSPost2010PropOp46
 70
     1
102
RTVSPost2010Prop47
 90
       50
102
RTVSPost2010PropOp47
 70
     1
102
RTVSPost2010Prop48
 90
       50
102
RTVSPost2010PropOp48
 70
     1
102
RTVSPost2010Prop49
280
     0
102
RTVSPost2010PropOp49
 70
     1
102
RTVSPost2010Prop50
 90
       50
102
RTVSPost2010PropOp50
 70
     1
102
RTVSPost2010Prop51ColorIndex
 90
      256
102
RTVSPost2010Prop51ColorRGB
 90
-16777216
102
RTVSPost2010PropOp51
 70
     0
102
RTVSPost2010Prop52
140
1.0
102
RTVSPost2010PropOp52
 70
     0
102
RTVSPost2010Prop53
 90
        2
102
RTVSPost2010PropOp53
 70
     1
102
RTVSPost2010Prop54
  1
strokes_ogs.tif
102
RTVSPost2010PropOp54
 70
     1
102
RTVSPost2010Prop55
280
     0
102
RTVSPost2010PropOp55
 70
     1
102
RTVSPost2010Prop56
140
1.0
102
RTVSPost2010PropOp56
 70
     1
102
RTVSPost2010Prop57
140
1.0
102
RTVSPost2010PropOp57
 70
     1
  0
XRECORD
  5
1E7E
102
{ACAD_REACTORS
330
1E7D
102
}
330
1E7D
100
AcDbXrecord
280
     1
102
RTVSPost2010Prop28
280
     0
102
RTVSPost2010PropOp28
 70
     1
102
RTVSPost2010Prop29
280
     1
102
RTVSPost2010PropOp29
 70
     1
102
RTVSPost2010Prop30
280
     1
102
RTVSPost2010PropOp30
 70
     1
102
RTVSPost2010Prop31
280
     0
102
RTVSPost2010PropOp31
 70
     1
102
RTVSPost2010Prop32
280
     0
102
RTVSPost2010PropOp32
 70
     1
102
RTVSPost2010Prop33
280
     0
102
RTVSPost2010PropOp33
 70
     1
102
RTVSPost2010Prop34
280
     0
102
RTVSPost2010PropOp34
 70
     1
102
RTVSPost2010Prop35
280
     0
102
RTVSPost2010PropOp35
 70
     1
102
RTVSPost2010Prop36
280
     0
102
RTVSPost2010PropOp36
 70
     1
102
RTVSPost2010Prop37
 90
       50
102
RTVSPost2010PropOp37
 70
     1
102
RTVSPost2010Prop38
140
0.0
102
RTVSPost2010PropOp38
 70
     1
102
RTVSPost2010Prop39
140
1.0
102
RTVSPost2010PropOp39
 70
     1
102
RTVSPost2010Prop40
 90
        0
102
RTVSPost2010PropOp40
 70
     1
102
RTVSPost2010Prop41ColorIndex
 90
       18
102
RTVSPost2010Prop41ColorRGB
 90
        0
102
RTVSPost2010PropOp41
 70
     1
102
RTVSPost2010Prop42
 90
       50
102
RTVSPost2010PropOp42
 70
     1
102
RTVSPost2010Prop43
 90
        3
102
RTVSPost2010PropOp43
 70
     1
102
RTVSPost2010Prop44ColorIndex
 90
        5
102
RTVSPost2010Prop44ColorRGB
 90
      255
102
RTVSPost2010PropOp44
 70
     1
102
RTVSPost2010Prop45
280
     0
102
RTVSPost2010PropOp45
 70
     1
102
RTVSPost2010Prop46
 90
       50
102
RTVSPost2010PropOp46
 70
     1
102
RTVSPost2010Prop47
 90
       50
102
RTVSPost2010PropOp47
 70
     1
102
RTVSPost2010Prop48
 90
       50
102
RTVSPost2010PropOp48
 70
     1
102
RTVSPost2010Prop49
280
     0
102
RTVSPost2010PropOp49
 70
     1
102
RTVSPost2010Prop50
 90
       50
102
RTVSPost2010PropOp50
 70
     1
102
RTVSPost2010Prop51ColorIndex
 90
      256
102
RTVSPost2010Prop51ColorRGB
 90
-16777216
102
RTVSPost2010PropOp51
 70
     0
102
RTVSPost2010Prop52
140
1.0
102
RTVSPost2010PropOp52
 70
     0
102
RTVSPost2010Prop53
 90
        2
102
RTVSPost2010PropOp53
 70
     1
102
RTVSPost2010Prop54
  1
strokes_ogs.tif
102
RTVSPost2010PropOp54
 70
     1
102
RTVSPost2010Prop55
280
     0
102
RTVSPost2010PropOp55
 70
     1
102
RTVSPost2010Prop56
140
1.0
102
RTVSPost2010PropOp56
 70
     1
102
RTVSPost2010Prop57
140
1.0
102
RTVSPost2010PropOp57
 70
     1
  0
XRECORD
  5
1E70
102
{ACAD_REACTORS
330
1E6F
102
}
330
1E6F
100
AcDbXrecord
280
     1
102
RTVSPost2010Prop28
280
     0
102
RTVSPost2010PropOp28
 70
     1
102
RTVSPost2010Prop29
280
     1
102
RTVSPost2010PropOp29
 70
     1
102
RTVSPost2010Prop30
280
     1
102
RTVSPost2010PropOp30
 70
     1
102
RTVSPost2010Prop31
280
     0
102
RTVSPost2010PropOp31
 70
     1
102
RTVSPost2010Prop32
280
     0
102
RTVSPost2010PropOp32
 70
     1
102
RTVSPost2010Prop33
280
     0
102
RTVSPost2010PropOp33
 70
     1
102
RTVSPost2010Prop34
280
     0
102
RTVSPost2010PropOp34
 70
     1
102
RTVSPost2010Prop35
280
     0
102
RTVSPost2010PropOp35
 70
     1
102
RTVSPost2010Prop36
280
     0
102
RTVSPost2010PropOp36
 70
     1
102
RTVSPost2010Prop37
 90
       50
102
RTVSPost2010PropOp37
 70
     1
102
RTVSPost2010Prop38
140
0.0
102
RTVSPost2010PropOp38
 70
     1
102
RTVSPost2010Prop39
140
1.0
102
RTVSPost2010PropOp39
 70
     1
102
RTVSPost2010Prop40
 90
        0
102
RTVSPost2010PropOp40
 70
     1
102
RTVSPost2010Prop41ColorIndex
 90
       18
102
RTVSPost2010Prop41ColorRGB
 90
        0
102
RTVSPost2010PropOp41
 70
     1
102
RTVSPost2010Prop42
 90
       50
102
RTVSPost2010PropOp42
 70
     1
102
RTVSPost2010Prop43
 90
        3
102
RTVSPost2010PropOp43
 70
     1
102
RTVSPost2010Prop44ColorIndex
 90
        5
102
RTVSPost2010Prop44ColorRGB
 90
      255
102
RTVSPost2010PropOp44
 70
     1
102
RTVSPost2010Prop45
280
     0
102
RTVSPost2010PropOp45
 70
     1
102
RTVSPost2010Prop46
 90
       50
102
RTVSPost2010PropOp46
 70
     1
102
RTVSPost2010Prop47
 90
       50
102
RTVSPost2010PropOp47
 70
     1
102
RTVSPost2010Prop48
 90
       50
102
RTVSPost2010PropOp48
 70
     1
102
RTVSPost2010Prop49
280
     0
102
RTVSPost2010PropOp49
 70
     1
102
RTVSPost2010Prop50
 90
       50
102
RTVSPost2010PropOp50
 70
     1
102
RTVSPost2010Prop51ColorIndex
 90
      256
102
RTVSPost2010Prop51ColorRGB
 90
-16777216
102
RTVSPost2010PropOp51
 70
     0
102
RTVSPost2010Prop52
140
1.0
102
RTVSPost2010PropOp52
 70
     0
102
RTVSPost2010Prop53
 90
        2
102
RTVSPost2010PropOp53
 70
     1
102
RTVSPost2010Prop54
  1
strokes_ogs.tif
102
RTVSPost2010PropOp54
 70
     1
102
RTVSPost2010Prop55
280
     0
102
RTVSPost2010PropOp55
 70
     1
102
RTVSPost2010Prop56
140
1.0
102
RTVSPost2010PropOp56
 70
     1
102
RTVSPost2010Prop57
140
1.0
102
RTVSPost2010PropOp57
 70
     1
  0
XRECORD
  5
1E74
102
{ACAD_REACTORS
330
1E73
102
}
330
1E73
100
AcDbXrecord
280
     1
102
RTVSPost2010Prop28
280
     0
102
RTVSPost2010PropOp28
 70
     1
102
RTVSPost2010Prop29
280
     1
102
RTVSPost2010PropOp29
 70
     1
102
RTVSPost2010Prop30
280
     1
102
RTVSPost2010PropOp30
 70
     1
102
RTVSPost2010Prop31
280
     0
102
RTVSPost2010PropOp31
 70
     1
102
RTVSPost2010Prop32
280
     0
102
RTVSPost2010PropOp32
 70
     1
102
RTVSPost2010Prop33
280
     0
102
RTVSPost2010PropOp33
 70
     1
102
RTVSPost2010Prop34
280
     0
102
RTVSPost2010PropOp34
 70
     1
102
RTVSPost2010Prop35
280
     0
102
RTVSPost2010PropOp35
 70
     1
102
RTVSPost2010Prop36
280
     0
102
RTVSPost2010PropOp36
 70
     1
102
RTVSPost2010Prop37
 90
       50
102
RTVSPost2010PropOp37
 70
     1
102
RTVSPost2010Prop38
140
0.0
102
RTVSPost2010PropOp38
 70
     1
102
RTVSPost2010Prop39
140
1.0
102
RTVSPost2010PropOp39
 70
     1
102
RTVSPost2010Prop40
 90
        0
102
RTVSPost2010PropOp40
 70
     1
102
RTVSPost2010Prop41ColorIndex
 90
       18
102
RTVSPost2010Prop41ColorRGB
 90
        0
102
RTVSPost2010PropOp41
 70
     1
102
RTVSPost2010Prop42
 90
       50
102
RTVSPost2010PropOp42
 70
     1
102
RTVSPost2010Prop43
 90
        3
102
RTVSPost2010PropOp43
 70
     1
102
RTVSPost2010Prop44ColorIndex
 90
        5
102
RTVSPost2010Prop44ColorRGB
 90
      255
102
RTVSPost2010PropOp44
 70
     1
102
RTVSPost2010Prop45
280
     0
102
RTVSPost2010PropOp45
 70
     1
102
RTVSPost2010Prop46
 90
       50
102
RTVSPost2010PropOp46
 70
     1
102
RTVSPost2010Prop47
 90
       50
102
RTVSPost2010PropOp47
 70
     1
102
RTVSPost2010Prop48
 90
       50
102
RTVSPost2010PropOp48
 70
     1
102
RTVSPost2010Prop49
280
     0
102
RTVSPost2010PropOp49
 70
     1
102
RTVSPost2010Prop50
 90
       50
102
RTVSPost2010PropOp50
 70
     1
102
RTVSPost2010Prop51ColorIndex
 90
      256
102
RTVSPost2010Prop51ColorRGB
 90
-16777216
102
RTVSPost2010PropOp51
 70
     0
102
RTVSPost2010Prop52
140
1.0
102
RTVSPost2010PropOp52
 70
     0
102
RTVSPost2010Prop53
 90
        2
102
RTVSPost2010PropOp53
 70
     1
102
RTVSPost2010Prop54
  1
strokes_ogs.tif
102
RTVSPost2010PropOp54
 70
     1
102
RTVSPost2010Prop55
280
     0
102
RTVSPost2010PropOp55
 70
     1
102
RTVSPost2010Prop56
140
1.0
102
RTVSPost2010PropOp56
 70
     1
102
RTVSPost2010Prop57
140
1.0
102
RTVSPost2010PropOp57
 70
     1
  0
XRECORD
  5
1E84
102
{ACAD_REACTORS
330
1E83
102
}
330
1E83
100
AcDbXrecord
280
     1
102
RTVSPost2010Prop28
280
     0
102
RTVSPost2010PropOp28
 70
     1
102
RTVSPost2010Prop29
280
     1
102
RTVSPost2010PropOp29
 70
     1
102
RTVSPost2010Prop30
280
     1
102
RTVSPost2010PropOp30
 70
     1
102
RTVSPost2010Prop31
280
     0
102
RTVSPost2010PropOp31
 70
     1
102
RTVSPost2010Prop32
280
     0
102
RTVSPost2010PropOp32
 70
     1
102
RTVSPost2010Prop33
280
     0
102
RTVSPost2010PropOp33
 70
     1
102
RTVSPost2010Prop34
280
     0
102
RTVSPost2010PropOp34
 70
     1
102
RTVSPost2010Prop35
280
     0
102
RTVSPost2010PropOp35
 70
     1
102
RTVSPost2010Prop36
280
     0
102
RTVSPost2010PropOp36
 70
     1
102
RTVSPost2010Prop37
 90
       50
102
RTVSPost2010PropOp37
 70
     1
102
RTVSPost2010Prop38
140
0.0
102
RTVSPost2010PropOp38
 70
     1
102
RTVSPost2010Prop39
140
1.0
102
RTVSPost2010PropOp39
 70
     1
102
RTVSPost2010Prop40
 90
        0
102
RTVSPost2010PropOp40
 70
     1
102
RTVSPost2010Prop41ColorIndex
 90
       18
102
RTVSPost2010Prop41ColorRGB
 90
        0
102
RTVSPost2010PropOp41
 70
     1
102
RTVSPost2010Prop42
 90
       50
102
RTVSPost2010PropOp42
 70
     1
102
RTVSPost2010Prop43
 90
        3
102
RTVSPost2010PropOp43
 70
     1
102
RTVSPost2010Prop44ColorIndex
 90
        5
102
RTVSPost2010Prop44ColorRGB
 90
      255
102
RTVSPost2010PropOp44
 70
     1
102
RTVSPost2010Prop45
280
     0
102
RTVSPost2010PropOp45
 70
     1
102
RTVSPost2010Prop46
 90
       50
102
RTVSPost2010PropOp46
 70
     1
102
RTVSPost2010Prop47
 90
       50
102
RTVSPost2010PropOp47
 70
     1
102
RTVSPost2010Prop48
 90
       50
102
RTVSPost2010PropOp48
 70
     1
102
RTVSPost2010Prop49
280
     0
102
RTVSPost2010PropOp49
 70
     1
102
RTVSPost2010Prop50
 90
       50
102
RTVSPost2010PropOp50
 70
     1
102
RTVSPost2010Prop51ColorIndex
 90
      256
102
RTVSPost2010Prop51ColorRGB
 90
-16777216
102
RTVSPost2010PropOp51
 70
     0
102
RTVSPost2010Prop52
140
1.0
102
RTVSPost2010PropOp52
 70
     0
102
RTVSPost2010Prop53
 90
        2
102
RTVSPost2010PropOp53
 70
     1
102
RTVSPost2010Prop54
  1
strokes_ogs.tif
102
RTVSPost2010PropOp54
 70
     1
102
RTVSPost2010Prop55
280
     0
102
RTVSPost2010PropOp55
 70
     1
102
RTVSPost2010Prop56
140
1.0
102
RTVSPost2010PropOp56
 70
     1
102
RTVSPost2010Prop57
140
1.0
102
RTVSPost2010PropOp57
 70
     1
  0
XRECORD
  5
1E7C
102
{ACAD_REACTORS
330
1E7B
102
}
330
1E7B
100
AcDbXrecord
280
     1
102
RTVSPost2010Prop28
280
     0
102
RTVSPost2010PropOp28
 70
     1
102
RTVSPost2010Prop29
280
     1
102
RTVSPost2010PropOp29
 70
     1
102
RTVSPost2010Prop30
280
     1
102
RTVSPost2010PropOp30
 70
     1
102
RTVSPost2010Prop31
280
     0
102
RTVSPost2010PropOp31
 70
     1
102
RTVSPost2010Prop32
280
     0
102
RTVSPost2010PropOp32
 70
     1
102
RTVSPost2010Prop33
280
     0
102
RTVSPost2010PropOp33
 70
     1
102
RTVSPost2010Prop34
280
     0
102
RTVSPost2010PropOp34
 70
     1
102
RTVSPost2010Prop35
280
     0
102
RTVSPost2010PropOp35
 70
     1
102
RTVSPost2010Prop36
280
     0
102
RTVSPost2010PropOp36
 70
     1
102
RTVSPost2010Prop37
 90
       50
102
RTVSPost2010PropOp37
 70
     1
102
RTVSPost2010Prop38
140
0.0
102
RTVSPost2010PropOp38
 70
     1
102
RTVSPost2010Prop39
140
1.0
102
RTVSPost2010PropOp39
 70
     1
102
RTVSPost2010Prop40
 90
        0
102
RTVSPost2010PropOp40
 70
     1
102
RTVSPost2010Prop41ColorIndex
 90
       18
102
RTVSPost2010Prop41ColorRGB
 90
        0
102
RTVSPost2010PropOp41
 70
     1
102
RTVSPost2010Prop42
 90
       50
102
RTVSPost2010PropOp42
 70
     1
102
RTVSPost2010Prop43
 90
        3
102
RTVSPost2010PropOp43
 70
     1
102
RTVSPost2010Prop44ColorIndex
 90
        5
102
RTVSPost2010Prop44ColorRGB
 90
      255
102
RTVSPost2010PropOp44
 70
     1
102
RTVSPost2010Prop45
280
     0
102
RTVSPost2010PropOp45
 70
     1
102
RTVSPost2010Prop46
 90
       50
102
RTVSPost2010PropOp46
 70
     1
102
RTVSPost2010Prop47
 90
       50
102
RTVSPost2010PropOp47
 70
     1
102
RTVSPost2010Prop48
 90
       50
102
RTVSPost2010PropOp48
 70
     1
102
RTVSPost2010Prop49
280
     0
102
RTVSPost2010PropOp49
 70
     1
102
RTVSPost2010Prop50
 90
       50
102
RTVSPost2010PropOp50
 70
     1
102
RTVSPost2010Prop51ColorIndex
 90
      256
102
RTVSPost2010Prop51ColorRGB
 90
-16777216
102
RTVSPost2010PropOp51
 70
     0
102
RTVSPost2010Prop52
140
1.0
102
RTVSPost2010PropOp52
 70
     0
102
RTVSPost2010Prop53
 90
        2
102
RTVSPost2010PropOp53
 70
     1
102
RTVSPost2010Prop54
  1
strokes_ogs.tif
102
RTVSPost2010PropOp54
 70
     1
102
RTVSPost2010Prop55
280
     0
102
RTVSPost2010PropOp55
 70
     1
102
RTVSPost2010Prop56
140
1.0
102
RTVSPost2010PropOp56
 70
     1
102
RTVSPost2010Prop57
140
1.0
102
RTVSPost2010PropOp57
 70
     1
  0
XRECORD
  5
1E60
102
{ACAD_REACTORS
330
1E5F
102
}
330
1E5F
100
AcDbXrecord
280
     1
102
RTVSPost2010Prop28
280
     0
102
RTVSPost2010PropOp28
 70
     1
102
RTVSPost2010Prop29
280
     1
102
RTVSPost2010PropOp29
 70
     1
102
RTVSPost2010Prop30
280
     1
102
RTVSPost2010PropOp30
 70
     1
102
RTVSPost2010Prop31
280
     0
102
RTVSPost2010PropOp31
 70
     1
102
RTVSPost2010Prop32
280
     0
102
RTVSPost2010PropOp32
 70
     1
102
RTVSPost2010Prop33
280
     0
102
RTVSPost2010PropOp33
 70
     1
102
RTVSPost2010Prop34
280
     0
102
RTVSPost2010PropOp34
 70
     1
102
RTVSPost2010Prop35
280
     0
102
RTVSPost2010PropOp35
 70
     1
102
RTVSPost2010Prop36
280
     0
102
RTVSPost2010PropOp36
 70
     1
102
RTVSPost2010Prop37
 90
       50
102
RTVSPost2010PropOp37
 70
     1
102
RTVSPost2010Prop38
140
0.0
102
RTVSPost2010PropOp38
 70
     1
102
RTVSPost2010Prop39
140
1.0
102
RTVSPost2010PropOp39
 70
     1
102
RTVSPost2010Prop40
 90
        0
102
RTVSPost2010PropOp40
 70
     1
102
RTVSPost2010Prop41ColorIndex
 90
       18
102
RTVSPost2010Prop41ColorRGB
 90
        0
102
RTVSPost2010PropOp41
 70
     1
102
RTVSPost2010Prop42
 90
       50
102
RTVSPost2010PropOp42
 70
     1
102
RTVSPost2010Prop43
 90
        3
102
RTVSPost2010PropOp43
 70
     1
102
RTVSPost2010Prop44ColorIndex
 90
        5
102
RTVSPost2010Prop44ColorRGB
 90
      255
102
RTVSPost2010PropOp44
 70
     1
102
RTVSPost2010Prop45
280
     0
102
RTVSPost2010PropOp45
 70
     1
102
RTVSPost2010Prop46
 90
       50
102
RTVSPost2010PropOp46
 70
     1
102
RTVSPost2010Prop47
 90
       50
102
RTVSPost2010PropOp47
 70
     1
102
RTVSPost2010Prop48
 90
       50
102
RTVSPost2010PropOp48
 70
     1
102
RTVSPost2010Prop49
280
     0
102
RTVSPost2010PropOp49
 70
     1
102
RTVSPost2010Prop50
 90
       50
102
RTVSPost2010PropOp50
 70
     1
102
RTVSPost2010Prop51ColorIndex
 90
      256
102
RTVSPost2010Prop51ColorRGB
 90
-16777216
102
RTVSPost2010PropOp51
 70
     0
102
RTVSPost2010Prop52
140
1.0
102
RTVSPost2010PropOp52
 70
     0
102
RTVSPost2010Prop53
 90
        2
102
RTVSPost2010PropOp53
 70
     1
102
RTVSPost2010Prop54
  1
strokes_ogs.tif
102
RTVSPost2010PropOp54
 70
     1
102
RTVSPost2010Prop55
280
     0
102
RTVSPost2010PropOp55
 70
     1
102
RTVSPost2010Prop56
140
1.0
102
RTVSPost2010PropOp56
 70
     1
102
RTVSPost2010Prop57
140
1.0
102
RTVSPost2010PropOp57
 70
     1
  0
XRECORD
  5
1E62
102
{ACAD_REACTORS
330
1E61
102
}
330
1E61
100
AcDbXrecord
280
     1
102
RTVSPost2010Prop28
280
     0
102
RTVSPost2010PropOp28
 70
     1
102
RTVSPost2010Prop29
280
     1
102
RTVSPost2010PropOp29
 70
     1
102
RTVSPost2010Prop30
280
     1
102
RTVSPost2010PropOp30
 70
     1
102
RTVSPost2010Prop31
280
     0
102
RTVSPost2010PropOp31
 70
     1
102
RTVSPost2010Prop32
280
     0
102
RTVSPost2010PropOp32
 70
     1
102
RTVSPost2010Prop33
280
     0
102
RTVSPost2010PropOp33
 70
     1
102
RTVSPost2010Prop34
280
     0
102
RTVSPost2010PropOp34
 70
     1
102
RTVSPost2010Prop35
280
     0
102
RTVSPost2010PropOp35
 70
     1
102
RTVSPost2010Prop36
280
     0
102
RTVSPost2010PropOp36
 70
     1
102
RTVSPost2010Prop37
 90
       50
102
RTVSPost2010PropOp37
 70
     1
102
RTVSPost2010Prop38
140
0.0
102
RTVSPost2010PropOp38
 70
     1
102
RTVSPost2010Prop39
140
1.0
102
RTVSPost2010PropOp39
 70
     1
102
RTVSPost2010Prop40
 90
        0
102
RTVSPost2010PropOp40
 70
     1
102
RTVSPost2010Prop41ColorIndex
 90
       18
102
RTVSPost2010Prop41ColorRGB
 90
        0
102
RTVSPost2010PropOp41
 70
     1
102
RTVSPost2010Prop42
 90
       50
102
RTVSPost2010PropOp42
 70
     1
102
RTVSPost2010Prop43
 90
        3
102
RTVSPost2010PropOp43
 70
     1
102
RTVSPost2010Prop44ColorIndex
 90
        5
102
RTVSPost2010Prop44ColorRGB
 90
      255
102
RTVSPost2010PropOp44
 70
     1
102
RTVSPost2010Prop45
280
     0
102
RTVSPost2010PropOp45
 70
     1
102
RTVSPost2010Prop46
 90
       50
102
RTVSPost2010PropOp46
 70
     1
102
RTVSPost2010Prop47
 90
       50
102
RTVSPost2010PropOp47
 70
     1
102
RTVSPost2010Prop48
 90
       50
102
RTVSPost2010PropOp48
 70
     1
102
RTVSPost2010Prop49
280
     0
102
RTVSPost2010PropOp49
 70
     1
102
RTVSPost2010Prop50
 90
       50
102
RTVSPost2010PropOp50
 70
     1
102
RTVSPost2010Prop51ColorIndex
 90
      256
102
RTVSPost2010Prop51ColorRGB
 90
-16777216
102
RTVSPost2010PropOp51
 70
     0
102
RTVSPost2010Prop52
140
1.0
102
RTVSPost2010PropOp52
 70
     0
102
RTVSPost2010Prop53
 90
        2
102
RTVSPost2010PropOp53
 70
     1
102
RTVSPost2010Prop54
  1
strokes_ogs.tif
102
RTVSPost2010PropOp54
 70
     1
102
RTVSPost2010Prop55
280
     0
102
RTVSPost2010PropOp55
 70
     1
102
RTVSPost2010Prop56
140
1.0
102
RTVSPost2010PropOp56
 70
     1
102
RTVSPost2010Prop57
140
1.0
102
RTVSPost2010PropOp57
 70
     1
  0
XRECORD
  5
1E64
102
{ACAD_REACTORS
330
1E63
102
}
330
1E63
100
AcDbXrecord
280
     1
102
RTVSPost2010Prop28
280
     0
102
RTVSPost2010PropOp28
 70
     1
102
RTVSPost2010Prop29
280
     1
102
RTVSPost2010PropOp29
 70
     1
102
RTVSPost2010Prop30
280
     1
102
RTVSPost2010PropOp30
 70
     1
102
RTVSPost2010Prop31
280
     0
102
RTVSPost2010PropOp31
 70
     1
102
RTVSPost2010Prop32
280
     0
102
RTVSPost2010PropOp32
 70
     1
102
RTVSPost2010Prop33
280
     0
102
RTVSPost2010PropOp33
 70
     1
102
RTVSPost2010Prop34
280
     0
102
RTVSPost2010PropOp34
 70
     1
102
RTVSPost2010Prop35
280
     0
102
RTVSPost2010PropOp35
 70
     1
102
RTVSPost2010Prop36
280
     0
102
RTVSPost2010PropOp36
 70
     1
102
RTVSPost2010Prop37
 90
       50
102
RTVSPost2010PropOp37
 70
     1
102
RTVSPost2010Prop38
140
0.0
102
RTVSPost2010PropOp38
 70
     1
102
RTVSPost2010Prop39
140
1.0
102
RTVSPost2010PropOp39
 70
     1
102
RTVSPost2010Prop40
 90
        0
102
RTVSPost2010PropOp40
 70
     1
102
RTVSPost2010Prop41ColorIndex
 90
       18
102
RTVSPost2010Prop41ColorRGB
 90
        0
102
RTVSPost2010PropOp41
 70
     1
102
RTVSPost2010Prop42
 90
       50
102
RTVSPost2010PropOp42
 70
     1
102
RTVSPost2010Prop43
 90
        3
102
RTVSPost2010PropOp43
 70
     1
102
RTVSPost2010Prop44ColorIndex
 90
        5
102
RTVSPost2010Prop44ColorRGB
 90
      255
102
RTVSPost2010PropOp44
 70
     1
102
RTVSPost2010Prop45
280
     0
102
RTVSPost2010PropOp45
 70
     1
102
RTVSPost2010Prop46
 90
       50
102
RTVSPost2010PropOp46
 70
     1
102
RTVSPost2010Prop47
 90
       50
102
RTVSPost2010PropOp47
 70
     1
102
RTVSPost2010Prop48
 90
       50
102
RTVSPost2010PropOp48
 70
     1
102
RTVSPost2010Prop49
280
     0
102
RTVSPost2010PropOp49
 70
     1
102
RTVSPost2010Prop50
 90
       50
102
RTVSPost2010PropOp50
 70
     1
102
RTVSPost2010Prop51ColorIndex
 90
      256
102
RTVSPost2010Prop51ColorRGB
 90
-16777216
102
RTVSPost2010PropOp51
 70
     0
102
RTVSPost2010Prop52
140
1.0
102
RTVSPost2010PropOp52
 70
     0
102
RTVSPost2010Prop53
 90
        2
102
RTVSPost2010PropOp53
 70
     1
102
RTVSPost2010Prop54
  1
strokes_ogs.tif
102
RTVSPost2010PropOp54
 70
     1
102
RTVSPost2010Prop55
280
     0
102
RTVSPost2010PropOp55
 70
     1
102
RTVSPost2010Prop56
140
1.0
102
RTVSPost2010PropOp56
 70
     1
102
RTVSPost2010Prop57
140
1.0
102
RTVSPost2010PropOp57
 70
     1
  0
XRECORD
  5
1E66
102
{ACAD_REACTORS
330
1E65
102
}
330
1E65
100
AcDbXrecord
280
     1
102
RTVSPost2010Prop28
280
     0
102
RTVSPost2010PropOp28
 70
     1
102
RTVSPost2010Prop29
280
     1
102
RTVSPost2010PropOp29
 70
     1
102
RTVSPost2010Prop30
280
     1
102
RTVSPost2010PropOp30
 70
     1
102
RTVSPost2010Prop31
280
     0
102
RTVSPost2010PropOp31
 70
     1
102
RTVSPost2010Prop32
280
     0
102
RTVSPost2010PropOp32
 70
     1
102
RTVSPost2010Prop33
280
     0
102
RTVSPost2010PropOp33
 70
     1
102
RTVSPost2010Prop34
280
     0
102
RTVSPost2010PropOp34
 70
     1
102
RTVSPost2010Prop35
280
     0
102
RTVSPost2010PropOp35
 70
     1
102
RTVSPost2010Prop36
280
     0
102
RTVSPost2010PropOp36
 70
     1
102
RTVSPost2010Prop37
 90
       50
102
RTVSPost2010PropOp37
 70
     1
102
RTVSPost2010Prop38
140
0.0
102
RTVSPost2010PropOp38
 70
     1
102
RTVSPost2010Prop39
140
1.0
102
RTVSPost2010PropOp39
 70
     1
102
RTVSPost2010Prop40
 90
        0
102
RTVSPost2010PropOp40
 70
     1
102
RTVSPost2010Prop41ColorIndex
 90
       18
102
RTVSPost2010Prop41ColorRGB
 90
        0
102
RTVSPost2010PropOp41
 70
     1
102
RTVSPost2010Prop42
 90
       50
102
RTVSPost2010PropOp42
 70
     1
102
RTVSPost2010Prop43
 90
        3
102
RTVSPost2010PropOp43
 70
     1
102
RTVSPost2010Prop44ColorIndex
 90
        5
102
RTVSPost2010Prop44ColorRGB
 90
      255
102
RTVSPost2010PropOp44
 70
     1
102
RTVSPost2010Prop45
280
     0
102
RTVSPost2010PropOp45
 70
     1
102
RTVSPost2010Prop46
 90
       50
102
RTVSPost2010PropOp46
 70
     1
102
RTVSPost2010Prop47
 90
       50
102
RTVSPost2010PropOp47
 70
     1
102
RTVSPost2010Prop48
 90
       50
102
RTVSPost2010PropOp48
 70
     1
102
RTVSPost2010Prop49
280
     0
102
RTVSPost2010PropOp49
 70
     1
102
RTVSPost2010Prop50
 90
       50
102
RTVSPost2010PropOp50
 70
     1
102
RTVSPost2010Prop51ColorIndex
 90
      256
102
RTVSPost2010Prop51ColorRGB
 90
-16777216
102
RTVSPost2010PropOp51
 70
     0
102
RTVSPost2010Prop52
140
1.0
102
RTVSPost2010PropOp52
 70
     0
102
RTVSPost2010Prop53
 90
        2
102
RTVSPost2010PropOp53
 70
     1
102
RTVSPost2010Prop54
  1
strokes_ogs.tif
102
RTVSPost2010PropOp54
 70
     1
102
RTVSPost2010Prop55
280
     0
102
RTVSPost2010PropOp55
 70
     1
102
RTVSPost2010Prop56
140
1.0
102
RTVSPost2010PropOp56
 70
     1
102
RTVSPost2010Prop57
140
1.0
102
RTVSPost2010PropOp57
 70
     1
  0
XRECORD
  5
1E6E
102
{ACAD_REACTORS
330
1E6D
102
}
330
1E6D
100
AcDbXrecord
280
     1
102
RTVSPost2010Prop28
280
     0
102
RTVSPost2010PropOp28
 70
     1
102
RTVSPost2010Prop29
280
     1
102
RTVSPost2010PropOp29
 70
     1
102
RTVSPost2010Prop30
280
     1
102
RTVSPost2010PropOp30
 70
     1
102
RTVSPost2010Prop31
280
     0
102
RTVSPost2010PropOp31
 70
     1
102
RTVSPost2010Prop32
280
     0
102
RTVSPost2010PropOp32
 70
     1
102
RTVSPost2010Prop33
280
     0
102
RTVSPost2010PropOp33
 70
     1
102
RTVSPost2010Prop34
280
     0
102
RTVSPost2010PropOp34
 70
     1
102
RTVSPost2010Prop35
280
     0
102
RTVSPost2010PropOp35
 70
     1
102
RTVSPost2010Prop36
280
     0
102
RTVSPost2010PropOp36
 70
     1
102
RTVSPost2010Prop37
 90
       50
102
RTVSPost2010PropOp37
 70
     1
102
RTVSPost2010Prop38
140
0.0
102
RTVSPost2010PropOp38
 70
     1
102
RTVSPost2010Prop39
140
1.0
102
RTVSPost2010PropOp39
 70
     1
102
RTVSPost2010Prop40
 90
        0
102
RTVSPost2010PropOp40
 70
     1
102
RTVSPost2010Prop41ColorIndex
 90
       18
102
RTVSPost2010Prop41ColorRGB
 90
        0
102
RTVSPost2010PropOp41
 70
     1
102
RTVSPost2010Prop42
 90
       50
102
RTVSPost2010PropOp42
 70
     1
102
RTVSPost2010Prop43
 90
        3
102
RTVSPost2010PropOp43
 70
     1
102
RTVSPost2010Prop44ColorIndex
 90
        5
102
RTVSPost2010Prop44ColorRGB
 90
      255
102
RTVSPost2010PropOp44
 70
     1
102
RTVSPost2010Prop45
280
     0
102
RTVSPost2010PropOp45
 70
     1
102
RTVSPost2010Prop46
 90
       50
102
RTVSPost2010PropOp46
 70
     1
102
RTVSPost2010Prop47
 90
       50
102
RTVSPost2010PropOp47
 70
     1
102
RTVSPost2010Prop48
 90
       50
102
RTVSPost2010PropOp48
 70
     1
102
RTVSPost2010Prop49
280
     0
102
RTVSPost2010PropOp49
 70
     1
102
RTVSPost2010Prop50
 90
       50
102
RTVSPost2010PropOp50
 70
     1
102
RTVSPost2010Prop51ColorIndex
 90
      256
102
RTVSPost2010Prop51ColorRGB
 90
-16777216
102
RTVSPost2010PropOp51
 70
     0
102
RTVSPost2010Prop52
140
1.0
102
RTVSPost2010PropOp52
 70
     0
102
RTVSPost2010Prop53
 90
        2
102
RTVSPost2010PropOp53
 70
     1
102
RTVSPost2010Prop54
  1
strokes_ogs.tif
102
RTVSPost2010PropOp54
 70
     1
102
RTVSPost2010Prop55
280
     0
102
RTVSPost2010PropOp55
 70
     1
102
RTVSPost2010Prop56
140
1.0
102
RTVSPost2010PropOp56
 70
     1
102
RTVSPost2010Prop57
140
1.0
102
RTVSPost2010PropOp57
 70
     1
  0
XRECORD
  5
1E80
102
{ACAD_REACTORS
330
1E7F
102
}
330
1E7F
100
AcDbXrecord
280
     1
102
RTVSPost2010Prop28
280
     0
102
RTVSPost2010PropOp28
 70
     1
102
RTVSPost2010Prop29
280
     1
102
RTVSPost2010PropOp29
 70
     1
102
RTVSPost2010Prop30
280
     1
102
RTVSPost2010PropOp30
 70
     1
102
RTVSPost2010Prop31
280
     0
102
RTVSPost2010PropOp31
 70
     1
102
RTVSPost2010Prop32
280
     0
102
RTVSPost2010PropOp32
 70
     1
102
RTVSPost2010Prop33
280
     0
102
RTVSPost2010PropOp33
 70
     1
102
RTVSPost2010Prop34
280
     0
102
RTVSPost2010PropOp34
 70
     1
102
RTVSPost2010Prop35
280
     0
102
RTVSPost2010PropOp35
 70
     1
102
RTVSPost2010Prop36
280
     0
102
RTVSPost2010PropOp36
 70
     1
102
RTVSPost2010Prop37
 90
       50
102
RTVSPost2010PropOp37
 70
     1
102
RTVSPost2010Prop38
140
0.0
102
RTVSPost2010PropOp38
 70
     1
102
RTVSPost2010Prop39
140
1.0
102
RTVSPost2010PropOp39
 70
     1
102
RTVSPost2010Prop40
 90
        0
102
RTVSPost2010PropOp40
 70
     1
102
RTVSPost2010Prop41ColorIndex
 90
       18
102
RTVSPost2010Prop41ColorRGB
 90
        0
102
RTVSPost2010PropOp41
 70
     1
102
RTVSPost2010Prop42
 90
       50
102
RTVSPost2010PropOp42
 70
     1
102
RTVSPost2010Prop43
 90
        3
102
RTVSPost2010PropOp43
 70
     1
102
RTVSPost2010Prop44ColorIndex
 90
        5
102
RTVSPost2010Prop44ColorRGB
 90
      255
102
RTVSPost2010PropOp44
 70
     1
102
RTVSPost2010Prop45
280
     0
102
RTVSPost2010PropOp45
 70
     1
102
RTVSPost2010Prop46
 90
       50
102
RTVSPost2010PropOp46
 70
     1
102
RTVSPost2010Prop47
 90
       50
102
RTVSPost2010PropOp47
 70
     1
102
RTVSPost2010Prop48
 90
       50
102
RTVSPost2010PropOp48
 70
     1
102
RTVSPost2010Prop49
280
     0
102
RTVSPost2010PropOp49
 70
     1
102
RTVSPost2010Prop50
 90
       50
102
RTVSPost2010PropOp50
 70
     1
102
RTVSPost2010Prop51ColorIndex
 90
      256
102
RTVSPost2010Prop51ColorRGB
 90
-16777216
102
RTVSPost2010PropOp51
 70
     0
102
RTVSPost2010Prop52
140
1.0
102
RTVSPost2010PropOp52
 70
     0
102
RTVSPost2010Prop53
 90
        2
102
RTVSPost2010PropOp53
 70
     1
102
RTVSPost2010Prop54
  1
strokes_ogs.tif
102
RTVSPost2010PropOp54
 70
     1
102
RTVSPost2010Prop55
280
     0
102
RTVSPost2010PropOp55
 70
     1
102
RTVSPost2010Prop56
140
1.0
102
RTVSPost2010PropOp56
 70
     1
102
RTVSPost2010Prop57
140
1.0
102
RTVSPost2010PropOp57
 70
     1
  0
XRECORD
  5
1E7A
102
{ACAD_REACTORS
330
1E79
102
}
330
1E79
100
AcDbXrecord
280
     1
102
RTVSPost2010Prop28
280
     0
102
RTVSPost2010PropOp28
 70
     1
102
RTVSPost2010Prop29
280
     1
102
RTVSPost2010PropOp29
 70
     1
102
RTVSPost2010Prop30
280
     1
102
RTVSPost2010PropOp30
 70
     1
102
RTVSPost2010Prop31
280
     0
102
RTVSPost2010PropOp31
 70
     1
102
RTVSPost2010Prop32
280
     0
102
RTVSPost2010PropOp32
 70
     1
102
RTVSPost2010Prop33
280
     0
102
RTVSPost2010PropOp33
 70
     1
102
RTVSPost2010Prop34
280
     0
102
RTVSPost2010PropOp34
 70
     1
102
RTVSPost2010Prop35
280
     0
102
RTVSPost2010PropOp35
 70
     1
102
RTVSPost2010Prop36
280
     0
102
RTVSPost2010PropOp36
 70
     1
102
RTVSPost2010Prop37
 90
       50
102
RTVSPost2010PropOp37
 70
     1
102
RTVSPost2010Prop38
140
0.0
102
RTVSPost2010PropOp38
 70
     1
102
RTVSPost2010Prop39
140
1.0
102
RTVSPost2010PropOp39
 70
     1
102
RTVSPost2010Prop40
 90
        0
102
RTVSPost2010PropOp40
 70
     1
102
RTVSPost2010Prop41ColorIndex
 90
       18
102
RTVSPost2010Prop41ColorRGB
 90
        0
102
RTVSPost2010PropOp41
 70
     1
102
RTVSPost2010Prop42
 90
       50
102
RTVSPost2010PropOp42
 70
     1
102
RTVSPost2010Prop43
 90
        3
102
RTVSPost2010PropOp43
 70
     1
102
RTVSPost2010Prop44ColorIndex
 90
        5
102
RTVSPost2010Prop44ColorRGB
 90
      255
102
RTVSPost2010PropOp44
 70
     1
102
RTVSPost2010Prop45
280
     0
102
RTVSPost2010PropOp45
 70
     1
102
RTVSPost2010Prop46
 90
       50
102
RTVSPost2010PropOp46
 70
     1
102
RTVSPost2010Prop47
 90
       50
102
RTVSPost2010PropOp47
 70
     1
102
RTVSPost2010Prop48
 90
       50
102
RTVSPost2010PropOp48
 70
     1
102
RTVSPost2010Prop49
280
     0
102
RTVSPost2010PropOp49
 70
     1
102
RTVSPost2010Prop50
 90
       50
102
RTVSPost2010PropOp50
 70
     1
102
RTVSPost2010Prop51ColorIndex
 90
      256
102
RTVSPost2010Prop51ColorRGB
 90
-16777216
102
RTVSPost2010PropOp51
 70
     0
102
RTVSPost2010Prop52
140
1.0
102
RTVSPost2010PropOp52
 70
     0
102
RTVSPost2010Prop53
 90
        2
102
RTVSPost2010PropOp53
 70
     1
102
RTVSPost2010Prop54
  1
strokes_ogs.tif
102
RTVSPost2010PropOp54
 70
     1
102
RTVSPost2010Prop55
280
     0
102
RTVSPost2010PropOp55
 70
     1
102
RTVSPost2010Prop56
140
1.0
102
RTVSPost2010PropOp56
 70
     1
102
RTVSPost2010Prop57
140
1.0
102
RTVSPost2010PropOp57
 70
     1
  0
XRECORD
  5
1E82
102
{ACAD_REACTORS
330
1E81
102
}
330
1E81
100
AcDbXrecord
280
     1
102
RTVSPost2010Prop28
280
     0
102
RTVSPost2010PropOp28
 70
     1
102
RTVSPost2010Prop29
280
     1
102
RTVSPost2010PropOp29
 70
     1
102
RTVSPost2010Prop30
280
     1
102
RTVSPost2010PropOp30
 70
     1
102
RTVSPost2010Prop31
280
     0
102
RTVSPost2010PropOp31
 70
     1
102
RTVSPost2010Prop32
280
     0
102
RTVSPost2010PropOp32
 70
     1
102
RTVSPost2010Prop33
280
     0
102
RTVSPost2010PropOp33
 70
     1
102
RTVSPost2010Prop34
280
     0
102
RTVSPost2010PropOp34
 70
     1
102
RTVSPost2010Prop35
280
     0
102
RTVSPost2010PropOp35
 70
     1
102
RTVSPost2010Prop36
280
     0
102
RTVSPost2010PropOp36
 70
     1
102
RTVSPost2010Prop37
 90
       50
102
RTVSPost2010PropOp37
 70
     1
102
RTVSPost2010Prop38
140
0.0
102
RTVSPost2010PropOp38
 70
     1
102
RTVSPost2010Prop39
140
1.0
102
RTVSPost2010PropOp39
 70
     1
102
RTVSPost2010Prop40
 90
        0
102
RTVSPost2010PropOp40
 70
     1
102
RTVSPost2010Prop41ColorIndex
 90
       18
102
RTVSPost2010Prop41ColorRGB
 90
        0
102
RTVSPost2010PropOp41
 70
     1
102
RTVSPost2010Prop42
 90
       50
102
RTVSPost2010PropOp42
 70
     1
102
RTVSPost2010Prop43
 90
        3
102
RTVSPost2010PropOp43
 70
     1
102
RTVSPost2010Prop44ColorIndex
 90
        5
102
RTVSPost2010Prop44ColorRGB
 90
      255
102
RTVSPost2010PropOp44
 70
     1
102
RTVSPost2010Prop45
280
     0
102
RTVSPost2010PropOp45
 70
     1
102
RTVSPost2010Prop46
 90
       50
102
RTVSPost2010PropOp46
 70
     1
102
RTVSPost2010Prop47
 90
       50
102
RTVSPost2010PropOp47
 70
     1
102
RTVSPost2010Prop48
 90
       50
102
RTVSPost2010PropOp48
 70
     1
102
RTVSPost2010Prop49
280
     0
102
RTVSPost2010PropOp49
 70
     1
102
RTVSPost2010Prop50
 90
       50
102
RTVSPost2010PropOp50
 70
     1
102
RTVSPost2010Prop51ColorIndex
 90
      256
102
RTVSPost2010Prop51ColorRGB
 90
-16777216
102
RTVSPost2010PropOp51
 70
     0
102
RTVSPost2010Prop52
140
1.0
102
RTVSPost2010PropOp52
 70
     0
102
RTVSPost2010Prop53
 90
        2
102
RTVSPost2010PropOp53
 70
     1
102
RTVSPost2010Prop54
  1
strokes_ogs.tif
102
RTVSPost2010PropOp54
 70
     1
102
RTVSPost2010Prop55
280
     0
102
RTVSPost2010PropOp55
 70
     1
102
RTVSPost2010Prop56
140
1.0
102
RTVSPost2010PropOp56
 70
     1
102
RTVSPost2010Prop57
140
1.0
102
RTVSPost2010PropOp57
 70
     1
  0
XRECORD
  5
1E72
102
{ACAD_REACTORS
330
1E71
102
}
330
1E71
100
AcDbXrecord
280
     1
102
RTVSPost2010Prop28
280
     0
102
RTVSPost2010PropOp28
 70
     1
102
RTVSPost2010Prop29
280
     1
102
RTVSPost2010PropOp29
 70
     1
102
RTVSPost2010Prop30
280
     1
102
RTVSPost2010PropOp30
 70
     1
102
RTVSPost2010Prop31
280
     0
102
RTVSPost2010PropOp31
 70
     1
102
RTVSPost2010Prop32
280
     0
102
RTVSPost2010PropOp32
 70
     1
102
RTVSPost2010Prop33
280
     0
102
RTVSPost2010PropOp33
 70
     1
102
RTVSPost2010Prop34
280
     0
102
RTVSPost2010PropOp34
 70
     1
102
RTVSPost2010Prop35
280
     0
102
RTVSPost2010PropOp35
 70
     1
102
RTVSPost2010Prop36
280
     0
102
RTVSPost2010PropOp36
 70
     1
102
RTVSPost2010Prop37
 90
       50
102
RTVSPost2010PropOp37
 70
     1
102
RTVSPost2010Prop38
140
0.0
102
RTVSPost2010PropOp38
 70
     1
102
RTVSPost2010Prop39
140
1.0
102
RTVSPost2010PropOp39
 70
     1
102
RTVSPost2010Prop40
 90
        0
102
RTVSPost2010PropOp40
 70
     1
102
RTVSPost2010Prop41ColorIndex
 90
       18
102
RTVSPost2010Prop41ColorRGB
 90
        0
102
RTVSPost2010PropOp41
 70
     1
102
RTVSPost2010Prop42
 90
       50
102
RTVSPost2010PropOp42
 70
     1
102
RTVSPost2010Prop43
 90
        3
102
RTVSPost2010PropOp43
 70
     1
102
RTVSPost2010Prop44ColorIndex
 90
        5
102
RTVSPost2010Prop44ColorRGB
 90
      255
102
RTVSPost2010PropOp44
 70
     1
102
RTVSPost2010Prop45
280
     0
102
RTVSPost2010PropOp45
 70
     1
102
RTVSPost2010Prop46
 90
       50
102
RTVSPost2010PropOp46
 70
     1
102
RTVSPost2010Prop47
 90
       50
102
RTVSPost2010PropOp47
 70
     1
102
RTVSPost2010Prop48
 90
       50
102
RTVSPost2010PropOp48
 70
     1
102
RTVSPost2010Prop49
280
     0
102
RTVSPost2010PropOp49
 70
     1
102
RTVSPost2010Prop50
 90
       50
102
RTVSPost2010PropOp50
 70
     1
102
RTVSPost2010Prop51ColorIndex
 90
      256
102
RTVSPost2010Prop51ColorRGB
 90
-16777216
102
RTVSPost2010PropOp51
 70
     0
102
RTVSPost2010Prop52
140
1.0
102
RTVSPost2010PropOp52
 70
     0
102
RTVSPost2010Prop53
 90
        2
102
RTVSPost2010PropOp53
 70
     1
102
RTVSPost2010Prop54
  1
strokes_ogs.tif
102
RTVSPost2010PropOp54
 70
     1
102
RTVSPost2010Prop55
280
     0
102
RTVSPost2010PropOp55
 70
     1
102
RTVSPost2010Prop56
140
1.0
102
RTVSPost2010PropOp56
 70
     1
102
RTVSPost2010Prop57
140
1.0
102
RTVSPost2010PropOp57
 70
     1
  0
XRECORD
  5
1E8E
102
{ACAD_REACTORS
330
1E8D
102
}
330
1E8D
100
AcDbXrecord
280
     1
102
RTVSPost2010Prop28
280
     0
102
RTVSPost2010PropOp28
 70
     1
102
RTVSPost2010Prop29
280
     1
102
RTVSPost2010PropOp29
 70
     1
102
RTVSPost2010Prop30
280
     1
102
RTVSPost2010PropOp30
 70
     1
102
RTVSPost2010Prop31
280
     0
102
RTVSPost2010PropOp31
 70
     1
102
RTVSPost2010Prop32
280
     0
102
RTVSPost2010PropOp32
 70
     1
102
RTVSPost2010Prop33
280
     0
102
RTVSPost2010PropOp33
 70
     1
102
RTVSPost2010Prop34
280
     0
102
RTVSPost2010PropOp34
 70
     1
102
RTVSPost2010Prop35
280
     0
102
RTVSPost2010PropOp35
 70
     1
102
RTVSPost2010Prop36
280
     0
102
RTVSPost2010PropOp36
 70
     1
102
RTVSPost2010Prop37
 90
       50
102
RTVSPost2010PropOp37
 70
     1
102
RTVSPost2010Prop38
140
0.0
102
RTVSPost2010PropOp38
 70
     1
102
RTVSPost2010Prop39
140
1.0
102
RTVSPost2010PropOp39
 70
     1
102
RTVSPost2010Prop40
 90
        0
102
RTVSPost2010PropOp40
 70
     1
102
RTVSPost2010Prop41ColorIndex
 90
       18
102
RTVSPost2010Prop41ColorRGB
 90
        0
102
RTVSPost2010PropOp41
 70
     1
102
RTVSPost2010Prop42
 90
       50
102
RTVSPost2010PropOp42
 70
     1
102
RTVSPost2010Prop43
 90
        3
102
RTVSPost2010PropOp43
 70
     1
102
RTVSPost2010Prop44ColorIndex
 90
        5
102
RTVSPost2010Prop44ColorRGB
 90
      255
102
RTVSPost2010PropOp44
 70
     1
102
RTVSPost2010Prop45
280
     0
102
RTVSPost2010PropOp45
 70
     1
102
RTVSPost2010Prop46
 90
       50
102
RTVSPost2010PropOp46
 70
     1
102
RTVSPost2010Prop47
 90
       50
102
RTVSPost2010PropOp47
 70
     1
102
RTVSPost2010Prop48
 90
       50
102
RTVSPost2010PropOp48
 70
     1
102
RTVSPost2010Prop49
280
     0
102
RTVSPost2010PropOp49
 70
     1
102
RTVSPost2010Prop50
 90
       50
102
RTVSPost2010PropOp50
 70
     1
102
RTVSPost2010Prop51ColorIndex
 90
      256
102
RTVSPost2010Prop51ColorRGB
 90
-16777216
102
RTVSPost2010PropOp51
 70
     0
102
RTVSPost2010Prop52
140
1.0
102
RTVSPost2010PropOp52
 70
     0
102
RTVSPost2010Prop53
 90
        2
102
RTVSPost2010PropOp53
 70
     1
102
RTVSPost2010Prop54
  1
strokes_ogs.tif
102
RTVSPost2010PropOp54
 70
     1
102
RTVSPost2010Prop55
280
     0
102
RTVSPost2010PropOp55
 70
     1
102
RTVSPost2010Prop56
140
1.0
102
RTVSPost2010PropOp56
 70
     1
102
RTVSPost2010Prop57
140
1.0
102
RTVSPost2010PropOp57
 70
     1
  0
XRECORD
  5
1E8C
102
{ACAD_REACTORS
330
1E8B
102
}
330
1E8B
100
AcDbXrecord
280
     1
102
RTVSPost2010Prop28
280
     0
102
RTVSPost2010PropOp28
 70
     1
102
RTVSPost2010Prop29
280
     1
102
RTVSPost2010PropOp29
 70
     1
102
RTVSPost2010Prop30
280
     1
102
RTVSPost2010PropOp30
 70
     1
102
RTVSPost2010Prop31
280
     0
102
RTVSPost2010PropOp31
 70
     1
102
RTVSPost2010Prop32
280
     0
102
RTVSPost2010PropOp32
 70
     1
102
RTVSPost2010Prop33
280
     0
102
RTVSPost2010PropOp33
 70
     1
102
RTVSPost2010Prop34
280
     0
102
RTVSPost2010PropOp34
 70
     1
102
RTVSPost2010Prop35
280
     0
102
RTVSPost2010PropOp35
 70
     1
102
RTVSPost2010Prop36
280
     0
102
RTVSPost2010PropOp36
 70
     1
102
RTVSPost2010Prop37
 90
       50
102
RTVSPost2010PropOp37
 70
     1
102
RTVSPost2010Prop38
140
0.0
102
RTVSPost2010PropOp38
 70
     1
102
RTVSPost2010Prop39
140
1.0
102
RTVSPost2010PropOp39
 70
     1
102
RTVSPost2010Prop40
 90
        0
102
RTVSPost2010PropOp40
 70
     1
102
RTVSPost2010Prop41ColorIndex
 90
       18
102
RTVSPost2010Prop41ColorRGB
 90
        0
102
RTVSPost2010PropOp41
 70
     1
102
RTVSPost2010Prop42
 90
       50
102
RTVSPost2010PropOp42
 70
     1
102
RTVSPost2010Prop43
 90
        3
102
RTVSPost2010PropOp43
 70
     1
102
RTVSPost2010Prop44ColorIndex
 90
        5
102
RTVSPost2010Prop44ColorRGB
 90
      255
102
RTVSPost2010PropOp44
 70
     1
102
RTVSPost2010Prop45
280
     0
102
RTVSPost2010PropOp45
 70
     1
102
RTVSPost2010Prop46
 90
       50
102
RTVSPost2010PropOp46
 70
     1
102
RTVSPost2010Prop47
 90
       50
102
RTVSPost2010PropOp47
 70
     1
102
RTVSPost2010Prop48
 90
       50
102
RTVSPost2010PropOp48
 70
     1
102
RTVSPost2010Prop49
280
     0
102
RTVSPost2010PropOp49
 70
     1
102
RTVSPost2010Prop50
 90
       50
102
RTVSPost2010PropOp50
 70
     1
102
RTVSPost2010Prop51ColorIndex
 90
      256
102
RTVSPost2010Prop51ColorRGB
 90
-16777216
102
RTVSPost2010PropOp51
 70
     0
102
RTVSPost2010Prop52
140
1.0
102
RTVSPost2010PropOp52
 70
     0
102
RTVSPost2010Prop53
 90
        2
102
RTVSPost2010PropOp53
 70
     1
102
RTVSPost2010Prop54
  1
strokes_ogs.tif
102
RTVSPost2010PropOp54
 70
     1
102
RTVSPost2010Prop55
280
     0
102
RTVSPost2010PropOp55
 70
     1
102
RTVSPost2010Prop56
140
1.0
102
RTVSPost2010PropOp56
 70
     1
102
RTVSPost2010Prop57
140
1.0
102
RTVSPost2010PropOp57
 70
     1
  0
XRECORD
  5
1E86
102
{ACAD_REACTORS
330
1E85
102
}
330
1E85
100
AcDbXrecord
280
     1
102
RTVSPost2010Prop28
280
     0
102
RTVSPost2010PropOp28
 70
     1
102
RTVSPost2010Prop29
280
     1
102
RTVSPost2010PropOp29
 70
     1
102
RTVSPost2010Prop30
280
     1
102
RTVSPost2010PropOp30
 70
     1
102
RTVSPost2010Prop31
280
     0
102
RTVSPost2010PropOp31
 70
     1
102
RTVSPost2010Prop32
280
     0
102
RTVSPost2010PropOp32
 70
     1
102
RTVSPost2010Prop33
280
     0
102
RTVSPost2010PropOp33
 70
     1
102
RTVSPost2010Prop34
280
     0
102
RTVSPost2010PropOp34
 70
     1
102
RTVSPost2010Prop35
280
     0
102
RTVSPost2010PropOp35
 70
     1
102
RTVSPost2010Prop36
280
     0
102
RTVSPost2010PropOp36
 70
     1
102
RTVSPost2010Prop37
 90
       50
102
RTVSPost2010PropOp37
 70
     1
102
RTVSPost2010Prop38
140
0.0
102
RTVSPost2010PropOp38
 70
     1
102
RTVSPost2010Prop39
140
1.0
102
RTVSPost2010PropOp39
 70
     1
102
RTVSPost2010Prop40
 90
        0
102
RTVSPost2010PropOp40
 70
     1
102
RTVSPost2010Prop41ColorIndex
 90
       18
102
RTVSPost2010Prop41ColorRGB
 90
        0
102
RTVSPost2010PropOp41
 70
     1
102
RTVSPost2010Prop42
 90
       50
102
RTVSPost2010PropOp42
 70
     1
102
RTVSPost2010Prop43
 90
        3
102
RTVSPost2010PropOp43
 70
     1
102
RTVSPost2010Prop44ColorIndex
 90
        5
102
RTVSPost2010Prop44ColorRGB
 90
      255
102
RTVSPost2010PropOp44
 70
     1
102
RTVSPost2010Prop45
280
     0
102
RTVSPost2010PropOp45
 70
     1
102
RTVSPost2010Prop46
 90
       50
102
RTVSPost2010PropOp46
 70
     1
102
RTVSPost2010Prop47
 90
       50
102
RTVSPost2010PropOp47
 70
     1
102
RTVSPost2010Prop48
 90
       50
102
RTVSPost2010PropOp48
 70
     1
102
RTVSPost2010Prop49
280
     0
102
RTVSPost2010PropOp49
 70
     1
102
RTVSPost2010Prop50
 90
       50
102
RTVSPost2010PropOp50
 70
     1
102
RTVSPost2010Prop51ColorIndex
 90
      256
102
RTVSPost2010Prop51ColorRGB
 90
-16777216
102
RTVSPost2010PropOp51
 70
     0
102
RTVSPost2010Prop52
140
1.0
102
RTVSPost2010PropOp52
 70
     0
102
RTVSPost2010Prop53
 90
        2
102
RTVSPost2010PropOp53
 70
     1
102
RTVSPost2010Prop54
  1
strokes_ogs.tif
102
RTVSPost2010PropOp54
 70
     1
102
RTVSPost2010Prop55
280
     0
102
RTVSPost2010PropOp55
 70
     1
102
RTVSPost2010Prop56
140
1.0
102
RTVSPost2010PropOp56
 70
     1
102
RTVSPost2010Prop57
140
1.0
102
RTVSPost2010PropOp57
 70
     1
  0
XRECORD
  5
1E88
102
{ACAD_REACTORS
330
1E87
102
}
330
1E87
100
AcDbXrecord
280
     1
102
RTVSPost2010Prop28
280
     0
102
RTVSPost2010PropOp28
 70
     1
102
RTVSPost2010Prop29
280
     1
102
RTVSPost2010PropOp29
 70
     1
102
RTVSPost2010Prop30
280
     1
102
RTVSPost2010PropOp30
 70
     1
102
RTVSPost2010Prop31
280
     0
102
RTVSPost2010PropOp31
 70
     1
102
RTVSPost2010Prop32
280
     0
102
RTVSPost2010PropOp32
 70
     1
102
RTVSPost2010Prop33
280
     0
102
RTVSPost2010PropOp33
 70
     1
102
RTVSPost2010Prop34
280
     0
102
RTVSPost2010PropOp34
 70
     1
102
RTVSPost2010Prop35
280
     0
102
RTVSPost2010PropOp35
 70
     1
102
RTVSPost2010Prop36
280
     0
102
RTVSPost2010PropOp36
 70
     1
102
RTVSPost2010Prop37
 90
       50
102
RTVSPost2010PropOp37
 70
     1
102
RTVSPost2010Prop38
140
0.0
102
RTVSPost2010PropOp38
 70
     1
102
RTVSPost2010Prop39
140
1.0
102
RTVSPost2010PropOp39
 70
     1
102
RTVSPost2010Prop40
 90
        0
102
RTVSPost2010PropOp40
 70
     1
102
RTVSPost2010Prop41ColorIndex
 90
       18
102
RTVSPost2010Prop41ColorRGB
 90
        0
102
RTVSPost2010PropOp41
 70
     1
102
RTVSPost2010Prop42
 90
       50
102
RTVSPost2010PropOp42
 70
     1
102
RTVSPost2010Prop43
 90
        3
102
RTVSPost2010PropOp43
 70
     1
102
RTVSPost2010Prop44ColorIndex
 90
        5
102
RTVSPost2010Prop44ColorRGB
 90
      255
102
RTVSPost2010PropOp44
 70
     1
102
RTVSPost2010Prop45
280
     0
102
RTVSPost2010PropOp45
 70
     1
102
RTVSPost2010Prop46
 90
       50
102
RTVSPost2010PropOp46
 70
     1
102
RTVSPost2010Prop47
 90
       50
102
RTVSPost2010PropOp47
 70
     1
102
RTVSPost2010Prop48
 90
       50
102
RTVSPost2010PropOp48
 70
     1
102
RTVSPost2010Prop49
280
     0
102
RTVSPost2010PropOp49
 70
     1
102
RTVSPost2010Prop50
 90
       50
102
RTVSPost2010PropOp50
 70
     1
102
RTVSPost2010Prop51ColorIndex
 90
      256
102
RTVSPost2010Prop51ColorRGB
 90
-16777216
102
RTVSPost2010PropOp51
 70
     0
102
RTVSPost2010Prop52
140
1.0
102
RTVSPost2010PropOp52
 70
     0
102
RTVSPost2010Prop53
 90
        2
102
RTVSPost2010PropOp53
 70
     1
102
RTVSPost2010Prop54
  1
strokes_ogs.tif
102
RTVSPost2010PropOp54
 70
     1
102
RTVSPost2010Prop55
280
     0
102
RTVSPost2010PropOp55
 70
     1
102
RTVSPost2010Prop56
140
1.0
102
RTVSPost2010PropOp56
 70
     1
102
RTVSPost2010Prop57
140
1.0
102
RTVSPost2010PropOp57
 70
     1
  0
XRECORD
  5
1E78
102
{ACAD_REACTORS
330
1E77
102
}
330
1E77
100
AcDbXrecord
280
     1
102
RTVSPost2010Prop28
280
     0
102
RTVSPost2010PropOp28
 70
     1
102
RTVSPost2010Prop29
280
     1
102
RTVSPost2010PropOp29
 70
     1
102
RTVSPost2010Prop30
280
     1
102
RTVSPost2010PropOp30
 70
     1
102
RTVSPost2010Prop31
280
     0
102
RTVSPost2010PropOp31
 70
     1
102
RTVSPost2010Prop32
280
     0
102
RTVSPost2010PropOp32
 70
     1
102
RTVSPost2010Prop33
280
     0
102
RTVSPost2010PropOp33
 70
     1
102
RTVSPost2010Prop34
280
     0
102
RTVSPost2010PropOp34
 70
     1
102
RTVSPost2010Prop35
280
     0
102
RTVSPost2010PropOp35
 70
     1
102
RTVSPost2010Prop36
280
     0
102
RTVSPost2010PropOp36
 70
     1
102
RTVSPost2010Prop37
 90
       50
102
RTVSPost2010PropOp37
 70
     1
102
RTVSPost2010Prop38
140
0.0
102
RTVSPost2010PropOp38
 70
     1
102
RTVSPost2010Prop39
140
1.0
102
RTVSPost2010PropOp39
 70
     1
102
RTVSPost2010Prop40
 90
        0
102
RTVSPost2010PropOp40
 70
     1
102
RTVSPost2010Prop41ColorIndex
 90
       18
102
RTVSPost2010Prop41ColorRGB
 90
        0
102
RTVSPost2010PropOp41
 70
     1
102
RTVSPost2010Prop42
 90
       50
102
RTVSPost2010PropOp42
 70
     1
102
RTVSPost2010Prop43
 90
        3
102
RTVSPost2010PropOp43
 70
     1
102
RTVSPost2010Prop44ColorIndex
 90
        5
102
RTVSPost2010Prop44ColorRGB
 90
      255
102
RTVSPost2010PropOp44
 70
     1
102
RTVSPost2010Prop45
280
     0
102
RTVSPost2010PropOp45
 70
     1
102
RTVSPost2010Prop46
 90
       50
102
RTVSPost2010PropOp46
 70
     1
102
RTVSPost2010Prop47
 90
       50
102
RTVSPost2010PropOp47
 70
     1
102
RTVSPost2010Prop48
 90
       50
102
RTVSPost2010PropOp48
 70
     1
102
RTVSPost2010Prop49
280
     0
102
RTVSPost2010PropOp49
 70
     1
102
RTVSPost2010Prop50
 90
       50
102
RTVSPost2010PropOp50
 70
     1
102
RTVSPost2010Prop51ColorIndex
 90
      256
102
RTVSPost2010Prop51ColorRGB
 90
-16777216
102
RTVSPost2010PropOp51
 70
     0
102
RTVSPost2010Prop52
140
1.0
102
RTVSPost2010PropOp52
 70
     0
102
RTVSPost2010Prop53
 90
        2
102
RTVSPost2010PropOp53
 70
     1
102
RTVSPost2010Prop54
  1
strokes_ogs.tif
102
RTVSPost2010PropOp54
 70
     1
102
RTVSPost2010Prop55
280
     0
102
RTVSPost2010PropOp55
 70
     1
102
RTVSPost2010Prop56
140
1.0
102
RTVSPost2010PropOp56
 70
     1
102
RTVSPost2010Prop57
140
1.0
102
RTVSPost2010PropOp57
 70
     1
  0
XRECORD
  5
1E6C
102
{ACAD_REACTORS
330
1E6B
102
}
330
1E6B
100
AcDbXrecord
280
     1
102
RTVSPost2010Prop28
280
     0
102
RTVSPost2010PropOp28
 70
     1
102
RTVSPost2010Prop29
280
     1
102
RTVSPost2010PropOp29
 70
     1
102
RTVSPost2010Prop30
280
     1
102
RTVSPost2010PropOp30
 70
     1
102
RTVSPost2010Prop31
280
     0
102
RTVSPost2010PropOp31
 70
     1
102
RTVSPost2010Prop32
280
     0
102
RTVSPost2010PropOp32
 70
     1
102
RTVSPost2010Prop33
280
     0
102
RTVSPost2010PropOp33
 70
     1
102
RTVSPost2010Prop34
280
     0
102
RTVSPost2010PropOp34
 70
     1
102
RTVSPost2010Prop35
280
     0
102
RTVSPost2010PropOp35
 70
     1
102
RTVSPost2010Prop36
280
     0
102
RTVSPost2010PropOp36
 70
     1
102
RTVSPost2010Prop37
 90
       50
102
RTVSPost2010PropOp37
 70
     1
102
RTVSPost2010Prop38
140
0.0
102
RTVSPost2010PropOp38
 70
     1
102
RTVSPost2010Prop39
140
1.0
102
RTVSPost2010PropOp39
 70
     1
102
RTVSPost2010Prop40
 90
        0
102
RTVSPost2010PropOp40
 70
     1
102
RTVSPost2010Prop41ColorIndex
 90
       18
102
RTVSPost2010Prop41ColorRGB
 90
        0
102
RTVSPost2010PropOp41
 70
     1
102
RTVSPost2010Prop42
 90
       50
102
RTVSPost2010PropOp42
 70
     1
102
RTVSPost2010Prop43
 90
        3
102
RTVSPost2010PropOp43
 70
     1
102
RTVSPost2010Prop44ColorIndex
 90
        5
102
RTVSPost2010Prop44ColorRGB
 90
      255
102
RTVSPost2010PropOp44
 70
     1
102
RTVSPost2010Prop45
280
     0
102
RTVSPost2010PropOp45
 70
     1
102
RTVSPost2010Prop46
 90
       50
102
RTVSPost2010PropOp46
 70
     1
102
RTVSPost2010Prop47
 90
       50
102
RTVSPost2010PropOp47
 70
     1
102
RTVSPost2010Prop48
 90
       50
102
RTVSPost2010PropOp48
 70
     1
102
RTVSPost2010Prop49
280
     0
102
RTVSPost2010PropOp49
 70
     1
102
RTVSPost2010Prop50
 90
       50
102
RTVSPost2010PropOp50
 70
     1
102
RTVSPost2010Prop51ColorIndex
 90
      256
102
RTVSPost2010Prop51ColorRGB
 90
-16777216
102
RTVSPost2010PropOp51
 70
     0
102
RTVSPost2010Prop52
140
1.0
102
RTVSPost2010PropOp52
 70
     0
102
RTVSPost2010Prop53
 90
        2
102
RTVSPost2010PropOp53
 70
     1
102
RTVSPost2010Prop54
  1
strokes_ogs.tif
102
RTVSPost2010PropOp54
 70
     1
102
RTVSPost2010Prop55
280
     0
102
RTVSPost2010PropOp55
 70
     1
102
RTVSPost2010Prop56
140
1.0
102
RTVSPost2010PropOp56
 70
     1
102
RTVSPost2010Prop57
140
1.0
102
RTVSPost2010PropOp57
 70
     1
  0
XRECORD
  5
1E8A
102
{ACAD_REACTORS
330
1E89
102
}
330
1E89
100
AcDbXrecord
280
     1
102
RTVSPost2010Prop28
280
     0
102
RTVSPost2010PropOp28
 70
     1
102
RTVSPost2010Prop29
280
     1
102
RTVSPost2010PropOp29
 70
     1
102
RTVSPost2010Prop30
280
     1
102
RTVSPost2010PropOp30
 70
     1
102
RTVSPost2010Prop31
280
     0
102
RTVSPost2010PropOp31
 70
     1
102
RTVSPost2010Prop32
280
     0
102
RTVSPost2010PropOp32
 70
     1
102
RTVSPost2010Prop33
280
     0
102
RTVSPost2010PropOp33
 70
     1
102
RTVSPost2010Prop34
280
     0
102
RTVSPost2010PropOp34
 70
     1
102
RTVSPost2010Prop35
280
     0
102
RTVSPost2010PropOp35
 70
     1
102
RTVSPost2010Prop36
280
     0
102
RTVSPost2010PropOp36
 70
     1
102
RTVSPost2010Prop37
 90
       50
102
RTVSPost2010PropOp37
 70
     1
102
RTVSPost2010Prop38
140
0.0
102
RTVSPost2010PropOp38
 70
     1
102
RTVSPost2010Prop39
140
1.0
102
RTVSPost2010PropOp39
 70
     1
102
RTVSPost2010Prop40
 90
        0
102
RTVSPost2010PropOp40
 70
     1
102
RTVSPost2010Prop41ColorIndex
 90
       18
102
RTVSPost2010Prop41ColorRGB
 90
        0
102
RTVSPost2010PropOp41
 70
     1
102
RTVSPost2010Prop42
 90
       50
102
RTVSPost2010PropOp42
 70
     1
102
RTVSPost2010Prop43
 90
        3
102
RTVSPost2010PropOp43
 70
     1
102
RTVSPost2010Prop44ColorIndex
 90
        5
102
RTVSPost2010Prop44ColorRGB
 90
      255
102
RTVSPost2010PropOp44
 70
     1
102
RTVSPost2010Prop45
280
     0
102
RTVSPost2010PropOp45
 70
     1
102
RTVSPost2010Prop46
 90
       50
102
RTVSPost2010PropOp46
 70
     1
102
RTVSPost2010Prop47
 90
       50
102
RTVSPost2010PropOp47
 70
     1
102
RTVSPost2010Prop48
 90
       50
102
RTVSPost2010PropOp48
 70
     1
102
RTVSPost2010Prop49
280
     0
102
RTVSPost2010PropOp49
 70
     1
102
RTVSPost2010Prop50
 90
       50
102
RTVSPost2010PropOp50
 70
     1
102
RTVSPost2010Prop51ColorIndex
 90
      256
102
RTVSPost2010Prop51ColorRGB
 90
-16777216
102
RTVSPost2010PropOp51
 70
     0
102
RTVSPost2010Prop52
140
1.0
102
RTVSPost2010PropOp52
 70
     0
102
RTVSPost2010Prop53
 90
        2
102
RTVSPost2010PropOp53
 70
     1
102
RTVSPost2010Prop54
  1
strokes_ogs.tif
102
RTVSPost2010PropOp54
 70
     1
102
RTVSPost2010Prop55
280
     0
102
RTVSPost2010PropOp55
 70
     1
102
RTVSPost2010Prop56
140
1.0
102
RTVSPost2010PropOp56
 70
     1
102
RTVSPost2010Prop57
140
1.0
102
RTVSPost2010PropOp57
 70
     1
  0
ENDSEC
  0
EOF
