  0
SECTION
  2
HEADER
  9
$ACADVER
  1
AC1027
  9
$ACADMAINTVER
 70
   125
  9
$DWGCODEPAGE
  3
ANSI_1252
  9
$LASTSAVEDBY
  1
AH0032
  9
$REQUIREDVERSIONS
160
                 0
  9
$INSBASE
 10
0.0
 20
0.0
 30
0.0
  9
$EXTMIN
 10
2484.060615280914
 20
1317.542042943008
 30
0.0
  9
$EXTMAX
 10
4553.965045698294
 20
2245.717230127315
 30
0.0
  9
$LIMMIN
 10
0.0
 20
0.0
  9
$LIMMAX
 10
420.0
 20
297.0
  9
$ORTHOMODE
 70
     0
  9
$REGENMODE
 70
     1
  9
$FILLMODE
 70
     1
  9
$QTEXTMODE
 70
     0
  9
$MIRRTEXT
 70
     0
  9
$LTSCALE
 40
2.0
  9
$ATTMODE
 70
     1
  9
$TEXTSIZE
 40
2.5
  9
$TRACEWID
 40
1.0
  9
$TEXTSTYLE
  7
Standard
  9
$CLAYER
  8
0
  9
$CELTYPE
  6
ByLayer
  9
$CECOLOR
 62
   256
  9
$CELTSCALE
 40
1.0
  9
$DISPSILH
 70
     0
  9
$DIMSCALE
 40
1.0
  9
$DIMASZ
 40
8.0
  9
$DIMEXO
 40
8.0
  9
$DIMDLI
 40
3.75
  9
$DIMRND
 40
0.0
  9
$DIMDLE
 40
0.0
  9
$DIMEXE
 40
5.0
  9
$DIMTP
 40
0.0
  9
$DIMTM
 40
0.0
  9
$DIMTXT
 40
9.0
  9
$DIMCEN
 40
-0.09
  9
$DIMTSZ
 40
0.0
  9
$DIMTOL
 70
     0
  9
$DIMLIM
 70
     0
  9
$DIMTIH
 70
     0
  9
$DIMTOH
 70
     0
  9
$DIMSE1
 70
     0
  9
$DIMSE2
 70
     0
  9
$DIMTAD
 70
     1
  9
$DIMZIN
 70
     8
  9
$DIMBLK
  1

  9
$DIMASO
 70
     1
  9
$DIMSHO
 70
     1
  9
$DIMPOST
  1
 mm\X
  9
$DIMAPOST
  1
 "
  9
$DIMALT
 70
     1
  9
$DIMALTD
 70
     4
  9
$DIMALTF
 40
0.03937007874016
  9
$DIMLFAC
 40
1.0
  9
$DIMTOFL
 70
     1
  9
$DIMTVP
 40
0.0
  9
$DIMTIX
 70
     0
  9
$DIMSOXD
 70
     0
  9
$DIMSAH
 70
     0
  9
$DIMBLK1
  1

  9
$DIMBLK2
  1

  9
$DIMSTYLE
  2
dimensions
  9
$DIMCLRD
 70
   256
  9
$DIMCLRE
 70
   256
  9
$DIMCLRT
 70
   256
  9
$DIMTFAC
 40
1.0
  9
$DIMGAP
 40
2.5
  9
$DIMJUST
 70
     0
  9
$DIMSD1
 70
     0
  9
$DIMSD2
 70
     0
  9
$DIMTOLJ
 70
     0
  9
$DIMTZIN
 70
     8
  9
$DIMALTZ
 70
     0
  9
$DIMALTTZ
 70
     0
  9
$DIMUPT
 70
     0
  9
$DIMDEC
 70
     2
  9
$DIMTDEC
 70
     2
  9
$DIMALTU
 70
     7
  9
$DIMALTTD
 70
     4
  9
$DIMTXSTY
  7
Standard
  9
$DIMAUNIT
 70
     0
  9
$DIMADEC
 70
     0
  9
$DIMALTRND
 40
0.0
  9
$DIMAZIN
 70
     0
  9
$DIMDSEP
 70
    44
  9
$DIMATFIT
 70
     3
  9
$DIMFRAC
 70
     0
  9
$DIMLDRBLK
  1

  9
$DIMLUNIT
 70
     2
  9
$DIMLWD
 70
    -2
  9
$DIMLWE
 70
    -2
  9
$DIMTMOVE
 70
     0
  9
$DIMFXL
 40
1.0
  9
$DIMFXLON
 70
     0
  9
$DIMJOGANG
 40
0.7853981633974483
  9
$DIMTFILL
 70
     0
  9
$DIMTFILLCLR
 70
     0
  9
$DIMARCSYM
 70
     0
  9
$DIMLTYPE
  6

  9
$DIMLTEX1
  6

  9
$DIMLTEX2
  6

  9
$DIMTXTDIRECTION
 70
     0
  9
$LUNITS
 70
     2
  9
$LUPREC
 70
     4
  9
$SKETCHINC
 40
1.0
  9
$FILLETRAD
 40
20.0
  9
$AUNITS
 70
     0
  9
$AUPREC
 70
     0
  9
$MENU
  1
.
  9
$ELEVATION
 40
0.0
  9
$PELEVATION
 40
0.0
  9
$THICKNESS
 40
0.0
  9
$LIMCHECK
 70
     0
  9
$CHAMFERA
 40
0.0
  9
$CHAMFERB
 40
0.0
  9
$CHAMFERC
 40
0.0
  9
$CHAMFERD
 40
0.0
  9
$SKPOLY
 70
     0
  9
$TDCREATE
 40
2459800.920104167
  9
$TDUCREATE
 40
2459801.086770834
  9
$TDUPDATE
 40
2459844.503206018
  9
$TDUUPDATE
 40
2459844.669872686
  9
$TDINDWG
 40
0.1805902778
  9
$TDUSRTIMER
 40
0.1805902778
  9
$USRTIMER
 70
     1
  9
$ANGBASE
 50
0.0
  9
$ANGDIR
 70
     0
  9
$PDMODE
 70
     0
  9
$PDSIZE
 40
0.0
  9
$PLINEWID
 40
0.0
  9
$SPLFRAME
 70
     0
  9
$SPLINETYPE
 70
     6
  9
$SPLINESEGS
 70
     8
  9
$HANDSEED
  5
193C
  9
$SURFTAB1
 70
     6
  9
$SURFTAB2
 70
     6
  9
$SURFTYPE
 70
     6
  9
$SURFU
 70
     6
  9
$SURFV
 70
     6
  9
$UCSBASE
  2

  9
$UCSNAME
  2

  9
$UCSORG
 10
0.0
 20
0.0
 30
0.0
  9
$UCSXDIR
 10
1.0
 20
0.0
 30
0.0
  9
$UCSYDIR
 10
0.0
 20
1.0
 30
0.0
  9
$UCSORTHOREF
  2

  9
$UCSORTHOVIEW
 70
     0
  9
$UCSORGTOP
 10
0.0
 20
0.0
 30
0.0
  9
$UCSORGBOTTOM
 10
0.0
 20
0.0
 30
0.0
  9
$UCSORGLEFT
 10
0.0
 20
0.0
 30
0.0
  9
$UCSORGRIGHT
 10
0.0
 20
0.0
 30
0.0
  9
$UCSORGFRONT
 10
0.0
 20
0.0
 30
0.0
  9
$UCSORGBACK
 10
0.0
 20
0.0
 30
0.0
  9
$PUCSBASE
  2

  9
$PUCSNAME
  2

  9
$PUCSORG
 10
0.0
 20
0.0
 30
0.0
  9
$PUCSXDIR
 10
1.0
 20
0.0
 30
0.0
  9
$PUCSYDIR
 10
0.0
 20
1.0
 30
0.0
  9
$PUCSORTHOREF
  2

  9
$PUCSORTHOVIEW
 70
     0
  9
$PUCSORGTOP
 10
0.0
 20
0.0
 30
0.0
  9
$PUCSORGBOTTOM
 10
0.0
 20
0.0
 30
0.0
  9
$PUCSORGLEFT
 10
0.0
 20
0.0
 30
0.0
  9
$PUCSORGRIGHT
 10
0.0
 20
0.0
 30
0.0
  9
$PUCSORGFRONT
 10
0.0
 20
0.0
 30
0.0
  9
$PUCSORGBACK
 10
0.0
 20
0.0
 30
0.0
  9
$USERI1
 70
     0
  9
$USERI2
 70
     0
  9
$USERI3
 70
     0
  9
$USERI4
 70
     0
  9
$USERI5
 70
     0
  9
$USERR1
 40
0.0
  9
$USERR2
 40
0.0
  9
$USERR3
 40
0.0
  9
$USERR4
 40
0.0
  9
$USERR5
 40
0.0
  9
$WORLDVIEW
 70
     1
  9
$SHADEDGE
 70
     3
  9
$SHADEDIF
 70
    70
  9
$TILEMODE
 70
     1
  9
$MAXACTVP
 70
    64
  9
$PINSBASE
 10
0.0
 20
0.0
 30
0.0
  9
$PLIMCHECK
 70
     0
  9
$PEXTMIN
 10
25.69999999999999
 20
19.5
 30
0.0
  9
$PEXTMAX
 10
231.3
 20
175.5
 30
0.0
  9
$PLIMMIN
 10
-20.0
 20
-7.5
  9
$PLIMMAX
 10
277.0
 20
202.5
  9
$UNITMODE
 70
     0
  9
$VISRETAIN
 70
     1
  9
$PLINEGEN
 70
     0
  9
$PSLTSCALE
 70
     1
  9
$TREEDEPTH
 70
  3020
  9
$CMLSTYLE
  2
Standard
  9
$CMLJUST
 70
     0
  9
$CMLSCALE
 40
20.0
  9
$PROXYGRAPHICS
 70
     1
  9
$MEASUREMENT
 70
     1
  9
$CELWEIGHT
370
    -1
  9
$ENDCAPS
280
     0
  9
$JOINSTYLE
280
     0
  9
$LWDISPLAY
290
     0
  9
$INSUNITS
 70
     4
  9
$HYPERLINKBASE
  1

  9
$STYLESHEET
  1

  9
$XEDIT
290
     1
  9
$CEPSNTYPE
380
     0
  9
$PSTYLEMODE
290
     1
  9
$FINGERPRINTGUID
  2
{9070B82C-9995-8745-97E2-9B355F9B9BD2}
  9
$VERSIONGUID
  2
{5CF5F74D-1FF3-FD45-9867-4A6ABB6F42A9}
  9
$EXTNAMES
290
     1
  9
$PSVPSCALE
 40
0.0
  9
$OLESTARTUP
290
     0
  9
$SORTENTS
280
   127
  9
$INDEXCTL
280
     0
  9
$HIDETEXT
280
     1
  9
$XCLIPFRAME
280
     2
  9
$HALOGAP
280
     0
  9
$OBSCOLOR
 70
   257
  9
$OBSLTYPE
280
     0
  9
$INTERSECTIONDISPLAY
280
     0
  9
$INTERSECTIONCOLOR
 70
   257
  9
$DIMASSOC
280
     2
  9
$PROJECTNAME
  1

  9
$CAMERADISPLAY
290
     0
  9
$LENSLENGTH
 40
50.0
  9
$CAMERAHEIGHT
 40
0.0
  9
$STEPSPERSEC
 40
2.0
  9
$STEPSIZE
 40
6.0
  9
$3DDWFPREC
 40
2.0
  9
$PSOLWIDTH
 40
5.0
  9
$PSOLHEIGHT
 40
80.0
  9
$LOFTANG1
 40
1.570796326794896
  9
$LOFTANG2
 40
1.570796326794896
  9
$LOFTMAG1
 40
0.0
  9
$LOFTMAG2
 40
0.0
  9
$LOFTPARAM
 70
     7
  9
$LOFTNORMALS
280
     1
  9
$LATITUDE
 40
37.795
  9
$LONGITUDE
 40
-122.394
  9
$NORTHDIRECTION
 40
0.0
  9
$TIMEZONE
 70
 -8000
  9
$LIGHTGLYPHDISPLAY
280
     1
  9
$TILEMODELIGHTSYNCH
280
     1
  9
$CMATERIAL
347
EC
  9
$SOLIDHIST
280
     0
  9
$SHOWHIST
280
     1
  9
$DWFFRAME
280
     2
  9
$DGNFRAME
280
     0
  9
$REALWORLDSCALE
290
     1
  9
$INTERFERECOLOR
 62
     1
  9
$INTERFEREOBJVS
345
F9
  9
$INTERFEREVPVS
346
F6
  9
$CSHADOW
280
     0
  9
$SHADOWPLANELOCATION
 40
0.0
  0
ENDSEC
  0
SECTION
  2
CLASSES
  0
CLASS
  1
ACDBDICTIONARYWDFLT
  2
AcDbDictionaryWithDefault
  3
ObjectDBX Classes
 90
        0
 91
        1
280
     0
281
     0
  0
CLASS
  1
DICTIONARYVAR
  2
AcDbDictionaryVar
  3
ObjectDBX Classes
 90
        0
 91
       16
280
     0
281
     0
  0
CLASS
  1
TABLESTYLE
  2
AcDbTableStyle
  3
ObjectDBX Classes
 90
     4095
 91
        1
280
     0
281
     0
  0
CLASS
  1
MATERIAL
  2
AcDbMaterial
  3
ObjectDBX Classes
 90
     1153
 91
        3
280
     0
281
     0
  0
CLASS
  1
VISUALSTYLE
  2
AcDbVisualStyle
  3
ObjectDBX Classes
 90
     4095
 91
       24
280
     0
281
     0
  0
CLASS
  1
SCALE
  2
AcDbScale
  3
ObjectDBX Classes
 90
     1153
 91
       17
280
     0
281
     0
  0
CLASS
  1
MLEADERSTYLE
  2
AcDbMLeaderStyle
  3
ACDB_MLEADERSTYLE_CLASS
 90
     4095
 91
        3
280
     0
281
     0
  0
CLASS
  1
CELLSTYLEMAP
  2
AcDbCellStyleMap
  3
ObjectDBX Classes
 90
     1152
 91
        2
280
     0
281
     0
  0
CLASS
  1
EXACXREFPANELOBJECT
  2
ExAcXREFPanelObject
  3
EXAC_ESW
 90
     1025
 91
        0
280
     0
281
     0
  0
CLASS
  1
NPOCOLLECTION
  2
AcDbImpNonPersistentObjectsCollection
  3
ObjectDBX Classes
 90
     1153
 91
        0
280
     0
281
     0
  0
CLASS
  1
LAYER_INDEX
  2
AcDbLayerIndex
  3
ObjectDBX Classes
 90
        0
 91
        0
280
     0
281
     0
  0
CLASS
  1
SPATIAL_INDEX
  2
AcDbSpatialIndex
  3
ObjectDBX Classes
 90
        0
 91
        0
280
     0
281
     0
  0
CLASS
  1
IDBUFFER
  2
AcDbIdBuffer
  3
ObjectDBX Classes
 90
        0
 91
        0
280
     0
281
     0
  0
CLASS
  1
ACDBSECTIONVIEWSTYLE
  2
AcDbSectionViewStyle
  3
ObjectDBX Classes
 90
     1025
 91
        2
280
     0
281
     0
  0
CLASS
  1
ACDBDETAILVIEWSTYLE
  2
AcDbDetailViewStyle
  3
ObjectDBX Classes
 90
     1025
 91
        2
280
     0
281
     0
  0
CLASS
  1
DIMASSOC
  2
AcDbDimAssoc
  3
"AcDbDimAssoc|Product Desc:     AcDim ARX App For Dimension|Company:          Autodesk, Inc.|WEB Address:      www.autodesk.com"
 90
        0
 91
        9
280
     0
281
     0
  0
CLASS
  1
MULTILEADER
  2
AcDbMLeader
  3
ACDB_MLEADER_CLASS
 90
     1025
 91
        2
280
     0
281
     1
  0
CLASS
  1
SORTENTSTABLE
  2
AcDbSortentsTable
  3
ObjectDBX Classes
 90
        0
 91
        8
280
     0
281
     0
  0
CLASS
  1
ACDBASSOCNETWORK
  2
AcDbAssocNetwork
  3
ObjectDBX Classes
 90
     1025
 91
        0
280
     0
281
     0
  0
CLASS
  1
ACDBASSOCVARIABLE
  2
AcDbAssocVariable
  3
ObjectDBX Classes
 90
     1025
 91
        0
280
     0
281
     0
  0
CLASS
  1
ACDBASSOCVALUEDEPENDENCY
  2
AcDbAssocValueDependency
  3
ObjectDBX Classes
 90
     1025
 91
        0
280
     0
281
     0
  0
CLASS
  1
ACDBASSOCDEPENDENCY
  2
AcDbAssocDependency
  3
ObjectDBX Classes
 90
     1025
 91
        0
280
     0
281
     0
  0
CLASS
  1
ASSOCDIMDEPENDENCYBODY
  2
AcDbAssocDimDependencyBody
  3
ObjectDBX Classes
 90
     1025
 91
        0
280
     0
281
     0
  0
CLASS
  1
ACDBASSOC2DCONSTRAINTGROUP
  2
AcDbAssoc2dConstraintGroup
  3
ObjectDBX Classes
 90
     1025
 91
        0
280
     0
281
     0
  0
CLASS
  1
ACDBASSOCGEOMDEPENDENCY
  2
AcDbAssocGeomDependency
  3
ObjectDBX Classes
 90
     1025
 91
        0
280
     0
281
     0
  0
CLASS
  1
SOLID_BACKGROUND
  2
AcDbSolidBackground
  3
SCENEOE
 90
     4095
 91
        0
280
     0
281
     0
  0
CLASS
  1
ACDBASSOCACTION
  2
AcDbAssocAction
  3
ObjectDBX Classes
 90
     1025
 91
        0
280
     0
281
     0
  0
CLASS
  1
ACDBASSOCROTATEDDIMACTIONBODY
  2
AcDbAssocRotatedDimActionBody
  3
ObjectDBX Classes
 90
     1025
 91
        0
280
     0
281
     0
  0
CLASS
  1
ACDBASSOCOSNAPPOINTREFACTIONPARAM
  2
AcDbAssocOsnapPointRefActionParam
  3
ObjectDBX Classes
 90
     1025
 91
        0
280
     0
281
     0
  0
CLASS
  1
ACDBASSOCEDGEACTIONPARAM
  2
AcDbAssocEdgeActionParam
  3
ObjectDBX Classes
 90
     1025
 91
        0
280
     0
281
     0
  0
ENDSEC
  0
SECTION
  2
TABLES
  0
TABLE
  2
VPORT
  5
8
330
0
100
AcDbSymbolTable
 70
     1
1001
ACAD
1000
DbSaveVer
1071
      247
  0
VPORT
  5
EA
330
8
100
AcDbSymbolTableRecord
100
AcDbViewportTableRecord
  2
*Active
 70
     0
 10
0.0
 20
0.0
 11
1.0
 21
1.0
 12
-676.5488318925381
 22
-567.0970333059699
 13
0.0
 23
0.0
 14
10.0
 24
10.0
 15
10.0
 25
10.0
 16
-0.000000000001819
 26
0.0
 36
7721.625626958931
 17
4043.224121093748
 27
2216.625933663257
 37
0.0
 40
1528.282301817839
 41
2.31210986267166
 42
50.0
 43
0.0
 44
0.0
 50
0.0
 51
0.0
 71
     0
 72
 20000
 73
     1
 74
     3
 75
     0
 76
     1
 77
     0
 78
     0
281
     0
 65
     1
110
0.0
120
0.0
130
0.0
111
1.0
121
0.0
131
0.0
112
0.0
122
1.0
132
0.0
 79
     0
146
0.0
348
F5
 60
     3
 61
     5
292
     1
282
     1
141
0.0
142
0.0
 63
   250
421
  3355443
1001
ACAD_NAV_VCDISPLAY
1070
     3
  0
ENDTAB
  0
TABLE
  2
LTYPE
  5
5
330
0
100
AcDbSymbolTable
 70
     6
  0
LTYPE
  5
14
330
5
100
AcDbSymbolTableRecord
100
AcDbLinetypeTableRecord
  2
ByBlock
 70
     0
  3

 72
    65
 73
     0
 40
0.0
  0
LTYPE
  5
15
330
5
100
AcDbSymbolTableRecord
100
AcDbLinetypeTableRecord
  2
ByLayer
 70
     0
  3

 72
    65
 73
     0
 40
0.0
  0
LTYPE
  5
16
330
5
100
AcDbSymbolTableRecord
100
AcDbLinetypeTableRecord
  2
Continuous
 70
     0
  3
Solid line
 72
    65
 73
     0
 40
0.0
  0
LTYPE
  5
314
330
5
100
AcDbSymbolTableRecord
100
AcDbLinetypeTableRecord
  2
ACAD_ISO08W100
 70
     0
  3
ISO long-dash short-dash ____ __ ____ __ ____ _
 72
    65
 73
     4
 40
36.0
 49
24.0
 74
     0
 49
-3.0
 74
     0
 49
6.0
 74
     0
 49
-3.0
 74
     0
  0
LTYPE
  5
315
330
5
100
AcDbSymbolTableRecord
100
AcDbLinetypeTableRecord
  2
HIDDEN
 70
     0
  3
Hidden __ __ __ __ __ __ __ __ __ __ __ __ __ __
 72
    65
 73
     2
 40
9.524999999999996
 49
6.349999999999997
 74
     0
 49
-3.174999999999998
 74
     0
  0
LTYPE
  5
167E
330
5
100
AcDbSymbolTableRecord
100
AcDbLinetypeTableRecord
  2
DASHED2
 70
     0
  3
Dashed (.5x) _ _ _ _ _ _ _ _ _ _ _ _ _ _ _ _ _
 72
    65
 73
     2
 40
9.524999999999996
 49
6.349999999999998
 74
     0
 49
-3.174999999999998
 74
     0
  0
LTYPE
  5
167F
330
5
100
AcDbSymbolTableRecord
100
AcDbLinetypeTableRecord
  2
JIS_02_1.2
 70
     0
  3
HIDDEN01.25  _ _ _ _ _ _ _ _ _ _ _ _ _ _ _ _ _
 72
    65
 73
     2
 40
2.5
 49
1.25
 74
     0
 49
-1.25
 74
     0
  0
ENDTAB
  0
TABLE
  2
LAYER
  5
2
102
{ACAD_XDICTIONARY
360
1FF
102
}
330
0
100
AcDbSymbolTable
 70
     6
  0
LAYER
  5
10
102
{ACAD_XDICTIONARY
360
13C
102
}
330
2
100
AcDbSymbolTableRecord
100
AcDbLayerTableRecord
  2
0
 70
     0
 62
     7
  6
Continuous
370
    -3
390
F
347
EE
348
0
  0
LAYER
  5
316
330
2
100
AcDbSymbolTableRecord
100
AcDbLayerTableRecord
  2
centerline
 70
     0
 62
    10
  6
ACAD_ISO08W100
370
    -3
390
F
347
EE
348
0
1001
AcAecLayerStandard
1000

1000

1001
AcCmTransparency
1071
        0
  0
LAYER
  5
317
330
2
100
AcDbSymbolTableRecord
100
AcDbLayerTableRecord
  2
dimensions
 70
     0
 62
   210
  6
Continuous
370
    -3
390
F
347
EE
348
0
1001
AcAecLayerStandard
1000

1000

1001
AcCmTransparency
1071
        0
  0
LAYER
  5
318
330
2
100
AcDbSymbolTableRecord
100
AcDbLayerTableRecord
  2
note
 70
     0
 62
     2
  6
Continuous
370
    -3
390
F
347
EE
348
0
1001
AcAecLayerStandard
1000

1000

1001
AcCmTransparency
1071
        0
  0
LAYER
  5
319
330
2
100
AcDbSymbolTableRecord
100
AcDbLayerTableRecord
  2
Defpoints
 70
     0
 62
     7
  6
HIDDEN
290
     0
370
    -3
390
F
347
EE
348
0
  0
LAYER
  5
BDD
330
2
100
AcDbSymbolTableRecord
100
AcDbLayerTableRecord
  2
*ADSK_CONSTRAINTS
 70
     0
 62
     7
  6
Continuous
370
    -3
390
F
347
EE
348
0
  0
ENDTAB
  0
TABLE
  2
STYLE
  5
3
330
0
100
AcDbSymbolTable
 70
     3
  0
STYLE
  5
11
330
3
100
AcDbSymbolTableRecord
100
AcDbTextStyleTableRecord
  2
Standard
 70
     0
 40
0.0
 41
1.0
 50
0.0
 71
     0
 42
2.5
  3
arial.ttf
  4

1001
ACAD
1000
Arial
1071
       34
  0
STYLE
  5
132
330
3
100
AcDbSymbolTableRecord
100
AcDbTextStyleTableRecord
  2
Annotative
 70
     0
 40
0.0
 41
1.0
 50
0.0
 71
     0
 42
2.5
  3
arial.ttf
  4

1001
AcadAnnotative
1000
AnnotativeData
1002
{
1070
     1
1070
     1
1002
}
1001
ACAD
1000
Arial
1071
       34
  0
STYLE
  5
152F
330
3
100
AcDbSymbolTableRecord
100
AcDbTextStyleTableRecord
  2

 70
     1
 40
0.0
 41
1.0
 50
0.0
 71
     0
 42
2.5
  3
ltypeshp.shx
  4

  0
ENDTAB
  0
TABLE
  2
VIEW
  5
6
330
0
100
AcDbSymbolTable
 70
     0
  0
ENDTAB
  0
TABLE
  2
UCS
  5
7
330
0
100
AcDbSymbolTable
 70
     0
  0
ENDTAB
  0
TABLE
  2
APPID
  5
9
330
0
100
AcDbSymbolTable
 70
    19
  0
APPID
  5
12
330
9
100
AcDbSymbolTableRecord
100
AcDbRegAppTableRecord
  2
ACAD
 70
     0
  0
APPID
  5
9E
330
9
100
AcDbSymbolTableRecord
100
AcDbRegAppTableRecord
  2
ACAD_PSEXT
 70
     0
  0
APPID
  5
133
330
9
100
AcDbSymbolTableRecord
100
AcDbRegAppTableRecord
  2
AcadAnnoPO
 70
     0
  0
APPID
  5
134
330
9
100
AcDbSymbolTableRecord
100
AcDbRegAppTableRecord
  2
AcadAnnotative
 70
     0
  0
APPID
  5
135
330
9
100
AcDbSymbolTableRecord
100
AcDbRegAppTableRecord
  2
ACAD_DSTYLE_DIMJAG
 70
     0
  0
APPID
  5
136
330
9
100
AcDbSymbolTableRecord
100
AcDbRegAppTableRecord
  2
ACAD_DSTYLE_DIMTALN
 70
     0
  0
APPID
  5
165
330
9
100
AcDbSymbolTableRecord
100
AcDbRegAppTableRecord
  2
ACAD_MLEADERVER
 70
     0
  0
APPID
  5
217
330
9
100
AcDbSymbolTableRecord
100
AcDbRegAppTableRecord
  2
ACAD_NAV_VCDISPLAY
 70
     0
  0
APPID
  5
31B
330
9
100
AcDbSymbolTableRecord
100
AcDbRegAppTableRecord
  2
AcAecLayerStandard
 70
     0
  0
APPID
  5
31C
330
9
100
AcDbSymbolTableRecord
100
AcDbRegAppTableRecord
  2
AcCmTransparency
 70
     0
  0
APPID
  5
31D
330
9
100
AcDbSymbolTableRecord
100
AcDbRegAppTableRecord
  2
ACAD_DSTYLE_DIMBREAK
 70
     0
  0
APPID
  5
31E
330
9
100
AcDbSymbolTableRecord
100
AcDbRegAppTableRecord
  2
GradientColor1ACI
 70
     0
  0
APPID
  5
31F
330
9
100
AcDbSymbolTableRecord
100
AcDbRegAppTableRecord
  2
GradientColor2ACI
 70
     0
  0
APPID
  5
320
330
9
100
AcDbSymbolTableRecord
100
AcDbRegAppTableRecord
  2
ACAD_DSTYLE_DIMRADIAL_EXTENSION
 70
     0
  0
APPID
  5
BD4
330
9
100
AcDbSymbolTableRecord
100
AcDbRegAppTableRecord
  2
ACAD_EXEMPT_FROM_CAD_STANDARDS
 70
     0
  0
APPID
  5
BE6
330
9
100
AcDbSymbolTableRecord
100
AcDbRegAppTableRecord
  2
ACAD_DSTYLE_DIMINSPECT
 70
     0
  0
APPID
  5
BE7
330
9
100
AcDbSymbolTableRecord
100
AcDbRegAppTableRecord
  2
ACAD_DSTYLE_DIMJAG_POSITION
 70
     0
  0
APPID
  5
BED
330
9
100
AcDbSymbolTableRecord
100
AcDbRegAppTableRecord
  2
AcadAnnoMonitorAlertIconDisabled
 70
     0
  0
APPID
  5
1929
330
9
100
AcDbSymbolTableRecord
100
AcDbRegAppTableRecord
  2
Acad_TC
 70
     0
  0
ENDTAB
  0
TABLE
  2
DIMSTYLE
  5
A
330
0
100
AcDbSymbolTable
 70
     4
100
AcDbDimStyleTable
 71
     4
340
31A
340
27
340
1B0
340
137
  0
DIMSTYLE
105
1B0
330
A
100
AcDbSymbolTableRecord
100
AcDbDimStyleTableRecord
  2
Standard
 70
     0
340
11
  0
DIMSTYLE
105
137
330
A
100
AcDbSymbolTableRecord
100
AcDbDimStyleTableRecord
  2
Annotative
 70
     0
 40
0.0
 41
2.5
 42
0.625
 43
3.75
 44
1.25
 73
     0
 74
     0
 77
     1
 78
     8
140
2.5
141
2.5
143
0.03937007874016
147
0.625
171
     3
172
     1
271
     2
272
     2
274
     3
278
    44
283
     0
284
     8
340
11
1001
AcadAnnotative
1000
AnnotativeData
1002
{
1070
     1
1070
     1
1002
}
1001
ACAD_DSTYLE_DIMJAG
1070
   388
1040
1.5
1001
ACAD_DSTYLE_DIMTALN
1070
   392
1070
     0
  0
DIMSTYLE
105
27
102
{ACAD_REACTORS
330
10A1
330
10A4
330
10A7
330
10AA
102
}
330
A
100
AcDbSymbolTableRecord
100
AcDbDimStyleTableRecord
  2
ISO-25
 70
     0
 41
2.5
 42
0.625
 43
3.75
 44
1.25
 73
     0
 74
     0
 77
     1
 78
     8
140
2.5
141
2.5
143
0.03937007874016
147
0.625
171
     3
172
     1
271
     2
272
     2
274
     3
278
    44
283
     0
284
     8
340
11
  0
DIMSTYLE
105
31A
102
{ACAD_REACTORS
330
F8C
330
FBC
330
FF7
330
1339
330
139D
330
13B7
330
142B
330
1663
102
}
330
A
100
AcDbSymbolTableRecord
100
AcDbDimStyleTableRecord
  2
dimensions
 70
     0
  3
 mm\X
  4
 "
 41
8.0
 42
8.0
 43
3.75
 44
5.0
 73
     0
 74
     0
 77
     1
 78
     8
140
9.0
141
-0.09
143
0.03937007874016
147
2.5
170
     1
171
     4
172
     1
176
   256
177
   256
178
   256
271
     2
272
     2
273
     7
274
     4
278
    44
283
     0
284
     8
340
11
1001
ACAD_DSTYLE_DIMBREAK
1070
   391
1040
3.75
1001
ACAD_DSTYLE_DIMJAG
1070
   388
1040
2.5
1001
ACAD_DSTYLE_DIMTALN
1070
   392
1070
     0
  0
ENDTAB
  0
TABLE
  2
BLOCK_RECORD
  5
1
330
0
100
AcDbSymbolTable
 70
    23
  0
BLOCK_RECORD
  5
1F
102
{ACAD_XDICTIONARY
360
1CE
102
}
330
1
100
AcDbSymbolTableRecord
100
AcDbBlockTableRecord
  2
*Model_Space
340
22
 70
     0
280
     1
281
     0
  0
BLOCK_RECORD
  5
D2
330
1
100
AcDbSymbolTableRecord
100
AcDbBlockTableRecord
  2
*Paper_Space
340
D3
 70
     0
280
     1
281
     0
  0
BLOCK_RECORD
  5
D6
330
1
100
AcDbSymbolTableRecord
100
AcDbBlockTableRecord
  2
*Paper_Space0
340
D7
 70
     0
280
     1
281
     0
  0
BLOCK_RECORD
  5
72C
330
1
100
AcDbSymbolTableRecord
100
AcDbBlockTableRecord
  2
_CLOSED
340
0
 70
     0
280
     1
281
     0
  0
BLOCK_RECORD
  5
BE0
330
1
100
AcDbSymbolTableRecord
100
AcDbBlockTableRecord
  2
_ClosedBlank
340
0
 70
     0
280
     1
281
     0
  0
BLOCK_RECORD
  5
F8D
330
1
100
AcDbSymbolTableRecord
100
AcDbBlockTableRecord
  2
*D3
340
0
 70
     0
280
     1
281
     0
  0
BLOCK_RECORD
  5
FBD
330
1
100
AcDbSymbolTableRecord
100
AcDbBlockTableRecord
  2
*D4
340
0
 70
     0
280
     1
281
     0
  0
BLOCK_RECORD
  5
FF8
330
1
100
AcDbSymbolTableRecord
100
AcDbBlockTableRecord
  2
*D5
340
0
 70
     0
280
     1
281
     0
  0
BLOCK_RECORD
  5
1025
330
1
100
AcDbSymbolTableRecord
100
AcDbBlockTableRecord
  2
*D6
340
0
 70
     0
280
     1
281
     0
  0
BLOCK_RECORD
  5
1031
330
1
100
AcDbSymbolTableRecord
100
AcDbBlockTableRecord
  2
*D7
340
0
 70
     0
280
     1
281
     0
  0
BLOCK_RECORD
  5
103D
330
1
100
AcDbSymbolTableRecord
100
AcDbBlockTableRecord
  2
*D8
340
0
 70
     0
280
     1
281
     0
  0
BLOCK_RECORD
  5
1049
330
1
100
AcDbSymbolTableRecord
100
AcDbBlockTableRecord
  2
*D9
340
0
 70
     0
280
     1
281
     0
  0
BLOCK_RECORD
  5
1055
102
{ACAD_XDICTIONARY
360
10AD
102
}
330
1
100
AcDbSymbolTableRecord
100
AcDbBlockTableRecord
  2
A$C1798a597
340
0
 70
     4
280
     1
281
     0
  0
BLOCK_RECORD
  5
11B6
102
{ACAD_XDICTIONARY
360
1202
102
}
330
1
100
AcDbSymbolTableRecord
100
AcDbBlockTableRecord
  2
A$C0a45fdb4
340
0
 70
     4
280
     1
281
     0
  0
BLOCK_RECORD
  5
1206
102
{ACAD_XDICTIONARY
360
1252
102
}
330
1
100
AcDbSymbolTableRecord
100
AcDbBlockTableRecord
  2
A$C1e81eb98
340
0
 70
     4
280
     1
281
     0
  0
BLOCK_RECORD
  5
133A
330
1
100
AcDbSymbolTableRecord
100
AcDbBlockTableRecord
  2
*D13
340
0
 70
     0
280
     1
281
     0
  0
BLOCK_RECORD
  5
139E
330
1
100
AcDbSymbolTableRecord
100
AcDbBlockTableRecord
  2
*D14
340
0
 70
     0
280
     1
281
     0
  0
BLOCK_RECORD
  5
13B8
330
1
100
AcDbSymbolTableRecord
100
AcDbBlockTableRecord
  2
*D15
340
0
 70
     0
280
     1
281
     0
  0
BLOCK_RECORD
  5
142C
330
1
100
AcDbSymbolTableRecord
100
AcDbBlockTableRecord
  2
*D16
340
0
 70
     0
280
     1
281
     0
  0
BLOCK_RECORD
  5
15D4
102
{ACAD_XDICTIONARY
360
15EC
102
}
330
1
100
AcDbSymbolTableRecord
100
AcDbBlockTableRecord
  2
A$C58b5c93d
340
0
 70
     4
280
     1
281
     0
  0
BLOCK_RECORD
  5
1664
330
1
100
AcDbSymbolTableRecord
100
AcDbBlockTableRecord
  2
*D18
340
0
 70
     0
280
     1
281
     0
  0
BLOCK_RECORD
  5
1680
102
{ACAD_XDICTIONARY
360
1682
102
}
330
1
100
AcDbSymbolTableRecord
100
AcDbBlockTableRecord
  2
A$C8f0d6f43
340
0
 70
     4
280
     1
281
     0
  0
BLOCK_RECORD
  5
1686
102
{ACAD_XDICTIONARY
360
1688
102
}
330
1
100
AcDbSymbolTableRecord
100
AcDbBlockTableRecord
  2
A$C7297b0f1
340
0
 70
     4
280
     1
281
     0
  0
BLOCK_RECORD
  5
168C
102
{ACAD_XDICTIONARY
360
168E
102
}
330
1
100
AcDbSymbolTableRecord
100
AcDbBlockTableRecord
  2
A$Cc4442162
340
0
 70
     4
280
     1
281
     0
  0
BLOCK_RECORD
  5
174F
330
1
100
AcDbSymbolTableRecord
100
AcDbBlockTableRecord
  2
*D22
340
0
 70
     0
280
     1
281
     0
  0
ENDTAB
  0
ENDSEC
  0
SECTION
  2
BLOCKS
  0
BLOCK
  5
20
330
1F
100
AcDbEntity
  8
0
100
AcDbBlockBegin
  2
*Model_Space
 70
     0
 10
0.0
 20
0.0
 30
0.0
  3
*Model_Space
  1

  0
ENDBLK
  5
21
330
1F
100
AcDbEntity
  8
0
100
AcDbBlockEnd
  0
BLOCK
  5
D4
330
D2
100
AcDbEntity
 67
     1
  8
0
100
AcDbBlockBegin
  2
*Paper_Space
 70
     0
 10
0.0
 20
0.0
 30
0.0
  3
*Paper_Space
  1

  0
ENDBLK
  5
D5
330
D2
100
AcDbEntity
 67
     1
  8
0
100
AcDbBlockEnd
  0
BLOCK
  5
D8
330
D6
100
AcDbEntity
 67
     1
  8
0
100
AcDbBlockBegin
  2
*Paper_Space0
 70
     0
 10
0.0
 20
0.0
 30
0.0
  3
*Paper_Space0
  1

  0
ENDBLK
  5
D9
330
D6
100
AcDbEntity
 67
     1
  8
0
100
AcDbBlockEnd
  0
BLOCK
  5
72D
330
72C
100
AcDbEntity
  8
0
100
AcDbBlockBegin
  2
_CLOSED
 70
     0
 10
0.0
 20
0.0
 30
0.0
  3
_CLOSED
  1

  0
LINE
  5
72E
330
72C
100
AcDbEntity
  8
0
  6
ByBlock
 62
     0
100
AcDbLine
 10
0.0
 20
0.0
 30
0.0
 11
-1.0
 21
0.168
 31
0.0
  0
LINE
  5
72F
330
72C
100
AcDbEntity
  8
0
  6
ByBlock
 62
     0
100
AcDbLine
 10
-1.0
 20
0.168
 30
0.0
 11
-1.0
 21
-0.168
 31
0.0
  0
LINE
  5
730
330
72C
100
AcDbEntity
  8
0
  6
ByBlock
 62
     0
100
AcDbLine
 10
-1.0
 20
-0.168
 30
0.0
 11
0.0
 21
0.0
 31
0.0
  0
LINE
  5
731
330
72C
100
AcDbEntity
  8
0
  6
ByBlock
 62
     0
100
AcDbLine
 10
-1.0
 20
0.0
 30
0.0
 11
0.0
 21
0.0
 31
0.0
  0
ENDBLK
  5
732
330
72C
100
AcDbEntity
  8
0
  6
ByBlock
 62
     0
100
AcDbBlockEnd
  0
BLOCK
  5
BE4
330
BE0
100
AcDbEntity
  8
0
100
AcDbBlockBegin
  2
_ClosedBlank
 70
     0
 10
0.0
 20
0.0
 30
0.0
  3
_ClosedBlank
  1

  0
LINE
  5
BE1
330
BE0
100
AcDbEntity
  8
0
  6
ByBlock
 62
     0
370
    -2
100
AcDbLine
 10
-1.0
 20
0.1666666666666666
 30
0.0
 11
0.0
 21
0.0
 31
0.0
  0
LINE
  5
BE2
330
BE0
100
AcDbEntity
  8
0
  6
ByBlock
 62
     0
370
    -2
100
AcDbLine
 10
0.0
 20
0.0
 30
0.0
 11
-1.0
 21
-0.1666666666666666
 31
0.0
  0
LINE
  5
BE3
330
BE0
100
AcDbEntity
  8
0
  6
ByBlock
 62
     0
370
    -2
100
AcDbLine
 10
-1.0
 20
0.1666666666666666
 30
0.0
 11
-1.0
 21
-0.1666666666666666
 31
0.0
  0
ENDBLK
  5
BE5
330
BE0
100
AcDbEntity
  8
0
100
AcDbBlockEnd
  0
BLOCK
  5
F8E
330
F8D
100
AcDbEntity
  8
0
100
AcDbBlockBegin
  2
*D3
 70
     1
 10
0.0
 20
0.0
 30
0.0
  3
*D3
  1

  0
LINE
  5
1112
330
F8D
100
AcDbEntity
  8
dimensions
440
 16777216
370
    -2
100
AcDbLine
 10
3912.736038347631
 20
2186.518611261655
 30
0.0
 11
3987.837417034064
 21
2122.712693225892
 31
0.0
  0
LINE
  5
1113
330
F8D
100
AcDbEntity
  8
dimensions
440
 16777216
370
    -2
100
AcDbLine
 10
4026.704047438038
 20
2089.691714420207
 30
0.0
 11
4032.800773775631
 21
2084.511953039167
 31
0.0
  0
MTEXT
  5
1114
102
{ACAD_XDICTIONARY
360
1917
102
}
330
F8D
100
AcDbEntity
  8
dimensions
440
 16777216
100
AcDbMText
 10
3935.737040524736
 20
2166.977025137379
 30
0.0
 40
9.0
 41
0.0
 46
0.0
 71
     5
 72
     1
  1
∅35 mm\P [∅1 3/8 "]
 11
0.7620907921989611
 21
-0.6474701726300295
 31
0.0
 73
     1
 44
1.0
  0
LINE
  5
1115
330
F8D
100
AcDbEntity
  8
dimensions
440
 16777216
370
    -2
100
AcDbLine
 10
4020.607321100448
 20
2094.871475801247
 30
0.0
 11
3993.934143371656
 21
2117.532931844852
 31
0.0
  0
SOLID
  5
1116
330
F8D
100
AcDbEntity
  8
dimensions
440
 16777216
100
AcDbTrace
 10
4027.567341001546
 20
2090.707835476472
 30
0.0
 11
4025.840753874533
 21
2088.675593363942
 31
0.0
 12
4020.607321100448
 22
2094.871475801247
 32
0.0
 13
4020.607321100448
 23
2094.871475801247
 33
0.0
  0
SOLID
  5
1117
330
F8D
100
AcDbEntity
  8
dimensions
440
 16777216
100
AcDbTrace
 10
3988.700710597571
 20
2123.728814282157
 30
0.0
 11
3986.974123470557
 21
2121.696572169627
 31
0.0
 12
3993.934143371656
 22
2117.532931844852
 32
0.0
 13
3993.934143371656
 23
2117.532931844852
 33
0.0
  0
POINT
  5
1118
330
F8D
100
AcDbEntity
  8
Defpoints
 62
     0
440
 16777216
100
AcDbPoint
 10
3993.934143371656
 20
2117.532931844852
 30
0.0
  0
POINT
  5
1119
330
F8D
100
AcDbEntity
  8
Defpoints
 62
     0
440
 16777216
100
AcDbPoint
 10
4020.607321100448
 20
2094.871475801247
 30
0.0
  0
ENDBLK
  5
F8F
330
F8D
100
AcDbEntity
  8
0
100
AcDbBlockEnd
  0
BLOCK
  5
FBE
330
FBD
100
AcDbEntity
  8
0
100
AcDbBlockBegin
  2
*D4
 70
     1
 10
0.0
 20
0.0
 30
0.0
  3
*D4
  1

  0
LINE
  5
1406
330
FBD
100
AcDbEntity
  8
dimensions
440
 16777216
370
    -2
100
AcDbLine
 10
4412.745068303028
 20
2106.20220382305
 30
0.0
 11
4443.488818923943
 21
2106.20220382305
 31
0.0
  0
LINE
  5
1407
330
FBD
100
AcDbEntity
  8
dimensions
440
 16777216
370
    -2
100
AcDbLine
 10
4402.750217480265
 20
2067.972361324291
 30
0.0
 11
4443.488818923943
 21
2067.972361324291
 31
0.0
  0
LINE
  5
1408
330
FBD
100
AcDbEntity
  8
dimensions
440
 16777216
370
    -2
100
AcDbLine
 10
4438.488818923942
 20
2075.972361324291
 30
0.0
 11
4438.488818923942
 21
2098.202203823051
 31
0.0
  0
LINE
  5
1409
330
FBD
100
AcDbEntity
  8
dimensions
440
 16777216
370
    -2
100
AcDbLine
 10
4438.488818923942
 20
2106.20220382305
 30
0.0
 11
4438.488818923942
 21
2173.767006005861
 31
0.0
  0
SOLID
  5
140A
330
FBD
100
AcDbEntity
  8
dimensions
440
 16777216
100
AcDbTrace
 10
4437.155485590611
 20
2075.972361324291
 30
0.0
 11
4439.822152257276
 21
2075.972361324291
 31
0.0
 12
4438.488818923942
 22
2067.972361324291
 32
0.0
 13
4438.488818923942
 23
2067.972361324291
 33
0.0
  0
SOLID
  5
140B
330
FBD
100
AcDbEntity
  8
dimensions
440
 16777216
100
AcDbTrace
 10
4437.155485590611
 20
2098.202203823051
 30
0.0
 11
4439.822152257276
 21
2098.202203823051
 31
0.0
 12
4438.488818923942
 22
2106.20220382305
 32
0.0
 13
4438.488818923942
 23
2106.20220382305
 33
0.0
  0
MTEXT
  5
140C
330
FBD
100
AcDbEntity
  8
dimensions
440
 16777216
100
AcDbMText
 10
4430.580224108117
 20
2143.984604914454
 30
0.0
 40
9.0
 41
0.0
 46
0.0
 71
     5
 72
     1
  1
38,23 mm
 11
0.0000000000000001
 21
1.0
 31
0.0
 73
     1
 44
1.0
  0
MTEXT
  5
140D
330
FBD
100
AcDbEntity
  8
dimensions
440
 16777216
100
AcDbMText
 10
4446.814876222713
 20
2143.984604914454
 30
0.0
 40
9.0
 41
0.0
 46
0.0
 71
     5
 72
     1
  1
[1 1/2 "]
 11
0.0000000000000001
 21
1.0
 31
0.0
 73
     1
 44
1.0
  0
POINT
  5
140E
330
FBD
100
AcDbEntity
  8
Defpoints
 62
     0
440
 16777216
100
AcDbPoint
 10
4404.745068303028
 20
2106.20220382305
 30
0.0
  0
POINT
  5
140F
330
FBD
100
AcDbEntity
  8
Defpoints
 62
     0
440
 16777216
100
AcDbPoint
 10
4394.750217480265
 20
2067.972361324291
 30
0.0
  0
POINT
  5
1410
330
FBD
100
AcDbEntity
  8
Defpoints
 62
     0
440
 16777216
100
AcDbPoint
 10
4438.488818923942
 20
2067.972361324291
 30
0.0
  0
ENDBLK
  5
FBF
330
FBD
100
AcDbEntity
  8
0
100
AcDbBlockEnd
  0
BLOCK
  5
FF9
330
FF8
100
AcDbEntity
  8
0
100
AcDbBlockBegin
  2
*D5
 70
     1
 10
0.0
 20
0.0
 30
0.0
  3
*D5
  1

  0
LINE
  5
1108
330
FF8
100
AcDbEntity
  8
dimensions
440
 16777216
370
    -2
100
AcDbLine
 10
4007.270732236051
 20
2131.70220382425
 30
0.0
 11
4007.270732236051
 21
2159.678516130639
 31
0.0
  0
LINE
  5
1109
330
FF8
100
AcDbEntity
  8
dimensions
440
 16777216
370
    -2
100
AcDbLine
 10
4337.370732235386
 20
2131.70220382425
 30
0.0
 11
4337.370732235386
 21
2159.678516130639
 31
0.0
  0
LINE
  5
110A
330
FF8
100
AcDbEntity
  8
dimensions
440
 16777216
370
    -2
100
AcDbLine
 10
4015.270732236051
 20
2154.67851613064
 30
0.0
 11
4329.370732235386
 21
2154.67851613064
 31
0.0
  0
SOLID
  5
110B
330
FF8
100
AcDbEntity
  8
dimensions
440
 16777216
100
AcDbTrace
 10
4015.270732236051
 20
2156.011849463974
 30
0.0
 11
4015.270732236051
 21
2153.345182797307
 31
0.0
 12
4007.270732236051
 22
2154.67851613064
 32
0.0
 13
4007.270732236051
 23
2154.67851613064
 33
0.0
  0
SOLID
  5
110C
330
FF8
100
AcDbEntity
  8
dimensions
440
 16777216
100
AcDbTrace
 10
4329.370732235386
 20
2156.011849463974
 30
0.0
 11
4329.370732235386
 21
2153.345182797307
 31
0.0
 12
4337.370732235386
 22
2154.67851613064
 32
0.0
 13
4337.370732235386
 23
2154.67851613064
 33
0.0
  0
MTEXT
  5
110D
330
FF8
100
AcDbEntity
  8
dimensions
440
 16777216
100
AcDbMText
 10
4172.32073223572
 20
2162.587110946466
 30
0.0
 40
9.0
 41
0.0
 46
0.0
 71
     5
 72
     1
  1
330,1 mm
 73
     1
 44
1.0
  0
MTEXT
  5
110E
330
FF8
100
AcDbEntity
  8
dimensions
440
 16777216
100
AcDbMText
 10
4172.32073223572
 20
2146.410780796397
 30
0.0
 40
9.0
 41
0.0
 46
0.0
 71
     5
 72
     1
  1
[13 "]
 73
     1
 44
1.0
  0
POINT
  5
110F
330
FF8
100
AcDbEntity
  8
Defpoints
 62
     0
440
 16777216
100
AcDbPoint
 10
4007.270732236051
 20
2123.702203824249
 30
0.0
  0
POINT
  5
1110
330
FF8
100
AcDbEntity
  8
Defpoints
 62
     0
440
 16777216
100
AcDbPoint
 10
4337.370732235386
 20
2123.702203824249
 30
0.0
  0
POINT
  5
1111
330
FF8
100
AcDbEntity
  8
Defpoints
 62
     0
440
 16777216
100
AcDbPoint
 10
4337.370732235386
 20
2154.67851613064
 30
0.0
  0
ENDBLK
  5
FFA
330
FF8
100
AcDbEntity
  8
0
100
AcDbBlockEnd
  0
BLOCK
  5
1026
330
1025
100
AcDbEntity
  8
0
100
AcDbBlockBegin
  2
*D6
 70
     1
 10
0.0
 20
0.0
 30
0.0
  3
*D6
  1

  0
LINE
  5
1027
330
1025
100
AcDbEntity
  8
dimensions
  6
HIDDEN
 62
     0
440
 16777216
370
    -2
100
AcDbLine
 10
5429.455180601539
 20
2164.259475408606
 30
0.0
 11
5602.387818431502
 21
2162.442447048239
 31
0.0
  0
LINE
  5
1028
330
1025
100
AcDbEntity
  8
dimensions
  6
HIDDEN
 62
     0
440
 16777216
370
    -2
100
AcDbLine
 10
5423.583787783414
 20
1605.45947540786
 30
0.0
 11
5596.516425613374
 21
1603.642447047493
 31
0.0
  0
LINE
  5
1029
330
1025
100
AcDbEntity
  8
dimensions
  6
HIDDEN
 62
     0
440
 16777216
370
    -2
100
AcDbLine
 10
5601.111621012361
 20
2159.955718243688
 30
0.0
 11
5595.292761021219
 21
1606.155442265535
 31
0.0
  0
SOLID
  5
102A
330
1025
100
AcDbEntity
  8
dimensions
  6
HIDDEN
 62
     0
440
 16777216
100
AcDbTrace
 10
5600.694977343811
 20
2159.960095979271
 30
0.0
 11
5601.528264680911
 21
2159.951340508106
 31
0.0
 12
5601.137887425853
 22
2162.455580254985
 32
0.0
 13
5601.137887425853
 23
2162.455580254985
 33
0.0
  0
SOLID
  5
102B
330
1025
100
AcDbEntity
  8
dimensions
  6
HIDDEN
 62
     0
440
 16777216
100
AcDbTrace
 10
5594.876117352669
 20
1606.159820001117
 30
0.0
 11
5595.709404689768
 21
1606.151064529953
 31
0.0
 12
5595.266494607725
 22
1603.655580254239
 32
0.0
 13
5595.266494607725
 23
1603.655580254239
 33
0.0
  0
MTEXT
  5
102C
330
1025
100
AcDbEntity
  8
dimensions
  6
HIDDEN
 62
     0
440
 16777216
100
AcDbMText
 10
5596.074920990123
 20
1883.077931789969
 30
0.0
 40
2.5
 41
0.0
 46
0.0
 71
     5
 72
     1
  1
558,83
 11
0.0105065653968589
 21
0.9999448045185101
 31
0.0
 73
     1
 44
1.0
  0
POINT
  5
102D
330
1025
100
AcDbEntity
  8
Defpoints
  6
HIDDEN
 62
     0
440
 16777216
100
AcDbPoint
 10
5428.830215098716
 20
2164.266042011979
 30
0.0
  0
POINT
  5
102E
330
1025
100
AcDbEntity
  8
Defpoints
  6
HIDDEN
 62
     0
440
 16777216
100
AcDbPoint
 10
5422.958822280588
 20
1605.466042011233
 30
0.0
  0
POINT
  5
102F
330
1025
100
AcDbEntity
  8
Defpoints
  6
HIDDEN
 62
     0
440
 16777216
100
AcDbPoint
 10
5595.266494607725
 20
1603.655580254239
 30
0.0
  0
ENDBLK
  5
1030
330
1025
100
AcDbEntity
  8
0
100
AcDbBlockEnd
  0
BLOCK
  5
1032
330
1031
100
AcDbEntity
  8
0
100
AcDbBlockBegin
  2
*D7
 70
     1
 10
0.0
 20
0.0
 30
0.0
  3
*D7
  1

  0
LINE
  5
1033
330
1031
100
AcDbEntity
  8
dimensions
 62
     0
440
 16777216
370
    -2
100
AcDbLine
 10
4650.90859609795
 20
2151.519876119216
 30
0.0
 11
4650.717749563201
 21
2187.837079282329
 31
0.0
  0
LINE
  5
1034
330
1031
100
AcDbEntity
  8
dimensions
 62
     0
440
 16777216
370
    -2
100
AcDbLine
 10
5489.108596108038
 20
2155.924608628736
 30
0.0
 11
5488.91774957329
 21
2192.241811791848
 31
0.0
  0
LINE
  5
1035
330
1031
100
AcDbEntity
  8
dimensions
 62
     0
440
 16777216
370
    -2
100
AcDbLine
 10
4653.224283691911
 20
2186.60023383458
 30
0.0
 11
5486.424352737866
 21
2190.97869175753
 31
0.0
  0
SOLID
  5
1036
330
1031
100
AcDbEntity
  8
dimensions
 62
     0
440
 16777216
100
AcDbTrace
 10
4653.222094143029
 20
2187.016894748258
 30
0.0
 11
4653.226473240792
 21
2186.183572920902
 31
0.0
 12
4650.724318209845
 22
2186.587096541295
 32
0.0
 13
4650.724318209845
 23
2186.587096541295
 33
0.0
  0
SOLID
  5
1037
330
1031
100
AcDbEntity
  8
dimensions
 62
     0
440
 16777216
100
AcDbTrace
 10
5486.422163188985
 20
2191.395352671207
 30
0.0
 11
5486.426542286746
 21
2190.562030843852
 31
0.0
 12
5488.924318219932
 22
2190.991829050815
 32
0.0
 13
5488.924318219932
 23
2190.991829050815
 33
0.0
  0
MTEXT
  5
1038
330
1031
100
AcDbEntity
  8
dimensions
 62
     0
440
 16777216
100
AcDbMText
 10
5076.74920875343
 20
2190.953269848142
 30
0.0
 40
2.5
 41
0.0
 46
0.0
 71
     5
 72
     1
  1
838,21
 11
0.9999861928266927
 21
0.0052549173139599
 31
0.0
 73
     1
 44
1.0
  0
POINT
  5
1039
330
1031
100
AcDbEntity
  8
Defpoints
 62
     0
440
 16777216
100
AcDbPoint
 10
4650.91188042127
 20
2150.8948847487
 30
0.0
  0
POINT
  5
103A
330
1031
100
AcDbEntity
  8
Defpoints
 62
     0
440
 16777216
100
AcDbPoint
 10
5489.111880431359
 20
2155.299617258219
 30
0.0
  0
POINT
  5
103B
330
1031
100
AcDbEntity
  8
Defpoints
 62
     0
440
 16777216
100
AcDbPoint
 10
5488.924318219932
 20
2190.991829050815
 30
0.0
  0
ENDBLK
  5
103C
330
1031
100
AcDbEntity
  8
0
100
AcDbBlockEnd
  0
BLOCK
  5
103E
330
103D
100
AcDbEntity
  8
0
100
AcDbBlockBegin
  2
*D8
 70
     1
 10
0.0
 20
0.0
 30
0.0
  3
*D8
  1

  0
LINE
  5
103F
330
103D
100
AcDbEntity
  8
dimensions
 62
     0
440
 16777216
370
    -2
100
AcDbLine
 10
5071.744755276408
 20
2069.036199512943
 30
0.0
 11
5059.66046895298
 21
2069.036199512943
 31
0.0
  0
LINE
  5
1040
330
103D
100
AcDbEntity
  8
dimensions
 62
     0
440
 16777216
370
    -2
100
AcDbLine
 10
5071.744755276408
 20
1637.266042011049
 30
0.0
 11
5059.660468952981
 21
1637.266042011049
 31
0.0
  0
LINE
  5
1041
330
103D
100
AcDbEntity
  8
dimensions
 62
     0
440
 16777216
370
    -2
100
AcDbLine
 10
5060.910468952982
 20
2066.536199512944
 30
0.0
 11
5060.910468952982
 21
1639.766042011048
 31
0.0
  0
SOLID
  5
1042
330
103D
100
AcDbEntity
  8
dimensions
 62
     0
440
 16777216
100
AcDbTrace
 10
5060.493802286313
 20
2066.536199512944
 30
0.0
 11
5061.327135619648
 21
2066.536199512944
 31
0.0
 12
5060.910468952982
 22
2069.036199512943
 32
0.0
 13
5060.910468952982
 23
2069.036199512943
 33
0.0
  0
SOLID
  5
1043
330
103D
100
AcDbEntity
  8
dimensions
 62
     0
440
 16777216
100
AcDbTrace
 10
5060.493802286314
 20
1639.766042011048
 30
0.0
 11
5061.327135619649
 21
1639.766042011048
 31
0.0
 12
5060.910468952982
 22
1637.266042011049
 32
0.0
 13
5060.910468952982
 23
1637.266042011049
 33
0.0
  0
MTEXT
  5
1044
330
103D
100
AcDbEntity
  8
dimensions
 62
     0
440
 16777216
100
AcDbMText
 10
5058.78308150414
 20
1853.151120761994
 30
0.0
 40
2.5
 41
0.0
 46
0.0
 71
     5
 72
     1
  1
431,77
 11
0.0000000000000001
 21
1.0
 31
0.0
 73
     1
 44
1.0
  0
POINT
  5
1045
330
103D
100
AcDbEntity
  8
Defpoints
 62
     0
440
 16777216
100
AcDbPoint
 10
5072.369755276408
 20
2069.036199512943
 30
0.0
  0
POINT
  5
1046
330
103D
100
AcDbEntity
  8
Defpoints
 62
     0
440
 16777216
100
AcDbPoint
 10
5072.369755276408
 20
1637.266042011049
 30
0.0
  0
POINT
  5
1047
330
103D
100
AcDbEntity
  8
Defpoints
 62
     0
440
 16777216
100
AcDbPoint
 10
5060.910468952982
 20
1637.266042011049
 30
0.0
  0
ENDBLK
  5
1048
330
103D
100
AcDbEntity
  8
0
100
AcDbBlockEnd
  0
BLOCK
  5
104A
330
1049
100
AcDbEntity
  8
0
100
AcDbBlockBegin
  2
*D9
 70
     1
 10
0.0
 20
0.0
 30
0.0
  3
*D9
  1

  0
LINE
  5
104B
330
1049
100
AcDbEntity
  8
dimensions
 62
     0
440
 16777216
370
    -2
100
AcDbLine
 10
4682.67085092132
 20
1853.776120761991
 30
0.0
 11
4682.67085092132
 21
1858.803232109218
 31
0.0
  0
LINE
  5
104C
330
1049
100
AcDbEntity
  8
dimensions
 62
     0
440
 16777216
370
    -2
100
AcDbLine
 10
5457.311880429668
 20
1853.776120761991
 30
0.0
 11
5457.311880429668
 21
1858.803232109218
 31
0.0
  0
LINE
  5
104D
330
1049
100
AcDbEntity
  8
dimensions
 62
     0
440
 16777216
370
    -2
100
AcDbLine
 10
4685.17085092132
 20
1857.553232109218
 30
0.0
 11
5454.811880429669
 21
1857.553232109218
 31
0.0
  0
SOLID
  5
104E
330
1049
100
AcDbEntity
  8
dimensions
 62
     0
440
 16777216
100
AcDbTrace
 10
4685.17085092132
 20
1857.969898775884
 30
0.0
 11
4685.17085092132
 21
1857.136565442551
 31
0.0
 12
4682.67085092132
 22
1857.553232109218
 32
0.0
 13
4682.67085092132
 23
1857.553232109218
 33
0.0
  0
SOLID
  5
104F
330
1049
100
AcDbEntity
  8
dimensions
 62
     0
440
 16777216
100
AcDbTrace
 10
5454.811880429669
 20
1857.969898775884
 30
0.0
 11
5454.811880429669
 21
1857.136565442551
 31
0.0
 12
5457.311880429668
 22
1857.553232109218
 32
0.0
 13
5457.311880429668
 23
1857.553232109218
 33
0.0
  0
MTEXT
  5
1050
330
1049
100
AcDbEntity
  8
dimensions
 62
     0
440
 16777216
100
AcDbMText
 10
5069.991365675495
 20
1859.680619558058
 30
0.0
 40
2.5
 41
0.0
 46
0.0
 71
     5
 72
     1
  1
774,64
 73
     1
 44
1.0
  0
POINT
  5
1051
330
1049
100
AcDbEntity
  8
Defpoints
 62
     0
440
 16777216
100
AcDbPoint
 10
4682.67085092132
 20
1853.151120761991
 30
0.0
  0
POINT
  5
1052
330
1049
100
AcDbEntity
  8
Defpoints
 62
     0
440
 16777216
100
AcDbPoint
 10
5457.311880429668
 20
1853.151120761991
 30
0.0
  0
POINT
  5
1053
330
1049
100
AcDbEntity
  8
Defpoints
 62
     0
440
 16777216
100
AcDbPoint
 10
5457.311880429668
 20
1857.553232109218
 30
0.0
  0
ENDBLK
  5
1054
330
1049
100
AcDbEntity
  8
0
100
AcDbBlockEnd
  0
BLOCK
  5
10AF
330
1055
100
AcDbEntity
  8
0
100
AcDbBlockBegin
  2
A$C1798a597
 70
     0
 10
0.0
 20
0.0
 30
0.0
  3
A$C1798a597
  1

  0
LINE
  5
1056
102
{ACAD_REACTORS
330
10A6
102
}
330
1055
100
AcDbEntity
  8
0
  6
Continuous
 62
     7
100
AcDbLine
 10
0.1941308579152974
 20
555.6235844057253
 30
0.0
 11
0.1941308680725342
 21
6.823594964468384
 31
0.0
  0
LINE
  5
1057
330
1055
100
AcDbEntity
  8
0
  6
Continuous
 62
     7
100
AcDbLine
 10
4.608344066542485
 20
11.2378051555886
 30
0.0
 11
4.608341826275136
 21
551.2093416848316
 31
0.0
  0
LINE
  5
1058
330
1055
100
AcDbEntity
  8
0
  6
Continuous
 62
     7
100
AcDbLine
 10
6.022557991967913
 20
551.209381400268
 30
0.0
 11
6.022557991967913
 21
11.23781019749253
 31
0.0
  0
LINE
  5
1059
330
1055
100
AcDbEntity
  8
0
  6
Continuous
 62
     7
100
AcDbLine
 10
9.608344429758288
 20
6.237805409614111
 30
0.0
 11
9.608344429758288
 21
7.652022088407419
 31
0.0
  0
LINE
  5
105A
330
1055
100
AcDbEntity
  8
0
  6
Continuous
 62
     7
100
AcDbLine
 10
9.608342021823773
 20
554.7951678380293
 30
0.0
 11
9.608342021823773
 21
556.2093812605478
 31
0.0
  0
LINE
  5
105B
102
{ACAD_REACTORS
330
10AC
102
}
330
1055
100
AcDbEntity
  8
0
  6
Continuous
 62
     7
100
AcDbLine
 10
31.95310135811815
 20
53.59618565836967
 30
0.0
 11
31.95310135811815
 21
445.4211617706266
 31
0.0
  0
LINE
  5
105C
102
{ACAD_REACTORS
330
10A3
102
}
330
1055
100
AcDbEntity
  8
0
  6
Continuous
 62
     7
100
AcDbLine
 10
5.194141426825808
 20
1.823594954332975
 30
0.0
 11
833.394130865552
 21
1.823594964490211
 31
0.0
  0
LINE
  5
105D
330
1055
100
AcDbEntity
  8
0
  6
Continuous
 62
     7
100
AcDbLine
 10
828.9798791123937
 20
6.237805569626971
 30
0.0
 11
9.60838414772661
 21
6.237805252133283
 31
0.0
  0
LINE
  5
105E
330
1055
100
AcDbEntity
  8
0
  6
Continuous
 62
     7
100
AcDbLine
 10
9.608344429758288
 20
7.652022088407419
 30
0.0
 11
828.9799156325207
 21
7.652022088407419
 31
0.0
  0
LINE
  5
105F
330
1055
100
AcDbEntity
  8
0
  6
Continuous
 62
     7
100
AcDbLine
 10
833.9799204203917
 20
11.23780852616869
 30
0.0
 11
832.5657037415986
 21
11.23780852616869
 31
0.0
  0
LINE
  5
1060
330
1055
100
AcDbEntity
  8
0
  6
Continuous
 62
     7
100
AcDbLine
 10
6.022557991967913
 20
11.23780611824872
 30
0.0
 11
4.608342946423363
 21
11.23780611824872
 31
0.0
  0
LINE
  5
1061
102
{ACAD_REACTORS
330
10A9
102
}
330
1055
100
AcDbEntity
  8
0
  6
Continuous
 62
     7
100
AcDbLine
 10
51.92569205293329
 20
33.62359496355452
 30
0.0
 11
786.6215401716507
 21
33.62359496355452
 31
0.0
  0
LINE
  5
1062
330
1055
100
AcDbEntity
  8
0
  6
Continuous
 62
     7
100
AcDbLine
 10
4.608344066542485
 20
11.2378051555886
 30
0.0
 11
0.1941308680725342
 21
6.823594964468384
 31
0.0
  0
LINE
  5
1063
330
1055
100
AcDbEntity
  8
0
  6
Continuous
 62
     7
100
AcDbLine
 10
0.1941308579152974
 20
555.6235844057253
 30
0.0
 11
4.608341826275136
 21
551.2093416848316
 31
0.0
  0
LINE
  5
1064
330
1055
100
AcDbEntity
  8
0
  6
Continuous
 62
     7
100
AcDbLine
 10
5.194141426825808
 20
1.823594954332975
 30
0.0
 11
9.60838414772661
 21
6.237805252133283
 31
0.0
  0
LINE
  5
1065
330
1055
100
AcDbEntity
  8
0
  6
Continuous
 62
     7
100
AcDbLine
 10
9.608341059156373
 20
556.2093811233888
 30
0.0
 11
5.194130868043429
 21
560.6235949644857
 31
0.0
  0
LINE
  5
1066
330
1055
100
AcDbEntity
  8
Defpoints
  6
HIDDEN
 62
     7
100
AcDbLine
 10
63.72749323211974
 20
64.89957653389388
 30
0.0
 11
373.1314985859535
 21
291.6748359314104
 31
0.0
  0
LINE
  5
1067
330
1055
100
AcDbEntity
  8
Defpoints
  6
HIDDEN
 62
     7
100
AcDbLine
 10
474.0043180235406
 20
342.3194961608122
 30
0.0
 11
771.5606346521854
 21
433.7455798183098
 31
0.0
  0
LINE
  5
1068
330
1055
100
AcDbEntity
  8
Defpoints
  6
HIDDEN
 62
     7
100
AcDbLine
 10
465.4566569680208
 20
291.6749137570103
 30
0.0
 11
770.8301271063427
 21
67.80558588568488
 31
0.0
  0
LINE
  5
1069
330
1055
100
AcDbEntity
  8
Defpoints
  6
HIDDEN
 62
     7
100
AcDbLine
 10
70.84229918028359
 20
432.6074931612918
 30
0.0
 11
364.5839248657903
 21
342.3195019520087
 31
0.0
  0
LINE
  5
106A
330
1055
100
AcDbEntity
  8
0
  6
Continuous
 62
     7
100
AcDbLine
 10
833.3941308680843
 20
560.6235949644857
 30
0.0
 11
828.9799173063983
 21
556.2093814002535
 31
0.0
  0
LINE
  5
106B
330
1055
100
AcDbEntity
  8
0
  6
Continuous
 62
     7
100
AcDbLine
 10
833.9799202629402
 20
551.2093432088319
 30
0.0
 11
838.3941308680842
 21
555.6235949645077
 31
0.0
  0
LINE
  5
106C
330
1055
100
AcDbEntity
  8
0
  6
Continuous
 62
     7
100
AcDbLine
 10
828.9798791123937
 20
6.237805569626971
 30
0.0
 11
833.3941308680843
 21
1.823594964490211
 31
0.0
  0
LINE
  5
106D
330
1055
100
AcDbEntity
  8
0
  6
Continuous
 62
     7
100
AcDbLine
 10
838.3941308782414
 20
6.823605523250762
 30
0.0
 11
833.9799205778726
 21
11.23784824161225
 31
0.0
  0
LINE
  5
106E
102
{ACAD_REACTORS
330
10A9
102
}
330
1055
100
AcDbEntity
  8
0
  6
Continuous
 62
     7
100
AcDbLine
 10
786.6215401716507
 20
465.3937524654491
 30
0.0
 11
51.92569205293329
 21
465.3937524654491
 31
0.0
  0
LINE
  5
106F
330
1055
100
AcDbEntity
  8
0
  6
Continuous
 62
     7
100
AcDbLine
 10
4.608342946423363
 20
551.209381400268
 30
0.0
 11
6.022557991967913
 21
551.209381400268
 31
0.0
  0
LINE
  5
1070
330
1055
100
AcDbEntity
  8
0
  6
Continuous
 62
     7
100
AcDbLine
 10
832.5657037415986
 20
551.2093838107273
 30
0.0
 11
833.9799204203917
 21
551.2093838107273
 31
0.0
  0
LINE
  5
1071
330
1055
100
AcDbEntity
  8
0
  6
Continuous
 62
     7
100
AcDbLine
 10
828.9799173038373
 20
554.7951678380293
 30
0.0
 11
9.608346101074856
 21
554.7951678380293
 31
0.0
  0
LINE
  5
1072
330
1055
100
AcDbEntity
  8
0
  6
Continuous
 62
     7
100
AcDbLine
 10
828.9799173063983
 20
556.2093814002535
 30
0.0
 11
9.608341059156373
 21
556.2093811233888
 31
0.0
  0
LINE
  5
1073
102
{ACAD_REACTORS
330
10A3
102
}
330
1055
100
AcDbEntity
  8
0
  6
Continuous
 62
     7
100
AcDbLine
 10
833.3941308680843
 20
560.6235949644857
 30
0.0
 11
5.194130868043429
 21
560.6235949644857
 31
0.0
  0
LINE
  5
1074
102
{ACAD_REACTORS
330
10AC
102
}
330
1055
100
AcDbEntity
  8
0
  6
Continuous
 62
     7
100
AcDbLine
 10
806.594130866466
 20
53.59618565836967
 30
0.0
 11
806.594130866466
 21
445.4211617706266
 31
0.0
  0
LINE
  5
1075
330
1055
100
AcDbEntity
  8
0
  6
Continuous
 62
     7
100
AcDbLine
 10
828.9799173038373
 20
556.2093812605478
 30
0.0
 11
828.9799173038373
 21
554.7951678380293
 31
0.0
  0
LINE
  5
1076
330
1055
100
AcDbEntity
  8
0
  6
Continuous
 62
     7
100
AcDbLine
 10
828.9799197143329
 20
7.652022088407419
 30
0.0
 11
828.9799197143329
 21
6.237805409614111
 31
0.0
  0
LINE
  5
1077
330
1055
100
AcDbEntity
  8
0
  6
Continuous
 62
     7
100
AcDbLine
 10
832.5657037415986
 20
11.23780852616869
 30
0.0
 11
832.5657037415986
 21
551.2093797289442
 31
0.0
  0
LINE
  5
1078
330
1055
100
AcDbEntity
  8
0
  6
Continuous
 62
     7
100
AcDbLine
 10
833.9799202629402
 20
551.2093432088319
 30
0.0
 11
833.9799205778726
 21
11.23784824161225
 31
0.0
  0
LINE
  5
1079
102
{ACAD_REACTORS
330
10A6
102
}
330
1055
100
AcDbEntity
  8
0
  6
Continuous
 62
     7
100
AcDbLine
 10
838.3941308782414
 20
6.823605523250762
 30
0.0
 11
838.3941308680842
 21
555.6235949619756
 31
0.0
  0
ARC
  5
107A
330
1055
100
AcDbEntity
  8
Defpoints
  6
HIDDEN
 62
     7
100
AcDbCircle
 10
401.7755261339516
 20
331.5573299610286
 30
0.0
 40
38.7168237981
100
AcDbArc
 50
160.8881565243125
 51
163.8611028562211
  0
ARC
  5
107B
330
1055
100
AcDbEntity
  8
Defpoints
  6
HIDDEN
 62
     7
100
AcDbCircle
 10
403.9053916760931
 20
315.0206025468676
 30
0.0
 40
38.62670433648
100
AcDbArc
 50
214.5493815838205
 51
217.1858114717044
  0
ARC
  5
107C
330
1055
100
AcDbEntity
  8
Defpoints
  6
HIDDEN
 62
     7
100
AcDbCircle
 10
401.2985182843149
 20
330.37243497751
 30
0.0
 40
38.6088954135
100
AcDbArc
 50
161.9749018112059
 51
164.9300094815129
  0
ARC
  5
107D
330
1055
100
AcDbEntity
  8
Defpoints
  6
HIDDEN
 62
     7
100
AcDbCircle
 10
404.535564896305
 20
313.9141272312506
 30
0.0
 40
38.48070700338
100
AcDbArc
 50
215.3058494971162
 51
217.070656446307
  0
ARC
  5
107E
330
1055
100
AcDbEntity
  8
Defpoints
  6
HIDDEN
 62
     7
100
AcDbCircle
 10
404.2144553911965
 20
313.6321386562948
 30
0.0
 40
38.05452648667999
100
AcDbArc
 50
217.0233316716775
 51
218.1669006605048
  0
CIRCLE
  5
107F
330
1055
100
AcDbEntity
  8
Defpoints
  6
HIDDEN
 62
     7
100
AcDbCircle
 10
419.2941308680783
 20
325.5094213685322
 30
0.0
 40
64.99999999974
  0
ARC
  5
1080
330
1055
100
AcDbEntity
  8
Defpoints
  6
HIDDEN
 62
     7
100
AcDbCircle
 10
419.2941308680783
 20
325.5094213685322
 30
0.0
 40
57.25000000066
100
AcDbArc
 50
218.1864519426103
 51
321.6785472644917
  0
ARC
  5
1081
330
1055
100
AcDbEntity
  8
Defpoints
  6
HIDDEN
 62
     7
100
AcDbCircle
 10
419.2941308680783
 20
325.5094213685322
 30
0.0
 40
57.25000000066
100
AcDbArc
 50
164.9130640682073
 51
214.2804273840388
  0
ARC
  5
1082
330
1055
100
AcDbEntity
  8
Defpoints
  6
HIDDEN
 62
     7
100
AcDbCircle
 10
419.2941308680783
 20
325.5094213685322
 30
0.0
 40
57.25000000066
100
AcDbArc
 50
325.9002049868142
 51
15.00982053630524
  0
ARC
  5
1083
330
1055
100
AcDbEntity
  8
Defpoints
  6
HIDDEN
 62
     7
100
AcDbCircle
 10
419.2941308655463
 20
325.5094213710715
 30
0.0
 40
57.24965318144001
100
AcDbArc
 50
19.15065123170565
 51
160.9094408717754
  0
CIRCLE
  5
1084
330
1055
100
AcDbEntity
  8
Defpoints
  6
HIDDEN
 62
     7
100
AcDbCircle
 10
419.2941308680783
 20
325.5094213685322
 30
0.0
 40
57.00000000028001
  0
CIRCLE
  5
1085
330
1055
100
AcDbEntity
  8
Defpoints
  6
HIDDEN
 62
     7
100
AcDbCircle
 10
419.2941308680783
 20
325.5094213685322
 30
0.0
 40
49.99999999979999
  0
ARC
  5
1086
330
1055
100
AcDbEntity
  8
Defpoints
  6
HIDDEN
 62
     7
100
AcDbCircle
 10
432.9468824195246
 20
316.2447177161109
 30
0.0
 40
40.7505476707
100
AcDbArc
 50
324.5810156485026
 51
325.9248492009823
  0
ARC
  5
1087
330
1055
100
AcDbEntity
  8
Defpoints
  6
HIDDEN
 62
     7
100
AcDbCircle
 10
432.8133293719183
 20
314.8366562091494
 30
0.0
 40
40.02569996367999
100
AcDbArc
 50
321.6647607425833
 51
322.9508769188915
  0
ARC
  5
1088
330
1055
100
AcDbEntity
  8
Defpoints
  6
HIDDEN
 62
     7
100
AcDbCircle
 10
436.8394575756719
 20
330.2380591375502
 30
0.0
 40
39.07866262738
100
AcDbArc
 50
14.97560895160018
 51
18.00816107250476
  0
ARC
  5
1089
330
1055
100
AcDbEntity
  8
Defpoints
  6
HIDDEN
 62
     7
100
AcDbCircle
 10
436.4710057903466
 20
331.4492339288142
 30
0.0
 40
39.07513314497999
100
AcDbArc
 50
16.15186978469044
 51
19.18559114018107
  0
ARC
  5
108A
330
1055
100
AcDbEntity
  8
Defpoints
  6
HIDDEN
 62
     7
100
AcDbCircle
 10
434.7872813218891
 20
314.9323881919289
 30
0.0
 40
38.4901786202
100
AcDbArc
 50
322.8260803081651
 51
324.5852713375205
  0
ARC
  5
108B
330
1055
100
AcDbEntity
  8
Defpoints
  6
HIDDEN
 62
     7
100
AcDbCircle
 10
434.0466545227136
 20
313.9182011499531
 30
0.0
 40
38.48799200532
100
AcDbArc
 50
322.9359289890333
 51
324.6956158917163
  0
CIRCLE
  5
108C
330
1055
100
AcDbEntity
  8
0
  6
Continuous
 62
     7
100
AcDbCircle
 10
749.3941308674147
 20
503.6235949642093
 30
0.0
 40
17.5000000012
  0
CIRCLE
  5
108D
330
1055
100
AcDbEntity
  8
0
  6
Continuous
 62
     7
100
AcDbCircle
 10
419.2941308680783
 20
503.6235949642093
 30
0.0
 40
17.5000000012
  0
SPLINE
  5
108E
330
1055
100
AcDbEntity
  8
0
  6
Continuous
 62
     7
100
AcDbSpline
210
0.0
220
0.0
230
1.0
 70
     8
 71
     3
 72
     9
 73
     5
 74
     0
 42
0.0000001
 43
0.0000000001
 40
0.0
 40
0.0
 40
0.0
 40
0.0
 40
0.4999998147
 40
1.0
 40
1.0
 40
1.0
 40
1.0
 10
833.39413036517
 20
1.823940696590169
 30
0.0
 10
834.6695109843311
 20
1.824833117973638
 30
0.0
 10
837.3258987881163
 20
2.89186113631399
 30
0.0
 10
838.39305191924
 20
5.548224088745654
 30
0.0
 10
838.3939651508445
 20
6.82360563754878
 30
0.0
  0
SPLINE
  5
108F
330
1055
100
AcDbEntity
  8
0
  6
Continuous
 62
     7
100
AcDbSpline
210
0.0
220
0.0
230
1.0
 70
     8
 71
     3
 72
     9
 73
     5
 74
     0
 42
0.0000001
 43
0.0000000001
 40
0.0
 40
0.0
 40
0.0
 40
0.0
 40
0.4999998156000001
 40
1.0
 40
1.0
 40
1.0
 40
1.0
 10
0.194476488399232
 20
6.823595464850541
 30
0.0
 10
0.1953717291798966
 20
5.548214843149935
 30
0.0
 10
1.26239559971509
 20
2.891826996167536
 30
0.0
 10
3.918759992349805
 20
1.824674063168231
 30
0.0
 10
5.194141541116549
 20
1.823760780770271
 30
0.0
  0
SPLINE
  5
1090
330
1055
100
AcDbEntity
  8
0
  6
Continuous
 62
     7
100
AcDbSpline
210
0.0
220
0.0
230
1.0
 70
     8
 71
     3
 72
     9
 73
     5
 74
     0
 42
0.0000001
 43
0.0000000001
 40
0.0
 40
0.0
 40
0.0
 40
0.0
 40
0.4999998147
 40
1.0
 40
1.0
 40
1.0
 40
1.0
 10
5.194131368425586
 20
560.6232492374719
 30
0.0
 10
3.91875074926429
 20
560.6223539712906
 30
0.0
 10
1.262362884506728
 20
559.5553302379292
 30
0.0
 10
0.1952098854562791
 20
556.8989658427697
 30
0.0
 10
0.1942965827511216
 20
555.6235842914271
 30
0.0
  0
SPLINE
  5
1091
330
1055
100
AcDbEntity
  8
0
  6
Continuous
 62
     7
100
AcDbSpline
210
0.0
220
0.0
230
1.0
 70
     8
 71
     3
 72
     9
 73
     5
 74
     0
 42
0.0000001
 43
0.0000000001
 40
0.0
 40
0.0
 40
0.0
 40
0.0
 40
0.4999998155
 40
1.0
 40
1.0
 40
1.0
 40
1.0
 10
838.3937852070992
 20
555.6235944615861
 30
0.0
 10
838.3928927247506
 20
556.8989734576923
 30
0.0
 10
837.3258677493177
 20
559.5553586376651
 30
0.0
 10
834.6695106719016
 20
560.6225111515692
 30
0.0
 10
833.3941307537934
 20
560.6234291583701
 30
0.0
  0
LINE
  5
1092
330
1055
100
AcDbEntity
  8
Defpoints
  6
HIDDEN
 62
     7
100
AcDbLine
 10
371.9889853998065
 20
293.263712933988
 30
0.0
 11
372.0911470192114
 21
293.1149193656917
 31
0.0
  0
SPLINE
  5
1093
330
1055
100
AcDbEntity
  8
0
  6
Continuous
 62
     7
100
AcDbSpline
210
0.0
220
0.0
230
1.0
 70
     8
 71
     3
 72
     9
 73
     5
 74
     0
 42
0.0000001
 43
0.0000000001
 40
0.0
 40
0.0
 40
0.0
 40
0.0
 40
0.4999814234000002
 40
1.0
 40
1.0
 40
1.0
 40
1.0
 10
770.830055044007
 20
67.80490084515145
 30
0.0
 10
771.4990174754383
 20
67.30862856108682
 30
0.0
 10
772.8311651997537
 20
66.30869208243052
 30
0.0
 10
774.2066125911114
 20
65.36521970470744
 30
0.0
 10
774.8565529269726
 20
64.84418458980758
 30
0.0
  0
SPLINE
  5
1094
330
1055
100
AcDbEntity
  8
0
  6
Continuous
 62
     7
100
AcDbSpline
210
0.0
220
0.0
230
1.0
 70
     8
 71
     3
 72
     9
 73
     5
 74
     0
 42
0.0000001
 43
0.0000000001
 40
0.0
 40
0.0
 40
0.0
 40
0.0
 40
0.4999647666
 40
1.0
 40
1.0
 40
1.0
 40
1.0
 10
833.9799058153912
 20
11.23780852616869
 30
0.0
 10
833.8024494012097
 20
10.01092616155324
 30
0.0
 10
832.5877485235432
 20
7.63020677009149
 30
0.0
 10
830.2069944102585
 20
6.415144010987887
 30
0.0
 10
828.9799197143329
 20
6.237796829484749
 30
0.0
  0
SPLINE
  5
1095
330
1055
100
AcDbEntity
  8
0
  6
Continuous
 62
     7
100
AcDbSpline
210
0.0
220
0.0
230
1.0
 70
     8
 71
     3
 72
     9
 73
     5
 74
     0
 42
0.0000001
 43
0.0000000001
 40
0.0
 40
0.0
 40
0.0
 40
0.0
 40
0.500010346
 40
1.0
 40
1.0
 40
1.0
 40
1.0
 10
9.608344429758288
 20
7.652027529092038
 30
0.0
 10
8.699742030559717
 20
7.652220551312665
 30
0.0
 10
6.854928968856255
 20
8.484396656832132
 30
0.0
 10
6.022629505667282
 20
10.32924538012844
 30
0.0
 10
6.022524349686135
 20
11.23781019494595
 30
0.0
  0
SPLINE
  5
1096
330
1055
100
AcDbEntity
  8
0
  6
Continuous
 62
     7
100
AcDbSpline
210
0.0
220
0.0
230
1.0
 70
     8
 71
     3
 72
     9
 73
     5
 74
     0
 42
0.0000001
 43
0.0000000001
 40
0.0
 40
0.0
 40
0.0
 40
0.0
 40
0.500010346
 40
1.0
 40
1.0
 40
1.0
 40
1.0
 10
6.022563432667083
 20
551.209381400268
 30
0.0
 10
6.022756454887713
 20
552.1179837994666
 30
0.0
 10
6.854932560414453
 20
553.9627968637094
 30
0.0
 10
8.699781283710763
 20
554.7950963268691
 30
0.0
 10
9.608346098542824
 20
554.7952014828648
 30
0.0
  0
SPLINE
  5
1097
330
1055
100
AcDbEntity
  8
0
  6
Continuous
 62
     7
100
AcDbSpline
210
0.0
220
0.0
230
1.0
 70
     8
 71
     3
 72
     9
 73
     5
 74
     0
 42
0.0000001
 43
0.0000000001
 40
0.0
 40
0.0
 40
0.0
 40
0.0
 40
0.500010346
 40
1.0
 40
1.0
 40
1.0
 40
1.0
 10
828.9799173038373
 20
554.7951623973447
 30
0.0
 10
829.8885197030648
 20
554.7949693776707
 30
0.0
 10
831.7333327672711
 20
553.9627932670653
 30
0.0
 10
832.5656322304311
 20
552.1179445463083
 30
0.0
 10
832.5657373864412
 20
551.2093797314908
 30
0.0
  0
SPLINE
  5
1098
330
1055
100
AcDbEntity
  8
0
  6
Continuous
 62
     7
100
AcDbSpline
210
0.0
220
0.0
230
1.0
 70
     8
 71
     3
 72
     9
 73
     5
 74
     0
 42
0.0000001
 43
0.0000000001
 40
0.0
 40
0.0
 40
0.0
 40
0.0
 40
0.5000103461
 40
1.0
 40
1.0
 40
1.0
 40
1.0
 10
832.5656983009285
 20
11.23780852616869
 30
0.0
 10
832.5655052812399
 20
10.32920612697012
 30
0.0
 10
831.7333291706491
 20
8.484393065266656
 30
0.0
 10
829.8884804499138
 20
7.652093599574754
 30
0.0
 10
828.9799156350817
 20
7.651988443571781
 30
0.0
  0
SPLINE
  5
1099
330
1055
100
AcDbEntity
  8
0
  6
Continuous
 62
     7
100
AcDbSpline
210
0.0
220
0.0
230
1.0
 70
     8
 71
     3
 72
     9
 73
     5
 74
     0
 42
0.0000001
 43
0.0000000001
 40
0.0
 40
0.0
 40
0.0
 40
0.0
 40
0.4999646133
 40
1.0
 40
1.0
 40
1.0
 40
1.0
 10
9.608344429758288
 20
6.237820017146758
 30
0.0
 10
8.381462664579885
 20
6.415278544630155
 30
0.0
 10
6.000746156005333
 20
7.629977179489968
 30
0.0
 10
4.785673290232806
 20
10.01073021324805
 30
0.0
 10
4.608331181141693
 20
11.23780611570942
 30
0.0
  0
SPLINE
  5
109A
330
1055
100
AcDbEntity
  8
0
  6
Continuous
 62
     7
100
AcDbSpline
210
0.0
220
0.0
230
1.0
 70
     8
 71
     3
 72
     9
 73
     5
 74
     0
 42
0.0000001
 43
0.0000000001
 40
0.0
 40
0.0
 40
0.0
 40
0.0
 40
0.4999646141
 40
1.0
 40
1.0
 40
1.0
 40
1.0
 10
4.608356588727473
 20
551.209381400268
 30
0.0
 10
4.78581459552879
 20
552.4362631425925
 30
0.0
 10
6.000513004317326
 20
554.8169797298931
 30
0.0
 10
8.381266132058954
 20
556.0320525016675
 30
0.0
 10
9.60834201929174
 20
556.2093940088113
 30
0.0
  0
SPLINE
  5
109B
330
1055
100
AcDbEntity
  8
0
  6
Continuous
 62
     7
100
AcDbSpline
210
0.0
220
0.0
230
1.0
 70
     8
 71
     3
 72
     9
 73
     5
 74
     0
 42
0.0000001
 43
0.0000000001
 40
0.0
 40
0.0
 40
0.0
 40
0.0
 40
0.4999791556
 40
1.0
 40
1.0
 40
1.0
 40
1.0
 10
70.84444162203363
 20
432.6141234325139
 30
0.0
 10
70.20892720343907
 20
432.8141666265317
 30
0.0
 10
68.93967308715582
 20
433.2193127860106
 30
0.0
 10
67.65317720448729
 20
433.5725063900123
 30
0.0
 10
67.0252939415841
 20
433.7955142142551
 30
0.0
  0
SPLINE
  5
109C
330
1055
100
AcDbEntity
  8
0
  6
Continuous
 62
     7
100
AcDbSpline
210
0.0
220
0.0
230
1.0
 70
     8
 71
     3
 72
     9
 73
     5
 74
     0
 42
0.0000001
 43
0.0000000001
 40
0.0
 40
0.0
 40
0.0
 40
0.0
 40
0.4999647517000002
 40
1.0
 40
1.0
 40
1.0
 40
1.0
 10
828.9799173038373
 20
556.2093705747709
 30
0.0
 10
830.2068010299153
 20
556.0319230277116
 30
0.0
 10
832.5875175003929
 20
554.8172087134323
 30
0.0
 10
833.8025847451097
 20
552.4364590807261
 30
0.0
 10
833.9799290030532
 20
551.2093838107273
 30
0.0
  0
ELLIPSE
  5
109D
330
1055
100
AcDbEntity
  8
0
  6
Continuous
 62
     7
100
AcDbEllipse
 10
51.98054827802479
 20
53.65104188343207
 30
0.0
 11
14.18092486898
 21
14.18092486898
 31
0.0
210
0.0
220
0.0
230
1.0
 40
0.9972646885999997
 41
2.3575640181
 42
3.9256212891
  0
ELLIPSE
  5
109E
330
1055
100
AcDbEntity
  8
0
  6
Continuous
 62
     7
100
AcDbEllipse
 10
786.5666839465884
 20
53.65104188343207
 30
0.0
 11
-14.18092486898
 21
14.18092486898
 31
0.0
210
0.0
220
0.0
230
1.0
 40
0.9972646885999997
 41
2.3575640181
 42
3.9256212891
  0
ELLIPSE
  5
109F
330
1055
100
AcDbEntity
  8
0
  6
Continuous
 62
     7
100
AcDbEllipse
 10
786.5666839465884
 20
445.3663055455715
 30
0.0
 11
-14.18092486898
 21
-14.18092486898
 31
0.0
210
0.0
220
0.0
230
1.0
 40
0.9972646885999997
 41
2.3575640181
 42
3.9256212891
  0
ELLIPSE
  5
10A0
330
1055
100
AcDbEntity
  8
0
  6
Continuous
 62
     7
100
AcDbEllipse
 10
51.98054827802479
 20
445.3663055455715
 30
0.0
 11
14.18092486898
 21
-14.18092486898
 31
0.0
210
0.0
220
0.0
230
1.0
 40
0.9972646885999997
 41
2.3575640181
 42
3.9256212891
  0
DIMENSION
  5
10A1
102
{ACAD_XDICTIONARY
360
10A2
102
}
102
{ACAD_REACTORS
330
10A3
102
}
330
1055
100
AcDbEntity
  8
dimensions
  6
HIDDEN
100
AcDbDimension
280
     0
  2
*D6
 10
944.5487450445233
 20
0.0131332067460335
 30
0.0
 11
945.3571714269212
 21
279.4354847424752
 31
0.0
 12
-4650.717749563201
 22
-1603.642447047493
 32
0.0
 70
     1
 71
     5
 42
558.8308449383033
 73
     0
 74
     0
 75
     0
  3
ISO-25
100
AcDbAlignedDimension
 13
778.1124655355132
 23
560.6235949644857
 33
0.0
 14
772.2410727173874
 24
1.823594963740105
 34
0.0
  0
DIMENSION
  5
10A4
102
{ACAD_XDICTIONARY
360
10A5
102
}
102
{ACAD_REACTORS
330
10A6
102
}
330
1055
100
AcDbEntity
  8
dimensions
100
AcDbDimension
280
     0
  2
*D7
 10
838.2065686567306
 20
587.349382003321
 30
0.0
 11
426.0426384353652
 21
585.1834647250158
 31
0.0
 12
-4650.717749563201
 22
-1603.642447047493
 32
0.0
 70
   129
 71
     5
 42
838.2115733425488
 73
     0
 74
     0
 75
     0
  3
ISO-25
100
AcDbAlignedDimension
 13
0.1941308580702313
 23
547.2524377012066
 33
0.0
 14
838.3941308681581
 24
551.657170210726
 34
0.0
  0
DIMENSION
  5
10A7
102
{ACAD_XDICTIONARY
360
10A8
102
}
102
{ACAD_REACTORS
330
10A9
102
}
330
1055
100
AcDbEntity
  8
dimensions
100
AcDbDimension
280
     0
  2
*D8
 10
410.1927193897791
 20
33.62359496355543
 30
0.0
 11
408.0653319409375
 21
249.5086737145011
 31
0.0
 12
-4650.717749563201
 22
-1603.642447047493
 32
0.0
 71
     5
 42
431.7701575018948
 73
     0
 74
     0
 75
     0
  3
ISO-25
100
AcDbAlignedDimension
 13
421.6520057132038
 23
465.3937524654491
 33
0.0
 14
421.6520057132038
 24
33.62359496355452
 34
0.0
 50
90.0
100
AcDbRotatedDimension
  0
DIMENSION
  5
10AA
102
{ACAD_XDICTIONARY
360
10AB
102
}
102
{ACAD_REACTORS
330
10AC
102
}
330
1055
100
AcDbEntity
  8
dimensions
100
AcDbDimension
280
     0
  2
*D9
 10
806.594130866466
 20
253.9107850617245
 30
0.0
 11
419.2736161122921
 21
256.0381725105649
 31
0.0
 12
-4650.717749563201
 22
-1603.642447047493
 32
0.0
 71
     5
 42
774.6410295083477
 73
     0
 74
     0
 75
     0
  3
ISO-25
100
AcDbAlignedDimension
 13
31.95310135811815
 23
249.5086737144982
 33
0.0
 14
806.594130866466
 24
249.5086737144982
 34
0.0
100
AcDbRotatedDimension
  0
ENDBLK
  5
10B0
330
1055
100
AcDbEntity
  8
0
100
AcDbBlockEnd
  0
BLOCK
  5
1204
330
11B6
100
AcDbEntity
  8
0
100
AcDbBlockBegin
  2
A$C0a45fdb4
 70
     0
 10
0.0
 20
0.0
 30
0.0
  3
A$C0a45fdb4
  1

  0
LINE
  5
11B7
330
11B6
100
AcDbEntity
  8
0
  6
Continuous
 62
     7
100
AcDbLine
 10
0.0
 20
276.8999947256962
 30
0.0
 11
0.0000000050786184
 21
2.500000005067704
 31
0.0
  0
LINE
  5
11B8
330
11B6
100
AcDbEntity
  8
0
  6
Continuous
 62
     7
100
AcDbLine
 10
2.207106604313594
 20
4.707105100627813
 30
0.0
 11
2.207105484179919
 21
274.6928733652494
 31
0.0
  0
LINE
  5
11B9
330
11B6
100
AcDbEntity
  8
0
  6
Continuous
 62
     7
100
AcDbLine
 10
2.914213567026308
 20
274.6928932229675
 30
0.0
 11
2.914213567026308
 21
4.70710762157978
 31
0.0
  0
LINE
  5
11BA
330
11B6
100
AcDbEntity
  8
0
  6
Continuous
 62
     7
100
AcDbLine
 10
4.707106785921496
 20
2.207105227640568
 30
0.0
 11
4.707106785921496
 21
2.914213567037221
 31
0.0
  0
LINE
  5
11BB
330
11B6
100
AcDbEntity
  8
0
  6
Continuous
 62
     7
100
AcDbLine
 10
4.707105581954238
 20
276.4857864418482
 30
0.0
 11
4.707105581954238
 21
277.1928931531074
 31
0.0
  0
LINE
  5
11BC
330
11B6
100
AcDbEntity
  8
0
  6
Continuous
 62
     7
100
AcDbLine
 10
15.87948525010142
 20
25.88629535201835
 30
0.0
 11
15.87948525010142
 21
221.7987834081469
 31
0.0
  0
LINE
  5
11BD
330
11B6
100
AcDbEntity
  8
0
  6
Continuous
 62
     7
100
AcDbLine
 10
2.500005284455255
 20
0.0
 30
0.0
 11
416.6000000038184
 21
0.0000000050786184
 31
0.0
  0
LINE
  5
11BE
330
11B6
100
AcDbEntity
  8
0
  6
Continuous
 62
     7
100
AcDbLine
 10
414.3928741272392
 20
2.207105307646997
 30
0.0
 11
4.707126644905655
 21
2.207105148900154
 31
0.0
  0
LINE
  5
11BF
330
11B6
100
AcDbEntity
  8
0
  6
Continuous
 62
     7
100
AcDbLine
 10
4.707106785921496
 20
2.914213567037221
 30
0.0
 11
414.3928923873026
 21
2.914213567037221
 31
0.0
  0
LINE
  5
11C0
330
11B6
100
AcDbEntity
  8
0
  6
Continuous
 62
     7
100
AcDbLine
 10
416.8928947812381
 20
4.707106785917858
 30
0.0
 11
416.1857864418417
 21
4.707106785917858
 31
0.0
  0
LINE
  5
11C1
330
11B6
100
AcDbEntity
  8
0
  6
Continuous
 62
     7
100
AcDbLine
 10
2.914213567026308
 20
4.707105581957875
 30
0.0
 11
2.207106044254031
 21
4.707105581957875
 31
0.0
  0
LINE
  5
11C2
330
11B6
100
AcDbEntity
  8
0
  6
Continuous
 62
     7
100
AcDbLine
 10
25.865780597509
 20
15.90000000461077
 30
0.0
 11
393.2137046568678
 21
15.90000000461077
 31
0.0
  0
LINE
  5
11C3
330
11B6
100
AcDbEntity
  8
0
  6
Continuous
 62
     7
100
AcDbLine
 10
2.207106604313594
 20
4.707105100627813
 30
0.0
 11
0.0000000050786184
 21
2.500000005067704
 31
0.0
  0
LINE
  5
11C4
330
11B6
100
AcDbEntity
  8
0
  6
Continuous
 62
     7
100
AcDbLine
 10
0.0
 20
276.8999947256962
 30
0.0
 11
2.207105484179919
 21
274.6928733652494
 31
0.0
  0
LINE
  5
11C5
330
11B6
100
AcDbEntity
  8
0
  6
Continuous
 62
     7
100
AcDbLine
 10
2.500005284455255
 20
0.0
 30
0.0
 11
4.707126644905655
 21
2.207105148900154
 31
0.0
  0
LINE
  5
11C6
330
11B6
100
AcDbEntity
  8
0
  6
Continuous
 62
     7
100
AcDbLine
 10
4.707105100620537
 20
277.1928930845279
 30
0.0
 11
2.500000005064066
 21
279.4000000050764
 31
0.0
  0
LINE
  5
11C7
330
11B6
100
AcDbEntity
  8
Defpoints
  6
HIDDEN
 62
     7
100
AcDbLine
 10
31.76668118710222
 20
31.53799078978045
 30
0.0
 11
186.4686838640191
 21
144.9256204885387
 31
0.0
  0
LINE
  5
11C8
330
11B6
100
AcDbEntity
  8
Defpoints
  6
HIDDEN
 62
     7
100
AcDbLine
 10
236.9050935828127
 20
170.2479506032396
 30
0.0
 11
385.6832518971352
 21
215.9609924319884
 31
0.0
  0
LINE
  5
11C9
330
11B6
100
AcDbEntity
  8
Defpoints
  6
HIDDEN
 62
     7
100
AcDbLine
 10
232.6312630550528
 20
144.9256594013386
 30
0.0
 11
385.3179981242138
 21
32.99099546567595
 31
0.0
  0
LINE
  5
11CA
330
11B6
100
AcDbEntity
  8
Defpoints
  6
HIDDEN
 62
     7
100
AcDbLine
 10
35.32408416118415
 20
215.3919491034794
 30
0.0
 11
182.1948970039375
 21
170.2479534988379
 31
0.0
  0
LINE
  5
11CB
330
11B6
100
AcDbEntity
  8
0
  6
Continuous
 62
     7
100
AcDbLine
 10
416.6000000050844
 20
279.4000000050764
 30
0.0
 11
414.3928932242415
 21
277.1928932229603
 31
0.0
  0
LINE
  5
11CC
330
11B6
100
AcDbEntity
  8
0
  6
Continuous
 62
     7
100
AcDbLine
 10
416.8928947025123
 20
274.6928741272494
 30
0.0
 11
419.1000000050843
 21
276.9000000050874
 31
0.0
  0
LINE
  5
11CD
330
11B6
100
AcDbEntity
  8
0
  6
Continuous
 62
     7
100
AcDbLine
 10
414.3928741272392
 20
2.207105307646997
 30
0.0
 11
416.6000000050844
 21
0.0000000050786184
 31
0.0
  0
LINE
  5
11CE
330
11B6
100
AcDbEntity
  8
0
  6
Continuous
 62
     7
100
AcDbLine
 10
419.1000000101629
 20
2.500005284458893
 30
0.0
 11
416.8928948599787
 21
4.707126643639638
 31
0.0
  0
LINE
  5
11CF
330
11B6
100
AcDbEntity
  8
0
  6
Continuous
 62
     7
100
AcDbLine
 10
393.2137046568678
 20
231.7850787555581
 30
0.0
 11
25.865780597509
 21
231.7850787555581
 31
0.0
  0
LINE
  5
11D0
330
11B6
100
AcDbEntity
  8
0
  6
Continuous
 62
     7
100
AcDbLine
 10
2.207106044254031
 20
274.6928932229675
 30
0.0
 11
2.914213567026308
 21
274.6928932229675
 31
0.0
  0
LINE
  5
11D1
330
11B6
100
AcDbEntity
  8
0
  6
Continuous
 62
     7
100
AcDbLine
 10
416.1857864418417
 20
274.6928944281972
 30
0.0
 11
416.8928947812381
 21
274.6928944281972
 31
0.0
  0
LINE
  5
11D2
330
11B6
100
AcDbEntity
  8
0
  6
Continuous
 62
     7
100
AcDbLine
 10
414.3928932229608
 20
276.4857864418482
 30
0.0
 11
4.70710762157978
 21
276.4857864418482
 31
0.0
  0
LINE
  5
11D3
330
11B6
100
AcDbEntity
  8
0
  6
Continuous
 62
     7
100
AcDbLine
 10
414.3928932242415
 20
277.1928932229603
 30
0.0
 11
4.707105100620537
 21
277.1928930845279
 31
0.0
  0
LINE
  5
11D4
330
11B6
100
AcDbEntity
  8
0
  6
Continuous
 62
     7
100
AcDbLine
 10
416.6000000050844
 20
279.4000000050764
 30
0.0
 11
2.500000005064066
 21
279.4000000050764
 31
0.0
  0
LINE
  5
11D5
330
11B6
100
AcDbEntity
  8
0
  6
Continuous
 62
     7
100
AcDbLine
 10
403.2000000042753
 20
25.88629535201835
 30
0.0
 11
403.2000000042753
 21
221.7987834081469
 31
0.0
  0
LINE
  5
11D6
330
11B6
100
AcDbEntity
  8
0
  6
Continuous
 62
     7
100
AcDbLine
 10
414.3928932229608
 20
277.1928931531074
 30
0.0
 11
414.3928932229608
 21
276.4857864418482
 31
0.0
  0
LINE
  5
11D7
330
11B6
100
AcDbEntity
  8
0
  6
Continuous
 62
     7
100
AcDbLine
 10
414.3928944282087
 20
2.914213567037221
 30
0.0
 11
414.3928944282087
 21
2.207105227640568
 31
0.0
  0
LINE
  5
11D8
330
11B6
100
AcDbEntity
  8
0
  6
Continuous
 62
     7
100
AcDbLine
 10
416.1857864418417
 20
4.707106785917858
 30
0.0
 11
416.1857864418417
 21
274.6928923873056
 31
0.0
  0
LINE
  5
11D9
330
11B6
100
AcDbEntity
  8
0
  6
Continuous
 62
     7
100
AcDbLine
 10
416.8928947025123
 20
274.6928741272494
 30
0.0
 11
416.8928948599787
 21
4.707126643639638
 31
0.0
  0
LINE
  5
11DA
330
11B6
100
AcDbEntity
  8
0
  6
Continuous
 62
     7
100
AcDbLine
 10
419.1000000101629
 20
2.500005284458893
 30
0.0
 11
419.1000000050843
 21
276.9000000038214
 31
0.0
  0
ARC
  5
11DB
330
11B6
100
AcDbEntity
  8
Defpoints
  6
HIDDEN
 62
     7
100
AcDbCircle
 10
200.7906976380182
 20
164.8668675033477
 30
0.0
 40
19.35841189905
100
AcDbArc
 50
160.8881565243002
 51
163.8611028562211
  0
ARC
  5
11DC
330
11B6
100
AcDbEntity
  8
Defpoints
  6
HIDDEN
 62
     7
100
AcDbCircle
 10
201.8556304090889
 20
156.5985037962673
 30
0.0
 40
19.31335216824
100
AcDbArc
 50
214.5493815838098
 51
217.1858114717044
  0
ARC
  5
11DD
330
11B6
100
AcDbEntity
  8
Defpoints
  6
HIDDEN
 62
     7
100
AcDbCircle
 10
200.5521937131998
 20
164.2744200115885
 30
0.0
 40
19.30444770675
100
AcDbArc
 50
161.9749018112059
 51
164.9300094815255
  0
ARC
  5
11DE
330
11B6
100
AcDbEntity
  8
Defpoints
  6
HIDDEN
 62
     7
100
AcDbCircle
 10
202.1707170191949
 20
156.0452661384588
 30
0.0
 40
19.24035350169
100
AcDbArc
 50
215.3058494971215
 51
217.0706564463122
  0
ARC
  5
11DF
330
11B6
100
AcDbEntity
  8
Defpoints
  6
HIDDEN
 62
     7
100
AcDbCircle
 10
202.0101622666407
 20
155.9042718509808
 30
0.0
 40
19.02726324333999
100
AcDbArc
 50
217.0233316716775
 51
218.1669006605099
  0
CIRCLE
  5
11E0
330
11B6
100
AcDbEntity
  8
Defpoints
  6
HIDDEN
 62
     7
100
AcDbCircle
 10
209.5500000050815
 20
161.8429132070996
 30
0.0
 40
32.49999999987
  0
ARC
  5
11E1
330
11B6
100
AcDbEntity
  8
Defpoints
  6
HIDDEN
 62
     7
100
AcDbCircle
 10
209.5500000050815
 20
161.8429132070996
 30
0.0
 40
28.62500000033
100
AcDbArc
 50
218.1864519426103
 51
321.6785472644969
  0
ARC
  5
11E2
330
11B6
100
AcDbEntity
  8
Defpoints
  6
HIDDEN
 62
     7
100
AcDbCircle
 10
209.5500000050815
 20
161.8429132070996
 30
0.0
 40
28.62500000033
100
AcDbArc
 50
164.9130640682073
 51
214.2804273840388
  0
ARC
  5
11E3
330
11B6
100
AcDbEntity
  8
Defpoints
  6
HIDDEN
 62
     7
100
AcDbCircle
 10
209.5500000050815
 20
161.8429132070996
 30
0.0
 40
28.62500000033
100
AcDbArc
 50
325.9002049868196
 51
15.00982053629895
  0
ARC
  5
11E4
330
11B6
100
AcDbEntity
  8
Defpoints
  6
HIDDEN
 62
     7
100
AcDbCircle
 10
209.5500000038155
 20
161.8429132083693
 30
0.0
 40
28.62482659072
100
AcDbArc
 50
19.15065123170565
 51
160.9094408717631
  0
CIRCLE
  5
11E5
330
11B6
100
AcDbEntity
  8
Defpoints
  6
HIDDEN
 62
     7
100
AcDbCircle
 10
209.5500000050815
 20
161.8429132070996
 30
0.0
 40
28.50000000014001
  0
CIRCLE
  5
11E6
330
11B6
100
AcDbEntity
  8
Defpoints
  6
HIDDEN
 62
     7
100
AcDbCircle
 10
209.5500000050815
 20
161.8429132070996
 30
0.0
 40
24.9999999999
  0
ARC
  5
11E7
330
11B6
100
AcDbEntity
  8
Defpoints
  6
HIDDEN
 62
     7
100
AcDbCircle
 10
216.3763757808047
 20
157.210561380889
 30
0.0
 40
20.37527383535
100
AcDbArc
 50
324.5810156485132
 51
325.9248492009717
  0
ARC
  5
11E8
330
11B6
100
AcDbEntity
  8
Defpoints
  6
HIDDEN
 62
     7
100
AcDbCircle
 10
216.3095992570015
 20
156.5065306274082
 30
0.0
 40
20.01284998184
100
AcDbArc
 50
321.6647607425833
 51
322.9508769188863
  0
ARC
  5
11E9
330
11B6
100
AcDbEntity
  8
Defpoints
  6
HIDDEN
 62
     7
100
AcDbCircle
 10
218.3226633588783
 20
164.2072320916086
 30
0.0
 40
19.53933131369
100
AcDbArc
 50
14.97560895161905
 51
18.00816107250476
  0
ARC
  5
11EA
330
11B6
100
AcDbEntity
  8
Defpoints
  6
HIDDEN
 62
     7
100
AcDbCircle
 10
218.1384374662157
 20
164.8128194872406
 30
0.0
 40
19.53756657249
100
AcDbArc
 50
16.15186978469044
 51
19.18559114018107
  0
ARC
  5
11EB
330
11B6
100
AcDbEntity
  8
Defpoints
  6
HIDDEN
 62
     7
100
AcDbCircle
 10
217.2965752319869
 20
156.5543966187979
 30
0.0
 40
19.2450893101
100
AcDbArc
 50
322.8260803081651
 51
324.5852713375205
  0
ARC
  5
11EC
330
11B6
100
AcDbEntity
  8
Defpoints
  6
HIDDEN
 62
     7
100
AcDbCircle
 10
216.9262618323992
 20
156.04730309781
 30
0.0
 40
19.24399600266
100
AcDbArc
 50
322.9359289890386
 51
324.695615891711
  0
CIRCLE
  5
11ED
330
11B6
100
AcDbEntity
  8
0
  6
Continuous
 62
     7
100
AcDbCircle
 10
374.6000000047498
 20
250.9000000049382
 30
0.0
 40
8.7500000006
  0
CIRCLE
  5
11EE
330
11B6
100
AcDbEntity
  8
0
  6
Continuous
 62
     7
100
AcDbCircle
 10
209.5500000050815
 20
250.9000000049382
 30
0.0
 40
8.7500000006
  0
SPLINE
  5
11EF
330
11B6
100
AcDbEntity
  8
0
  6
Continuous
 62
     7
100
AcDbSpline
210
0.0
220
0.0
230
1.0
 70
     8
 71
     3
 72
     9
 73
     5
 74
     0
 42
0.0000001
 43
0.0000000001
 40
0.0
 40
0.0
 40
0.0
 40
0.0
 40
0.4999998147
 40
1.0
 40
1.0
 40
1.0
 40
1.0
 10
416.5999997536273
 20
0.0001728711285978
 30
0.0
 10
417.2376900632078
 20
0.0006190818203322
 30
0.0
 10
418.5658839651003
 20
0.5341330909905082
 30
0.0
 10
419.0994605306623
 20
1.86231456720634
 30
0.0
 10
419.0999171464644
 20
2.500005341607901
 30
0.0
  0
SPLINE
  5
11F0
330
11B6
100
AcDbEntity
  8
0
  6
Continuous
 62
     7
100
AcDbSpline
210
0.0
220
0.0
230
1.0
 70
     8
 71
     3
 72
     9
 73
     5
 74
     0
 42
0.0000001
 43
0.0000000001
 40
0.0
 40
0.0
 40
0.0
 40
0.0
 40
0.4999998156000001
 40
1.0
 40
1.0
 40
1.0
 40
1.0
 10
0.0001728152419673
 20
2.500000255258781
 30
0.0
 10
0.0006204356322996
 20
1.862309944408479
 30
0.0
 10
0.5341323708998971
 20
0.5341160209172813
 30
0.0
 10
1.862314567217254
 20
0.0005395544176281
 30
0.0
 10
2.500005341600626
 20
0.0000829132186482
 30
0.0
  0
SPLINE
  5
11F1
330
11B6
100
AcDbEntity
  8
0
  6
Continuous
 62
     7
100
AcDbSpline
210
0.0
220
0.0
230
1.0
 70
     8
 71
     3
 72
     9
 73
     5
 74
     0
 42
0.0000001
 43
0.0000000001
 40
0.0
 40
0.0
 40
0.0
 40
0.0
 40
0.4999998147
 40
1.0
 40
1.0
 40
1.0
 40
1.0
 10
2.500000255255145
 20
279.3998271415694
 30
0.0
 10
1.862309945674495
 20
279.3993795084789
 30
0.0
 10
0.5341160132957157
 20
278.8658676417981
 30
0.0
 10
0.0005395137704909
 20
277.5376854442184
 30
0.0
 10
0.0000828624179121
 20
276.8999946685472
 30
0.0
  0
SPLINE
  5
11F2
330
11B6
100
AcDbEntity
  8
0
  6
Continuous
 62
     7
100
AcDbSpline
210
0.0
220
0.0
230
1.0
 70
     8
 71
     3
 72
     9
 73
     5
 74
     0
 42
0.0000001
 43
0.0000000001
 40
0.0
 40
0.0
 40
0.0
 40
0.0
 40
0.4999998155
 40
1.0
 40
1.0
 40
1.0
 40
1.0
 10
419.099827174592
 20
276.8999997536266
 30
0.0
 10
419.0993809334176
 20
277.5376892516797
 30
0.0
 10
418.5658684457012
 20
278.8658818416661
 30
0.0
 10
417.2376899069932
 20
279.3994580986182
 30
0.0
 10
416.5999999479391
 20
279.3999171020187
 30
0.0
  0
LINE
  5
11F3
330
11B6
100
AcDbEntity
  8
Defpoints
  6
HIDDEN
 62
     7
100
AcDbLine
 10
185.8974272709456
 20
145.7200589898275
 30
0.0
 11
185.948508080648
 21
145.6456622056794
 31
0.0
  0
SPLINE
  5
11F4
330
11B6
100
AcDbEntity
  8
0
  6
Continuous
 62
     7
100
AcDbSpline
210
0.0
220
0.0
230
1.0
 70
     8
 71
     3
 72
     9
 73
     5
 74
     0
 42
0.0000001
 43
0.0000000001
 40
0.0
 40
0.0
 40
0.0
 40
0.0
 40
0.4999814234000002
 40
1.0
 40
1.0
 40
1.0
 40
1.0
 10
385.3179620930459
 20
32.99065294540924
 30
0.0
 10
385.6524433087616
 20
32.74251680337693
 30
0.0
 10
386.3185171709192
 20
32.24254856404878
 30
0.0
 10
387.0062408665981
 20
31.77081237518724
 30
0.0
 10
387.3312110345287
 20
31.5102948177373
 30
0.0
  0
SPLINE
  5
11F5
330
11B6
100
AcDbEntity
  8
0
  6
Continuous
 62
     7
100
AcDbSpline
210
0.0
220
0.0
230
1.0
 70
     8
 71
     3
 72
     9
 73
     5
 74
     0
 42
0.0000001
 43
0.0000000001
 40
0.0
 40
0.0
 40
0.0
 40
0.0
 40
0.4999647666
 40
1.0
 40
1.0
 40
1.0
 40
1.0
 10
416.8928874787378
 20
4.707106785917858
 30
0.0
 10
416.8041592716472
 20
4.093665603610133
 30
0.0
 10
416.196808832814
 20
2.903305907879256
 30
0.0
 10
415.0064317761716
 20
2.295774528327456
 30
0.0
 10
414.3928944282087
 20
2.207100937575886
 30
0.0
  0
SPLINE
  5
11F6
330
11B6
100
AcDbEntity
  8
0
  6
Continuous
 62
     7
100
AcDbSpline
210
0.0
220
0.0
230
1.0
 70
     8
 71
     3
 72
     9
 73
     5
 74
     0
 42
0.0000001
 43
0.0000000001
 40
0.0
 40
0.0
 40
0.0
 40
0.0
 40
0.500010346
 40
1.0
 40
1.0
 40
1.0
 40
1.0
 10
4.707106785921496
 20
2.914216287379531
 30
0.0
 10
4.252805586322209
 20
2.914312798489845
 30
0.0
 10
3.330399055470478
 20
3.330400851249577
 30
0.0
 10
2.914249323875991
 20
4.252825212897731
 30
0.0
 10
2.914196745885418
 20
4.707107620306486
 30
0.0
  0
SPLINE
  5
11F7
330
11B6
100
AcDbEntity
  8
0
  6
Continuous
 62
     7
100
AcDbSpline
210
0.0
220
0.0
230
1.0
 70
     8
 71
     3
 72
     9
 73
     5
 74
     0
 42
0.0000001
 43
0.0000000001
 40
0.0
 40
0.0
 40
0.0
 40
0.0
 40
0.500010346
 40
1.0
 40
1.0
 40
1.0
 40
1.0
 10
2.914216287375893
 20
274.6928932229675
 30
0.0
 10
2.914312798486207
 20
275.1471944225668
 30
0.0
 10
3.330400851249577
 20
276.0696009546882
 30
0.0
 10
4.252825212897731
 20
276.4857506862682
 30
0.0
 10
4.707107620313762
 20
276.485803264266
 30
0.0
  0
SPLINE
  5
11F8
330
11B6
100
AcDbEntity
  8
0
  6
Continuous
 62
     7
100
AcDbSpline
210
0.0
220
0.0
230
1.0
 70
     8
 71
     3
 72
     9
 73
     5
 74
     0
 42
0.0000001
 43
0.0000000001
 40
0.0
 40
0.0
 40
0.0
 40
0.0
 40
0.500010346
 40
1.0
 40
1.0
 40
1.0
 40
1.0
 10
414.3928932229608
 20
276.4857837215059
 30
0.0
 10
414.8471944225748
 20
276.4856872116689
 30
0.0
 10
415.7696009546779
 20
276.0695991563661
 30
0.0
 10
416.1857506862578
 20
275.1471747959877
 30
0.0
 10
416.1858032642631
 20
274.6928923885789
 30
0.0
  0
SPLINE
  5
11F9
330
11B6
100
AcDbEntity
  8
0
  6
Continuous
 62
     7
100
AcDbSpline
210
0.0
220
0.0
230
1.0
 70
     8
 71
     3
 72
     9
 73
     5
 74
     0
 42
0.0000001
 43
0.0000000001
 40
0.0
 40
0.0
 40
0.0
 40
0.0
 40
0.5000103461
 40
1.0
 40
1.0
 40
1.0
 40
1.0
 10
416.1857837215064
 20
4.707106785917858
 30
0.0
 10
416.1856872116622
 20
4.252805586318571
 30
0.0
 10
415.7695991563667
 20
3.330399055466841
 30
0.0
 10
414.8471747959993
 20
2.914249322620888
 30
0.0
 10
414.3928923885832
 20
2.914196744619403
 30
0.0
  0
SPLINE
  5
11FA
330
11B6
100
AcDbEntity
  8
0
  6
Continuous
 62
     7
100
AcDbSpline
210
0.0
220
0.0
230
1.0
 70
     8
 71
     3
 72
     9
 73
     5
 74
     0
 42
0.0000001
 43
0.0000000001
 40
0.0
 40
0.0
 40
0.0
 40
0.0
 40
0.4999646133
 40
1.0
 40
1.0
 40
1.0
 40
1.0
 10
4.707106785921496
 20
2.207112531406891
 30
0.0
 10
4.093665903332293
 20
2.295841795148588
 30
0.0
 10
2.903307649045018
 20
2.903191112578496
 30
0.0
 10
2.295771216158754
 20
4.093567629457537
 30
0.0
 10
2.207100161613196
 20
4.707105580688221
 30
0.0
  0
SPLINE
  5
11FB
330
11B6
100
AcDbEntity
  8
0
  6
Continuous
 62
     7
100
AcDbSpline
210
0.0
220
0.0
230
1.0
 70
     8
 71
     3
 72
     9
 73
     5
 74
     0
 42
0.0000001
 43
0.0000000001
 40
0.0
 40
0.0
 40
0.0
 40
0.0
 40
0.4999646141
 40
1.0
 40
1.0
 40
1.0
 40
1.0
 10
2.207112865406088
 20
274.6928932229675
 30
0.0
 10
2.295841868806745
 20
275.3063340941299
 30
0.0
 10
2.903191073201013
 20
276.4966923877801
 30
0.0
 10
4.093567637071828
 20
277.1042287736673
 30
0.0
 10
4.707105580688221
 20
277.1928995272392
 30
0.0
  0
SPLINE
  5
11FC
330
11B6
100
AcDbEntity
  8
0
  6
Continuous
 62
     7
100
AcDbSpline
210
0.0
220
0.0
230
1.0
 70
     8
 71
     3
 72
     9
 73
     5
 74
     0
 42
0.0000001
 43
0.0000000001
 40
0.0
 40
0.0
 40
0.0
 40
0.0
 40
0.4999791556
 40
1.0
 40
1.0
 40
1.0
 40
1.0
 10
35.32515538205917
 20
215.3952642390905
 30
0.0
 10
35.0073981727619
 20
215.4952858360994
 30
0.0
 10
34.37277111462027
 20
215.6978589158389
 30
0.0
 10
33.729523173286
 20
215.8744557178398
 30
0.0
 10
33.4155815418344
 20
215.9859596299611
 30
0.0
  0
SPLINE
  5
11FD
330
11B6
100
AcDbEntity
  8
0
  6
Continuous
 62
     7
100
AcDbSpline
210
0.0
220
0.0
230
1.0
 70
     8
 71
     3
 72
     9
 73
     5
 74
     0
 42
0.0000001
 43
0.0000000001
 40
0.0
 40
0.0
 40
0.0
 40
0.0
 40
0.4999647517000002
 40
1.0
 40
1.0
 40
1.0
 40
1.0
 10
414.3928932229608
 20
277.192887810219
 30
0.0
 10
415.0063350859999
 20
277.1041640366893
 30
0.0
 10
416.1966933212387
 20
276.4968068795497
 30
0.0
 10
416.8042269435972
 20
275.3064320631966
 30
0.0
 10
416.892899072569
 20
274.6928944281972
 30
0.0
  0
ELLIPSE
  5
11FE
330
11B6
100
AcDbEntity
  8
0
  6
Continuous
 62
     7
100
AcDbEllipse
 10
25.89320871005475
 20
25.91372346454955
 30
0.0
 11
7.090462434489999
 21
7.090462434489999
 31
0.0
210
0.0
220
0.0
230
1.0
 40
0.9972646885999997
 41
2.3575640181
 42
3.9256212891
  0
ELLIPSE
  5
11FF
330
11B6
100
AcDbEntity
  8
0
  6
Continuous
 62
     7
100
AcDbEllipse
 10
393.1862765443367
 20
25.91372346454955
 30
0.0
 11
-7.090462434489999
 21
7.090462434489999
 31
0.0
210
0.0
220
0.0
230
1.0
 40
0.9972646885999997
 41
2.3575640181
 42
3.9256212891
  0
ELLIPSE
  5
1200
330
11B6
100
AcDbEntity
  8
0
  6
Continuous
 62
     7
100
AcDbEllipse
 10
393.1862765443367
 20
221.7713552956193
 30
0.0
 11
-7.090462434489999
 21
-7.090462434489999
 31
0.0
210
0.0
220
0.0
230
1.0
 40
0.9972646885999997
 41
2.3575640181
 42
3.9256212891
  0
ELLIPSE
  5
1201
330
11B6
100
AcDbEntity
  8
0
  6
Continuous
 62
     7
100
AcDbEllipse
 10
25.89320871005475
 20
221.7713552956193
 30
0.0
 11
7.090462434489999
 21
-7.090462434489999
 31
0.0
210
0.0
220
0.0
230
1.0
 40
0.9972646885999997
 41
2.3575640181
 42
3.9256212891
  0
ENDBLK
  5
1205
330
11B6
100
AcDbEntity
  8
0
100
AcDbBlockEnd
  0
BLOCK
  5
1254
330
1206
100
AcDbEntity
  8
0
100
AcDbBlockBegin
  2
A$C1e81eb98
 70
     0
 10
0.0
 20
0.0
 30
0.0
  3
A$C1e81eb98
  1

  0
LINE
  5
1207
330
1206
100
AcDbEntity
  8
0
  6
Continuous
 62
     7
100
AcDbLine
 10
0.0
 20
138.4499973628481
 30
0.0
 11
0.0000000025393092
 21
1.250000002533852
 31
0.0
  0
LINE
  5
1208
330
1206
100
AcDbEntity
  8
0
  6
Continuous
 62
     7
100
AcDbLine
 10
1.103553302156797
 20
2.353552550313905
 30
0.0
 11
1.103552742089958
 21
137.3464366826247
 31
0.0
  0
LINE
  5
1209
330
1206
100
AcDbEntity
  8
0
  6
Continuous
 62
     7
100
AcDbLine
 10
1.457106783513154
 20
137.3464466114837
 30
0.0
 11
1.457106783513154
 21
2.35355381078989
 31
0.0
  0
LINE
  5
120A
330
1206
100
AcDbEntity
  8
0
  6
Continuous
 62
     7
100
AcDbLine
 10
2.353553392960748
 20
1.103552613820284
 30
0.0
 11
2.353553392960748
 21
1.45710678351861
 31
0.0
  0
LINE
  5
120B
330
1206
100
AcDbEntity
  8
0
  6
Continuous
 62
     7
100
AcDbLine
 10
2.353552790977119
 20
138.2428932209241
 30
0.0
 11
2.353552790977119
 21
138.5964465765537
 31
0.0
  0
LINE
  5
120C
330
1206
100
AcDbEntity
  8
0
  6
Continuous
 62
     7
100
AcDbLine
 10
7.939742625050713
 20
12.94314767600917
 30
0.0
 11
7.939742625050713
 21
110.8993917040734
 31
0.0
  0
LINE
  5
120D
330
1206
100
AcDbEntity
  8
0
  6
Continuous
 62
     7
100
AcDbLine
 10
1.250002642227626
 20
0.0
 30
0.0
 11
208.3000000019092
 21
0.0000000025393092
 31
0.0
  0
LINE
  5
120E
330
1206
100
AcDbEntity
  8
0
  6
Continuous
 62
     7
100
AcDbLine
 10
207.1964370636197
 20
1.103552653823498
 30
0.0
 11
2.353563322452827
 21
1.103552574450077
 31
0.0
  0
LINE
  5
120F
330
1206
100
AcDbEntity
  8
0
  6
Continuous
 62
     7
100
AcDbLine
 10
2.353553392960748
 20
1.45710678351861
 30
0.0
 11
207.1964461936513
 21
1.45710678351861
 31
0.0
  0
LINE
  5
1210
330
1206
100
AcDbEntity
  8
0
  6
Continuous
 62
     7
100
AcDbLine
 10
208.4464473906191
 20
2.353553392958929
 30
0.0
 11
208.0928932209209
 21
2.353553392958929
 31
0.0
  0
LINE
  5
1211
330
1206
100
AcDbEntity
  8
0
  6
Continuous
 62
     7
100
AcDbLine
 10
1.457106783513154
 20
2.353552790978937
 30
0.0
 11
1.103553022127015
 21
2.353552790978937
 31
0.0
  0
LINE
  5
1212
330
1206
100
AcDbEntity
  8
0
  6
Continuous
 62
     7
100
AcDbLine
 10
12.9328902987545
 20
7.950000002305387
 30
0.0
 11
196.6068523284339
 21
7.950000002305387
 31
0.0
  0
LINE
  5
1213
330
1206
100
AcDbEntity
  8
0
  6
Continuous
 62
     7
100
AcDbLine
 10
1.103553302156797
 20
2.353552550313905
 30
0.0
 11
0.0000000025393092
 21
1.250000002533852
 31
0.0
  0
LINE
  5
1214
330
1206
100
AcDbEntity
  8
0
  6
Continuous
 62
     7
100
AcDbLine
 10
0.0
 20
138.4499973628481
 30
0.0
 11
1.103552742089958
 21
137.3464366826247
 31
0.0
  0
LINE
  5
1215
330
1206
100
AcDbEntity
  8
0
  6
Continuous
 62
     7
100
AcDbLine
 10
1.250002642227626
 20
0.0
 30
0.0
 11
2.353563322452827
 21
1.103552574450077
 31
0.0
  0
LINE
  5
1216
330
1206
100
AcDbEntity
  8
0
  6
Continuous
 62
     7
100
AcDbLine
 10
2.353552550310268
 20
138.5964465422639
 30
0.0
 11
1.250000002532033
 21
139.7000000025382
 31
0.0
  0
LINE
  5
1217
330
1206
100
AcDbEntity
  8
Defpoints
  6
HIDDEN
 62
     7
100
AcDbLine
 10
15.88334059355111
 20
15.76899539489022
 30
0.0
 11
93.23434193200958
 21
72.46281024426934
 31
0.0
  0
LINE
  5
1218
330
1206
100
AcDbEntity
  8
Defpoints
  6
HIDDEN
 62
     7
100
AcDbLine
 10
118.4525467914063
 20
85.1239753016198
 30
0.0
 11
192.8416259485675
 21
107.9804962159942
 31
0.0
  0
LINE
  5
1219
330
1206
100
AcDbEntity
  8
Defpoints
  6
HIDDEN
 62
     7
100
AcDbLine
 10
116.3156315275264
 20
72.46282970066932
 30
0.0
 11
192.6589990621069
 21
16.49549773283797
 31
0.0
  0
LINE
  5
121A
330
1206
100
AcDbEntity
  8
Defpoints
  6
HIDDEN
 62
     7
100
AcDbLine
 10
17.66204208059207
 20
107.6959745517397
 30
0.0
 11
91.09744850196877
 21
85.12397674941892
 31
0.0
  0
LINE
  5
121B
330
1206
100
AcDbEntity
  8
0
  6
Continuous
 62
     7
100
AcDbLine
 10
208.3000000025422
 20
139.7000000025382
 30
0.0
 11
207.1964466121208
 21
138.5964466114801
 31
0.0
  0
LINE
  5
121C
330
1206
100
AcDbEntity
  8
0
  6
Continuous
 62
     7
100
AcDbLine
 10
208.4464473512562
 20
137.3464370636247
 30
0.0
 11
209.5500000025422
 21
138.4500000025437
 31
0.0
  0
LINE
  5
121D
330
1206
100
AcDbEntity
  8
0
  6
Continuous
 62
     7
100
AcDbLine
 10
207.1964370636197
 20
1.103552653823498
 30
0.0
 11
208.3000000025422
 21
0.0000000025393092
 31
0.0
  0
LINE
  5
121E
330
1206
100
AcDbEntity
  8
0
  6
Continuous
 62
     7
100
AcDbLine
 10
209.5500000050815
 20
1.250002642229446
 30
0.0
 11
208.4464474299894
 21
2.353563321819819
 31
0.0
  0
LINE
  5
121F
330
1206
100
AcDbEntity
  8
0
  6
Continuous
 62
     7
100
AcDbLine
 10
196.6068523284339
 20
115.892539377779
 30
0.0
 11
12.9328902987545
 21
115.892539377779
 31
0.0
  0
LINE
  5
1220
330
1206
100
AcDbEntity
  8
0
  6
Continuous
 62
     7
100
AcDbLine
 10
1.103553022127015
 20
137.3464466114837
 30
0.0
 11
1.457106783513154
 21
137.3464466114837
 31
0.0
  0
LINE
  5
1221
330
1206
100
AcDbEntity
  8
0
  6
Continuous
 62
     7
100
AcDbLine
 10
208.0928932209209
 20
137.3464472140986
 30
0.0
 11
208.4464473906191
 21
137.3464472140986
 31
0.0
  0
LINE
  5
1222
330
1206
100
AcDbEntity
  8
0
  6
Continuous
 62
     7
100
AcDbLine
 10
207.1964466114805
 20
138.2428932209241
 30
0.0
 11
2.35355381078989
 21
138.2428932209241
 31
0.0
  0
LINE
  5
1223
330
1206
100
AcDbEntity
  8
0
  6
Continuous
 62
     7
100
AcDbLine
 10
207.1964466121208
 20
138.5964466114801
 30
0.0
 11
2.353552550310268
 21
138.5964465422639
 31
0.0
  0
LINE
  5
1224
330
1206
100
AcDbEntity
  8
0
  6
Continuous
 62
     7
100
AcDbLine
 10
208.3000000025422
 20
139.7000000025382
 30
0.0
 11
1.250000002532033
 21
139.7000000025382
 31
0.0
  0
LINE
  5
1225
330
1206
100
AcDbEntity
  8
0
  6
Continuous
 62
     7
100
AcDbLine
 10
201.6000000021377
 20
12.94314767600917
 30
0.0
 11
201.6000000021377
 21
110.8993917040734
 31
0.0
  0
LINE
  5
1226
330
1206
100
AcDbEntity
  8
0
  6
Continuous
 62
     7
100
AcDbLine
 10
207.1964466114805
 20
138.5964465765537
 30
0.0
 11
207.1964466114805
 21
138.2428932209241
 31
0.0
  0
LINE
  5
1227
330
1206
100
AcDbEntity
  8
0
  6
Continuous
 62
     7
100
AcDbLine
 10
207.1964472141044
 20
1.45710678351861
 30
0.0
 11
207.1964472141044
 21
1.103552613820284
 31
0.0
  0
LINE
  5
1228
330
1206
100
AcDbEntity
  8
0
  6
Continuous
 62
     7
100
AcDbLine
 10
208.0928932209209
 20
2.353553392958929
 30
0.0
 11
208.0928932209209
 21
137.3464461936528
 31
0.0
  0
LINE
  5
1229
330
1206
100
AcDbEntity
  8
0
  6
Continuous
 62
     7
100
AcDbLine
 10
208.4464473512562
 20
137.3464370636247
 30
0.0
 11
208.4464474299894
 21
2.353563321819819
 31
0.0
  0
LINE
  5
122A
330
1206
100
AcDbEntity
  8
0
  6
Continuous
 62
     7
100
AcDbLine
 10
209.5500000050815
 20
1.250002642229446
 30
0.0
 11
209.5500000025422
 21
138.4500000019107
 31
0.0
  0
ARC
  5
122B
330
1206
100
AcDbEntity
  8
Defpoints
  6
HIDDEN
 62
     7
100
AcDbCircle
 10
100.3953488190091
 20
82.43343375167388
 30
0.0
 40
9.679205949525
100
AcDbArc
 50
160.8881565243002
 51
163.8611028562211
  0
ARC
  5
122C
330
1206
100
AcDbEntity
  8
Defpoints
  6
HIDDEN
 62
     7
100
AcDbCircle
 10
100.9278152045444
 20
78.29925189813366
 30
0.0
 40
9.656676084119999
100
AcDbArc
 50
214.5493815838098
 51
217.1858114717044
  0
ARC
  5
122D
330
1206
100
AcDbEntity
  8
Defpoints
  6
HIDDEN
 62
     7
100
AcDbCircle
 10
100.2760968565999
 20
82.13721000579424
 30
0.0
 40
9.652223853375
100
AcDbArc
 50
161.9749018112059
 51
164.9300094815255
  0
ARC
  5
122E
330
1206
100
AcDbEntity
  8
Defpoints
  6
HIDDEN
 62
     7
100
AcDbCircle
 10
101.0853585095974
 20
78.02263306922943
 30
0.0
 40
9.620176750844999
100
AcDbArc
 50
215.3058494971215
 51
217.0706564463122
  0
ARC
  5
122F
330
1206
100
AcDbEntity
  8
Defpoints
  6
HIDDEN
 62
     7
100
AcDbCircle
 10
101.0050811333203
 20
77.95213592549044
 30
0.0
 40
9.513631621669995
100
AcDbArc
 50
217.0233316716775
 51
218.1669006605099
  0
CIRCLE
  5
1230
330
1206
100
AcDbEntity
  8
Defpoints
  6
HIDDEN
 62
     7
100
AcDbCircle
 10
104.7750000025407
 20
80.92145660354981
 30
0.0
 40
16.249999999935
  0
ARC
  5
1231
330
1206
100
AcDbEntity
  8
Defpoints
  6
HIDDEN
 62
     7
100
AcDbCircle
 10
104.7750000025407
 20
80.92145660354981
 30
0.0
 40
14.312500000165
100
AcDbArc
 50
218.1864519426103
 51
321.6785472644969
  0
ARC
  5
1232
330
1206
100
AcDbEntity
  8
Defpoints
  6
HIDDEN
 62
     7
100
AcDbCircle
 10
104.7750000025407
 20
80.92145660354981
 30
0.0
 40
14.312500000165
100
AcDbArc
 50
164.9130640682073
 51
214.2804273840388
  0
ARC
  5
1233
330
1206
100
AcDbEntity
  8
Defpoints
  6
HIDDEN
 62
     7
100
AcDbCircle
 10
104.7750000025407
 20
80.92145660354981
 30
0.0
 40
14.312500000165
100
AcDbArc
 50
325.9002049868196
 51
15.00982053629895
  0
ARC
  5
1234
330
1206
100
AcDbEntity
  8
Defpoints
  6
HIDDEN
 62
     7
100
AcDbCircle
 10
104.7750000019077
 20
80.92145660418465
 30
0.0
 40
14.31241329536
100
AcDbArc
 50
19.15065123170565
 51
160.9094408717631
  0
CIRCLE
  5
1235
330
1206
100
AcDbEntity
  8
Defpoints
  6
HIDDEN
 62
     7
100
AcDbCircle
 10
104.7750000025407
 20
80.92145660354981
 30
0.0
 40
14.25000000007
  0
CIRCLE
  5
1236
330
1206
100
AcDbEntity
  8
Defpoints
  6
HIDDEN
 62
     7
100
AcDbCircle
 10
104.7750000025407
 20
80.92145660354981
 30
0.0
 40
12.49999999995
  0
ARC
  5
1237
330
1206
100
AcDbEntity
  8
Defpoints
  6
HIDDEN
 62
     7
100
AcDbCircle
 10
108.1881878904023
 20
78.60528069044448
 30
0.0
 40
10.187636917675
100
AcDbArc
 50
324.5810156485132
 51
325.9248492009717
  0
ARC
  5
1238
330
1206
100
AcDbEntity
  8
Defpoints
  6
HIDDEN
 62
     7
100
AcDbCircle
 10
108.1547996285007
 20
78.25326531370411
 30
0.0
 40
10.00642499092
100
AcDbArc
 50
321.6647607425833
 51
322.9508769188863
  0
ARC
  5
1239
330
1206
100
AcDbEntity
  8
Defpoints
  6
HIDDEN
 62
     7
100
AcDbCircle
 10
109.1613316794392
 20
82.1036160458043
 30
0.0
 40
9.769665656844999
100
AcDbArc
 50
14.97560895162535
 51
18.00816107250476
  0
ARC
  5
123A
330
1206
100
AcDbEntity
  8
Defpoints
  6
HIDDEN
 62
     7
100
AcDbCircle
 10
109.0692187331078
 20
82.40640974362031
 30
0.0
 40
9.768783286245
100
AcDbArc
 50
16.15186978469044
 51
19.18559114018107
  0
ARC
  5
123B
330
1206
100
AcDbEntity
  8
Defpoints
  6
HIDDEN
 62
     7
100
AcDbCircle
 10
108.6482876159934
 20
78.27719830939895
 30
0.0
 40
9.622544655049999
100
AcDbArc
 50
322.8260803081651
 51
324.5852713375205
  0
ARC
  5
123C
330
1206
100
AcDbEntity
  8
Defpoints
  6
HIDDEN
 62
     7
100
AcDbCircle
 10
108.4631309161996
 20
78.02365154890503
 30
0.0
 40
9.62199800133
100
AcDbArc
 50
322.9359289890386
 51
324.695615891711
  0
CIRCLE
  5
123D
330
1206
100
AcDbEntity
  8
0
  6
Continuous
 62
     7
100
AcDbCircle
 10
187.3000000023749
 20
125.4500000024691
 30
0.0
 40
4.3750000003
  0
CIRCLE
  5
123E
330
1206
100
AcDbEntity
  8
0
  6
Continuous
 62
     7
100
AcDbCircle
 10
104.7750000025407
 20
125.4500000024691
 30
0.0
 40
4.3750000003
  0
SPLINE
  5
123F
330
1206
100
AcDbEntity
  8
0
  6
Continuous
 62
     7
100
AcDbSpline
210
0.0
220
0.0
230
1.0
 70
     8
 71
     3
 72
     9
 73
     5
 74
     0
 42
0.0000001
 43
0.0000000001
 40
0.0
 40
0.0
 40
0.0
 40
0.0
 40
0.4999998147
 40
1.0
 40
1.0
 40
1.0
 40
1.0
 10
208.2999998768137
 20
0.0000864355642989
 30
0.0
 10
208.618845031604
 20
0.0003095409101661
 30
0.0
 10
209.2829419825502
 20
0.2670665454952541
 30
0.0
 10
209.5497302653312
 20
0.93115728360317
 30
0.0
 10
209.5499585732323
 20
1.25000267080395
 30
0.0
  0
SPLINE
  5
1240
330
1206
100
AcDbEntity
  8
0
  6
Continuous
 62
     7
100
AcDbSpline
210
0.0
220
0.0
230
1.0
 70
     8
 71
     3
 72
     9
 73
     5
 74
     0
 42
0.0000001
 43
0.0000000001
 40
0.0
 40
0.0
 40
0.0
 40
0.0
 40
0.4999998156000001
 40
1.0
 40
1.0
 40
1.0
 40
1.0
 10
0.0000864076209837
 20
1.25000012762939
 30
0.0
 10
0.0003102178161498
 20
0.9311549722042398
 30
0.0
 10
0.2670661854499485
 20
0.2670580104586406
 30
0.0
 10
0.931157283608627
 20
0.000269777208814
 30
0.0
 10
1.250002670800313
 20
0.0000414566093241
 30
0.0
  0
SPLINE
  5
1241
330
1206
100
AcDbEntity
  8
0
  6
Continuous
 62
     7
100
AcDbSpline
210
0.0
220
0.0
230
1.0
 70
     8
 71
     3
 72
     9
 73
     5
 74
     0
 42
0.0000001
 43
0.0000000001
 40
0.0
 40
0.0
 40
0.0
 40
0.0
 40
0.4999998147
 40
1.0
 40
1.0
 40
1.0
 40
1.0
 10
1.250000127627572
 20
139.6999135707847
 30
0.0
 10
0.9311549728372483
 20
139.6996897542394
 30
0.0
 10
0.2670580066478578
 20
139.432933820899
 30
0.0
 10
0.0002697568852454
 20
138.7688427221092
 30
0.0
 10
0.0000414312089561
 20
138.4499973342736
 30
0.0
  0
SPLINE
  5
1242
330
1206
100
AcDbEntity
  8
0
  6
Continuous
 62
     7
100
AcDbSpline
210
0.0
220
0.0
230
1.0
 70
     8
 71
     3
 72
     9
 73
     5
 74
     0
 42
0.0000001
 43
0.0000000001
 40
0.0
 40
0.0
 40
0.0
 40
0.0
 40
0.4999998155
 40
1.0
 40
1.0
 40
1.0
 40
1.0
 10
209.549913587296
 20
138.4499998768133
 30
0.0
 10
209.5496904667089
 20
138.7688446258398
 30
0.0
 10
209.2829342228506
 20
139.432940920833
 30
0.0
 10
208.6188449534966
 20
139.6997290493091
 30
0.0
 10
208.2999999739695
 20
139.6999585510093
 30
0.0
  0
LINE
  5
1243
330
1206
100
AcDbEntity
  8
Defpoints
  6
HIDDEN
 62
     7
100
AcDbLine
 10
92.94871363547279
 20
72.86002949491377
 30
0.0
 11
92.974254040324
 21
72.8228311028397
 31
0.0
  0
SPLINE
  5
1244
330
1206
100
AcDbEntity
  8
0
  6
Continuous
 62
     7
100
AcDbSpline
210
0.0
220
0.0
230
1.0
 70
     8
 71
     3
 72
     9
 73
     5
 74
     0
 42
0.0000001
 43
0.0000000001
 40
0.0
 40
0.0
 40
0.0
 40
0.0
 40
0.4999814234000002
 40
1.0
 40
1.0
 40
1.0
 40
1.0
 10
192.6589810465229
 20
16.49532647270462
 30
0.0
 10
192.8262216543808
 20
16.37125840168846
 30
0.0
 10
193.1592585854596
 20
16.12127428202439
 30
0.0
 10
193.503120433299
 20
15.88540618759362
 30
0.0
 10
193.6656055172643
 20
15.75514740886865
 30
0.0
  0
SPLINE
  5
1245
330
1206
100
AcDbEntity
  8
0
  6
Continuous
 62
     7
100
AcDbSpline
210
0.0
220
0.0
230
1.0
 70
     8
 71
     3
 72
     9
 73
     5
 74
     0
 42
0.0000001
 43
0.0000000001
 40
0.0
 40
0.0
 40
0.0
 40
0.0
 40
0.4999647666
 40
1.0
 40
1.0
 40
1.0
 40
1.0
 10
208.446443739369
 20
2.353553392958929
 30
0.0
 10
208.4020796358236
 20
2.046832801805065
 30
0.0
 10
208.098404416407
 20
1.451652953939628
 30
0.0
 10
207.5032158880858
 20
1.147887264163728
 30
0.0
 10
207.1964472141044
 20
1.103550468787942
 30
0.0
  0
SPLINE
  5
1246
330
1206
100
AcDbEntity
  8
0
  6
Continuous
 62
     7
100
AcDbSpline
210
0.0
220
0.0
230
1.0
 70
     8
 71
     3
 72
     9
 73
     5
 74
     0
 42
0.0000001
 43
0.0000000001
 40
0.0
 40
0.0
 40
0.0
 40
0.0
 40
0.500010346
 40
1.0
 40
1.0
 40
1.0
 40
1.0
 10
2.353553392960748
 20
1.457108143689765
 30
0.0
 10
2.126402793161104
 20
1.457156399244921
 30
0.0
 10
1.665199527735238
 20
1.665200425624789
 30
0.0
 10
1.457124661937995
 20
2.126412606448865
 30
0.0
 10
1.457098372942708
 20
2.353553810153243
 30
0.0
  0
SPLINE
  5
1247
330
1206
100
AcDbEntity
  8
0
  6
Continuous
 62
     7
100
AcDbSpline
210
0.0
220
0.0
230
1.0
 70
     8
 71
     3
 72
     9
 73
     5
 74
     0
 42
0.0000001
 43
0.0000000001
 40
0.0
 40
0.0
 40
0.0
 40
0.0
 40
0.500010346
 40
1.0
 40
1.0
 40
1.0
 40
1.0
 10
1.457108143687945
 20
137.3464466114837
 30
0.0
 10
1.457156399243102
 20
137.5735972112834
 30
0.0
 10
1.665200425624789
 20
138.0348004773441
 30
0.0
 10
2.126412606448865
 20
138.2428753431341
 30
0.0
 10
2.35355381015688
 20
138.242901632133
 30
0.0
  0
SPLINE
  5
1248
330
1206
100
AcDbEntity
  8
0
  6
Continuous
 62
     7
100
AcDbSpline
210
0.0
220
0.0
230
1.0
 70
     8
 71
     3
 72
     9
 73
     5
 74
     0
 42
0.0000001
 43
0.0000000001
 40
0.0
 40
0.0
 40
0.0
 40
0.0
 40
0.500010346
 40
1.0
 40
1.0
 40
1.0
 40
1.0
 10
207.1964466114805
 20
138.2428918607529
 30
0.0
 10
207.4235972112874
 20
138.2428436058344
 30
0.0
 10
207.884800477339
 20
138.034799578183
 30
0.0
 10
208.092875343129
 20
137.5735873979938
 30
0.0
 10
208.0929016321316
 20
137.3464461942894
 30
0.0
  0
SPLINE
  5
1249
330
1206
100
AcDbEntity
  8
0
  6
Continuous
 62
     7
100
AcDbSpline
210
0.0
220
0.0
230
1.0
 70
     8
 71
     3
 72
     9
 73
     5
 74
     0
 42
0.0000001
 43
0.0000000001
 40
0.0
 40
0.0
 40
0.0
 40
0.0
 40
0.5000103461
 40
1.0
 40
1.0
 40
1.0
 40
1.0
 10
208.0928918607533
 20
2.353553392958929
 30
0.0
 10
208.0928436058311
 20
2.126402793159285
 30
0.0
 10
207.8847995781834
 20
1.665199527733419
 30
0.0
 10
207.4235873979997
 20
1.457124661310444
 30
0.0
 10
207.1964461942916
 20
1.4570983723097
 30
0.0
  0
SPLINE
  5
124A
330
1206
100
AcDbEntity
  8
0
  6
Continuous
 62
     7
100
AcDbSpline
210
0.0
220
0.0
230
1.0
 70
     8
 71
     3
 72
     9
 73
     5
 74
     0
 42
0.0000001
 43
0.0000000001
 40
0.0
 40
0.0
 40
0.0
 40
0.0
 40
0.4999646133
 40
1.0
 40
1.0
 40
1.0
 40
1.0
 10
2.353553392960748
 20
1.103556265703445
 30
0.0
 10
2.046832951666146
 20
1.147920897574293
 30
0.0
 10
1.451653824522509
 20
1.451595556289248
 30
0.0
 10
1.147885608079376
 20
2.046783814728768
 30
0.0
 10
1.103550080806597
 20
2.353552790344109
 30
0.0
  0
SPLINE
  5
124B
330
1206
100
AcDbEntity
  8
0
  6
Continuous
 62
     7
100
AcDbSpline
210
0.0
220
0.0
230
1.0
 70
     8
 71
     3
 72
     9
 73
     5
 74
     0
 42
0.0000001
 43
0.0000000001
 40
0.0
 40
0.0
 40
0.0
 40
0.0
 40
0.4999646141
 40
1.0
 40
1.0
 40
1.0
 40
1.0
 10
1.103556432703044
 20
137.3464466114837
 30
0.0
 10
1.147920934403372
 20
137.6531670470649
 30
0.0
 10
1.451595536600506
 20
138.24834619389
 30
0.0
 10
2.046783818535914
 20
138.5521143868336
 30
0.0
 10
2.353552790344109
 20
138.5964497636196
 30
0.0
  0
SPLINE
  5
124C
330
1206
100
AcDbEntity
  8
0
  6
Continuous
 62
     7
100
AcDbSpline
210
0.0
220
0.0
230
1.0
 70
     8
 71
     3
 72
     9
 73
     5
 74
     0
 42
0.0000001
 43
0.0000000001
 40
0.0
 40
0.0
 40
0.0
 40
0.0
 40
0.4999791556
 40
1.0
 40
1.0
 40
1.0
 40
1.0
 10
17.66257769102957
 20
107.6976321195452
 30
0.0
 10
17.50369908638095
 20
107.7476429180497
 30
0.0
 10
17.18638555731013
 20
107.8489294579194
 30
0.0
 10
16.864761586643
 20
107.9372278589199
 30
0.0
 10
16.7077907709172
 20
107.9929798149805
 30
0.0
  0
SPLINE
  5
124D
330
1206
100
AcDbEntity
  8
0
  6
Continuous
 62
     7
100
AcDbSpline
210
0.0
220
0.0
230
1.0
 70
     8
 71
     3
 72
     9
 73
     5
 74
     0
 42
0.0000001
 43
0.0000000001
 40
0.0
 40
0.0
 40
0.0
 40
0.0
 40
0.4999647517000002
 40
1.0
 40
1.0
 40
1.0
 40
1.0
 10
207.1964466114805
 20
138.5964439051095
 30
0.0
 10
207.503167543
 20
138.5520820183446
 30
0.0
 10
208.0983466606194
 20
138.2484034397748
 30
0.0
 10
208.4021134717986
 20
137.6532160315983
 30
0.0
 10
208.4464495362845
 20
137.3464472140986
 30
0.0
  0
ELLIPSE
  5
124E
330
1206
100
AcDbEntity
  8
0
  6
Continuous
 62
     7
100
AcDbEllipse
 10
12.94660435502737
 20
12.95686173227477
 30
0.0
 11
3.545231217244998
 21
3.545231217244998
 31
0.0
210
0.0
220
0.0
230
0.9999999999999998
 40
0.9972646885999997
 41
2.3575640181
 42
3.9256212891
  0
ELLIPSE
  5
124F
330
1206
100
AcDbEntity
  8
0
  6
Continuous
 62
     7
100
AcDbEllipse
 10
196.5931382721683
 20
12.95686173227477
 30
0.0
 11
-3.545231217244998
 21
3.545231217244998
 31
0.0
210
0.0
220
0.0
230
0.9999999999999998
 40
0.9972646885999997
 41
2.3575640181
 42
3.9256212891
  0
ELLIPSE
  5
1250
330
1206
100
AcDbEntity
  8
0
  6
Continuous
 62
     7
100
AcDbEllipse
 10
196.5931382721683
 20
110.8856776478096
 30
0.0
 11
-3.545231217244998
 21
-3.545231217244998
 31
0.0
210
0.0
220
0.0
230
0.9999999999999998
 40
0.9972646885999997
 41
2.3575640181
 42
3.9256212891
  0
ELLIPSE
  5
1251
330
1206
100
AcDbEntity
  8
0
  6
Continuous
 62
     7
100
AcDbEllipse
 10
12.94660435502737
 20
110.8856776478096
 30
0.0
 11
3.545231217244998
 21
-3.545231217244998
 31
0.0
210
0.0
220
0.0
230
0.9999999999999998
 40
0.9972646885999997
 41
2.3575640181
 42
3.9256212891
  0
ENDBLK
  5
1255
330
1206
100
AcDbEntity
  8
0
100
AcDbBlockEnd
  0
BLOCK
  5
133B
330
133A
100
AcDbEntity
  8
0
100
AcDbBlockBegin
  2
*D13
 70
     1
 10
0.0
 20
0.0
 30
0.0
  3
*D13
  1

  0
LINE
  5
1343
330
133A
100
AcDbEntity
  8
dimensions
440
 16777216
370
    -2
100
AcDbLine
 10
2535.453064415346
 20
1681.101434348656
 30
0.0
 11
2494.604645145519
 21
1631.612281159046
 31
0.0
  0
MTEXT
  5
1344
330
133A
100
AcDbEntity
  8
dimensions
440
 16777216
100
AcDbMText
 10
2517.575123429229
 20
1659.441742835691
 30
0.0
 40
9.0
 41
0.0
 46
0.0
 71
     5
 72
     1
  1
R15 mm\P [R9/16 "]
 11
0.6365671621992093
 21
0.7712212704598115
 31
0.0
 73
     1
 44
1.0
  0
SOLID
  5
1345
330
133A
100
AcDbEntity
  8
dimensions
440
 16777216
100
AcDbTrace
 10
2493.576350118239
 20
1632.461037375313
 30
0.0
 11
2495.632940172799
 21
1630.763524942782
 31
0.0
 12
2489.512107847926
 22
1625.442510995369
 32
0.0
 13
2489.512107847926
 23
1625.442510995369
 33
0.0
  0
POINT
  5
1346
330
133A
100
AcDbEntity
  8
Defpoints
 62
     0
440
 16777216
100
AcDbPoint
 10
2489.512107847926
 20
1625.442510995369
 30
0.0
  0
POINT
  5
1347
330
133A
100
AcDbEntity
  8
Defpoints
 62
     0
440
 16777216
100
AcDbPoint
 10
2499.060615280913
 20
1637.010830052265
 30
0.0
  0
ENDBLK
  5
133C
330
133A
100
AcDbEntity
  8
0
100
AcDbBlockEnd
  0
BLOCK
  5
139F
330
139E
100
AcDbEntity
  8
0
100
AcDbBlockBegin
  2
*D14
 70
     1
 10
0.0
 20
0.0
 30
0.0
  3
*D14
  1

  0
LINE
  5
1659
330
139E
100
AcDbEntity
  8
dimensions
440
 16777216
370
    -2
100
AcDbLine
 10
3619.750217480265
 20
2083.610141633384
 30
0.0
 11
3619.750217480265
 21
2236.681759458829
 31
0.0
  0
LINE
  5
165A
330
139E
100
AcDbEntity
  8
dimensions
440
 16777216
370
    -2
100
AcDbLine
 10
4394.750217480265
 20
2060.97236132429
 30
0.0
 11
4394.750217480265
 21
2236.681759458829
 31
0.0
  0
LINE
  5
165B
330
139E
100
AcDbEntity
  8
dimensions
440
 16777216
370
    -2
100
AcDbLine
 10
3627.750217480265
 20
2231.681759458828
 30
0.0
 11
4386.750217480265
 21
2231.681759458828
 31
0.0
  0
SOLID
  5
165C
330
139E
100
AcDbEntity
  8
dimensions
440
 16777216
100
AcDbTrace
 10
3627.750217480265
 20
2233.015092792162
 30
0.0
 11
3627.750217480265
 21
2230.348426125495
 31
0.0
 12
3619.750217480265
 22
2231.681759458828
 32
0.0
 13
3619.750217480265
 23
2231.681759458828
 33
0.0
  0
SOLID
  5
165D
330
139E
100
AcDbEntity
  8
dimensions
440
 16777216
100
AcDbTrace
 10
4386.750217480265
 20
2233.015092792162
 30
0.0
 11
4386.750217480265
 21
2230.348426125495
 31
0.0
 12
4394.750217480265
 22
2231.681759458828
 32
0.0
 13
4394.750217480265
 23
2231.681759458828
 33
0.0
  0
MTEXT
  5
165E
330
139E
100
AcDbEntity
  8
dimensions
440
 16777216
100
AcDbMText
 10
4007.250217480264
 20
2238.758498885841
 30
0.0
 40
9.0
 41
0.0
 46
0.0
 71
     5
 72
     1
  1
775 mm
 73
     1
 44
1.0
  0
MTEXT
  5
165F
330
139E
100
AcDbEntity
  8
dimensions
440
 16777216
100
AcDbMText
 10
4007.250217480264
 20
2223.355702160056
 30
0.0
 40
9.0
 41
0.0
 46
0.0
 71
     5
 72
     1
  1
[30 1/2 "]
 73
     1
 44
1.0
  0
POINT
  5
1660
330
139E
100
AcDbEntity
  8
Defpoints
 62
     0
440
 16777216
100
AcDbPoint
 10
3619.750217480265
 20
2075.610141633384
 30
0.0
  0
POINT
  5
1661
330
139E
100
AcDbEntity
  8
Defpoints
 62
     0
440
 16777216
100
AcDbPoint
 10
4394.750217480265
 20
2052.97236132429
 30
0.0
  0
POINT
  5
1662
330
139E
100
AcDbEntity
  8
Defpoints
 62
     0
440
 16777216
100
AcDbPoint
 10
4394.750217480265
 20
2231.681759458828
 30
0.0
  0
ENDBLK
  5
13A0
330
139E
100
AcDbEntity
  8
0
100
AcDbBlockEnd
  0
BLOCK
  5
13B9
330
13B8
100
AcDbEntity
  8
0
100
AcDbBlockBegin
  2
*D15
 70
     1
 10
0.0
 20
0.0
 30
0.0
  3
*D15
  1

  0
LINE
  5
1644
330
13B8
100
AcDbEntity
  8
dimensions
440
 16777216
370
    -2
100
AcDbLine
 10
4387.750217480266
 20
2067.972361324291
 30
0.0
 11
4443.425978476532
 21
2067.972361324291
 31
0.0
  0
LINE
  5
1645
330
13B8
100
AcDbEntity
  8
dimensions
440
 16777216
370
    -2
100
AcDbLine
 10
4418.437799114092
 20
1635.972361324292
 30
0.0
 11
4443.425978476533
 21
1635.972361324292
 31
0.0
  0
LINE
  5
1646
330
13B8
100
AcDbEntity
  8
dimensions
440
 16777216
370
    -2
100
AcDbLine
 10
4438.425978476532
 20
2059.972361324291
 30
0.0
 11
4438.425978476533
 21
1643.972361324292
 31
0.0
  0
SOLID
  5
1647
330
13B8
100
AcDbEntity
  8
dimensions
440
 16777216
100
AcDbTrace
 10
4437.092645143199
 20
2059.972361324291
 30
0.0
 11
4439.759311809864
 21
2059.972361324291
 31
0.0
 12
4438.425978476532
 22
2067.972361324291
 32
0.0
 13
4438.425978476532
 23
2067.972361324291
 33
0.0
  0
SOLID
  5
1648
330
13B8
100
AcDbEntity
  8
dimensions
440
 16777216
100
AcDbTrace
 10
4437.0926451432
 20
1643.972361324292
 30
0.0
 11
4439.759311809864
 21
1643.972361324292
 31
0.0
 12
4438.425978476533
 22
1635.972361324292
 32
0.0
 13
4438.425978476533
 23
1635.972361324292
 33
0.0
  0
MTEXT
  5
1649
330
13B8
100
AcDbEntity
  8
dimensions
440
 16777216
100
AcDbMText
 10
4431.327752009956
 20
1851.972361324289
 30
0.0
 40
9.0
 41
0.0
 46
0.0
 71
     5
 72
     1
  1
432 mm
 11
0.0000000000000001
 21
1.0
 31
0.0
 73
     1
 44
1.0
  0
MTEXT
  5
164A
330
13B8
100
AcDbEntity
  8
dimensions
440
 16777216
100
AcDbMText
 10
4446.693713810774
 20
1851.972361324289
 30
0.0
 40
9.0
 41
0.0
 46
0.0
 71
     5
 72
     1
  1
[17 "]
 11
0.0000000000000001
 21
1.0
 31
0.0
 73
     1
 44
1.0
  0
POINT
  5
164B
330
13B8
100
AcDbEntity
  8
Defpoints
 62
     0
440
 16777216
100
AcDbPoint
 10
4379.750217480267
 20
2067.972361324291
 30
0.0
  0
POINT
  5
164C
330
13B8
100
AcDbEntity
  8
Defpoints
 62
     0
440
 16777216
100
AcDbPoint
 10
4410.437799114092
 20
1635.972361324292
 30
0.0
  0
POINT
  5
164D
330
13B8
100
AcDbEntity
  8
Defpoints
 62
     0
440
 16777216
100
AcDbPoint
 10
4438.425978476533
 20
1635.972361324292
 30
0.0
  0
ENDBLK
  5
13BA
330
13B8
100
AcDbEntity
  8
0
100
AcDbBlockEnd
  0
BLOCK
  5
142D
330
142C
100
AcDbEntity
  8
0
100
AcDbBlockBegin
  2
*D16
 70
     1
 10
0.0
 20
0.0
 30
0.0
  3
*D16
  1

  0
LINE
  5
1624
330
142C
100
AcDbEntity
  8
dimensions
440
 16777216
370
    -2
100
AcDbLine
 10
3644.109826832372
 20
1639.147361324291
 30
0.0
 11
3591.108487225376
 21
1639.147361324291
 31
0.0
  0
LINE
  5
1625
330
142C
100
AcDbEntity
  8
dimensions
440
 16777216
370
    -2
100
AcDbLine
 10
3644.109826832372
 20
1635.972361324291
 30
0.0
 11
3591.108487225376
 21
1635.972361324291
 31
0.0
  0
LINE
  5
1626
330
142C
100
AcDbEntity
  8
dimensions
440
 16777216
370
    -2
100
AcDbLine
 10
3596.108487225376
 20
1647.147361324291
 30
0.0
 11
3596.108487225376
 21
1655.147361324291
 31
0.0
  0
LINE
  5
1627
330
142C
100
AcDbEntity
  8
dimensions
440
 16777216
370
    -2
100
AcDbLine
 10
3596.108487225376
 20
1627.972361324291
 30
0.0
 11
3596.108487225376
 21
1567.400055730839
 31
0.0
  0
LINE
  5
1628
330
142C
100
AcDbEntity
  8
dimensions
440
 16777216
370
    -2
100
AcDbLine
 10
3596.108487225376
 20
1639.147361324291
 30
0.0
 11
3596.108487225376
 21
1635.972361324291
 31
0.0
  0
SOLID
  5
1629
330
142C
100
AcDbEntity
  8
dimensions
440
 16777216
100
AcDbTrace
 10
3594.775153892043
 20
1647.147361324291
 30
0.0
 11
3597.441820558709
 21
1647.147361324291
 31
0.0
 12
3596.108487225376
 22
1639.147361324291
 32
0.0
 13
3596.108487225376
 23
1639.147361324291
 33
0.0
  0
SOLID
  5
162A
330
142C
100
AcDbEntity
  8
dimensions
440
 16777216
100
AcDbTrace
 10
3594.775153892043
 20
1627.972361324291
 30
0.0
 11
3597.441820558709
 21
1627.972361324291
 31
0.0
 12
3596.108487225376
 22
1635.972361324291
 32
0.0
 13
3596.108487225376
 23
1635.972361324291
 33
0.0
  0
MTEXT
  5
162B
330
142C
100
AcDbEntity
  8
dimensions
440
 16777216
100
AcDbMText
 10
3588.199892409551
 20
1593.686208527564
 30
0.0
 40
9.0
 41
0.0
 46
0.0
 71
     5
 72
     1
  1
3,18 mm
 11
0.0000000000000001
 21
1.0
 31
0.0
 73
     1
 44
1.0
  0
MTEXT
  5
162C
330
142C
100
AcDbEntity
  8
dimensions
440
 16777216
100
AcDbMText
 10
3604.434544524148
 20
1593.686208527564
 30
0.0
 40
9.0
 41
0.0
 46
0.0
 71
     5
 72
     1
  1
[1/8 "]
 11
0.0000000000000001
 21
1.0
 31
0.0
 73
     1
 44
1.0
  0
POINT
  5
162D
330
142C
100
AcDbEntity
  8
Defpoints
 62
     0
440
 16777216
100
AcDbPoint
 10
3652.109826832371
 20
1639.147361324291
 30
0.0
  0
POINT
  5
162E
330
142C
100
AcDbEntity
  8
Defpoints
 62
     0
440
 16777216
100
AcDbPoint
 10
3652.109826832371
 20
1635.972361324291
 30
0.0
  0
POINT
  5
162F
330
142C
100
AcDbEntity
  8
Defpoints
 62
     0
440
 16777216
100
AcDbPoint
 10
3596.108487225376
 20
1635.972361324291
 30
0.0
  0
ENDBLK
  5
142E
330
142C
100
AcDbEntity
  8
0
100
AcDbBlockEnd
  0
BLOCK
  5
15EE
330
15D4
100
AcDbEntity
  8
0
 48
0.5
100
AcDbBlockBegin
  2
A$C58b5c93d
 70
     0
 10
0.0
 20
0.0
 30
0.0
  3
A$C58b5c93d
  1

  0
LINE
  5
15D5
330
15D4
100
AcDbEntity
  8
Defpoints
  6
HIDDEN
 62
     7
100
AcDbLine
 10
0.0
 20
0.0
 30
0.0
 11
73.48345127153516
 21
53.85912410691026
 31
0.0
  0
LINE
  5
15D6
330
15D4
100
AcDbEntity
  8
Defpoints
  6
HIDDEN
 62
     7
100
AcDbLine
 10
97.4407458879623
 20
65.88723091139309
 30
0.0
 11
168.1103710872658
 21
87.60092578004877
 31
0.0
  0
LINE
  5
15D7
330
15D4
100
AcDbEntity
  8
Defpoints
  6
HIDDEN
 62
     7
100
AcDbLine
 10
95.410676387276
 20
53.85914259049012
 30
0.0
 11
167.9368755451278
 21
0.6901772210503623
 31
0.0
  0
LINE
  5
15D8
330
15D4
100
AcDbEntity
  8
Defpoints
  6
HIDDEN
 62
     7
100
AcDbLine
 10
1.689766412689094
 20
87.33063019900715
 30
0.0
 11
71.45340251299694
 21
65.88723228680237
 31
0.0
  0
ARC
  5
15D9
330
15D4
100
AcDbEntity
  8
Defpoints
  6
HIDDEN
 62
     7
100
AcDbCircle
 10
80.28640781418472
 20
63.33121643894447
 30
0.0
 40
9.195245652048749
100
AcDbArc
 50
160.8881565243002
 51
163.8611028562211
  0
ARC
  5
15DA
330
15D4
100
AcDbEntity
  8
Defpoints
  6
HIDDEN
 62
     7
100
AcDbCircle
 10
80.79225088044315
 20
59.40374367808136
 30
0.0
 40
9.173842279913998
100
AcDbArc
 50
214.5493815838098
 51
217.1858114717044
  0
ARC
  5
15DB
330
15D4
100
AcDbEntity
  8
Defpoints
  6
HIDDEN
 62
     7
100
AcDbCircle
 10
80.17311844989581
 20
63.04980388035892
 30
0.0
 40
9.169612660706247
100
AcDbArc
 50
161.9749018112059
 51
164.9300094815255
  0
ARC
  5
15DC
330
15D4
100
AcDbEntity
  8
Defpoints
  6
HIDDEN
 62
     7
100
AcDbCircle
 10
80.94191702024366
 20
59.14095579062222
 30
0.0
 40
9.139167913302747
100
AcDbArc
 50
215.3058494971268
 51
217.0706564463174
  0
ARC
  5
15DD
330
15D4
100
AcDbEntity
  8
Defpoints
  6
HIDDEN
 62
     7
100
AcDbCircle
 10
80.86565351278023
 20
59.07398350407039
 30
0.0
 40
9.037950040586496
100
AcDbArc
 50
217.0233316716775
 51
218.166900660515
  0
CIRCLE
  5
15DE
330
15D4
100
AcDbEntity
  8
Defpoints
  6
HIDDEN
 62
     7
100
AcDbCircle
 10
84.44707643853963
 20
61.89483814822665
 30
0.0
 40
15.43749999993825
  0
ARC
  5
15DF
330
15D4
100
AcDbEntity
  8
Defpoints
  6
HIDDEN
 62
     7
100
AcDbCircle
 10
84.44707643853963
 20
61.89483814822665
 30
0.0
 40
13.59687500015675
100
AcDbArc
 50
218.1864519426103
 51
321.678547264502
  0
ARC
  5
15E0
330
15D4
100
AcDbEntity
  8
Defpoints
  6
HIDDEN
 62
     7
100
AcDbCircle
 10
84.44707643853963
 20
61.89483814822665
 30
0.0
 40
13.59687500015675
100
AcDbArc
 50
164.9130640682073
 51
214.2804273840388
  0
ARC
  5
15E1
330
15D4
100
AcDbEntity
  8
Defpoints
  6
HIDDEN
 62
     7
100
AcDbCircle
 10
84.44707643853963
 20
61.89483814822665
 30
0.0
 40
13.59687500015675
100
AcDbArc
 50
325.900204986825
 51
15.00982053629266
  0
ARC
  5
15E2
330
15D4
100
AcDbEntity
  8
Defpoints
  6
HIDDEN
 62
     7
100
AcDbCircle
 10
84.44707643793845
 20
61.89483814882986
 30
0.0
 40
13.596792630592
100
AcDbArc
 50
19.15065123170565
 51
160.9094408717631
  0
CIRCLE
  5
15E3
330
15D4
100
AcDbEntity
  8
Defpoints
  6
HIDDEN
 62
     7
100
AcDbCircle
 10
84.44707643853963
 20
61.89483814822665
 30
0.0
 40
13.5375000000665
  0
CIRCLE
  5
15E4
330
15D4
100
AcDbEntity
  8
Defpoints
  6
HIDDEN
 62
     7
100
AcDbCircle
 10
84.44707643853963
 20
61.89483814822665
 30
0.0
 40
11.8749999999525
  0
ARC
  5
15E5
330
15D4
100
AcDbEntity
  8
Defpoints
  6
HIDDEN
 62
     7
100
AcDbCircle
 10
87.68960493200848
 20
59.69447103077665
 30
0.0
 40
9.67825507179125
100
AcDbArc
 50
324.5810156485132
 51
325.9248492009717
  0
ARC
  5
15E6
330
15D4
100
AcDbEntity
  8
Defpoints
  6
HIDDEN
 62
     7
100
AcDbCircle
 10
87.65788608320233
 20
59.36005642287319
 30
0.0
 40
9.506103741373998
100
AcDbArc
 50
321.6647607425833
 51
322.9508769188811
  0
ARC
  5
15E7
330
15D4
100
AcDbEntity
  8
Defpoints
  6
HIDDEN
 62
     7
100
AcDbCircle
 10
88.61409153159364
 20
63.01788961836837
 30
0.0
 40
9.281182374002748
100
AcDbArc
 50
14.97560895162535
 51
18.00816107250476
  0
ARC
  5
15E8
330
15D4
100
AcDbEntity
  8
Defpoints
  6
HIDDEN
 62
     7
100
AcDbCircle
 10
88.5265842325789
 20
63.30554363129363
 30
0.0
 40
9.280344121932747
100
AcDbArc
 50
16.15186978469044
 51
19.18559114018107
  0
ARC
  5
15E9
330
15D4
100
AcDbEntity
  8
Defpoints
  6
HIDDEN
 62
     7
100
AcDbCircle
 10
88.12669967132022
 20
59.38279276878347
 30
0.0
 40
9.141417422297498
100
AcDbArc
 50
322.8260803081651
 51
324.5852713375205
  0
ARC
  5
15EA
330
15D4
100
AcDbEntity
  8
Defpoints
  6
HIDDEN
 62
     7
100
AcDbCircle
 10
87.95080080651588
 20
59.14192334631412
 30
0.0
 40
9.1408981012635
100
AcDbArc
 50
322.9359289890437
 51
324.6956158917058
  0
LINE
  5
15EB
330
15D4
100
AcDbEntity
  8
Defpoints
  6
HIDDEN
 62
     7
100
AcDbLine
 10
73.21210438982506
 20
54.23648239502245
 30
0.0
 11
73.23636777443425
 21
54.20114392255209
 31
0.0
  0
ENDBLK
  5
15EF
330
15D4
100
AcDbEntity
  8
0
 48
0.5
100
AcDbBlockEnd
  0
BLOCK
  5
1665
330
1664
100
AcDbEntity
  8
0
100
AcDbBlockBegin
  2
*D18
 70
     1
 10
0.0
 20
0.0
 30
0.0
  3
*D18
  1

  0
LINE
  5
192A
330
1664
100
AcDbEntity
  8
0
440
 16777216
370
    -2
100
AcDbLine
 10
3685.497062933097
 20
2013.987334498911
 30
0.0
 11
3630.117458219426
 21
2055.128474027615
 31
0.0
  0
MTEXT
  5
192B
330
1664
100
AcDbEntity
  8
0
440
 16777216
100
AcDbMText
 10
3666.12159618857
 20
2037.220024148604
 30
0.0
 40
9.0
 41
0.0
 46
0.0
 71
     5
 72
     1
  1
R20 mm
 11
0.8027299384033522
 21
-0.5963427252771265
 31
0.0
 73
     1
 44
1.0
  0
MTEXT
  5
192C
330
1664
100
AcDbEntity
  8
0
440
 16777216
100
AcDbMText
 10
3656.925267292457
 20
2024.840953833151
 30
0.0
 40
9.0
 41
0.0
 46
0.0
 71
     5
 72
     1
  1
[R13/16 "]
 11
0.8027299384033522
 21
-0.5963427252771265
 31
0.0
 73
     1
 44
1.0
  0
SOLID
  5
192D
330
1664
100
AcDbEntity
  8
0
440
 16777216
100
AcDbTrace
 10
3630.912581853129
 20
2056.198780612152
 30
0.0
 11
3629.322334585723
 21
2054.058167443077
 31
0.0
 12
3623.695618712199
 22
2059.899215829831
 32
0.0
 13
3623.695618712199
 23
2059.899215829831
 33
0.0
  0
POINT
  5
192E
330
1664
100
AcDbEntity
  8
Defpoints
 62
     0
440
 16777216
100
AcDbPoint
 10
3623.695618712199
 20
2059.899215829831
 30
0.0
  0
POINT
  5
192F
330
1664
100
AcDbEntity
  8
Defpoints
 62
     0
440
 16777216
100
AcDbPoint
 10
3639.750217480265
 20
2047.97236132429
 30
0.0
  0
ENDBLK
  5
1666
330
1664
100
AcDbEntity
  8
0
100
AcDbBlockEnd
  0
BLOCK
  5
1684
330
1680
100
AcDbEntity
  8
0
100
AcDbBlockBegin
  2
A$C8f0d6f43
 70
     0
 10
0.0
 20
0.0
 30
0.0
  3
A$C8f0d6f43
  1

  0
LINE
  5
1681
330
1680
100
AcDbEntity
  8
0
  6
HIDDEN
 62
     7
100
AcDbLine
 10
691.2000400000102
 20
0.0
 30
0.0
 11
0.0
 21
0.0
 31
0.0
  0
ENDBLK
  5
1685
330
1680
100
AcDbEntity
  8
0
100
AcDbBlockEnd
  0
BLOCK
  5
168A
330
1686
100
AcDbEntity
  8
0
100
AcDbBlockBegin
  2
A$C7297b0f1
 70
     0
 10
0.0
 20
0.0
 30
0.0
  3
A$C7297b0f1
  1

  0
LWPOLYLINE
  5
1687
330
1686
100
AcDbEntity
  8
0
  6
HIDDEN
100
AcDbPolyline
 90
        4
 70
     1
 43
0.0
 10
-390.6708559708265
 20
-339.6195433075387
 10
269.7291440291747
 20
-339.6195433075387
 10
269.7291440291747
 20
92.18045669246135
 10
-390.6708559708265
 20
92.18045669246135
  0
ENDBLK
  5
168B
330
1686
100
AcDbEntity
  8
0
100
AcDbBlockEnd
  0
BLOCK
  5
1690
330
168C
100
AcDbEntity
  8
0
100
AcDbBlockBegin
  2
A$Cc4442162
 70
     0
 10
0.0
 20
0.0
 30
0.0
  3
A$Cc4442162
  1

  0
LWPOLYLINE
  5
168D
330
168C
100
AcDbEntity
  8
0
  6
HIDDEN
100
AcDbPolyline
 90
        4
 70
     1
 43
0.0
 10
-390.6708559708265
 20
-339.6195433075387
 10
269.7291440291747
 20
-339.6195433075387
 10
269.7291440291747
 20
92.18045669246135
 10
-390.6708559708265
 20
92.18045669246135
  0
ENDBLK
  5
1691
330
168C
100
AcDbEntity
  8
0
100
AcDbBlockEnd
  0
BLOCK
  5
1750
330
174F
100
AcDbEntity
  8
0
100
AcDbBlockBegin
  2
*D22
 70
     1
 10
0.0
 20
0.0
 30
0.0
  3
*D22
  1

  0
LINE
  5
1752
330
174F
100
AcDbEntity
  8
0
440
 16777216
370
    -2
100
AcDbLine
 10
3668.104461580087
 20
1639.147361324291
 30
0.0
 11
3671.104461580086
 21
1639.147361324291
 31
0.0
  0
LINE
  5
1753
330
174F
100
AcDbEntity
  8
0
440
 16777216
370
    -2
100
AcDbLine
 10
3668.104461580087
 20
1635.972361324291
 30
0.0
 11
3671.104461580086
 21
1635.972361324291
 31
0.0
  0
LINE
  5
1754
330
174F
100
AcDbEntity
  8
0
440
 16777216
370
    -2
100
AcDbLine
 10
3676.104461580087
 20
1647.147361324291
 30
0.0
 11
3676.104461580087
 21
1655.147361324291
 31
0.0
  0
LINE
  5
1755
330
174F
100
AcDbEntity
  8
0
440
 16777216
370
    -2
100
AcDbLine
 10
3676.104461580087
 20
1627.972361324291
 30
0.0
 11
3676.104461580087
 21
1567.40005573084
 31
0.0
  0
LINE
  5
1756
330
174F
100
AcDbEntity
  8
0
440
 16777216
370
    -2
100
AcDbLine
 10
3676.104461580087
 20
1639.147361324291
 30
0.0
 11
3676.104461580087
 21
1635.972361324291
 31
0.0
  0
SOLID
  5
1757
330
174F
100
AcDbEntity
  8
0
440
 16777216
100
AcDbTrace
 10
3674.771128246752
 20
1647.147361324291
 30
0.0
 11
3677.437794913419
 21
1647.147361324291
 31
0.0
 12
3676.104461580087
 22
1639.147361324291
 32
0.0
 13
3676.104461580087
 23
1639.147361324291
 33
0.0
  0
SOLID
  5
1758
330
174F
100
AcDbEntity
  8
0
440
 16777216
100
AcDbTrace
 10
3674.771128246752
 20
1627.972361324291
 30
0.0
 11
3677.437794913419
 21
1627.972361324291
 31
0.0
 12
3676.104461580087
 22
1635.972361324291
 32
0.0
 13
3676.104461580087
 23
1635.972361324291
 33
0.0
  0
MTEXT
  5
1759
330
174F
100
AcDbEntity
  8
0
440
 16777216
100
AcDbMText
 10
3668.195866764261
 20
1593.686208527564
 30
0.0
 40
9.0
 41
0.0
 46
0.0
 71
     5
 72
     1
  1
3,18 mm
 11
0.0000000000000001
 21
1.0
 31
0.0
 73
     1
 44
1.0
  0
MTEXT
  5
175A
330
174F
100
AcDbEntity
  8
0
440
 16777216
100
AcDbMText
 10
3684.430518878857
 20
1593.686208527564
 30
0.0
 40
9.0
 41
0.0
 46
0.0
 71
     5
 72
     1
  1
[1/8 "]
 11
0.0000000000000001
 21
1.0
 31
0.0
 73
     1
 44
1.0
  0
POINT
  5
175B
330
174F
100
AcDbEntity
  8
Defpoints
 62
     0
440
 16777216
100
AcDbPoint
 10
3676.104461580087
 20
1639.147361324291
 30
0.0
  0
POINT
  5
175C
330
174F
100
AcDbEntity
  8
Defpoints
 62
     0
440
 16777216
100
AcDbPoint
 10
3676.104461580087
 20
1635.972361324291
 30
0.0
  0
POINT
  5
175D
330
174F
100
AcDbEntity
  8
Defpoints
 62
     0
440
 16777216
100
AcDbPoint
 10
3676.104461580087
 20
1635.972361324291
 30
0.0
  0
ENDBLK
  5
1751
330
174F
100
AcDbEntity
  8
0
100
AcDbBlockEnd
  0
ENDSEC
  0
SECTION
  2
ENTITIES
  0
LINE
  5
3D4
330
1F
100
AcDbEntity
  8
0
  6
ByBlock
370
    -3
100
AcDbLine
 10
2564.786230936306
 20
1503.458603612537
 30
0.0
 11
2862.956376901795
 21
1503.458603612537
 31
0.0
  0
LINE
  5
3D5
330
1F
100
AcDbEntity
  8
0
  6
ByBlock
370
    -3
100
AcDbLine
 10
2712.174610802743
 20
1503.458603612537
 30
0.0
 11
2712.174610802743
 21
1445.979162159316
 31
0.0
  0
MTEXT
  5
3D6
330
1F
100
AcDbEntity
  8
0
  6
ByBlock
370
    -3
100
AcDbMText
 10
2719.514420321377
 20
1480.282040377857
 30
0.0
 40
14.85
 41
143.2278001120339
 46
0.0
 71
     1
 72
     5
  1
KHT600-33
 73
     1
 44
1.0
1001
ACAD
1000
ACAD_MTEXT_COLUMN_INFO_BEGIN
1070
    75
1070
     2
1070
    79
1070
     0
1070
    76
1070
     1
1070
    78
1070
     0
1070
    48
1040
143.2278001120339
1070
    49
1040
12.5
1070
    50
1070
     1
1040
0.0
1000
ACAD_MTEXT_COLUMN_INFO_END
  0
LINE
  5
3D7
330
1F
100
AcDbEntity
  8
0
  6
ByBlock
370
    -3
100
AcDbLine
 10
2564.786230936306
 20
1445.979162159316
 30
0.0
 11
2862.956376901795
 21
1445.979162159316
 31
0.0
  0
LINE
  5
3D8
330
1F
100
AcDbEntity
  8
0
  6
ByBlock
370
    -3
100
AcDbLine
 10
2564.786230936306
 20
1358.211113019935
 30
0.0
 11
2862.956376901795
 21
1358.211113019935
 31
0.0
  0
MTEXT
  5
3D9
102
{ACAD_XDICTIONARY
360
3DA
102
}
330
1F
100
AcDbEntity
  8
0
  6
ByBlock
370
    -3
100
AcDbMText
 10
2581.006947209163
 20
1420.338423858684
 30
0.0
 40
13.0
 41
256.0623730560901
 46
0.0
 71
     1
 72
     5
  1
33x22″ Dual mount Single Bowl Stainless Steel Kitchen Sink 
 73
     1
 44
1.0
1001
ACAD
1000
ACAD_MTEXT_COLUMN_INFO_BEGIN
1070
    75
1070
     2
1070
    79
1070
     0
1070
    76
1070
     1
1070
    78
1070
     0
1070
    48
1040
256.0623730560901
1070
    49
1040
12.5
1070
    50
1070
     1
1040
0.0
1000
ACAD_MTEXT_COLUMN_INFO_END
  0
MTEXT
  5
3DB
330
1F
100
AcDbEntity
  8
0
  6
ByBlock
370
    -3
100
AcDbMText
 10
2584.463598900575
 20
1345.258654468959
 30
0.0
 40
12.87
 41
266.9781062566162
 46
0.0
 71
     1
 72
     5
  1
www.kraususa.com
 73
     1
 44
1.0
1001
ACAD
1000
ACAD_MTEXT_COLUMN_INFO_BEGIN
1070
    75
1070
     2
1070
    79
1070
     0
1070
    76
1070
     1
1070
    78
1070
     0
1070
    48
1040
266.9781062566162
1070
    49
1040
12.5
1070
    50
1070
     1
1040
0.0
1000
ACAD_MTEXT_COLUMN_INFO_END
  0
LINE
  5
3DC
330
1F
100
AcDbEntity
  8
0
  6
ByBlock
370
    -3
100
AcDbLine
 10
2564.786230936306
 20
1317.744152108612
 30
0.0
 11
2862.956376901795
 21
1317.744152108612
 31
0.0
  0
LINE
  5
3DD
330
1F
100
AcDbEntity
  8
0
  6
ByBlock
370
    -3
100
AcDbLine
 10
2564.786230936306
 20
1503.458603612537
 30
0.0
 11
2564.786230936306
 21
1317.744152108612
 31
0.0
  0
LINE
  5
3DE
330
1F
100
AcDbEntity
  8
0
  6
ByBlock
370
    -3
100
AcDbLine
 10
2862.956376901795
 20
1503.458603612537
 30
0.0
 11
2862.956376901795
 21
1317.744152108612
 31
0.0
  0
LWPOLYLINE
  5
3DF
330
1F
100
AcDbEntity
  8
0
 62
     0
370
     0
100
AcDbPolyline
 90
       11
 70
     1
 43
0.0
 10
2611.166962277315
 20
1461.579923500911
 10
2600.229528357318
 20
1475.406409376353
 10
2610.82682713768
 20
1488.511654492102
 10
2601.692489308794
 20
1488.511654492102
 10
2592.750760364516
 20
1477.96762779091
 10
2592.750760364516
 20
1488.589518152528
 10
2584.690088417457
 20
1488.589518152528
 10
2584.690088417457
 20
1461.579923500911
 10
2592.750760364516
 20
1461.579923500911
 10
2592.750760364516
 20
1473.619703800664
 10
2602.036724981339
 20
1461.579923500911
  0
LWPOLYLINE
  5
3E0
330
1F
100
AcDbEntity
  8
0
 62
     0
370
     0
100
AcDbPolyline
 90
       36
 70
     1
 43
0.0
 10
2670.829437403574
 20
1470.71261182364
 10
2670.751678289311
 20
1470.274714403516
 10
2670.579211965823
 20
1469.770406936152
 10
2670.306474253882
 20
1469.238150794014
 10
2669.927889358019
 20
1468.71640734958
 10
2669.43790471525
 20
1468.243637975316
 10
2668.830921297641
 20
1467.858327276174
 10
2668.101386542194
 20
1467.598936624625
 10
2667.243736269691
 20
1467.503915776904
 10
2666.131399923062
 20
1467.685698325316
 10
2665.186558148964
 20
1468.242058166599
 10
2664.530635509902
 20
1469.189525211062
 10
2664.28501010341
 20
1470.544594520285
 10
2664.28501010341
 20
1483.256444033464
 10
2656.572674361808
 20
1483.256444033464
 10
2656.572674361808
 20
1470.163488900222
 10
2656.719503642398
 20
1467.90842812168
 10
2657.144971685128
 20
1466.012007153966
 10
2657.826496518377
 20
1464.456360219115
 10
2658.741507786734
 20
1463.223609922915
 10
2659.867435134803
 20
1462.295902103634
 10
2661.181708207208
 20
1461.655370983304
 10
2662.661756648538
 20
1461.284162400193
 10
2664.28501010341
 20
1461.164387343852
 10
2665.576712820416
 20
1461.285370489211
 10
2666.732133803256
 20
1461.616700518502
 10
2667.751737701554
 20
1462.11092508907
 10
2668.6360123974
 20
1462.720591858252
 10
2669.385445772913
 20
1463.398248483388
 10
2670.000502477712
 20
1464.096477470543
 10
2670.48168201014
 20
1464.767803244581
 10
2670.829437403574
 20
1465.364785079079
 10
2670.829437403574
 20
1461.578285610994
 10
2678.541784761414
 20
1461.578285610994
 10
2678.541784761414
 20
1483.256444033464
 10
2670.829437403574
 20
1483.256444033464
  0
LWPOLYLINE
  5
3E1
330
1F
100
AcDbEntity
  8
0
 62
     0
370
     0
100
AcDbPolyline
 90
       14
 70
     1
 43
0.0
 10
2640.426738886443
 20
1491.320391760362
 10
2637.861419938968
 20
1494.856932964224
 10
2635.292012074821
 20
1491.320391760362
 10
2634.938564723518
 20
1490.550490568994
 10
2634.812551745997
 20
1489.685312972611
 10
2635.052090242441
 20
1488.49837712915
 10
2635.705387611138
 20
1487.529280644778
 10
2636.674495711749
 20
1486.87597165984
 10
2637.861419938968
 20
1486.636433163399
 10
2639.045986069354
 20
1486.87597165984
 10
2640.013874464708
 20
1487.529280644778
 10
2640.666730416267
 20
1488.49837712915
 10
2640.906199215266
 20
1489.685312972611
 10
2640.780186237746
 20
1490.550490568994
  0
LWPOLYLINE
  5
3E2
330
1F
100
AcDbEntity
  8
0
 62
     0
370
     0
100
AcDbPolyline
 90
       14
 70
     1
 43
0.0
 10
2649.991353881649
 20
1491.320391760362
 10
2647.426046550422
 20
1494.856932964224
 10
2644.856627070031
 20
1491.320391760362
 10
2644.503179718727
 20
1490.550490568994
 10
2644.377166741207
 20
1489.685312972611
 10
2644.616705237647
 20
1488.49837712915
 10
2645.270002606348
 20
1487.529280644778
 10
2646.239110706959
 20
1486.87597165984
 10
2647.426046550422
 20
1486.636433163399
 10
2648.610601064564
 20
1486.87597165984
 10
2649.578489459915
 20
1487.529280644778
 10
2650.231345411474
 20
1488.49837712915
 10
2650.470814210474
 20
1489.685312972611
 10
2650.344812849195
 20
1490.550490568994
  0
CIRCLE
  5
3E3
330
1F
100
AcDbEntity
  8
0
 62
     0
370
     0
100
AcDbCircle
 10
2641.731533106552
 20
1472.436217980647
 30
0.0
 40
4.717761856972177
  0
LWPOLYLINE
  5
3E4
330
1F
100
AcDbEntity
  8
0
 62
     0
370
     0
100
AcDbPolyline
 90
       35
 70
     1
 43
0.0
 10
2645.714741992158
 20
1483.25276168521
 10
2645.714741992158
 20
1480.650561173982
 10
2645.591795702145
 20
1480.650561173982
 10
2645.405517668639
 20
1481.006935817905
 10
2645.088138744253
 20
1481.456960593169
 10
2644.637637703125
 20
1481.957121062655
 10
2644.051993319407
 20
1482.463902789259
 10
2643.329195983485
 20
1482.933802952109
 10
2642.467236085731
 20
1483.32331873033
 10
2641.464092400299
 20
1483.588935686814
 10
2640.317732085091
 20
1483.687139384448
 10
2638.606717932845
 20
1483.536046943575
 10
2636.851957018675
 20
1483.068481645078
 10
2635.137248901935
 20
1482.263023141378
 10
2633.546381525726
 20
1481.098262701132
 10
2632.163177681881
 20
1479.552768360526
 10
2631.071413697275
 20
1477.605143004454
 10
2630.354900747488
 20
1475.233943052864
 10
2630.097438391872
 20
1472.41777139065
 10
2630.35742147169
 20
1469.545539751527
 10
2631.080056180245
 20
1467.151455806046
 10
2632.179382337456
 20
1465.206200163049
 10
2633.569428146982
 20
1463.680430198901
 10
2635.164256661218
 20
1462.544791673723
 10
2636.877884467592
 20
1461.769953580118
 10
2638.624374618489
 20
1461.326561678213
 10
2640.317732085091
 20
1461.185284960608
 10
2642.35877524769
 20
1461.496983543365
 10
2643.924958112722
 20
1462.243582556184
 10
2645.004002313928
 20
1463.142319471524
 10
2645.583606252556
 20
1463.910431761848
 10
2645.714741992158
 20
1463.910431761848
 10
2645.714741992158
 20
1461.570491113583
 10
2653.050072646613
 20
1461.570491113583
 10
2653.050072646613
 20
1483.25276168521
  0
LWPOLYLINE
  5
3E5
330
1F
100
AcDbEntity
  8
0
 62
     0
370
     0
100
AcDbPolyline
 90
       76
 70
     1
 43
0.0
 10
2693.984507882428
 20
1474.214315922087
 10
2690.116044221003
 20
1475.09127238639
 10
2689.589642664102
 20
1475.274599894801
 10
2689.162757440024
 20
1475.571255446039
 10
2688.876475191598
 20
1475.970099065426
 10
2688.771917410381
 20
1476.459990778266
 10
2688.943454434627
 20
1477.178931522328
 10
2689.403515641728
 20
1477.705774496367
 10
2690.070264616985
 20
1478.029763061627
 10
2690.861864945706
 20
1478.140152195602
 10
2691.841857463712
 20
1478.035396938296
 10
2692.591720640127
 20
1477.692450668452
 10
2693.117982802136
 20
1477.06828683106
 10
2693.42718389318
 20
1476.119867254875
 10
2700.217492157126
 20
1476.119867254875
 10
2699.912159274189
 20
1477.686956186669
 10
2699.418387737004
 20
1479.12346695841
 10
2698.705638449161
 20
1480.405261022226
 10
2697.743349081753
 20
1481.508153365284
 10
2696.501003770853
 20
1482.408017055959
 10
2694.948040187573
 20
1483.08067869766
 10
2693.05391923549
 20
1483.501999742515
 10
2690.788101818193
 20
1483.647795177695
 10
2688.76873456047
 20
1483.527590320455
 10
2686.960806113289
 20
1483.174805094856
 10
2685.3821474059
 20
1482.601218368836
 10
2684.050566135076
 20
1481.818574161582
 10
2682.983869997576
 20
1480.838662957255
 10
2682.19988992266
 20
1479.6732403913
 10
2681.716433607085
 20
1478.334062099153
 10
2681.551320363869
 20
1476.832906948737
 10
2681.642670479581
 20
1475.761808256069
 10
2681.927884033874
 20
1474.743714469047
 10
2682.423734878118
 20
1473.789022122965
 10
2683.146962014944
 20
1472.908092904389
 10
2684.114339295712
 20
1472.11130011614
 10
2685.342628955539
 20
1471.409017061033
 10
2686.848593229548
 20
1470.811605425634
 10
2688.648971120369
 20
1470.329461745242
 10
2691.812596153761
 20
1469.620510968056
 10
2692.456937400996
 20
1469.424068724065
 10
2692.839646062252
 20
1469.118515132562
 10
2693.023345290351
 20
1468.75148839605
 10
2693.070669854364
 20
1468.370638333282
 10
2692.997545620085
 20
1467.829321523513
 10
2692.688530388898
 20
1467.245744830613
 10
2692.009166176399
 20
1466.778969436476
 10
2690.824983381945
 20
1466.588033290507
 10
2689.646504161612
 20
1466.742657068507
 10
2688.844135577899
 20
1467.167381671842
 10
2688.331452801094
 20
1467.803394074598
 10
2688.021984536525
 20
1468.591927715814
 10
2681.108741598806
 20
1468.591927715814
 10
2681.443730743869
 20
1466.859051798847
 10
2682.006769923472
 20
1465.350067302296
 10
2682.808104661777
 20
1464.067158079387
 10
2683.857957250467
 20
1463.012566064547
 10
2685.166561597483
 20
1462.188475111001
 10
2686.744128378253
 20
1461.597103920689
 10
2688.6009147332
 20
1461.240671195565
 10
2690.747131337764
 20
1461.121360788845
 10
2692.823824742616
 20
1461.232760535745
 10
2694.739551902127
 20
1461.566181488339
 10
2696.458581260356
 20
1462.12040394136
 10
2697.945181261363
 20
1462.894231422036
 10
2699.163620349203
 20
1463.886479073828
 10
2700.078166967932
 20
1465.09592719148
 10
2700.653089561618
 20
1466.521379302214
 10
2700.852679806802
 20
1468.161638933251
 10
2700.706640430569
 20
1469.752912877878
 10
2700.290674472606
 20
1470.992946556908
 10
2699.637957915941
 20
1471.938113585737
 10
2698.781678359819
 20
1472.644799196018
 10
2697.755000171028
 20
1473.169388619387
 10
2696.591122565066
 20
1473.568243855016
 10
2695.323233141194
 20
1473.897761750779
  0
LWPOLYLINE
  5
3E6
330
1F
100
AcDbEntity
  8
0
 62
     0
370
     0
100
AcDbPolyline
 90
       26
 70
     1
 43
0.0
 10
2626.584269063999
 20
1483.46052976374
 10
2625.34790611699
 20
1483.376358484695
 10
2624.263297736562
 20
1483.130640148276
 10
2623.325437323035
 20
1482.733550581216
 10
2622.529353125462
 20
1482.195277226473
 10
2621.870026927914
 20
1481.526007527014
 10
2621.342475363201
 20
1480.735894077086
 10
2620.941715064123
 20
1479.835147552129
 10
2620.662727814767
 20
1478.833932162627
 10
2620.662727814767
 20
1483.251530363711
 10
2612.950380456931
 20
1483.251530363711
 10
2612.950380456931
 20
1461.577460857915
 10
2620.662727814767
 20
1461.577460857915
 10
2620.662727814767
 20
1472.207552285362
 10
2620.74926880689
 20
1472.996039461617
 10
2621.007730159189
 20
1473.792367600244
 10
2621.436381051835
 20
1474.561699595824
 10
2622.033490664975
 20
1475.269233191663
 10
2622.797351411254
 20
1475.880142898585
 10
2623.726209238352
 20
1476.359603227408
 10
2624.818344942659
 20
1476.672823537675
 10
2626.072027704339
 20
1476.784966723973
 10
2627.254282202853
 20
1476.672777072714
 10
2628.461128282621
 20
1476.342387958906
 10
2628.461128282621
 20
1483.296601377056
 10
2627.336757510776
 20
1483.440038715404
  0
LINE
  5
40B
330
1F
100
AcDbEntity
  8
0
370
     5
100
AcDbLine
 10
3710.532861454554
 20
1385.050906431677
 30
0.0
 11
3707.023450625396
 21
1452.014453983551
 31
0.0
  0
ARC
  5
40C
330
1F
100
AcDbEntity
  8
0
370
     5
100
AcDbCircle
 10
3702.529617719032
 20
1451.778942179852
 30
0.0
 40
4.5
100
AcDbArc
 50
3.00000000771529
 51
90.0
  0
LINE
  5
40D
330
1F
100
AcDbEntity
  8
0
370
     5
100
AcDbLine
 10
3708.560434869138
 20
1384.472402497111
 30
0.0
 11
3705.051024039982
 21
1451.435950048984
 31
0.0
  0
ARC
  5
40E
330
1F
100
AcDbEntity
  8
0
370
     5
100
AcDbCircle
 10
3702.055135435738
 20
1451.278942179851
 30
0.0
 40
3.0
100
AcDbArc
 50
3.00000000771529
 51
90.0
  0
LINE
  5
40F
330
1F
100
AcDbEntity
  8
0
370
     5
100
AcDbLine
 10
3762.040467059587
 20
1373.060060705478
 30
0.0
 11
3762.040467059587
 21
1375.06006070548
 31
0.0
  0
ARC
  5
410
330
1F
100
AcDbEntity
  8
0
370
     5
100
AcDbCircle
 10
4099.705728651456
 20
1597.113986747046
 30
0.0
 40
407.7454318089714
100
AcDbArc
 50
212.5938397801278
 51
212.9966235360722
  0
ARC
  5
411
330
1F
100
AcDbEntity
  8
0
370
     5
100
AcDbCircle
 10
4099.705728651456
 20
1597.113986747046
 30
0.0
 40
409.7454318089716
100
AcDbArc
 50
212.7471028189324
 51
213.1486111216605
  0
LINE
  5
412
330
1F
100
AcDbEntity
  8
0
370
     5
100
AcDbLine
 10
3718.521897732534
 20
1377.469594082697
 30
0.0
 11
3756.175994956986
 21
1377.469594082697
 31
0.0
  0
ARC
  5
413
330
1F
100
AcDbEntity
  8
0
370
     5
100
AcDbCircle
 10
3718.521897732534
 20
1385.469594082697
 30
0.0
 40
8.0
100
AcDbArc
 50
183.0000000077152
 51
270.0
  0
LINE
  5
414
330
1F
100
AcDbEntity
  8
0
370
     5
100
AcDbLine
 10
3718.04741544924
 20
1375.469594082697
 30
0.0
 11
3755.08262714958
 21
1375.469594082697
 31
0.0
  0
ARC
  5
415
330
1F
100
AcDbEntity
  8
0
370
     5
100
AcDbCircle
 10
3718.04741544924
 20
1384.969594082697
 30
0.0
 40
9.5
100
AcDbArc
 50
183.0000000077152
 51
270.0
  0
LINE
  5
416
330
1F
100
AcDbEntity
  8
0
370
     5
100
AcDbLine
 10
3757.728549455812
 20
1375.060060705478
 30
0.0
 11
3788.112857155971
 21
1375.060060705478
 31
0.0
  0
LINE
  5
417
330
1F
100
AcDbEntity
  8
0
370
     5
100
AcDbLine
 10
3756.644280637139
 20
1373.060060705478
 30
0.0
 11
3789.197125974641
 21
1373.060060705478
 31
0.0
  0
HATCH
  5
418
330
1F
100
AcDbEntity
  8
0
 62
     2
370
    -3
100
AcDbHatch
 10
0.0
 20
0.0
 30
0.0
210
0.0
220
0.0
230
1.0
  2
ANSI31
 70
     0
 71
     0
 91
        2
 92
        7
 72
     1
 73
     1
 93
        5
 10
3655.317752341429
 20
1466.486681554101
 42
0.0
 10
3655.317752341429
 20
1456.278942179853
 42
0.0
 10
3706.799958268673
 20
1456.278942179852
 42
0.0
 10
3706.799958268673
 20
1463.486681554098
 42
0.4142135623730786
 10
3703.799958268672
 20
1466.486681554098
 42
0.0
 97
        0
 92
        7
 72
     1
 73
     1
 93
        6
 10
3856.18627327683
 20
1456.278942179852
 42
0.0
 10
3890.523654270353
 20
1456.278942179853
 42
0.0
 10
3890.523654270353
 20
1466.486681554101
 42
0.0
 10
3842.04144834311
 20
1466.486681554098
 42
0.4142135623730784
 10
3839.04144834311
 20
1463.486681554098
 42
0.0
 10
3839.04144834311
 20
1456.278942179852
 42
0.0
 97
        0
 75
     1
 76
     1
 52
0.0
 41
1.0
 77
     0
 78
     1
 53
45.0
 43
2036.507122180108
 44
1070.539022719313
 45
-2.245064030267287
 46
2.245064030267287
 79
     0
 47
0.3964580164686978
 98
        2
 10
3693.505923974708
 20
1462.87755169769
 10
3852.198045511699
 20
1460.102346700413
1001
GradientColor1ACI
1070
     5
1001
GradientColor2ACI
1070
     2
1001
ACAD
1010
0.0
1020
0.0
1030
0.0
  0
LINE
  5
419
330
1F
100
AcDbEntity
  8
0
370
     5
100
AcDbLine
 10
3655.317752341429
 20
1466.486681554101
 30
0.0
 11
3655.317752341429
 21
1456.278942179853
 31
0.0
  0
LINE
  5
41A
330
1F
100
AcDbEntity
  8
0
370
     5
100
AcDbLine
 10
3706.799958268673
 20
1456.278942179852
 30
0.0
 11
3706.799958268673
 21
1463.486681554098
 31
0.0
  0
LINE
  5
41B
330
1F
100
AcDbEntity
  8
0
370
     5
100
AcDbLine
 10
3655.317752341429
 20
1456.278942179853
 30
0.0
 11
3706.799958268673
 21
1456.278942179852
 31
0.0
  0
LINE
  5
41C
330
1F
100
AcDbEntity
  8
0
370
     5
100
AcDbLine
 10
3703.799958268672
 20
1466.486681554098
 30
0.0
 11
3655.317752341429
 21
1466.486681554101
 31
0.0
  0
ARC
  5
41D
330
1F
100
AcDbEntity
  8
0
370
     5
100
AcDbCircle
 10
3703.799958268672
 20
1463.486681554098
 30
0.0
 40
3.0
100
AcDbArc
 50
0.0
 51
89.99999999997395
  0
LINE
  5
41E
330
1F
100
AcDbEntity
  8
0
370
     5
100
AcDbLine
 10
3689.655133334952
 20
1456.278942179852
 30
0.0
 11
3702.529617719032
 21
1456.278942179852
 31
0.0
  0
LINE
  5
41F
330
1F
100
AcDbEntity
  8
0
370
     5
100
AcDbLine
 10
3689.655133334952
 20
1454.278942179852
 30
0.0
 11
3702.055135435738
 21
1454.278942179852
 31
0.0
  0
LINE
  5
420
330
1F
100
AcDbEntity
  8
0
370
    -3
100
AcDbLine
 10
3689.655133334952
 20
1454.278942179852
 30
0.0
 11
3689.655133334952
 21
1456.278942179852
 31
0.0
  0
LINE
  5
421
330
1F
100
AcDbEntity
  8
0
370
     5
100
AcDbLine
 10
3835.308545157229
 20
1385.050906431677
 30
0.0
 11
3838.817955986387
 21
1452.014453983551
 31
0.0
  0
ARC
  5
422
330
1F
100
AcDbEntity
  8
0
370
     5
100
AcDbCircle
 10
3827.319508879249
 20
1385.469594082697
 30
0.0
 40
8.0
100
AcDbArc
 50
270.0
 51
356.9999999922847
  0
ARC
  5
423
330
1F
100
AcDbEntity
  8
0
370
     5
100
AcDbCircle
 10
3843.311788892751
 20
1451.778942179852
 30
0.0
 40
4.5
100
AcDbArc
 50
90.0
 51
176.9999999922717
  0
LINE
  5
424
330
1F
100
AcDbEntity
  8
0
370
     5
100
AcDbLine
 10
3837.280971742643
 20
1384.472402497111
 30
0.0
 11
3840.7903825718
 21
1451.435950048984
 31
0.0
  0
ARC
  5
425
330
1F
100
AcDbEntity
  8
0
370
     5
100
AcDbCircle
 10
3827.793991162542
 20
1384.969594082697
 30
0.0
 40
9.5
100
AcDbArc
 50
270.0
 51
356.9999999922847
  0
ARC
  5
426
330
1F
100
AcDbEntity
  8
0
370
     5
100
AcDbCircle
 10
3843.786271176043
 20
1451.278942179851
 30
0.0
 40
3.0
100
AcDbArc
 50
90.0
 51
176.9999999922717
  0
LINE
  5
427
330
1F
100
AcDbEntity
  8
0
370
     5
100
AcDbLine
 10
3827.319508879249
 20
1377.469594082697
 30
0.0
 11
3789.665411654797
 21
1377.469594082697
 31
0.0
  0
LINE
  5
428
330
1F
100
AcDbEntity
  8
0
370
     5
100
AcDbLine
 10
3827.793991162542
 20
1375.469594082697
 30
0.0
 11
3790.7587794622
 21
1375.469594082697
 31
0.0
  0
LINE
  5
429
330
1F
100
AcDbEntity
  8
0
370
     5
100
AcDbLine
 10
3890.523654270353
 20
1466.486681554101
 30
0.0
 11
3890.523654270353
 21
1456.278942179853
 31
0.0
  0
LINE
  5
42A
330
1F
100
AcDbEntity
  8
0
370
     5
100
AcDbLine
 10
3839.04144834311
 20
1456.278942179852
 30
0.0
 11
3839.04144834311
 21
1463.486681554098
 31
0.0
  0
LINE
  5
42B
330
1F
100
AcDbEntity
  8
0
370
     5
100
AcDbLine
 10
3890.523654270353
 20
1456.278942179853
 30
0.0
 11
3839.04144834311
 21
1456.278942179852
 31
0.0
  0
LINE
  5
42C
330
1F
100
AcDbEntity
  8
0
370
     5
100
AcDbLine
 10
3842.04144834311
 20
1466.486681554098
 30
0.0
 11
3890.523654270353
 21
1466.486681554101
 31
0.0
  0
ARC
  5
42D
330
1F
100
AcDbEntity
  8
0
370
     5
100
AcDbCircle
 10
3842.04144834311
 20
1463.486681554098
 30
0.0
 40
3.0
100
AcDbArc
 50
90.0
 51
180.0
  0
LINE
  5
42E
330
1F
100
AcDbEntity
  8
0
370
     5
100
AcDbLine
 10
3856.18627327683
 20
1456.278942179852
 30
0.0
 11
3843.311788892751
 21
1456.278942179852
 31
0.0
  0
LINE
  5
42F
330
1F
100
AcDbEntity
  8
0
370
     5
100
AcDbLine
 10
3856.18627327683
 20
1454.278942179852
 30
0.0
 11
3843.786271176043
 21
1454.278942179852
 31
0.0
  0
LINE
  5
430
330
1F
100
AcDbEntity
  8
0
370
    -3
100
AcDbLine
 10
3856.18627327683
 20
1454.278942179852
 30
0.0
 11
3856.18627327683
 21
1456.278942179852
 31
0.0
  0
LINE
  5
431
330
1F
100
AcDbEntity
  8
0
370
     5
100
AcDbLine
 10
3783.800939552194
 20
1373.060060705478
 30
0.0
 11
3783.800939552194
 21
1375.06006070548
 31
0.0
  0
ARC
  5
432
330
1F
100
AcDbEntity
  8
0
370
     5
100
AcDbCircle
 10
3446.135677960325
 20
1597.113986747046
 30
0.0
 40
407.7454318089714
100
AcDbArc
 50
327.0033764639279
 51
327.4061602198722
  0
ARC
  5
433
330
1F
100
AcDbEntity
  8
0
370
     5
100
AcDbCircle
 10
3446.135677960325
 20
1597.113986747046
 30
0.0
 40
409.7454318089716
100
AcDbArc
 50
326.8513888783394
 51
327.2528971810817
  0
LINE
  5
434
330
1F
100
AcDbEntity
  8
0
370
     5
100
AcDbLine
 10
4020.773995377648
 20
1381.959784800239
 30
0.0
 11
4017.264584548489
 21
1448.923332352113
 31
0.0
  0
ARC
  5
435
330
1F
100
AcDbEntity
  8
0
370
     5
100
AcDbCircle
 10
4012.770751642128
 20
1448.687820548414
 30
0.0
 40
4.5
100
AcDbArc
 50
3.00000000771529
 51
90.0
  0
LINE
  5
436
330
1F
100
AcDbEntity
  8
0
370
     5
100
AcDbLine
 10
4018.801568792233
 20
1381.381280865673
 30
0.0
 11
4015.292157963076
 21
1448.344828417546
 31
0.0
  0
ARC
  5
437
330
1F
100
AcDbEntity
  8
0
370
     5
100
AcDbCircle
 10
4012.296269358833
 20
1448.187820548414
 30
0.0
 40
3.0
100
AcDbArc
 50
3.00000000771529
 51
90.0
  0
LINE
  5
438
330
1F
100
AcDbEntity
  8
0
370
     5
100
AcDbLine
 10
4072.281600982683
 20
1369.968939074039
 30
0.0
 11
4072.281600982683
 21
1371.968939074042
 31
0.0
  0
ARC
  5
439
330
1F
100
AcDbEntity
  8
0
370
     5
100
AcDbCircle
 10
4409.946862574552
 20
1594.022865115607
 30
0.0
 40
407.7454318089714
100
AcDbArc
 50
212.5938397801278
 51
212.9966235360831
  0
ARC
  5
43A
330
1F
100
AcDbEntity
  8
0
370
     5
100
AcDbCircle
 10
4409.946862574552
 20
1594.022865115607
 30
0.0
 40
409.7454318089716
100
AcDbArc
 50
212.7471028189183
 51
213.1486111216605
  0
LINE
  5
43B
330
1F
100
AcDbEntity
  8
0
370
     5
100
AcDbLine
 10
4028.763031655627
 20
1374.378472451259
 30
0.0
 11
4066.417128880082
 21
1374.378472451259
 31
0.0
  0
ARC
  5
43C
330
1F
100
AcDbEntity
  8
0
370
     5
100
AcDbCircle
 10
4028.763031655627
 20
1382.378472451259
 30
0.0
 40
8.0
100
AcDbArc
 50
183.0000000077152
 51
270.0
  0
LINE
  5
43D
330
1F
100
AcDbEntity
  8
0
370
     5
100
AcDbLine
 10
4028.288549372335
 20
1372.378472451259
 30
0.0
 11
4065.323761072676
 21
1372.378472451259
 31
0.0
  0
ARC
  5
43E
330
1F
100
AcDbEntity
  8
0
370
     5
100
AcDbCircle
 10
4028.288549372335
 20
1381.878472451259
 30
0.0
 40
9.5
100
AcDbArc
 50
183.0000000077152
 51
270.0
  0
LINE
  5
43F
330
1F
100
AcDbEntity
  8
0
370
     5
100
AcDbLine
 10
4067.969683378906
 20
1371.968939074039
 30
0.0
 11
4098.353991079068
 21
1371.968939074039
 31
0.0
  0
LINE
  5
440
330
1F
100
AcDbEntity
  8
0
370
     5
100
AcDbLine
 10
4066.885414560236
 20
1369.968939074039
 30
0.0
 11
4099.438259897739
 21
1369.968939074039
 31
0.0
  0
HATCH
  5
441
330
1F
100
AcDbEntity
  8
0
 62
     2
370
    -3
100
AcDbHatch
 10
0.0
 20
0.0
 30
0.0
210
0.0
220
0.0
230
1.0
  2
ANSI31
 70
     0
 71
     1
 91
        2
 92
        7
 72
     1
 73
     1
 93
        5
 10
3959.068694515089
 20
1463.395559922663
 42
0.0
 10
3959.068694515089
 20
1453.187820548415
 42
0.0
 10
4010.550900442329
 20
1453.187820548414
 42
0.0
 10
4010.550900442331
 20
1460.39555992266
 42
0.4142135623730774
 10
4007.550900442331
 20
1463.39555992266
 42
0.0
 97
        5
330
446
330
442
330
445
330
443
330
444
 92
        7
 72
     1
 73
     1
 93
        5
 10
4158.77277401564
 20
1463.39555992266
 42
0.4142135623730784
 10
4155.77277401564
 20
1460.39555992266
 42
0.0
 10
4155.772774015642
 20
1453.187820548414
 42
0.0
 10
4207.254979942885
 20
1453.187820548415
 42
0.0
 10
4207.254979942885
 20
1463.395559922663
 42
0.0
 97
        5
330
45B
330
45C
330
459
330
45A
330
458
 75
     1
 76
     1
 52
0.0
 41
1.0
 77
     0
 78
     1
 53
45.0
 43
2346.111804389138
 44
862.7050384760194
 45
-2.245064030267287
 46
2.245064030267287
 79
     0
 47
0.2478031236227961
 98
        2
 10
3997.570942342483
 20
1460.149277418179
 10
4163.961037414329
 20
1460.149277418179
1001
GradientColor1ACI
1070
     5
1001
GradientColor2ACI
1070
     2
1001
ACAD
1010
0.0
1020
0.0
1030
0.0
  0
LINE
  5
442
102
{ACAD_REACTORS
330
441
102
}
330
1F
100
AcDbEntity
  8
0
370
     5
100
AcDbLine
 10
3959.068694515089
 20
1463.395559922663
 30
0.0
 11
3959.068694515089
 21
1453.187820548415
 31
0.0
  0
LINE
  5
443
102
{ACAD_REACTORS
330
441
102
}
330
1F
100
AcDbEntity
  8
0
370
     5
100
AcDbLine
 10
4010.550900442329
 20
1453.187820548414
 30
0.0
 11
4010.550900442329
 21
1460.39555992266
 31
0.0
  0
ARC
  5
444
102
{ACAD_REACTORS
330
441
102
}
330
1F
100
AcDbEntity
  8
0
370
     5
100
AcDbCircle
 10
4007.550900442331
 20
1460.39555992266
 30
0.0
 40
3.0
100
AcDbArc
 50
0.0
 51
89.99999999997395
  0
LINE
  5
445
102
{ACAD_REACTORS
330
441
102
}
330
1F
100
AcDbEntity
  8
0
370
     5
100
AcDbLine
 10
3959.068694515089
 20
1453.187820548415
 30
0.0
 11
4010.550900442329
 21
1453.187820548414
 31
0.0
  0
LINE
  5
446
102
{ACAD_REACTORS
330
441
102
}
330
1F
100
AcDbEntity
  8
0
370
     5
100
AcDbLine
 10
4007.550900442331
 20
1463.39555992266
 30
0.0
 11
3959.068694515089
 21
1463.395559922663
 31
0.0
  0
LINE
  5
447
330
1F
100
AcDbEntity
  8
0
370
     5
100
AcDbLine
 10
3999.896267258048
 20
1453.187820548414
 30
0.0
 11
4012.770751642128
 21
1453.187820548414
 31
0.0
  0
LINE
  5
448
330
1F
100
AcDbEntity
  8
0
370
     5
100
AcDbLine
 10
3999.896267258048
 20
1451.187820548414
 30
0.0
 11
4012.296269358833
 21
1451.187820548414
 31
0.0
  0
LINE
  5
449
330
1F
100
AcDbEntity
  8
0
370
    -3
100
AcDbLine
 10
3999.896267258048
 20
1451.187820548414
 30
0.0
 11
3999.896267258048
 21
1453.187820548414
 31
0.0
  0
LINE
  5
44A
330
1F
100
AcDbEntity
  8
0
370
     5
100
AcDbLine
 10
4145.549679080324
 20
1381.959784800239
 30
0.0
 11
4149.059089909481
 21
1448.923332352112
 31
0.0
  0
ARC
  5
44B
330
1F
100
AcDbEntity
  8
0
370
     5
100
AcDbCircle
 10
4137.560642802344
 20
1382.378472451259
 30
0.0
 40
8.0
100
AcDbArc
 50
270.0
 51
356.9999999922847
  0
ARC
  5
44C
330
1F
100
AcDbEntity
  8
0
370
     5
100
AcDbCircle
 10
4153.552922815846
 20
1448.687820548414
 30
0.0
 40
4.5
100
AcDbArc
 50
90.0
 51
176.9999999922717
  0
LINE
  5
44D
330
1F
100
AcDbEntity
  8
0
370
     5
100
AcDbLine
 10
4147.522105665737
 20
1381.381280865673
 30
0.0
 11
4151.031516494898
 21
1448.344828417546
 31
0.0
  0
ARC
  5
44E
330
1F
100
AcDbEntity
  8
0
370
     5
100
AcDbCircle
 10
4138.035125085639
 20
1381.878472451259
 30
0.0
 40
9.5
100
AcDbArc
 50
270.0
 51
356.9999999922847
  0
ARC
  5
44F
330
1F
100
AcDbEntity
  8
0
370
     5
100
AcDbCircle
 10
4154.027405099138
 20
1448.187820548414
 30
0.0
 40
3.0
100
AcDbArc
 50
90.0
 51
176.9999999922717
  0
LINE
  5
450
330
1F
100
AcDbEntity
  8
0
370
     5
100
AcDbLine
 10
4137.560642802344
 20
1374.378472451259
 30
0.0
 11
4099.906545577892
 21
1374.378472451259
 31
0.0
  0
LINE
  5
451
330
1F
100
AcDbEntity
  8
0
370
     5
100
AcDbLine
 10
4138.035125085639
 20
1372.378472451259
 30
0.0
 11
4100.999913385297
 21
1372.378472451259
 31
0.0
  0
LINE
  5
452
330
1F
100
AcDbEntity
  8
0
370
     5
100
AcDbLine
 10
4166.427407199926
 20
1453.187820548414
 30
0.0
 11
4153.552922815846
 21
1453.187820548414
 31
0.0
  0
LINE
  5
453
330
1F
100
AcDbEntity
  8
0
370
     5
100
AcDbLine
 10
4166.427407199926
 20
1451.187820548414
 30
0.0
 11
4154.027405099138
 21
1451.187820548414
 31
0.0
  0
LINE
  5
454
330
1F
100
AcDbEntity
  8
0
370
    -3
100
AcDbLine
 10
4166.427407199926
 20
1451.187820548414
 30
0.0
 11
4166.427407199926
 21
1453.187820548414
 31
0.0
  0
LINE
  5
455
330
1F
100
AcDbEntity
  8
0
370
     5
100
AcDbLine
 10
4094.042073475288
 20
1369.968939074039
 30
0.0
 11
4094.042073475288
 21
1371.968939074042
 31
0.0
  0
ARC
  5
456
330
1F
100
AcDbEntity
  8
0
370
     5
100
AcDbCircle
 10
3756.37681188342
 20
1594.022865115607
 30
0.0
 40
407.7454318089714
100
AcDbArc
 50
327.0033764639279
 51
327.4061602198722
  0
ARC
  5
457
330
1F
100
AcDbEntity
  8
0
370
     5
100
AcDbCircle
 10
3756.37681188342
 20
1594.022865115607
 30
0.0
 40
409.7454318089716
100
AcDbArc
 50
326.8513888783394
 51
327.2528971810927
  0
LINE
  5
458
102
{ACAD_REACTORS
330
441
102
}
330
1F
100
AcDbEntity
  8
0
370
     5
100
AcDbLine
 10
4207.254979942885
 20
1463.395559922663
 30
0.0
 11
4207.254979942885
 21
1453.187820548415
 31
0.0
  0
LINE
  5
459
102
{ACAD_REACTORS
330
441
102
}
330
1F
100
AcDbEntity
  8
0
370
     5
100
AcDbLine
 10
4155.772774015642
 20
1453.187820548414
 30
0.0
 11
4155.772774015642
 21
1460.39555992266
 31
0.0
  0
LINE
  5
45A
102
{ACAD_REACTORS
330
441
102
}
330
1F
100
AcDbEntity
  8
0
370
     5
100
AcDbLine
 10
4207.254979942885
 20
1453.187820548415
 30
0.0
 11
4155.772774015642
 21
1453.187820548414
 31
0.0
  0
LINE
  5
45B
102
{ACAD_REACTORS
330
441
102
}
330
1F
100
AcDbEntity
  8
0
370
     5
100
AcDbLine
 10
4158.77277401564
 20
1463.39555992266
 30
0.0
 11
4207.254979942885
 21
1463.395559922663
 31
0.0
  0
ARC
  5
45C
102
{ACAD_REACTORS
330
441
102
}
330
1F
100
AcDbEntity
  8
0
370
     5
100
AcDbCircle
 10
4158.77277401564
 20
1460.39555992266
 30
0.0
 40
3.0
100
AcDbArc
 50
90.0
 51
180.0
  0
MTEXT
  5
45D
330
1F
100
AcDbEntity
  8
note
370
    -3
100
AcDbMText
 10
3649.21695719932
 20
1356.867695497439
 30
0.0
 40
8.0
 41
233.6010130528989
 46
0.0
 71
     1
 72
     5
  1
{\fCalibri|b0|i0|c0|p34;The countertop meets the edge of the sink fitting flush with the wall of the bowl}
 73
     1
 44
1.0
1001
ACAD
1000
ACAD_MTEXT_COLUMN_INFO_BEGIN
1070
    75
1070
     2
1070
    79
1070
     0
1070
    76
1070
     1
1070
    78
1070
     0
1070
    48
1040
233.6010130528989
1070
    49
1040
12.5
1070
    50
1070
     1
1040
35.89923947831051
1000
ACAD_MTEXT_COLUMN_INFO_END
  0
MTEXT
  5
45E
330
1F
100
AcDbEntity
  8
note
370
    -3
100
AcDbMText
 10
3950.52604710895
 20
1489.818220668043
 30
0.0
 40
8.0
 41
237.1240077337111
 46
0.0
 71
     1
 72
     5
  1
{\fCalibri|b1|i0|c0|p34;3/8" Positive Reveal}
 73
     1
 44
1.0
1001
ACAD
1000
ACAD_MTEXT_COLUMN_INFO_BEGIN
1070
    75
1070
     2
1070
    79
1070
     0
1070
    76
1070
     1
1070
    78
1070
     0
1070
    48
1040
237.1240077337111
1070
    49
1040
12.5
1070
    50
1070
     1
1040
49.41104810070461
1000
ACAD_MTEXT_COLUMN_INFO_END
  0
LWPOLYLINE
  5
45F
330
1F
100
AcDbEntity
  8
0
370
    -3
100
AcDbPolyline
 90
        4
 70
     1
 43
0.0
 10
3937.046447578589
 20
1502.988765881659
 10
4224.120339917475
 20
1502.988765881659
 10
4224.120339917475
 20
1317.744152907512
 10
3937.046447578589
 20
1317.744152907512
  0
MTEXT
  5
460
330
1F
100
AcDbEntity
  8
note
370
    -3
100
AcDbMText
 10
3643.174357867379
 20
1490.370711103279
 30
0.0
 40
8.0
 41
233.6010130528989
 46
0.0
 71
     1
 72
     5
  1
{\fCalibri|b1|i0|c0|p34;Zero Reveal}
 73
     1
 44
1.0
1001
ACAD
1000
ACAD_MTEXT_COLUMN_INFO_BEGIN
1070
    75
1070
     2
1070
    79
1070
     0
1070
    76
1070
     1
1070
    78
1070
     0
1070
    48
1040
233.6010130528989
1070
    49
1040
12.5
1070
    50
1070
     1
1040
51.40105957113622
1000
ACAD_MTEXT_COLUMN_INFO_END
  0
LWPOLYLINE
  5
461
330
1F
100
AcDbEntity
  8
0
370
    -3
100
AcDbPolyline
 90
        4
 70
     1
 43
0.0
 10
3627.441765369559
 20
1502.98876588166
 10
3914.515657708447
 20
1502.98876588166
 10
3914.515657708447
 20
1317.744152907513
 10
3627.441765369559
 20
1317.744152907513
  0
MTEXT
  5
462
330
1F
100
AcDbEntity
  8
note
370
    -3
100
AcDbMText
 10
3951.162498823009
 20
1356.831213824732
 30
0.0
 40
8.0
 41
237.1240077337111
 46
0.0
 71
     1
 72
     5
  1
{\fCalibri|b0|i0|c0|p34;The countertop edge sits approximately 3/8" back from the edge of the sink}
 73
     1
 44
1.0
1001
ACAD
1000
ACAD_MTEXT_COLUMN_INFO_BEGIN
1070
    75
1070
     2
1070
    79
1070
     0
1070
    76
1070
     1
1070
    78
1070
     0
1070
    48
1040
237.1240077337111
1070
    49
1040
12.5
1070
    50
1070
     1
1040
49.41104810070461
1000
ACAD_MTEXT_COLUMN_INFO_END
  0
MTEXT
  5
463
330
1F
100
AcDbEntity
  8
note
100
AcDbMText
 10
3677.028388723824
 20
1567.027608629472
 30
0.0
 40
25.0
 41
329.0090952120473
 46
0.0
 71
     1
 72
     5
  1
Undermount cutout
 73
     1
 44
1.0
1001
ACAD
1000
ACAD_MTEXT_COLUMN_INFO_BEGIN
1070
    75
1070
     2
1070
    79
1070
     0
1070
    76
1070
     1
1070
    78
1070
     0
1070
    48
1040
329.0090952120473
1070
    49
1040
12.5
1070
    50
1070
     1
1040
0.0
1000
ACAD_MTEXT_COLUMN_INFO_END
  0
LWPOLYLINE
  5
464
330
1F
100
AcDbEntity
  8
0
370
    -3
100
AcDbPolyline
 90
        4
 70
     1
 43
0.0
 10
3034.231381021657
 20
1510.903190141346
 10
3321.305273360545
 20
1510.903190141346
 10
3321.305273360545
 20
1325.6585771672
 10
3034.231381021657
 20
1325.6585771672
  0
HATCH
  5
465
330
1F
100
AcDbEntity
  8
dimensions
 62
     7
100
AcDbHatch
 10
0.0
 20
0.0
 30
0.0
210
0.0
220
0.0
230
1.0
  2
SOLID
 70
     1
 71
     1
 91
        1
 92
        7
 72
     1
 73
     1
 93
        9
 10
3178.514241723912
 20
1485.377205918102
 42
0.0
 10
3178.514241723912
 20
1488.28015591671
 42
0.0
 10
3170.857956128969
 20
1493.252205918643
 42
0.0
 10
3110.331543588157
 20
1493.252205918643
 42
0.4142135623730951
 10
3105.831543588157
 20
1488.752205918643
 42
0.0
 10
3105.831543588158
 20
1333.651797811473
 42
0.0
 10
3109.776741725732
 20
1331.369204938962
 42
0.0
 10
3109.776741725732
 20
1484.027205918102
 42
-0.414213562373095
 10
3111.126741725732
 20
1485.377205918102
 42
0.0
 97
        9
330
46D
330
469
330
468
330
46C
330
466
330
467
330
46B
330
46A
330
46E
 75
     1
 76
     1
 47
0.298664595925875
 98
        1
 10
3136.692634980038
 20
1489.293960691836
450
        0
451
        0
460
0.0
461
0.0
452
        0
462
0.0
453
        0
470

1001
GradientColor1ACI
1070
     5
1001
GradientColor2ACI
1070
     2
1001
ACAD
1010
0.0
1020
0.0
1030
0.0
  0
LINE
  5
466
102
{ACAD_REACTORS
330
465
102
}
330
1F
100
AcDbEntity
  8
0
  6
Continuous
 62
     7
100
AcDbLine
 10
3109.776741725732
 20
1484.027205918102
 30
0.0
 11
3109.776741725732
 21
1331.369204938962
 31
0.0
  0
ARC
  5
467
102
{ACAD_REACTORS
330
465
102
}
330
1F
100
AcDbEntity
  8
0
  6
Continuous
 62
     7
100
AcDbCircle
 10
3111.126741725732
 20
1484.027205918102
 30
0.0
 40
1.35
100
AcDbArc
 50
90.0
 51
180.0
  0
LINE
  5
468
102
{ACAD_REACTORS
330
465
102
}
330
1F
100
AcDbEntity
  8
0
  6
Continuous
 62
     7
100
AcDbLine
 10
3105.831543588158
 20
1488.752205918643
 30
0.0
 11
3105.831543588158
 21
1333.651797811474
 31
0.0
  0
ARC
  5
469
102
{ACAD_REACTORS
330
465
102
}
330
1F
100
AcDbEntity
  8
0
  6
Continuous
 62
     7
100
AcDbCircle
 10
3110.331543588157
 20
1488.752205918643
 30
0.0
 40
4.5
100
AcDbArc
 50
90.0
 51
180.0
  0
LINE
  5
46A
102
{ACAD_REACTORS
330
465
102
}
330
1F
100
AcDbEntity
  8
0
  6
Continuous
 62
     7
100
AcDbLine
 10
3178.514241723912
 20
1488.280155918642
 30
0.0
 11
3178.514241723912
 21
1485.377205918102
 31
0.0
  0
LINE
  5
46B
102
{ACAD_REACTORS
330
465
102
}
330
1F
100
AcDbEntity
  8
0
  6
Continuous
 62
     7
100
AcDbLine
 10
3111.126741725732
 20
1485.377205918102
 30
0.0
 11
3178.514241723912
 21
1485.377205918102
 31
0.0
  0
LINE
  5
46C
102
{ACAD_REACTORS
330
465
102
}
330
1F
100
AcDbEntity
  8
0
100
AcDbLine
 10
3105.831543588157
 20
1333.651797811474
 30
0.0
 11
3109.776741725732
 21
1331.369204938962
 31
0.0
  0
LINE
  5
46D
102
{ACAD_REACTORS
330
465
102
}
330
1F
100
AcDbEntity
  8
0
  6
Continuous
 62
     7
100
AcDbLine
 10
3110.331543588157
 20
1493.252205918643
 30
0.0
 11
3170.857956128969
 21
1493.252205918643
 31
0.0
  0
LINE
  5
46E
102
{ACAD_REACTORS
330
465
102
}
330
1F
100
AcDbEntity
  8
0
  6
Continuous
 62
     7
100
AcDbLine
 10
3170.857956128969
 20
1493.252205918643
 30
0.0
 11
3178.514241703338
 21
1488.280155930071
 31
0.0
  0
HATCH
  5
46F
330
1F
100
AcDbEntity
  8
0
 62
     2
100
AcDbHatch
 10
0.0
 20
0.0
 30
0.0
210
0.0
220
0.0
230
1.0
  2
ANSI31
 70
     0
 71
     1
 91
        1
 92
        5
 93
        4
 72
     1
 10
3135.099952399441
 20
1484.881257487264
 11
3135.099952399441
 21
1420.918713983123
 72
     1
 10
3135.099952399441
 20
1420.918713983123
 11
3252.843232462224
 21
1420.918713983123
 72
     4
 94
        3
 73
     0
 74
     0
 95
       10
 96
        6
 40
34.79033646997335
 40
34.79033646997335
 40
34.79033646997335
 40
34.79033646997335
 40
69.1232927357083
 40
105.9354564190348
 40
107.0129359813932
 40
107.0129359813932
 40
107.0129359813932
 40
107.0129359813932
 10
3252.843232462224
 20
1420.918713983123
 10
3258.527539327272
 20
1430.969262714687
 10
3268.415607291121
 20
1451.635054100393
 10
3247.208938307278
 20
1469.95263627088
 10
3245.426443879703
 20
1480.240015242177
 10
3245.383083076185
 20
1484.881257487264
 97
        0
 72
     1
 10
3245.383083076185
 20
1484.881257487264
 11
3135.099952399441
 21
1484.881257487264
 97
        2
330
471
330
470
 75
     1
 76
     1
 52
0.0
 41
2.0
 77
     0
 78
     1
 53
45.0
 43
2573.279690655678
 44
1276.26203526882
 45
-4.490128060534575
 46
4.490128060534575
 79
     0
 47
0.1994143399616333
 98
        1
 10
3177.238722636642
 20
1468.579029603133
1001
GradientColor1ACI
1070
     5
1001
GradientColor2ACI
1070
     2
1001
ACAD
1010
0.0
1020
0.0
1030
0.0
  0
LWPOLYLINE
  5
470
102
{ACAD_REACTORS
330
46F
102
}
330
1F
100
AcDbEntity
  8
0
100
AcDbPolyline
 90
        4
 70
     0
 43
0.0
 10
3252.843232462224
 20
1420.918713983123
 10
3135.099952399441
 20
1420.918713983123
 10
3135.099952399441
 20
1484.881257487264
 10
3245.383083076185
 20
1484.881257487264
  0
SPLINE
  5
471
102
{ACAD_REACTORS
330
46F
102
}
330
1F
100
AcDbEntity
  8
0
100
AcDbSpline
210
0.0
220
0.0
230
1.0
 70
     8
 71
     3
 72
    10
 73
     6
 74
     0
 42
0.000000001
 43
0.0000000001
 40
34.79033646997336
 40
34.79033646997336
 40
34.79033646997336
 40
34.79033646997336
 40
35.86781603233177
 40
72.67997971565825
 40
107.0129359813932
 40
107.0129359813932
 40
107.0129359813932
 40
107.0129359813932
 10
3245.383083076185
 20
1484.881257487264
 30
0.0
 10
3245.426443879703
 20
1480.240015242177
 30
0.0
 10
3247.208938307278
 20
1469.95263627088
 30
0.0
 10
3268.415607291121
 20
1451.635054100393
 30
0.0
 10
3258.527539327272
 20
1430.969262714687
 30
0.0
 10
3252.843232462224
 20
1420.918713983123
 30
0.0
  0
MTEXT
  5
472
330
1F
100
AcDbEntity
  8
note
100
AcDbMText
 10
2571.079209438658
 20
1572.285455332653
 30
0.0
 40
25.0
 41
455.5328356415318
 46
0.0
 71
     1
 72
     5
  1
Top Mount cutout
 73
     1
 44
1.0
1001
ACAD
1000
ACAD_MTEXT_COLUMN_INFO_BEGIN
1070
    75
1070
     2
1070
    79
1070
     0
1070
    76
1070
     1
1070
    78
1070
     0
1070
    48
1040
455.5328356415318
1070
    49
1040
12.5
1070
    50
1070
     1
1040
0.0
1000
ACAD_MTEXT_COLUMN_INFO_END
  0
LINE
  5
CB7
330
1F
100
AcDbEntity
  8
centerline
100
AcDbLine
 10
2484.060615280914
 20
1891.510830052266
 30
0.0
 11
3302.060615280915
 21
1891.510830052266
 31
0.0
  0
LINE
  5
CB8
330
1F
100
AcDbEntity
  8
centerline
100
AcDbLine
 10
2893.060615280914
 20
2161.010830052266
 30
0.0
 11
2893.060615280914
 21
1622.010830052266
 31
0.0
  0
LINE
  5
D1F
330
1F
100
AcDbEntity
  8
dimensions
100
AcDbLine
 10
2484.060615280914
 20
2164.66672191138
 30
0.0
 11
2484.060615280914
 21
2208.792229937688
 31
0.0
  0
LINE
  5
D20
330
1F
100
AcDbEntity
  8
dimensions
100
AcDbLine
 10
3302.060615280915
 20
2163.269090940165
 30
0.0
 11
3302.060615280915
 21
2208.792229937688
 31
0.0
  0
LINE
  5
D21
330
1F
100
AcDbEntity
  8
dimensions
100
AcDbLine
 10
2492.060615280915
 20
2203.792229937688
 30
0.0
 11
3294.060615280914
 21
2203.792229937688
 31
0.0
  0
SOLID
  5
D22
330
1F
100
AcDbEntity
  8
dimensions
100
AcDbTrace
 10
2492.060615280915
 20
2205.125563271021
 30
0.0
 11
2492.060615280915
 21
2202.458896604355
 31
0.0
 12
2484.060615280914
 22
2203.792229937688
 32
0.0
 13
2484.060615280914
 23
2203.792229937688
 33
0.0
  0
SOLID
  5
D23
330
1F
100
AcDbEntity
  8
dimensions
100
AcDbTrace
 10
3294.060615280914
 20
2205.125563271021
 30
0.0
 11
3294.060615280914
 21
2202.458896604355
 31
0.0
 12
3302.060615280915
 22
2203.792229937688
 32
0.0
 13
3302.060615280915
 23
2203.792229937688
 33
0.0
  0
MTEXT
  5
D24
330
1F
100
AcDbEntity
  8
dimensions
100
AcDbMText
 10
2893.060615280914
 20
2210.887386827183
 30
0.0
 40
9.0
 41
0.0
 46
0.0
 71
     5
 72
     1
  1
818 mm
 73
     1
 44
1.0
  0
MTEXT
  5
D25
330
1F
100
AcDbEntity
  8
dimensions
100
AcDbMText
 10
2893.060615280914
 20
2195.466172638916
 30
0.0
 40
9.0
 41
0.0
 46
0.0
 71
     5
 72
     1
  1
[32 3/16 "]
 73
     1
 44
1.0
  0
LINE
  5
D26
330
1F
100
AcDbEntity
  8
dimensions
100
AcDbLine
 10
3303.201720240628
 20
2161.010830052267
 30
0.0
 11
3358.726597541114
 21
2161.010830052267
 31
0.0
  0
LINE
  5
D27
330
1F
100
AcDbEntity
  8
dimensions
100
AcDbLine
 10
3307.251125597467
 20
1622.010830052267
 30
0.0
 11
3358.726597541114
 21
1622.010830052267
 31
0.0
  0
LINE
  5
D28
330
1F
100
AcDbEntity
  8
dimensions
100
AcDbLine
 10
3353.726597541115
 20
2153.010830052267
 30
0.0
 11
3353.726597541115
 21
1630.010830052267
 31
0.0
  0
SOLID
  5
D29
330
1F
100
AcDbEntity
  8
dimensions
100
AcDbTrace
 10
3352.393264207781
 20
2153.010830052267
 30
0.0
 11
3355.059930874448
 21
2153.010830052267
 31
0.0
 12
3353.726597541115
 22
2161.010830052267
 32
0.0
 13
3353.726597541115
 23
2161.010830052267
 33
0.0
  0
SOLID
  5
D2A
330
1F
100
AcDbEntity
  8
dimensions
100
AcDbTrace
 10
3352.393264207781
 20
1630.010830052267
 30
0.0
 11
3355.059930874448
 21
1630.010830052267
 31
0.0
 12
3353.726597541115
 22
1622.010830052267
 32
0.0
 13
3353.726597541115
 23
1622.010830052267
 33
0.0
  0
MTEXT
  5
D2B
330
1F
100
AcDbEntity
  8
dimensions
100
AcDbMText
 10
3346.628371074538
 20
1891.510830052265
 30
0.0
 40
9.0
 41
0.0
 46
0.0
 71
     5
 72
     1
  1
539 mm
 11
0.0000000000000001
 21
1.0
 31
0.0
 73
     1
 44
1.0
  0
MTEXT
  5
D2C
330
1F
100
AcDbEntity
  8
dimensions
100
AcDbMText
 10
3362.052654839886
 20
1891.510830052265
 30
0.0
 40
9.0
 41
0.0
 46
0.0
 71
     5
 72
     1
  1
[21 1/4 "]
 11
0.0000000000000001
 21
1.0
 31
0.0
 73
     1
 44
1.0
  0
LINE
  5
D5F
330
1F
100
AcDbEntity
  8
0
370
     5
100
AcDbLine
 10
4350.618701158466
 20
1381.757674835735
 30
0.0
 11
4347.109290329307
 21
1448.721222387608
 31
0.0
  0
ARC
  5
D60
330
1F
100
AcDbEntity
  8
0
370
     5
100
AcDbCircle
 10
4342.615457422946
 20
1448.485710583909
 30
0.0
 40
4.5
100
AcDbArc
 50
3.000000007716654
 51
90.0
  0
LINE
  5
D61
330
1F
100
AcDbEntity
  8
0
370
     5
100
AcDbLine
 10
4348.646274573051
 20
1381.179170901168
 30
0.0
 11
4345.136863743895
 21
1448.142718453042
 31
0.0
  0
ARC
  5
D62
330
1F
100
AcDbEntity
  8
0
370
     5
100
AcDbCircle
 10
4342.140975139652
 20
1447.98571058391
 30
0.0
 40
3.0
100
AcDbArc
 50
3.000000007716654
 51
90.0
  0
LINE
  5
D63
330
1F
100
AcDbEntity
  8
0
370
     5
100
AcDbLine
 10
4402.126306763501
 20
1369.766829109535
 30
0.0
 11
4402.126306763501
 21
1371.766829109538
 31
0.0
  0
ARC
  5
D64
330
1F
100
AcDbEntity
  8
0
370
     5
100
AcDbCircle
 10
4739.791568355371
 20
1593.820755151103
 30
0.0
 40
407.7454318089714
100
AcDbArc
 50
212.5938397801278
 51
212.9966235360831
  0
ARC
  5
D65
330
1F
100
AcDbEntity
  8
0
370
     5
100
AcDbCircle
 10
4739.791568355371
 20
1593.820755151103
 30
0.0
 40
409.7454318089716
100
AcDbArc
 50
212.7471028189324
 51
213.1486111216748
  0
LINE
  5
D66
330
1F
100
AcDbEntity
  8
0
370
     5
100
AcDbLine
 10
4358.607737436448
 20
1374.176362486755
 30
0.0
 11
4396.2618346609
 21
1374.176362486755
 31
0.0
  0
ARC
  5
D67
330
1F
100
AcDbEntity
  8
0
370
     5
100
AcDbCircle
 10
4358.607737436448
 20
1382.176362486755
 30
0.0
 40
8.0
100
AcDbArc
 50
183.0000000077166
 51
270.0
  0
LINE
  5
D68
330
1F
100
AcDbEntity
  8
0
370
     5
100
AcDbLine
 10
4358.133255153155
 20
1372.176362486755
 30
0.0
 11
4395.168466853497
 21
1372.176362486755
 31
0.0
  0
ARC
  5
D69
330
1F
100
AcDbEntity
  8
0
370
     5
100
AcDbCircle
 10
4358.133255153155
 20
1381.676362486755
 30
0.0
 40
9.5
100
AcDbArc
 50
183.0000000077166
 51
270.0
  0
LINE
  5
D6A
330
1F
100
AcDbEntity
  8
0
370
     5
100
AcDbLine
 10
4397.814389159726
 20
1371.766829109535
 30
0.0
 11
4428.198696859886
 21
1371.766829109535
 31
0.0
  0
LINE
  5
D6B
330
1F
100
AcDbEntity
  8
0
370
     5
100
AcDbLine
 10
4396.730120341056
 20
1369.766829109535
 30
0.0
 11
4429.282965678557
 21
1369.766829109535
 31
0.0
  0
HATCH
  5
D6C
330
1F
100
AcDbEntity
  8
0
 62
     2
370
    -3
100
AcDbHatch
 10
0.0
 20
0.0
 30
0.0
210
0.0
220
0.0
230
1.0
  2
ANSI31
 70
     0
 71
     0
 91
        2
 92
        7
 72
     1
 73
     1
 93
        5
 10
4350.844571384658
 20
1460.193449958156
 42
0.4142135623730752
 10
4347.844571384658
 20
1463.193449958156
 42
0.0
 10
4299.362365457418
 20
1463.193449958159
 42
0.0
 10
4299.362365457418
 20
1452.985710583911
 42
0.0
 10
4350.844571384658
 20
1452.98571058391
 42
0.0
 97
        0
 92
        7
 72
     1
 73
     1
 93
        5
 10
4526.650720562194
 20
1463.193449958156
 42
0.0
 10
4478.168514634954
 20
1463.193449958156
 42
0.4142135623730951
 10
4475.168514634954
 20
1460.193449958156
 42
0.0
 10
4475.168514634954
 20
1452.98571058391
 42
0.0
 10
4526.650720562194
 20
1452.985710583911
 42
0.0
 97
        0
 75
     1
 76
     1
 52
0.0
 41
1.0
 77
     0
 78
     1
 53
45.0
 43
3078.981028675429
 44
1222.95980008117
 45
-2.245064030267287
 46
2.245064030267287
 79
     0
 47
0.1857143914997649
 98
        2
 10
4308.974320579983
 20
1459.603365406088
 10
4493.705963377179
 20
1458.674805250294
1001
GradientColor1ACI
1070
     5
1001
GradientColor2ACI
1070
     2
1001
ACAD
1010
0.0
1020
0.0
1030
0.0
  0
LINE
  5
D6D
330
1F
100
AcDbEntity
  8
0
370
     5
100
AcDbLine
 10
4299.362365457418
 20
1463.193449958159
 30
0.0
 11
4299.362365457418
 21
1452.985710583911
 31
0.0
  0
LINE
  5
D6E
330
1F
100
AcDbEntity
  8
0
370
     5
100
AcDbLine
 10
4350.844571384658
 20
1452.98571058391
 30
0.0
 11
4350.844571384658
 21
1460.193449958156
 31
0.0
  0
ARC
  5
D6F
330
1F
100
AcDbEntity
  8
0
370
     5
100
AcDbCircle
 10
4347.844571384658
 20
1460.193449958156
 30
0.0
 40
3.0
100
AcDbArc
 50
0.0
 51
90.0
  0
LINE
  5
D70
330
1F
100
AcDbEntity
  8
0
370
     5
100
AcDbLine
 10
4299.362365457418
 20
1452.985710583911
 30
0.0
 11
4350.844571384658
 21
1452.98571058391
 31
0.0
  0
LINE
  5
D71
330
1F
100
AcDbEntity
  8
0
370
     5
100
AcDbLine
 10
4347.844571384658
 20
1463.193449958156
 30
0.0
 11
4299.362365457418
 21
1463.193449958159
 31
0.0
  0
LINE
  5
D72
330
1F
100
AcDbEntity
  8
0
370
     5
100
AcDbLine
 10
4329.740973038867
 20
1452.98571058391
 30
0.0
 11
4342.615457422946
 21
1452.98571058391
 31
0.0
  0
LINE
  5
D73
330
1F
100
AcDbEntity
  8
0
370
     5
100
AcDbLine
 10
4329.740973038867
 20
1450.98571058391
 30
0.0
 11
4342.140975139652
 21
1450.98571058391
 31
0.0
  0
LINE
  5
D74
330
1F
100
AcDbEntity
  8
0
370
    -3
100
AcDbLine
 10
4329.740973038867
 20
1450.98571058391
 30
0.0
 11
4329.740973038867
 21
1452.98571058391
 31
0.0
  0
LINE
  5
D75
330
1F
100
AcDbEntity
  8
0
370
     5
100
AcDbLine
 10
4475.394384861143
 20
1381.757674835735
 30
0.0
 11
4478.903795690301
 21
1448.721222387608
 31
0.0
  0
ARC
  5
D76
330
1F
100
AcDbEntity
  8
0
370
     5
100
AcDbCircle
 10
4467.405348583162
 20
1382.176362486755
 30
0.0
 40
8.0
100
AcDbArc
 50
270.0
 51
356.9999999922834
  0
ARC
  5
D77
330
1F
100
AcDbEntity
  8
0
370
     5
100
AcDbCircle
 10
4483.397628596665
 20
1448.485710583909
 30
0.0
 40
4.5
100
AcDbArc
 50
90.0
 51
176.9999999922833
  0
LINE
  5
D78
330
1F
100
AcDbEntity
  8
0
370
     5
100
AcDbLine
 10
4477.366811446557
 20
1381.179170901168
 30
0.0
 11
4480.876222275718
 21
1448.142718453042
 31
0.0
  0
ARC
  5
D79
330
1F
100
AcDbEntity
  8
0
370
     5
100
AcDbCircle
 10
4467.879830866456
 20
1381.676362486755
 30
0.0
 40
9.5
100
AcDbArc
 50
270.0
 51
356.9999999922834
  0
ARC
  5
D7A
330
1F
100
AcDbEntity
  8
0
370
     5
100
AcDbCircle
 10
4483.872110879957
 20
1447.98571058391
 30
0.0
 40
3.0
100
AcDbArc
 50
90.0
 51
176.9999999922833
  0
LINE
  5
D7B
330
1F
100
AcDbEntity
  8
0
370
     5
100
AcDbLine
 10
4467.405348583162
 20
1374.176362486755
 30
0.0
 11
4429.751251358712
 21
1374.176362486755
 31
0.0
  0
LINE
  5
D7C
330
1F
100
AcDbEntity
  8
0
370
     5
100
AcDbLine
 10
4467.879830866456
 20
1372.176362486755
 30
0.0
 11
4430.844619166117
 21
1372.176362486755
 31
0.0
  0
LINE
  5
D7D
330
1F
100
AcDbEntity
  8
0
370
     5
100
AcDbLine
 10
4496.272112980744
 20
1452.98571058391
 30
0.0
 11
4483.397628596665
 21
1452.98571058391
 31
0.0
  0
LINE
  5
D7E
330
1F
100
AcDbEntity
  8
0
370
     5
100
AcDbLine
 10
4496.272112980744
 20
1450.98571058391
 30
0.0
 11
4483.872110879957
 21
1450.98571058391
 31
0.0
  0
LINE
  5
D7F
330
1F
100
AcDbEntity
  8
0
370
    -3
100
AcDbLine
 10
4496.272112980744
 20
1450.98571058391
 30
0.0
 11
4496.272112980744
 21
1452.98571058391
 31
0.0
  0
LINE
  5
D80
330
1F
100
AcDbEntity
  8
0
370
     5
100
AcDbLine
 10
4423.886779256108
 20
1369.766829109535
 30
0.0
 11
4423.886779256108
 21
1371.766829109538
 31
0.0
  0
ARC
  5
D81
330
1F
100
AcDbEntity
  8
0
370
     5
100
AcDbCircle
 10
4086.22151766424
 20
1593.820755151103
 30
0.0
 40
407.7454318089714
100
AcDbArc
 50
327.0033764639279
 51
327.4061602198722
  0
ARC
  5
D82
330
1F
100
AcDbEntity
  8
0
370
     5
100
AcDbCircle
 10
4086.22151766424
 20
1593.820755151103
 30
0.0
 40
409.7454318089716
100
AcDbArc
 50
326.8513888783252
 51
327.2528971810786
  0
MTEXT
  5
D83
330
1F
100
AcDbEntity
  8
note
370
    -3
100
AcDbMText
 10
4280.370752889768
 20
1489.616110703539
 30
0.0
 40
8.0
 41
237.1240077337111
 46
0.0
 71
     1
 72
     5
  1
{\fCalibri|b1|i0|c0|p34;1/8" Negative Reveal}
 73
     1
 44
1.0
1001
ACAD
1000
ACAD_MTEXT_COLUMN_INFO_BEGIN
1070
    75
1070
     2
1070
    79
1070
     0
1070
    76
1070
     1
1070
    78
1070
     0
1070
    48
1040
237.1240077337111
1070
    49
1040
12.5
1070
    50
1070
     1
1040
49.41104810070461
1000
ACAD_MTEXT_COLUMN_INFO_END
  0
LWPOLYLINE
  5
D84
330
1F
100
AcDbEntity
  8
0
370
    -3
100
AcDbPolyline
 90
        4
 70
     1
 43
0.0
 10
4266.891153359408
 20
1502.786655917155
 10
4553.965045698294
 20
1502.786655917155
 10
4553.965045698294
 20
1317.542042943008
 10
4266.891153359408
 20
1317.542042943008
  0
LINE
  5
D85
330
1F
100
AcDbEntity
  8
0
370
     5
100
AcDbLine
 10
4475.168514634954
 20
1452.98571058391
 30
0.0
 11
4475.168514634954
 21
1460.193449958156
 31
0.0
  0
ARC
  5
D86
330
1F
100
AcDbEntity
  8
0
370
     5
100
AcDbCircle
 10
4478.168514634954
 20
1460.193449958156
 30
0.0
 40
3.0
100
AcDbArc
 50
90.0
 51
180.0
  0
LINE
  5
D87
330
1F
100
AcDbEntity
  8
0
370
     5
100
AcDbLine
 10
4526.650720562194
 20
1452.985710583911
 30
0.0
 11
4475.168514634954
 21
1452.98571058391
 31
0.0
  0
LINE
  5
D88
330
1F
100
AcDbEntity
  8
0
370
     5
100
AcDbLine
 10
4478.16851463495
 20
1463.193449958156
 30
0.0
 11
4526.650720562194
 21
1463.193449958156
 31
0.0
  0
LINE
  5
D89
330
1F
100
AcDbEntity
  8
0
370
     5
100
AcDbLine
 10
4526.650720562194
 20
1452.985710583911
 30
0.0
 11
4526.650720562194
 21
1463.193449958156
 31
0.0
  0
MTEXT
  5
D8A
330
1F
100
AcDbEntity
  8
note
370
    -3
100
AcDbMText
 10
4295.756301601509
 20
1355.934045468603
 30
0.0
 40
8.0
 41
244.6985338073505
 46
0.0
 71
     1
 72
     5
  1
{\fCalibri|b0|i0|c0|p34;The countertop extends over the edge of the sink by approximately 1/8"}
 73
     1
 44
1.0
1001
ACAD
1000
ACAD_MTEXT_COLUMN_INFO_BEGIN
1070
    75
1070
     2
1070
    79
1070
     0
1070
    76
1070
     1
1070
    78
1070
     0
1070
    48
1040
244.6985338073505
1070
    49
1040
12.5
1070
    50
1070
     1
1040
30.24120512822353
1000
ACAD_MTEXT_COLUMN_INFO_END
  0
LINE
  5
ED0
330
1F
100
AcDbEntity
  8
centerline
100
AcDbLine
 10
3619.750217480265
 20
1851.97236132429
 30
0.0
 11
4394.750217480265
 21
1851.97236132429
 31
0.0
  0
LINE
  5
ED1
330
1F
100
AcDbEntity
  8
centerline
100
AcDbLine
 10
4007.250217480264
 20
2067.972361324289
 30
0.0
 11
4007.250217480264
 21
1635.97236132429
 31
0.0
  0
CIRCLE
  5
F5A
330
1F
100
AcDbEntity
  8
0
  6
Continuous
 62
     7
100
AcDbCircle
 10
4337.370732235386
 20
2106.20220382305
 30
0.0
 40
17.5000000012
  0
CIRCLE
  5
F5B
102
{ACAD_REACTORS
330
FA1
330
1010
102
}
330
1F
100
AcDbEntity
  8
0
  6
Continuous
 62
     7
100
AcDbCircle
 10
4007.270732236051
 20
2106.20220382305
 30
0.0
 40
17.5000000012
  0
LINE
  5
F5C
102
{ACAD_REACTORS
330
FD7
102
}
330
1F
100
AcDbEntity
  8
centerline
100
AcDbLine
 10
3946.836815611235
 20
2106.20220382305
 30
0.0
 11
4404.745068303026
 21
2106.20220382305
 31
0.0
  0
LINE
  5
F5D
330
1F
100
AcDbEntity
  8
centerline
100
AcDbLine
 10
4007.270732236051
 20
2134.210364518156
 30
0.0
 11
4007.270732236051
 21
2073.795002012769
 31
0.0
  0
LINE
  5
F5E
102
{ACAD_REACTORS
330
1010
102
}
330
1F
100
AcDbEntity
  8
centerline
100
AcDbLine
 10
4337.370732235386
 20
2080.650369285642
 30
0.0
 11
4337.370732235386
 21
2130.000233926017
 31
0.0
  0
DIMENSION
  5
F8C
102
{ACAD_XDICTIONARY
360
F98
102
}
102
{ACAD_REACTORS
330
FA1
102
}
330
1F
100
AcDbEntity
  8
dimensions
100
AcDbDimension
280
     0
  2
*D3
 10
4020.607321100448
 20
2094.871475801247
 30
0.0
 11
3935.737040524736
 21
2166.977025137379
 31
0.0
 70
   163
 71
     5
 42
35.00000000239993
 73
     0
 74
     0
 75
     0
  3
dimensions
100
AcDbDiametricDimension
 15
3993.934143371656
 25
2117.532931844852
 35
0.0
 40
0.0
1001
ACAD
1000
DSTYLE
1002
{
1070
   288
1070
     1
1002
}
1001
ACAD_DSTYLE_DIMRADIAL_EXTENSION
1070
   387
1070
     1
1070
   388
1040
0.0
1070
   390
1040
0.0
  0
DIMENSION
  5
FBC
102
{ACAD_XDICTIONARY
360
FCB
102
}
102
{ACAD_REACTORS
330
FD7
102
}
330
1F
100
AcDbEntity
  8
dimensions
100
AcDbDimension
280
     0
  2
*D4
 10
4438.488818923942
 20
2067.972361324291
 30
0.0
 11
4438.488818923942
 21
2143.984604914454
 31
0.0
 70
   160
 71
     5
 42
38.22984249875935
 73
     0
 74
     0
 75
     0
  3
dimensions
100
AcDbAlignedDimension
 13
4404.745068303026
 23
2106.20220382305
 33
0.0
 14
4394.750217480265
 24
2067.97236132429
 34
0.0
 50
90.0
100
AcDbRotatedDimension
  0
DIMENSION
  5
FF7
102
{ACAD_XDICTIONARY
360
1005
102
}
102
{ACAD_REACTORS
330
1010
102
}
330
1F
100
AcDbEntity
  8
dimensions
100
AcDbDimension
280
     0
  2
*D5
 10
4337.370732235386
 20
2154.67851613064
 30
0.0
 11
4172.32073223572
 21
2154.67851613064
 31
0.0
 70
    32
 71
     5
 42
330.0999999993365
 73
     0
 74
     0
 75
     0
  3
dimensions
100
AcDbAlignedDimension
 13
4007.270732236051
 23
2123.702203824249
 33
0.0
 14
4337.370732235386
 24
2123.702203824249
 34
0.0
100
AcDbRotatedDimension
  0
MULTILEADER
  5
1019
330
1F
100
AcDbEntity
  8
note
160
               464
310
D0010000180000000C00000016000000000000C00C00000033000000000000000C00000013000000993A00000C00000033000000000000000C00000010000000030000000C00000016000000020000C30C00000017000000050000000C00000012000000FF7F00000C00000013000000010000000C00000014000000010000
310
00540000000700000003000000753FA0BF9BA2AD4071EF57D9F13BA040000000000000000020EA4A6A469FAD4071EF57D9F127A0400000000000000000CB94F514F19BAD4071EF57D9F13BA04000000000000000000C00000014000000010000000C00000013000000891300003C000000060000000200000020EA4A6A469F
310
AD4071EF57D9F13BA040000000000000000020EA4A6A469FAD40173F56BA1C87A04000000000000000000C00000013000000112700003C000000060000000200000020EA4A6A469FAD40173F56BA1C87A0400000000000000000234E27F05790AC40173F56BA1C87A04000000000000000000C00000016000000020000C30C
310
00000012000000FF7F00000C00000017000000000000000C000000130000009A3A00000C00000016000000000000C00C00000012000000FF7F00000C00000017000000FDFFFFFF0C0000003300000000000000
370
    -3
100
AcDbMLeader
270
     2
300
CONTEXT_DATA{
 40
1.0
 10
3652.171754101074
 20
2115.556109137727
 30
0.0
 41
4.0
140
10.0
145
2.0
174
     1
175
     1
176
     2
177
     0
290
     1
304

 11
0.0
 21
0.0
 31
1.0
340
11
 12
3654.171754101073
 22
2117.556109137728
 32
0.0
 13
1.0
 23
0.0
 33
0.0
 42
0.0
 43
0.0
 44
0.0
 45
1.0
170
     1
 90
-1073741824
171
     3
172
     5
 91
-1073741824
141
0.0
 92
        0
291
     0
292
     0
173
     0
293
     0
142
0.0
143
0.0
294
     0
295
     0
296
     0
110
3791.637529698448
120
2067.97236132429
130
0.0
111
1.0
121
0.0
131
0.0
112
0.0
122
1.0
132
0.0
297
     0
302
LEADER{
290
     1
291
     1
 10
3791.637529698448
 20
2115.556109137727
 30
0.0
 11
-1.0
 21
0.0
 31
0.0
 90
        0
 40
135.4657755973737
304
LEADER_LINE{
 10
3791.637529698448
 20
2067.97236132429
 30
0.0
 91
        0
305
}
271
     0
303
}
272
     9
273
     9
301
}
340
321
 90
   279680
170
     1
 91
-1023410174
341
14
171
     5
290
     1
291
     1
 41
8.0
 42
10.0
172
     2
343
11
173
     1
 95
        1
174
     1
175
     2
 92
-1056964608
292
     0
 93
-1056964608
 10
1.0
 20
1.0
 30
1.0
 43
0.0
176
     0
293
     0
294
     0
178
     0
179
     3
 45
1.0
271
     0
272
     9
273
     9
295
     0
1001
ACAD_MLEADERVER
1070
     2
  0
MTEXT
  5
101A
330
1F
100
AcDbEntity
  8
note
 62
     2
370
    -3
100
AcDbMText
 10
3656.641041419502
 20
2135.339009359935
 30
0.0
 40
10.0
 41
201.1158221863448
 46
0.0
 71
     1
 72
     5
  1
\A1;Zero Reveal
 73
     1
 44
1.0
1001
ACAD
1000
ACAD_MTEXT_COLUMN_INFO_BEGIN
1070
    75
1070
     2
1070
    79
1070
     0
1070
    76
1070
     1
1070
    78
1070
     0
1070
    48
1040
201.1158221863448
1070
    49
1040
12.5
1070
    50
1070
     1
1040
30.41614051781163
1000
ACAD_MTEXT_COLUMN_INFO_END
  0
MULTILEADER
  5
1023
330
1F
100
AcDbEntity
  8
note
160
               464
310
D0010000180000000C00000016000000000000C00C00000033000000000000000C00000013000000993A00000C00000033000000000000000C00000010000000030000000C00000016000000020000C30C00000017000000050000000C00000012000000FF7F00000C00000013000000010000000C00000014000000010000
310
00540000000700000003000000DA061BB6D961AC40F5B4F7B609E39E400000000000000000DA061BB6D94DAC40A05FA261B4E99E400000000000000000DA061BB6D961AC404B0A4D0C5FF09E4000000000000000000C00000014000000010000000C00000013000000891300003C0000000600000002000000DA061BB6D961
310
AC40A05FA261B4E99E400000000000000000F7CB7565E639AD40A05FA261B4E99E4000000000000000000C00000013000000112700003C0000000600000002000000F7CB7565E639AD40A05FA261B4E99E400000000000000000F3C88ACFC958AD40A05FA261B4E99E4000000000000000000C00000016000000020000C30C
310
00000012000000FF7F00000C00000017000000000000000C000000130000009A3A00000C00000016000000000000C00C00000012000000FF7F00000C00000017000000FDFFFFFF0C0000003300000000000000
370
    -3
100
AcDbMLeader
270
     2
300
CONTEXT_DATA{
 40
1.0
 10
3756.394161545783
 20
1978.426153695189
 30
0.0
 41
4.0
140
10.0
145
2.0
174
     1
175
     1
176
     0
177
     0
290
     1
304

 11
0.0
 21
0.0
 31
1.0
340
11
 12
3758.394161545785
 22
1980.426153695189
 32
0.0
 13
1.0
 23
0.0
 33
0.0
 42
0.0
 43
0.0
 44
0.0
 45
1.0
170
     1
 90
-1073741824
171
     1
172
     5
 91
-1073741824
141
0.0
 92
        0
291
     0
292
     0
173
     0
293
     0
142
0.0
143
0.0
294
     0
295
     0
296
     0
110
3622.925217480265
120
1978.426153695189
130
0.0
111
1.0
121
0.0
131
0.0
112
0.0
122
1.0
132
0.0
297
     0
302
LEADER{
290
     1
291
     1
 10
3740.949992829464
 20
1978.426153695189
 30
0.0
 11
1.0
 21
0.0
 31
0.0
 90
        0
 40
15.44416871631802
304
LEADER_LINE{
 10
3622.925217480265
 20
1978.426153695189
 30
0.0
 91
        0
305
}
271
     0
303
}
272
     9
273
     9
301
}
340
321
 90
   279680
170
     1
 91
-1023410174
341
14
171
     5
290
     1
291
     1
 41
8.0
 42
10.0
172
     2
343
11
173
     1
 95
        1
174
     1
175
     0
 92
-1056964608
292
     0
 93
-1056964608
 10
1.0
 20
1.0
 30
1.0
 43
0.0
176
     0
293
     0
294
     0
178
     0
179
     1
 45
1.0
271
     0
272
     9
273
     9
295
     0
1001
ACAD_MLEADERVER
1070
     2
  0
MTEXT
  5
1024
330
1F
100
AcDbEntity
  8
note
 62
     2
370
    -3
100
AcDbMText
 10
3681.598194955807
 20
1995.711749216246
 30
0.0
 40
10.0
 41
201.1158221863448
 46
0.0
 71
     1
 72
     5
  1
1/8" Negative Reveal
 73
     1
 44
1.0
1001
ACAD
1000
ACAD_MTEXT_COLUMN_INFO_BEGIN
1070
    75
1070
     2
1070
    79
1070
     0
1070
    76
1070
     1
1070
    78
1070
     0
1070
    48
1040
201.1158221863448
1070
    49
1040
12.5
1070
    50
1070
     1
1040
30.41614051781163
1000
ACAD_MTEXT_COLUMN_INFO_END
  0
LINE
  5
132C
330
1F
100
AcDbEntity
  8
0
100
AcDbLine
 10
2499.060615280914
 20
2161.010830052266
 30
0.0
 11
3287.060615280914
 21
2161.010830052267
 31
0.0
  0
LINE
  5
132E
330
1F
100
AcDbEntity
  8
0
100
AcDbLine
 10
3302.060615280915
 20
2146.010830052267
 30
0.0
 11
3302.060615280915
 21
1637.010830052266
 31
0.0
  0
LINE
  5
1330
330
1F
100
AcDbEntity
  8
0
100
AcDbLine
 10
3287.060615280914
 20
1622.010830052266
 30
0.0
 11
2499.060615280914
 21
1622.010830052266
 31
0.0
  0
LINE
  5
1332
330
1F
100
AcDbEntity
  8
0
100
AcDbLine
 10
2484.060615280914
 20
1637.010830052266
 30
0.0
 11
2484.060615280914
 21
2146.010830052266
 31
0.0
  0
ARC
  5
1335
330
1F
100
AcDbEntity
  8
0
100
AcDbCircle
 10
2499.060615280914
 20
2146.010830052266
 30
0.0
 40
15.0
100
AcDbArc
 50
90.00000000000005
 51
180.0
  0
ARC
  5
1336
330
1F
100
AcDbEntity
  8
0
100
AcDbCircle
 10
3287.060615280914
 20
2146.010830052267
 30
0.0
 40
15.0
100
AcDbArc
 50
0.0
 51
90.0000000000001
  0
ARC
  5
1337
330
1F
100
AcDbEntity
  8
0
100
AcDbCircle
 10
3287.060615280914
 20
1637.010830052266
 30
0.0
 40
15.0
100
AcDbArc
 50
270.0
 51
0.0
  0
ARC
  5
1338
102
{ACAD_REACTORS
330
1348
102
}
330
1F
100
AcDbEntity
  8
0
100
AcDbCircle
 10
2499.060615280914
 20
1637.010830052266
 30
0.0
 40
15.0
100
AcDbArc
 50
180.0
 51
270.0
  0
DIMENSION
  5
1339
102
{ACAD_XDICTIONARY
360
1342
102
}
102
{ACAD_REACTORS
330
1348
102
}
330
1F
100
AcDbEntity
  8
dimensions
100
AcDbDimension
280
     0
  2
*D13
 10
2499.060615280913
 20
1637.010830052265
 30
0.0
 11
2517.575123429229
 21
1659.441742835691
 31
0.0
 70
   164
 71
     5
 42
14.99999999999909
 73
     0
 74
     0
 75
     0
  3
dimensions
100
AcDbRadialDimension
 15
2489.512107847926
 25
1625.442510995369
 35
0.0
 40
0.0
1001
ACAD
1000
DSTYLE
1002
{
1070
   288
1070
     1
1002
}
1001
ACAD_DSTYLE_DIMRADIAL_EXTENSION
1070
   387
1070
     1
1070
   388
1040
3.141592653589792
1070
   390
1040
4.712388980384688
  0
DIMENSION
  5
139D
330
1F
100
AcDbEntity
  8
dimensions
100
AcDbDimension
280
     0
  2
*D14
 10
4394.750217480265
 20
2231.681759458828
 30
0.0
 11
4007.250217480264
 21
2231.681759458828
 31
0.0
 70
    32
 71
     5
 42
775.0
 73
     0
 74
     0
 75
     0
  3
dimensions
100
AcDbAlignedDimension
 13
3619.750217480265
 23
2075.610141633384
 33
0.0
 14
4394.750217480265
 24
2052.97236132429
 34
0.0
100
AcDbRotatedDimension
  0
DIMENSION
  5
13B7
330
1F
100
AcDbEntity
  8
dimensions
100
AcDbDimension
280
     0
  2
*D15
 10
4438.425978476533
 20
1635.972361324292
 30
0.0
 11
4438.425978476532
 21
1851.972361324289
 31
0.0
 70
   160
 71
     5
 42
431.9999999999991
 73
     0
 74
     0
 75
     0
  3
dimensions
100
AcDbAlignedDimension
 13
4379.750217480265
 23
2067.97236132429
 33
0.0
 14
4410.43779911409
 24
1635.972361324291
 34
0.0
 50
90.0
100
AcDbRotatedDimension
  0
DIMENSION
  5
142B
330
1F
100
AcDbEntity
  8
dimensions
100
AcDbDimension
280
     0
  2
*D16
 10
3596.108487225376
 20
1635.972361324291
 30
0.0
 11
3596.108487225376
 21
1593.686208527564
 31
0.0
 70
    33
 71
     5
 42
3.174999999999953
 73
     0
 74
     0
 75
     0
  3
dimensions
100
AcDbAlignedDimension
 13
3652.109826832371
 23
1639.14736132429
 33
0.0
 14
3652.109826832371
 24
1635.97236132429
 34
0.0
  0
LWPOLYLINE
  5
1658
102
{ACAD_REACTORS
330
1672
102
}
330
1F
100
AcDbEntity
  8
0
  6
HIDDEN
 48
0.5
100
AcDbPolyline
 90
        8
 70
     1
 43
0.0
 10
3639.750217480265
 20
2067.97236132429
 10
4374.750217480264
 20
2067.97236132429
 42
-0.4142135623730951
 10
4394.750217480265
 20
2047.97236132429
 10
4394.750217480265
 20
1655.97236132429
 42
-0.4142135623730951
 10
4374.750217480264
 20
1635.97236132429
 91
       16
 10
3639.750217480265
 20
1635.97236132429
 42
-0.4142135623730951
 91
       17
 10
3619.750217480265
 20
1655.97236132429
 10
3619.750217480265
 20
2047.97236132429
 42
-0.4142135623730951
  0
DIMENSION
  5
1663
102
{ACAD_XDICTIONARY
360
166C
102
}
102
{ACAD_REACTORS
330
1672
102
}
330
1F
100
AcDbEntity
  8
0
100
AcDbDimension
280
     0
  2
*D18
 10
3639.750217480265
 20
2047.97236132429
 30
0.0
 11
3661.89045099282
 21
2031.524529295737
 31
0.0
 70
   164
 71
     5
 42
19.99999999999863
 73
     0
 74
     0
 75
     0
  3
dimensions
100
AcDbRadialDimension
 15
3623.695618712199
 25
2059.899215829831
 35
0.0
 40
0.0
1001
ACAD
1000
DSTYLE
1002
{
1070
   288
1070
     1
1002
}
1001
ACAD_DSTYLE_DIMRADIAL_EXTENSION
1070
   387
1070
     1
1070
   388
1040
1.570796326794896
1070
   390
1040
3.141592653589804
  0
LWPOLYLINE
  5
167D
330
1F
100
AcDbEntity
  8
0
 62
     3
 48
0.5
100
AcDbPolyline
 90
        8
 70
     1
 43
0.0
 10
3639.750217480265
 20
2064.79736132429
 10
4374.750217480264
 20
2064.79736132429
 42
-0.4142135623730888
 10
4391.575217480265
 20
2047.97236132429
 10
4391.575217480265
 20
1655.97236132429
 42
-0.4142135623730927
 10
4374.750217480264
 20
1639.14736132429
 91
       14
 10
3639.750217480265
 20
1639.14736132429
 42
-0.4142135623730927
 91
       15
 10
3622.925217480265
 20
1655.97236132429
 10
3622.925217480265
 20
2047.97236132429
 42
-0.4142135623730888
  0
VIEWPORT
  5
1592
102
{ACAD_XDICTIONARY
360
1593
102
}
330
D2
100
AcDbEntity
 67
     1
  8
0
 48
0.5
100
AcDbViewport
 10
128.5
 20
126.9958416360776
 30
0.0
 40
638.3266666666667
 41
281.1716832721552
 68
     1
 69
     1
 12
128.5
 22
126.9958416360776
 13
0.0
 23
0.0
 14
10.0
 24
10.0
 15
10.0
 25
10.0
 16
0.0
 26
0.0
 36
1.0
 17
0.0
 27
0.0
 37
0.0
 42
50.0
 43
0.0
 44
0.0
 45
281.1716832721552
 50
0.0
 51
0.0
 72
 20000
 90
   819232
  1

281
     0
 71
     1
 74
     0
110
0.0
120
0.0
130
0.0
111
1.0
121
0.0
131
0.0
112
0.0
122
1.0
132
0.0
 79
     0
146
0.0
170
     0
 61
     5
348
F5
292
     1
282
     1
141
0.0
142
0.0
 63
   250
421
  3355443
  0
VIEWPORT
  5
1596
102
{ACAD_XDICTIONARY
360
1597
102
}
330
D2
100
AcDbEntity
 67
     1
  8
dimensions
 48
0.5
100
AcDbViewport
 10
128.5
 20
97.5
 30
0.0
 40
205.6
 41
156.0
 68
     2
 69
     2
 12
-379.0326737762616
 22
-434.9962971280957
 13
0.0
 23
0.0
 14
10.0
 24
10.0
 15
10.0
 25
10.0
 16
-0.000000000001819
 26
0.0
 36
7721.625626958931
 17
4043.224121093748
 27
2216.625933663257
 37
0.0
 42
50.0
 43
0.0
 44
0.0
 45
1800.575352121155
 50
0.0
 51
0.0
 72
 20000
 90
   819808
  1

281
     0
 71
     1
 74
     0
110
0.0
120
0.0
130
0.0
111
1.0
121
0.0
131
0.0
112
0.0
122
1.0
132
0.0
 79
     0
146
0.0
170
     0
 61
     5
348
F5
292
     1
282
     1
141
0.0
142
0.0
 63
   250
421
  3355443
  0
ENDSEC
  0
SECTION
  2
OBJECTS
  0
DICTIONARY
  5
C
330
0
100
AcDbDictionary
281
     1
  3
ACAD_BACKGROUND
350
D07
  3
ACAD_CIP_PREVIOUS_PRODUCT_INFO
350
216
  3
ACAD_COLOR
350
6B
  3
ACAD_DETAILVIEWSTYLE
350
21B
  3
ACAD_GROUP
350
D
  3
ACAD_LAYOUT
350
1A
  3
ACAD_MATERIAL
350
6A
  3
ACAD_MLEADERSTYLE
350
12D
  3
ACAD_MLINESTYLE
350
17
  3
ACAD_PLOTSETTINGS
350
19
  3
ACAD_PLOTSTYLENAME
350
E
  3
ACAD_SCALELIST
350
10C
  3
ACAD_SECTIONVIEWSTYLE
350
219
  3
ACAD_TABLESTYLE
350
7E
  3
ACAD_VISUALSTYLE
350
EF
  3
ACDB_RECOMPOSE_DATA
350
1933
  3
AcDbVariableDictionary
350
5E
  0
DICTIONARY
  5
1FF
330
2
100
AcDbDictionary
280
     1
281
     1
  3
ACAD_LAYERSTATES
360
200
  0
DICTIONARY
  5
13C
330
10
100
AcDbDictionary
280
     1
281
     1
  0
DICTIONARY
  5
1CE
330
1F
100
AcDbDictionary
280
     1
281
     1
  3
ACAD_SORTENTS
360
D1E
  0
DICTIONARY
  5
10AD
330
1055
100
AcDbDictionary
280
     1
281
     1
  3
ACAD_SORTENTS
360
10AE
  0
DICTIONARY
  5
1202
330
11B6
100
AcDbDictionary
280
     1
281
     1
  3
ACAD_SORTENTS
360
1203
  0
DICTIONARY
  5
1252
330
1206
100
AcDbDictionary
280
     1
281
     1
  3
ACAD_SORTENTS
360
1253
  0
DICTIONARY
  5
15EC
330
15D4
100
AcDbDictionary
280
     1
281
     1
  3
ACAD_SORTENTS
360
15ED
  0
DICTIONARY
  5
1682
330
1680
100
AcDbDictionary
280
     1
281
     1
  3
ACAD_SORTENTS
360
1683
  0
DICTIONARY
  5
1688
330
1686
100
AcDbDictionary
280
     1
281
     1
  3
ACAD_SORTENTS
360
1689
  0
DICTIONARY
  5
168E
330
168C
100
AcDbDictionary
280
     1
281
     1
  3
ACAD_SORTENTS
360
168F
  0
DICTIONARY
  5
1917
330
1114
100
AcDbDictionary
280
     1
281
     1
  0
DICTIONARY
  5
10A2
330
10A1
100
AcDbDictionary
280
     1
281
     1
  3
ACAD_DIMASSOC
360
10A3
  0
DICTIONARY
  5
10A5
330
10A4
100
AcDbDictionary
280
     1
281
     1
  3
ACAD_DIMASSOC
360
10A6
  0
DICTIONARY
  5
10A8
330
10A7
100
AcDbDictionary
280
     1
281
     1
  3
ACAD_DIMASSOC
360
10A9
  0
DICTIONARY
  5
10AB
330
10AA
100
AcDbDictionary
280
     1
281
     1
  3
ACAD_DIMASSOC
360
10AC
  0
DICTIONARY
  5
3DA
330
3D9
100
AcDbDictionary
280
     1
281
     1
  0
DICTIONARY
  5
F98
330
F8C
100
AcDbDictionary
280
     1
281
     1
  3
ACAD_DIMASSOC
360
FA1
  0
DICTIONARY
  5
FCB
330
FBC
100
AcDbDictionary
280
     1
281
     1
  3
ACAD_DIMASSOC
360
FD7
  0
DICTIONARY
  5
1005
330
FF7
100
AcDbDictionary
280
     1
281
     1
  3
ACAD_DIMASSOC
360
1010
  0
DICTIONARY
  5
1342
330
1339
100
AcDbDictionary
280
     1
281
     1
  3
ACAD_DIMASSOC
360
1348
  0
DICTIONARY
  5
166C
330
1663
100
AcDbDictionary
280
     1
281
     1
  3
ACAD_DIMASSOC
360
1672
  0
DICTIONARY
  5
1593
330
1592
100
AcDbDictionary
280
     1
281
     1
  3
ASDK_XREC_ANNOTATION_SCALE_INFO
360
1594
  0
DICTIONARY
  5
1597
330
1596
100
AcDbDictionary
280
     1
281
     1
  3
ASDK_XREC_ANNOTATION_SCALE_INFO
360
1598
  0
DICTIONARY
  5
D07
102
{ACAD_REACTORS
330
C
102
}
330
C
100
AcDbDictionary
281
     1
  0
XRECORD
  5
216
102
{ACAD_REACTORS
330
C
102
}
330
C
100
AcDbXrecord
280
     1
300
ACD
300
2022
300

  0
DICTIONARY
  5
6B
102
{ACAD_REACTORS
330
C
102
}
330
C
100
AcDbDictionary
281
     1
  0
DICTIONARY
  5
21B
102
{ACAD_REACTORS
330
C
102
}
330
C
100
AcDbDictionary
281
     1
  3
Imperial24
350
734
  3
Metric50
350
21C
  0
DICTIONARY
  5
D
102
{ACAD_REACTORS
330
C
102
}
330
C
100
AcDbDictionary
281
     1
  0
DICTIONARY
  5
1A
102
{ACAD_REACTORS
330
C
102
}
330
C
100
AcDbDictionary
281
     1
  3
Layout1
350
D3
  3
Layout2
350
D7
  3
Model
350
22
  0
DICTIONARY
  5
6A
102
{ACAD_REACTORS
330
C
102
}
330
C
100
AcDbDictionary
281
     1
  3
ByBlock
350
ED
  3
ByLayer
350
EC
  3
Global
350
EE
  0
DICTIONARY
  5
12D
102
{ACAD_REACTORS
330
C
102
}
330
C
100
AcDbDictionary
281
     1
  3
Annotative
350
13B
  3
leader
350
321
  3
Standard
350
12E
  0
DICTIONARY
  5
17
102
{ACAD_REACTORS
330
C
102
}
330
C
100
AcDbDictionary
281
     1
  3
Standard
350
18
  0
DICTIONARY
  5
19
102
{ACAD_REACTORS
330
C
102
}
330
C
100
AcDbDictionary
281
     1
  0
ACDBDICTIONARYWDFLT
  5
E
102
{ACAD_REACTORS
330
C
102
}
330
C
100
AcDbDictionary
281
     1
  3
Normal
350
F
100
AcDbDictionaryWithDefault
340
F
  0
DICTIONARY
  5
10C
102
{ACAD_REACTORS
330
C
102
}
330
C
100
AcDbDictionary
281
     1
  3
A0
350
10D
  3
A1
350
1BE
  3
A2
350
1BF
  3
A3
350
1C0
  3
A4
350
1C1
  3
A5
350
1C2
  3
A6
350
1C3
  3
A7
350
1C4
  3
A8
350
1C5
  3
A9
350
1C6
  3
B0
350
1C7
  3
B1
350
1C8
  3
B2
350
1C9
  3
B3
350
1CA
  3
B4
350
1CB
  3
B5
350
1CC
  3
B6
350
1CD
  0
DICTIONARY
  5
219
102
{ACAD_REACTORS
330
C
102
}
330
C
100
AcDbDictionary
281
     1
  3
Imperial24
350
733
  3
Metric50
350
21A
  0
DICTIONARY
  5
7E
102
{ACAD_REACTORS
330
C
102
}
330
C
100
AcDbDictionary
281
     1
  3
Standard
350
7F
  0
DICTIONARY
  5
EF
102
{ACAD_REACTORS
330
C
102
}
330
C
100
AcDbDictionary
281
     1
  3
2dWireframe
350
F5
  3
Basic
350
F4
  3
Brighten
350
FB
  3
ColorChange
350
FF
  3
Conceptual
350
F8
  3
Dim
350
FA
  3
EdgeColorOff
350
1E6
  3
Facepattern
350
FE
  3
Flat
350
F0
  3
FlatWithEdges
350
F1
  3
Gouraud
350
F2
  3
GouraudWithEdges
350
F3
  3
Hidden
350
F7
  3
JitterOff
350
1E4
  3
Linepattern
350
FD
  3
OverhangOff
350
1E5
  3
Realistic
350
F9
  3
Shaded
350
1F3
  3
Shaded with edges
350
1F2
  3
Shades of Gray
350
1EF
  3
Sketchy
350
1F0
  3
Thicken
350
FC
  3
Wireframe
350
F6
  3
X-Ray
350
1F1
  0
XRECORD
  5
1933
102
{ACAD_REACTORS
330
C
102
}
330
C
100
AcDbXrecord
280
     1
 90
        1
330
7F
330
3D6
330
3D9
330
3DB
330
45D
330
45E
330
460
330
462
330
463
330
472
330
D83
330
D8A
330
101A
330
1024
  0
DICTIONARY
  5
5E
102
{ACAD_REACTORS
330
C
102
}
330
C
100
AcDbDictionary
281
     1
  3
CANNOSCALE
350
146
  3
CENTEREXE
350
259
  3
CENTERLTYPEFILE
350
25A
  3
CMLEADERSTYLE
350
145
  3
CTABLESTYLE
350
84
  3
CVIEWDETAILSTYLE
350
227
  3
CVIEWSECTIONSTYLE
350
228
  3
DIMASSOC
350
5F
  3
HIDETEXT
350
63
  3
LAYEREVAL
350
1AE
  3
LAYERNOTIFY
350
1AF
  3
LIGHTINGUNITS
350
1461
  3
MSLTSCALE
350
1460
  0
DICTIONARY
  5
200
102
{ACAD_REACTORS
330
1FF
102
}
330
1FF
100
AcDbDictionary
281
     1
  0
SORTENTSTABLE
  5
D1E
102
{ACAD_REACTORS
330
1CE
102
}
330
1CE
100
AcDbSortentsTable
330
1F
331
CB7
  5
D28
331
CB8
  5
D29
331
D1F
  5
D2A
331
D20
  5
D2B
331
D21
  5
D5F
331
D22
  5
D60
331
D23
  5
D61
331
D24
  5
D62
331
D25
  5
D63
331
D26
  5
D64
331
D27
  5
D65
331
D28
  5
D66
331
D29
  5
D67
331
D2A
  5
D68
331
D2B
  5
D69
331
D2C
  5
D6A
331
D5F
  5
D6B
331
D60
  5
D6C
331
D61
  5
D6D
331
D62
  5
D6E
331
D63
  5
D6F
331
D64
  5
D70
331
D65
  5
D71
331
D66
  5
D72
331
D67
  5
D73
331
D68
  5
D74
331
D69
  5
D75
331
D6A
  5
D76
331
D6B
  5
D77
331
D6C
  5
D78
331
D6D
  5
D79
331
D6E
  5
D7A
331
D6F
  5
D7B
331
D70
  5
D7C
331
D71
  5
D7D
331
D72
  5
D7E
331
D73
  5
D7F
331
D74
  5
D80
331
D75
  5
D81
331
D76
  5
D82
331
D77
  5
D83
331
D78
  5
D84
331
D79
  5
D85
331
D7A
  5
D86
331
D7B
  5
D87
331
D7C
  5
D88
331
D7D
  5
D89
331
D7E
  5
D8A
331
D7F
  5
DBB
331
D80
  5
DD8
331
D81
  5
DF0
331
D82
  5
ED0
331
D83
  5
ED1
331
D84
  5
ED8
331
D85
  5
ED9
331
D86
  5
EDA
331
D87
  5
EDB
331
D88
  5
EF4
331
D89
  5
F5A
331
D8A
  5
F5B
331
ED0
  5
FBC
331
ED1
  5
116B
331
F5A
  5
116C
331
F5B
  5
116D
331
F5C
  5
116E
331
F5D
  5
116F
331
F5E
  5
1170
331
F8C
  5
1171
331
FBC
  5
1172
331
FF7
  5
1173
331
1019
  5
1174
331
101A
  5
1175
331
1023
  5
1176
331
1024
  5
1177
331
132C
  5
CB7
331
132E
  5
CBF
331
1330
  5
D24
331
1332
  5
D25
331
1335
  5
D27
331
1336
  5
D22
331
1337
  5
D20
331
1338
  5
D26
331
1339
  5
139C
331
1663
  5
167D
331
167D
  5
1663
  0
SORTENTSTABLE
  5
10AE
102
{ACAD_REACTORS
330
10AD
102
}
330
10AD
100
AcDbSortentsTable
330
1055
  0
SORTENTSTABLE
  5
1203
102
{ACAD_REACTORS
330
1202
102
}
330
1202
100
AcDbSortentsTable
330
11B6
  0
SORTENTSTABLE
  5
1253
102
{ACAD_REACTORS
330
1252
102
}
330
1252
100
AcDbSortentsTable
330
1206
  0
SORTENTSTABLE
  5
15ED
102
{ACAD_REACTORS
330
15EC
102
}
330
15EC
100
AcDbSortentsTable
330
15D4
  0
SORTENTSTABLE
  5
1683
102
{ACAD_REACTORS
330
1682
102
}
330
1682
100
AcDbSortentsTable
330
1680
  0
SORTENTSTABLE
  5
1689
102
{ACAD_REACTORS
330
1688
102
}
330
1688
100
AcDbSortentsTable
330
1686
  0
SORTENTSTABLE
  5
168F
102
{ACAD_REACTORS
330
168E
102
}
330
168E
100
AcDbSortentsTable
330
168C
  0
DIMASSOC
  5
10A3
102
{ACAD_REACTORS
330
10A2
102
}
330
10A2
100
AcDbDimAssoc
330
10A1
 90
        3
 70
     0
 71
     0
  1
AcDbOsnapPointRef
 72
    10
331
1073
 73
     2
 91
        0
 40
0.0667491733066507
 10
0.0
 20
0.0
 30
0.0
 75
     0
  1
AcDbOsnapPointRef
 72
    10
331
105C
 73
     2
 91
        0
 40
0.9261614840280202
 10
0.0
 20
0.0
 30
0.0
 75
     0
  0
DIMASSOC
  5
10A6
102
{ACAD_REACTORS
330
10A5
102
}
330
10A5
100
AcDbDimAssoc
330
10A4
 90
        3
 70
     0
 71
     0
  1
AcDbOsnapPointRef
 72
    10
331
1056
 73
     2
 91
        0
 40
0.0152535474955848
 10
0.0
 20
0.0
 30
0.0
 75
     0
  1
AcDbOsnapPointRef
 72
    10
331
1079
 73
     2
 91
        0
 40
0.9927725495124255
 10
0.0
 20
0.0
 30
0.0
 75
     0
  0
DIMASSOC
  5
10A9
102
{ACAD_REACTORS
330
10A8
102
}
330
10A8
100
AcDbDimAssoc
330
10A7
 90
        3
 70
     0
 71
     0
  1
AcDbOsnapPointRef
 72
     8
331
106E
 73
     2
 91
        0
 40
0.4967627561704589
 10
5072.369755276406
 20
2069.036199512943
 30
0.0
 75
     1
  1
AcDbOsnapPointRef
 72
     0
 40
0.0
 10
5072.369755276406
 20
2069.036199512943
 30
0.0
 75
     0
  1
AcDbOsnapPointRef
 72
     8
331
1061
 73
     2
 91
        0
 40
0.5032372438295411
 10
5072.369755276406
 20
1637.266042011048
 30
0.0
 75
     1
  1
AcDbOsnapPointRef
 72
     8
331
106E
 73
     2
 91
        0
 40
0.4967627561704589
 10
5072.369755276406
 20
2069.036199512943
 30
0.0
 75
     1
  1
AcDbOsnapPointRef
 72
     0
 40
0.0
 10
5072.369755276406
 20
2069.036199512943
 30
0.0
 75
     0
  0
DIMASSOC
  5
10AC
102
{ACAD_REACTORS
330
10AB
102
}
330
10AB
100
AcDbDimAssoc
330
10AA
 90
        3
 70
     0
 71
     0
  1
AcDbOsnapPointRef
 72
     2
331
105B
 73
     2
 91
        0
 40
0.5
 10
4682.67085092132
 20
1853.151120761991
 30
0.0
 75
     0
  1
AcDbOsnapPointRef
 72
     2
331
1074
 73
     2
 91
        0
 40
0.5
 10
5457.311880429668
 20
1853.151120761991
 30
0.0
 75
     0
  0
DIMASSOC
  5
FA1
102
{ACAD_REACTORS
330
F98
102
}
330
F98
100
AcDbDimAssoc
330
F8C
 90
        2
 70
     0
 71
     0
  1
AcDbOsnapPointRef
 72
     3
331
F5B
 73
     2
 91
        0
 40
0.0
 10
0.0
 20
0.0
 30
0.0
 75
     0
  0
DIMASSOC
  5
FD7
102
{ACAD_REACTORS
330
FCB
102
}
330
FCB
100
AcDbDimAssoc
330
FBC
 90
        1
 70
     0
 71
     0
  1
AcDbOsnapPointRef
 72
     1
331
F5C
 73
     2
 91
        0
 40
1.0
 10
5249.148617999535
 20
2831.022801303857
 30
0.0
 75
     0
  0
DIMASSOC
  5
1010
102
{ACAD_REACTORS
330
1005
102
}
330
1005
100
AcDbDimAssoc
330
FF7
 90
        3
 70
     0
 71
     0
  1
AcDbOsnapPointRef
 72
     5
331
F5B
 73
     2
 91
        0
 40
1.570796326794896
 10
4851.67428193256
 20
2848.522801305057
 30
0.0
 75
     0
  1
AcDbOsnapPointRef
 72
     8
331
F5E
 73
     2
 91
        0
 40
0.8723799923735722
 10
5181.774281931896
 20
2848.522801305057
 30
0.0
 75
     1
  1
AcDbOsnapPointRef
 72
     5
331
F5B
 73
     2
 91
        0
 40
1.570796326794896
 10
4851.67428193256
 20
2848.522801305057
 30
0.0
 75
     0
  0
DIMASSOC
  5
1348
102
{ACAD_REACTORS
330
1342
102
}
330
1342
100
AcDbDimAssoc
330
1339
 90
        2
 70
     0
 71
     0
  1
AcDbOsnapPointRef
 72
     3
331
1338
 73
     2
 91
        0
 40
0.0
 10
0.0
 20
0.0
 30
0.0
 75
     0
  0
DIMASSOC
  5
1672
102
{ACAD_REACTORS
330
166C
102
}
330
166C
100
AcDbDimAssoc
330
1663
 90
        2
 70
     0
 71
     0
  1
AcDbOsnapPointRef
 72
     3
331
1658
 73
     2
 91
        8
 40
0.0
 10
0.0
 20
0.0
 30
0.0
 75
     0
  0
XRECORD
  5
1594
102
{ACAD_REACTORS
330
1593
102
}
330
1593
100
AcDbXrecord
280
     1
 90
        1
340
10D
  0
XRECORD
  5
1598
102
{ACAD_REACTORS
330
1597
102
}
330
1597
100
AcDbXrecord
280
     1
 90
        1
340
10D
  0
ACDBDETAILVIEWSTYLE
  5
734
102
{ACAD_XDICTIONARY
360
193A
102
}
102
{ACAD_REACTORS
330
21B
102
}
330
21B
100
AcDbModelDocViewStyle
 70
     0
  3
Imperial24
290
     0
100
AcDbDetailViewStyle
 70
     0
 71
     0
 90
        3
 71
     1
340
11
 62
   256
 40
0.24
340
0
 62
   256
 40
0.24
300

 40
0.36
280
     3
 71
     2
340
16
 90
       25
 62
   256
 71
     3
340
11
 62
   256
 40
0.24
 90
        1
 40
0.75
 90
        1
300
%<\AcVar ViewType \f "%tc1">% %<\AcVar ViewDetailId>%\PSCALE %<\AcVar ViewScale \f "%sn">%
 71
     4
340
16
 90
       25
 62
   256
340
16
 90
       25
 62
   256
280
     0
  0
ACDBDETAILVIEWSTYLE
  5
21C
102
{ACAD_XDICTIONARY
360
1936
102
}
102
{ACAD_REACTORS
330
21B
102
}
330
21B
100
AcDbModelDocViewStyle
 70
     0
  3
Metric50
290
     0
100
AcDbDetailViewStyle
 70
     0
 71
     0
 90
        3
 71
     1
340
11
 62
   256
 40
5.0
340
0
 62
   256
 40
5.0
300

 40
0.0
280
     1
 71
     2
340
16
 90
       25
 62
   256
 71
     3
340
11
 62
   256
 40
5.0
 90
        0
 40
15.0
 90
        1
300
%<\AcVar ViewDetailId>% (%<\AcVar ViewScale \f "%sn">%)
 71
     4
340
16
 90
       25
 62
   256
340
16
 90
       25
 62
   256
280
     0
  0
LAYOUT
  5
D3
102
{ACAD_REACTORS
330
1A
102
}
330
1A
100
AcDbPlotSettings
  1

  2
none_device
  4
ISO_A4_(210.00_x_297.00_MM)
  6

 40
7.5
 41
20.0
 42
7.5
 43
20.0
 44
210.0
 45
297.0
 46
0.0
 47
0.0
 48
0.0
 49
0.0
140
0.0
141
0.0
142
1.0
143
1.0
 70
   688
 72
     1
 73
     1
 74
     5
  7

 75
    16
147
1.0
 76
     0
 77
     2
 78
   300
148
0.0
149
0.0
100
AcDbLayout
  1
Layout1
 70
     1
 71
     1
 10
-20.0
 20
-7.5
 11
277.0
 21
202.5
 12
0.0
 22
0.0
 32
0.0
 14
25.69999999999999
 24
19.5
 34
0.0
 15
231.3
 25
175.5
 35
0.0
146
0.0
 13
0.0
 23
0.0
 33
0.0
 16
1.0
 26
0.0
 36
0.0
 17
0.0
 27
1.0
 37
0.0
 76
     0
330
D2
331
1592
1001
ACAD_PSEXT
1000
None
1000
None
1000
Not applicable
1000
The layout will not be plotted unless a new plotter configuration name is selected.
1070
     0
  0
LAYOUT
  5
D7
102
{ACAD_REACTORS
330
1A
102
}
330
1A
100
AcDbPlotSettings
  1

  2
C:\Documents and Settings\basas\Application Data\Autodesk\AutoCAD 2005\R16.1\enu\plotters\Default Windows System Printer.pc3
  4

  6

 40
0.0
 41
0.0
 42
0.0
 43
0.0
 44
0.0
 45
0.0
 46
0.0
 47
0.0
 48
0.0
 49
0.0
140
0.0
141
0.0
142
1.0
143
1.0
 70
   688
 72
     0
 73
     0
 74
     5
  7

 75
    16
147
1.0
 76
     0
 77
     2
 78
   300
148
0.0
149
0.0
100
AcDbLayout
  1
Layout2
 70
     1
 71
     2
 10
0.0
 20
0.0
 11
12.0
 21
9.0
 12
0.0
 22
0.0
 32
0.0
 14
0.0
 24
0.0
 34
0.0
 15
0.0
 25
0.0
 35
0.0
146
0.0
 13
0.0
 23
0.0
 33
0.0
 16
1.0
 26
0.0
 36
0.0
 17
0.0
 27
1.0
 37
0.0
 76
     0
330
D6
  0
LAYOUT
  5
22
102
{ACAD_XDICTIONARY
360
205
102
}
102
{ACAD_REACTORS
330
1A
102
}
330
1A
100
AcDbPlotSettings
  1

  2
none_device
  4
ISO_A4_(210.00_x_297.00_MM)
  6

 40
7.5
 41
20.0
 42
7.5
 43
20.0
 44
210.0
 45
297.0
 46
11.54999923706054
 47
-13.65000009536743
 48
0.0
 49
0.0
140
0.0
141
0.0
142
1.0
143
8.704084754739808
 70
 11952
 72
     1
 73
     0
 74
     0
  7

 75
     0
147
0.1148885871608098
 76
     0
 77
     2
 78
   300
148
0.0
149
0.0
100
AcDbLayout
  1
Model
 70
     1
 71
     0
 10
0.0
 20
0.0
 11
12.0
 21
9.0
 12
0.0
 22
0.0
 32
0.0
 14
0.0
 24
0.0
 34
0.0
 15
0.0
 25
0.0
 35
0.0
146
0.0
 13
0.0
 23
0.0
 33
0.0
 16
1.0
 26
0.0
 36
0.0
 17
0.0
 27
1.0
 37
0.0
 76
     0
330
1F
331
EA
1001
ACAD_PSEXT
1000
None
1000
None
1000
Not applicable
1000
The layout will not be plotted unless a new plotter configuration name is selected.
1070
     0
  0
MATERIAL
  5
ED
102
{ACAD_XDICTIONARY
360
1F9
102
}
102
{ACAD_REACTORS
330
6A
102
}
330
6A
100
AcDbMaterial
  1
ByBlock
  0
MATERIAL
  5
EC
102
{ACAD_XDICTIONARY
360
1F7
102
}
102
{ACAD_REACTORS
330
6A
102
}
330
6A
100
AcDbMaterial
  1
ByLayer
  0
MATERIAL
  5
EE
102
{ACAD_XDICTIONARY
360
173
102
}
102
{ACAD_REACTORS
330
6A
102
}
330
6A
100
AcDbMaterial
  1
Global
 43
0.0007999999797903
 43
0.0
 43
0.0
 43
0.0
 43
0.0
 43
0.0007999999797903
 43
0.0
 43
0.0
 43
0.0
 43
0.0
 43
1.0
 43
0.0
 43
0.0
 43
0.0
 43
0.0
 43
1.0
 49
0.0007999999797903
 49
0.0
 49
0.0
 49
0.0
 49
0.0
 49
0.0007999999797903
 49
0.0
 49
0.0
 49
0.0
 49
0.0
 49
1.0
 49
0.0
 49
0.0
 49
0.0
 49
0.0
 49
1.0
142
0.0007999999797903
142
0.0
142
0.0
142
0.0
142
0.0
142
0.0007999999797903
142
0.0
142
0.0
142
0.0
142
0.0
142
1.0
142
0.0
142
0.0
142
0.0
142
0.0
142
1.0
144
0.0007999999797903
144
0.0
144
0.0
144
0.0
144
0.0
144
0.0007999999797903
144
0.0
144
0.0
144
0.0
144
0.0
144
1.0
144
0.0
144
0.0
144
0.0
144
0.0
144
1.0
1001
ACAD
1070
    -1
1070
     3
1070
     0
1000

1071
        0
1070
     0
  0
MLEADERSTYLE
  5
13B
102
{ACAD_REACTORS
330
12D
102
}
330
12D
100
AcDbMLeaderStyle
179
     2
170
     2
171
     1
172
     0
 90
        2
 40
0.0
 41
0.0
173
     1
 91
-1056964608
340
14
 92
       -2
290
     1
 42
2.0
291
     1
 43
8.0
  3
Standard
 44
4.0
300

342
11
174
     1
178
     1
175
     1
176
     0
 93
-1056964608
 45
4.0
292
     0
297
     0
 46
4.0
 94
-1056964608
 47
1.0
 49
1.0
140
1.0
293
     1
141
0.0
294
     1
177
     0
142
1.0
295
     0
296
     1
143
3.75
271
     0
272
     9
273
     9
298
     0
1001
ACAD_MLEADERVER
1070
     2
  0
MLEADERSTYLE
  5
321
102
{ACAD_REACTORS
330
12D
330
1019
330
1023
102
}
330
12D
100
AcDbMLeaderStyle
179
     2
170
     2
171
     1
172
     0
 90
        2
 40
0.0
 41
0.0
173
     1
 91
-1023410174
340
14
 92
        5
290
     1
 42
2.0
291
     1
 43
8.0
  3
Standard
 44
10.0
300

342
11
174
     1
178
     1
175
     1
176
     0
 93
-1056964608
 45
4.0
292
     0
297
     0
 46
4.0
 94
-1056964608
 47
1.0
 49
1.0
140
1.0
293
     1
141
0.0
294
     1
177
     0
142
1.0
295
     0
296
     0
143
3.75
271
     0
272
     9
273
     9
298
     0
1001
ACAD_MLEADERVER
1070
     2
  0
MLEADERSTYLE
  5
12E
102
{ACAD_REACTORS
330
12D
102
}
330
12D
100
AcDbMLeaderStyle
179
     2
170
     2
171
     1
172
     0
 90
        2
 40
0.0
 41
0.0
173
     1
 91
-1056964608
340
14
 92
       -2
290
     1
 42
2.0
291
     1
 43
8.0
  3
Standard
 44
4.0
300

342
11
174
     1
178
     1
175
     1
176
     0
 93
-1056964608
 45
4.0
292
     0
297
     0
 46
4.0
 94
-1056964608
 47
1.0
 49
1.0
140
1.0
293
     1
141
0.0
294
     1
177
     0
142
1.0
295
     0
296
     0
143
3.75
271
     0
272
     9
273
     9
298
     0
1001
ACAD_MLEADERVER
1070
     2
  0
MLINESTYLE
  5
18
102
{ACAD_REACTORS
330
17
102
}
330
17
100
AcDbMlineStyle
  2
STANDARD
 70
     0
  3

 62
   256
 51
90.0
 52
90.0
 71
     2
 49
0.5
 62
   256
  6
BYLAYER
 49
-0.5
 62
   256
  6
BYLAYER
  0
ACDBPLACEHOLDER
  5
F
102
{ACAD_REACTORS
330
E
102
}
330
E
  0
SCALE
  5
10D
102
{ACAD_REACTORS
330
10C
102
}
330
10C
100
AcDbScale
 70
     0
300
1:1
140
1.0
141
1.0
290
     1
  0
SCALE
  5
1BE
102
{ACAD_REACTORS
330
10C
102
}
330
10C
100
AcDbScale
 70
     0
300
1:2
140
1.0
141
2.0
290
     0
  0
SCALE
  5
1BF
102
{ACAD_REACTORS
330
10C
102
}
330
10C
100
AcDbScale
 70
     0
300
1:4
140
1.0
141
4.0
290
     0
  0
SCALE
  5
1C0
102
{ACAD_REACTORS
330
10C
102
}
330
10C
100
AcDbScale
 70
     0
300
1:5
140
1.0
141
5.0
290
     0
  0
SCALE
  5
1C1
102
{ACAD_REACTORS
330
10C
102
}
330
10C
100
AcDbScale
 70
     0
300
1:8
140
1.0
141
8.0
290
     0
  0
SCALE
  5
1C2
102
{ACAD_REACTORS
330
10C
102
}
330
10C
100
AcDbScale
 70
     0
300
1:10
140
1.0
141
10.0
290
     0
  0
SCALE
  5
1C3
102
{ACAD_REACTORS
330
10C
102
}
330
10C
100
AcDbScale
 70
     0
300
1:16
140
1.0
141
16.0
290
     0
  0
SCALE
  5
1C4
102
{ACAD_REACTORS
330
10C
102
}
330
10C
100
AcDbScale
 70
     0
300
1:20
140
1.0
141
20.0
290
     0
  0
SCALE
  5
1C5
102
{ACAD_REACTORS
330
10C
102
}
330
10C
100
AcDbScale
 70
     0
300
1:30
140
1.0
141
30.0
290
     0
  0
SCALE
  5
1C6
102
{ACAD_REACTORS
330
10C
102
}
330
10C
100
AcDbScale
 70
     0
300
1:40
140
1.0
141
40.0
290
     0
  0
SCALE
  5
1C7
102
{ACAD_REACTORS
330
10C
102
}
330
10C
100
AcDbScale
 70
     0
300
1:50
140
1.0
141
50.0
290
     0
  0
SCALE
  5
1C8
102
{ACAD_REACTORS
330
10C
102
}
330
10C
100
AcDbScale
 70
     0
300
1:100
140
1.0
141
100.0
290
     0
  0
SCALE
  5
1C9
102
{ACAD_REACTORS
330
10C
102
}
330
10C
100
AcDbScale
 70
     0
300
2:1
140
2.0
141
1.0
290
     0
  0
SCALE
  5
1CA
102
{ACAD_REACTORS
330
10C
102
}
330
10C
100
AcDbScale
 70
     0
300
4:1
140
4.0
141
1.0
290
     0
  0
SCALE
  5
1CB
102
{ACAD_REACTORS
330
10C
102
}
330
10C
100
AcDbScale
 70
     0
300
8:1
140
8.0
141
1.0
290
     0
  0
SCALE
  5
1CC
102
{ACAD_REACTORS
330
10C
102
}
330
10C
100
AcDbScale
 70
     0
300
10:1
140
10.0
141
1.0
290
     0
  0
SCALE
  5
1CD
102
{ACAD_REACTORS
330
10C
102
}
330
10C
100
AcDbScale
 70
     0
300
100:1
140
100.0
141
1.0
290
     0
  0
ACDBSECTIONVIEWSTYLE
  5
733
102
{ACAD_XDICTIONARY
360
1938
102
}
102
{ACAD_REACTORS
330
219
102
}
330
219
100
AcDbModelDocViewStyle
 70
     0
  3
Imperial24
290
     0
100
AcDbSectionViewStyle
 70
     0
 71
     0
 90
       78
 71
     1
340
11
 62
   256
 40
0.24
340
0
340
0
 62
   256
 40
0.24
300
I, O, Q, S, X, Z
 40
0.48
 90
        3
 40
0.18
 90
        1
 71
     2
340
16
 90
       25
 62
   256
340
16
 90
       50
 62
   256
 40
0.24
 40
0.0
 40
0.24
 71
     3
340
11
 62
   256
 40
0.24
 90
        1
 40
0.75
 90
        1
300
%<\AcVar ViewType \f "%tc1">% %<\AcVar ViewSectionStartId>%-%<\AcVar ViewSectionEndId>%\PSCALE %<\AcVar ViewScale \f "%sn">%
 71
     4
 62
   256
 62
   257
300
ANSI31
 40
1.0
 90
        0
290
     0
290
     0
 90
        6
 40
0.0
 40
1.570796326794896
 40
0.2617993877991494
 40
1.308996938995747
 40
-0.2617993877991494
 40
1.832595714594045
  0
ACDBSECTIONVIEWSTYLE
  5
21A
102
{ACAD_XDICTIONARY
360
1934
102
}
102
{ACAD_REACTORS
330
219
102
}
330
219
100
AcDbModelDocViewStyle
 70
     0
  3
Metric50
290
     0
100
AcDbSectionViewStyle
 70
     0
 71
     0
 90
      102
 71
     1
340
11
 62
   256
 40
5.0
340
0
340
0
 62
   256
 40
5.0
300
I, O, Q, S, X, Z
 40
10.0
 90
        0
 40
2.5
 90
        0
 71
     2
340
16
 90
       25
 62
   256
340
16
 90
       50
 62
   256
 40
5.0
 40
2.5
 40
5.0
 71
     3
340
11
 62
   256
 40
5.0
 90
        0
 40
15.0
 90
        1
300
%<\AcVar ViewSectionStartId>%-%<\AcVar ViewSectionEndId>% (%<\AcVar ViewScale \f "%sn">%)
 71
     4
 62
   256
 62
   257
300
ANSI31
 40
1.0
 90
        0
290
     0
290
     0
 90
        6
 40
0.0
 40
1.570796326794896
 40
0.2617993877991494
 40
1.308996938995747
 40
-0.2617993877991494
 40
1.832595714594045
  0
TABLESTYLE
  5
7F
102
{ACAD_XDICTIONARY
360
162
102
}
102
{ACAD_REACTORS
330
7E
102
}
330
7E
100
AcDbTableStyle
280
     0
  3
Standard
 70
     0
 71
     0
 40
1.5
 41
1.5
280
     0
281
     0
  7
Standard
140
4.5
170
     2
 62
     0
 63
     7
283
     0
 90
      512
 91
        0
  1

274
    -2
284
     1
 64
     0
275
    -2
285
     1
 65
     0
276
    -2
286
     1
 66
     0
277
    -2
287
     1
 67
     0
278
    -2
288
     1
 68
     0
279
    -2
289
     1
 69
     0
  7
Standard
140
6.0
170
     5
 62
     0
 63
     7
283
     0
 90
      512
 91
        0
  1

274
    -2
284
     1
 64
     0
275
    -2
285
     1
 65
     0
276
    -2
286
     1
 66
     0
277
    -2
287
     1
 67
     0
278
    -2
288
     1
 68
     0
279
    -2
289
     1
 69
     0
  7
Standard
140
4.5
170
     5
 62
     0
 63
     7
283
     0
 90
      512
 91
        0
  1

274
    -2
284
     1
 64
     0
275
    -2
285
     1
 65
     0
276
    -2
286
     1
 66
     0
277
    -2
287
     1
 67
     0
278
    -2
288
     1
 68
     0
279
    -2
289
     1
 69
     0
  0
VISUALSTYLE
  5
F5
102
{ACAD_REACTORS
330
EF
102
}
330
EF
100
AcDbVisualStyle
  2

 70
     4
177
     3
291
     0
 70
    58
 90
        0
176
     1
 90
        2
176
     1
 90
        1
176
     1
 90
        0
176
     1
 40
0.6
176
     1
 40
30.0
176
     1
 62
     7
420
 16777215
176
     1
 90
        1
176
     1
 90
        4
176
     1
 62
     7
176
     1
 62
   257
176
     1
 90
        1
176
     1
 90
        1
176
     1
 40
1.0
176
     1
 90
        0
176
     1
 62
   257
176
     1
 40
1.0
176
     1
 90
        1
176
     1
 90
        6
176
     1
 90
        2
176
     1
 62
     7
176
     1
 90
        5
176
     1
 90
        0
176
     1
 90
        0
176
     1
290
     0
176
     1
 90
        1
176
     1
 40
0.0
176
     1
 90
        0
176
     1
290
     1
176
     1
290
     1
176
     1
290
     0
176
     1
290
     0
176
     1
290
     0
176
     1
290
     0
176
     1
290
     0
176
     1
290
     0
176
     1
290
     0
176
     1
 90
       50
176
     1
 40
0.0
176
     1
 40
1.0
176
     1
 90
        0
176
     1
 62
    18
420
        0
176
     1
 90
       50
176
     1
 90
        3
176
     1
 62
     5
420
      255
176
     1
290
     0
176
     1
 90
       50
176
     1
 90
       50
176
     1
 90
       50
176
     1
290
     0
176
     1
 90
       50
176
     1
 62
   256
176
     0
 40
1.0
176
     0
 90
        2
176
     1
  1
strokes_ogs.tif
176
     1
290
     0
176
     1
 40
1.0
176
     1
 40
1.0
176
     1
1001
ACAD
1000
AcDbSavedByObjectVersion
1070
     0
  0
VISUALSTYLE
  5
F4
102
{ACAD_REACTORS
330
EF
102
}
330
EF
100
AcDbVisualStyle
  2

 70
     7
177
     3
291
     1
 70
    58
 90
        1
176
     1
 90
        0
176
     1
 90
        1
176
     1
 90
        0
176
     1
 40
0.6
176
     1
 40
30.0
176
     1
 62
     7
420
 16777215
176
     1
 90
        0
176
     1
 90
        4
176
     1
 62
     7
176
     1
 62
   257
176
     1
 90
        1
176
     1
 90
        1
176
     1
 40
1.0
176
     1
 90
        8
176
     1
 62
     7
176
     1
 40
1.0
176
     1
 90
        1
176
     1
 90
        6
176
     1
 90
        2
176
     1
 62
     7
176
     1
 90
        5
176
     1
 90
        0
176
     1
 90
        0
176
     1
290
     0
176
     1
 90
        1
176
     1
 40
0.0
176
     1
 90
        0
176
     1
290
     0
176
     1
290
     1
176
     1
290
     1
176
     1
290
     0
176
     1
290
     0
176
     1
290
     0
176
     1
290
     0
176
     1
290
     0
176
     1
290
     0
176
     1
 90
       50
176
     1
 40
0.0
176
     1
 40
1.0
176
     1
 90
        0
176
     1
 62
    18
420
        0
176
     1
 90
       50
176
     1
 90
        3
176
     1
 62
     5
420
      255
176
     1
290
     0
176
     1
 90
       50
176
     1
 90
       50
176
     1
 90
       50
176
     1
290
     0
176
     1
 90
       50
176
     1
 62
   256
176
     0
 40
1.0
176
     0
 90
        2
176
     1
  1
strokes_ogs.tif
176
     1
290
     0
176
     1
 40
1.0
176
     1
 40
1.0
176
     1
1001
ACAD
1000
AcDbSavedByObjectVersion
1070
     0
  0
VISUALSTYLE
  5
FB
102
{ACAD_REACTORS
330
EF
102
}
330
EF
100
AcDbVisualStyle
  2

 70
    12
177
     3
291
     1
 70
    58
 90
        2
176
     1
 90
        2
176
     1
 90
        1
176
     1
 90
        0
176
     1
 40
0.6
176
     1
 40
30.0
176
     1
 62
     7
420
 16777215
176
     1
 90
        1
176
     1
 90
        4
176
     1
 62
     7
176
     1
 62
   257
176
     1
 90
        1
176
     1
 90
        1
176
     1
 40
1.0
176
     1
 90
        8
176
     1
 62
     7
176
     1
 40
1.0
176
     1
 90
        1
176
     1
 90
        6
176
     1
 90
        2
176
     1
 62
     7
176
     1
 90
        5
176
     1
 90
        0
176
     1
 90
        0
176
     1
290
     0
176
     1
 90
        1
176
     1
 40
50.0
176
     1
 90
        0
176
     1
290
     0
176
     1
290
     1
176
     1
290
     1
176
     1
290
     0
176
     1
290
     0
176
     1
290
     0
176
     1
290
     0
176
     1
290
     0
176
     1
290
     0
176
     1
 90
       50
176
     1
 40
0.0
176
     1
 40
1.0
176
     1
 90
        0
176
     1
 62
    18
420
        0
176
     1
 90
       50
176
     1
 90
        3
176
     1
 62
     5
420
      255
176
     1
290
     0
176
     1
 90
       50
176
     1
 90
       50
176
     1
 90
       50
176
     1
290
     0
176
     1
 90
       50
176
     1
 62
   256
176
     0
 40
1.0
176
     0
 90
        2
176
     1
  1
strokes_ogs.tif
176
     1
290
     0
176
     1
 40
1.0
176
     1
 40
1.0
176
     1
1001
ACAD
1000
AcDbSavedByObjectVersion
1070
     0
  0
VISUALSTYLE
  5
FF
102
{ACAD_REACTORS
330
EF
102
}
330
EF
100
AcDbVisualStyle
  2

 70
    16
177
     3
291
     1
 70
    58
 90
        2
176
     1
 90
        2
176
     1
 90
        3
176
     1
 90
        0
176
     1
 40
0.6
176
     1
 40
30.0
176
     1
 62
     8
420
  8421504
176
     1
 90
        1
176
     1
 90
        4
176
     1
 62
     7
176
     1
 62
   257
176
     1
 90
        1
176
     1
 90
        1
176
     1
 40
1.0
176
     1
 90
        8
176
     1
 62
     8
420
  8421504
176
     1
 40
1.0
176
     1
 90
        1
176
     1
 90
        6
176
     1
 90
        2
176
     1
 62
     7
176
     1
 90
        5
176
     1
 90
        0
176
     1
 90
        0
176
     1
290
     0
176
     1
 90
        1
176
     1
 40
0.0
176
     1
 90
        0
176
     1
290
     0
176
     1
290
     1
176
     1
290
     1
176
     1
290
     0
176
     1
290
     0
176
     1
290
     0
176
     1
290
     0
176
     1
290
     0
176
     1
290
     0
176
     1
 90
       50
176
     1
 40
0.0
176
     1
 40
1.0
176
     1
 90
        0
176
     1
 62
    18
420
        0
176
     1
 90
       50
176
     1
 90
        3
176
     1
 62
     5
420
      255
176
     1
290
     0
176
     1
 90
       50
176
     1
 90
       50
176
     1
 90
       50
176
     1
290
     0
176
     1
 90
       50
176
     1
 62
   256
176
     0
 40
1.0
176
     0
 90
        2
176
     1
  1
strokes_ogs.tif
176
     1
290
     0
176
     1
 40
1.0
176
     1
 40
1.0
176
     1
1001
ACAD
1000
AcDbSavedByObjectVersion
1070
     0
  0
VISUALSTYLE
  5
F8
102
{ACAD_REACTORS
330
EF
102
}
330
EF
100
AcDbVisualStyle
  2

 70
     9
177
     3
291
     0
 70
    58
 90
        3
176
     1
 90
        2
176
     1
 90
        1
176
     1
 90
        0
176
     1
 40
0.6
176
     1
 40
30.0
176
     1
 62
     7
420
 16777215
176
     1
 90
        2
176
     1
 90
        2
176
     1
 62
     7
176
     1
 62
   257
176
     1
 90
        1
176
     1
 90
        1
176
     1
 40
40.0
176
     1
 90
        8
176
     1
 62
     7
176
     1
 40
1.0
176
     1
 90
        1
176
     1
 90
        6
176
     1
 90
        2
176
     1
 62
     7
176
     1
 90
        3
176
     1
 90
        0
176
     1
 90
        0
176
     1
290
     0
176
     1
 90
        1
176
     1
 40
0.0
176
     1
 90
        0
176
     1
290
     0
176
     1
290
     1
176
     1
290
     1
176
     1
290
     0
176
     1
290
     0
176
     1
290
     0
176
     1
290
     0
176
     1
290
     0
176
     1
290
     0
176
     1
 90
       50
176
     1
 40
0.0
176
     1
 40
1.0
176
     1
 90
        0
176
     1
 62
    18
420
        0
176
     1
 90
       50
176
     1
 90
        3
176
     1
 62
     5
420
      255
176
     1
290
     0
176
     1
 90
       50
176
     1
 90
       50
176
     1
 90
       50
176
     1
290
     0
176
     1
 90
       50
176
     1
 62
   256
176
     0
 40
1.0
176
     0
 90
        2
176
     1
  1
strokes_ogs.tif
176
     1
290
     0
176
     1
 40
1.0
176
     1
 40
1.0
176
     1
1001
ACAD
1000
AcDbSavedByObjectVersion
1070
     0
  0
VISUALSTYLE
  5
FA
102
{ACAD_REACTORS
330
EF
102
}
330
EF
100
AcDbVisualStyle
  2

 70
    11
177
     3
291
     1
 70
    58
 90
        2
176
     1
 90
        2
176
     1
 90
        1
176
     1
 90
        0
176
     1
 40
0.6
176
     1
 40
30.0
176
     1
 62
     7
420
 16777215
176
     1
 90
        1
176
     1
 90
        4
176
     1
 62
     7
176
     1
 62
   257
176
     1
 90
        1
176
     1
 90
        1
176
     1
 40
1.0
176
     1
 90
        8
176
     1
 62
     7
176
     1
 40
1.0
176
     1
 90
        1
176
     1
 90
        6
176
     1
 90
        2
176
     1
 62
     7
176
     1
 90
        5
176
     1
 90
        0
176
     1
 90
        0
176
     1
290
     0
176
     1
 90
        1
176
     1
 40
-50.0
176
     1
 90
        0
176
     1
290
     0
176
     1
290
     1
176
     1
290
     1
176
     1
290
     0
176
     1
290
     0
176
     1
290
     0
176
     1
290
     0
176
     1
290
     0
176
     1
290
     0
176
     1
 90
       50
176
     1
 40
0.0
176
     1
 40
1.0
176
     1
 90
        0
176
     1
 62
    18
420
        0
176
     1
 90
       50
176
     1
 90
        3
176
     1
 62
     5
420
      255
176
     1
290
     0
176
     1
 90
       50
176
     1
 90
       50
176
     1
 90
       50
176
     1
290
     0
176
     1
 90
       50
176
     1
 62
   256
176
     0
 40
1.0
176
     0
 90
        2
176
     1
  1
strokes_ogs.tif
176
     1
290
     0
176
     1
 40
1.0
176
     1
 40
1.0
176
     1
1001
ACAD
1000
AcDbSavedByObjectVersion
1070
     0
  0
VISUALSTYLE
  5
1E6
102
{ACAD_REACTORS
330
EF
102
}
330
EF
100
AcDbVisualStyle
  2

 70
    22
177
     3
291
     1
 70
    58
 90
        2
176
     0
 90
        2
176
     0
 90
        0
176
     0
 90
        0
176
     0
 40
0.6
176
     0
 40
30.0
176
     0
 62
     7
420
 16777215
176
     0
 90
        1
176
     0
 90
        4
176
     0
 62
     7
176
     0
 62
   257
176
     0
 90
        1
176
     0
 90
        1
176
     0
 40
1.0
176
     0
 90
        8
176
     2
 62
     7
176
     0
 40
1.0
176
     0
 90
        1
176
     0
 90
        6
176
     0
 90
        2
176
     0
 62
     7
176
     0
 90
        5
176
     0
 90
        0
176
     0
 90
        0
176
     0
290
     0
176
     0
 90
        1
176
     0
 40
0.0
176
     0
 90
        0
176
     0
290
     0
176
     1
290
     1
176
     1
290
     1
176
     1
290
     0
176
     1
290
     0
176
     1
290
     0
176
     1
290
     0
176
     1
290
     0
176
     1
290
     0
176
     1
 90
       50
176
     1
 40
0.0
176
     1
 40
1.0
176
     1
 90
        0
176
     1
 62
    18
420
        0
176
     1
 90
       50
176
     1
 90
        3
176
     1
 62
     5
420
      255
176
     1
290
     0
176
     1
 90
       50
176
     1
 90
       50
176
     1
 90
       50
176
     1
290
     0
176
     1
 90
       50
176
     1
 62
   256
176
     0
 40
1.0
176
     0
 90
        2
176
     1
  1
strokes_ogs.tif
176
     1
290
     0
176
     1
 40
1.0
176
     1
 40
1.0
176
     1
1001
ACAD
1000
AcDbSavedByObjectVersion
1070
     0
  0
VISUALSTYLE
  5
FE
102
{ACAD_REACTORS
330
EF
102
}
330
EF
100
AcDbVisualStyle
  2

 70
    15
177
     3
291
     1
 70
    58
 90
        2
176
     1
 90
        2
176
     1
 90
        1
176
     1
 90
        0
176
     1
 40
0.6
176
     1
 40
30.0
176
     1
 62
     7
420
 16777215
176
     1
 90
        1
176
     1
 90
        4
176
     1
 62
     7
176
     1
 62
   257
176
     1
 90
        1
176
     1
 90
        1
176
     1
 40
1.0
176
     1
 90
        8
176
     1
 62
     7
176
     1
 40
1.0
176
     1
 90
        1
176
     1
 90
        6
176
     1
 90
        2
176
     1
 62
     7
176
     1
 90
        5
176
     1
 90
        0
176
     1
 90
        0
176
     1
290
     0
176
     1
 90
        1
176
     1
 40
0.0
176
     1
 90
        0
176
     1
290
     0
176
     1
290
     1
176
     1
290
     1
176
     1
290
     0
176
     1
290
     0
176
     1
290
     0
176
     1
290
     0
176
     1
290
     0
176
     1
290
     0
176
     1
 90
       50
176
     1
 40
0.0
176
     1
 40
1.0
176
     1
 90
        0
176
     1
 62
    18
420
        0
176
     1
 90
       50
176
     1
 90
        3
176
     1
 62
     5
420
      255
176
     1
290
     0
176
     1
 90
       50
176
     1
 90
       50
176
     1
 90
       50
176
     1
290
     0
176
     1
 90
       50
176
     1
 62
   256
176
     0
 40
1.0
176
     0
 90
        2
176
     1
  1
strokes_ogs.tif
176
     1
290
     0
176
     1
 40
1.0
176
     1
 40
1.0
176
     1
1001
ACAD
1000
AcDbSavedByObjectVersion
1070
     0
  0
VISUALSTYLE
  5
F0
102
{ACAD_REACTORS
330
EF
102
}
330
EF
100
AcDbVisualStyle
  2

 70
     0
177
     3
291
     1
 70
    58
 90
        2
176
     1
 90
        1
176
     1
 90
        1
176
     1
 90
        2
176
     1
 40
0.6
176
     1
 40
30.0
176
     1
 62
     7
420
 16777215
176
     1
 90
        0
176
     1
 90
        0
176
     1
 62
     7
176
     1
 62
   257
176
     1
 90
        1
176
     1
 90
        1
176
     1
 40
1.0
176
     1
 90
        8
176
     1
 62
     7
176
     1
 40
1.0
176
     1
 90
        1
176
     1
 90
        6
176
     1
 90
        2
176
     1
 62
     7
176
     1
 90
        5
176
     1
 90
        0
176
     1
 90
        0
176
     1
290
     0
176
     1
 90
       13
176
     1
 40
0.0
176
     1
 90
        0
176
     1
290
     0
176
     1
290
     1
176
     1
290
     1
176
     1
290
     0
176
     1
290
     0
176
     1
290
     0
176
     1
290
     0
176
     1
290
     0
176
     1
290
     0
176
     1
 90
       50
176
     1
 40
0.0
176
     1
 40
1.0
176
     1
 90
        0
176
     1
 62
    18
420
        0
176
     1
 90
       50
176
     1
 90
        3
176
     1
 62
     5
420
      255
176
     1
290
     0
176
     1
 90
       50
176
     1
 90
       50
176
     1
 90
       50
176
     1
290
     0
176
     1
 90
       50
176
     1
 62
   256
176
     0
 40
1.0
176
     0
 90
        2
176
     1
  1
strokes_ogs.tif
176
     1
290
     0
176
     1
 40
1.0
176
     1
 40
1.0
176
     1
1001
ACAD
1000
AcDbSavedByObjectVersion
1070
     0
  0
VISUALSTYLE
  5
F1
102
{ACAD_REACTORS
330
EF
102
}
330
EF
100
AcDbVisualStyle
  2

 70
     1
177
     3
291
     1
 70
    58
 90
        2
176
     1
 90
        1
176
     1
 90
        1
176
     1
 90
        2
176
     1
 40
0.6
176
     1
 40
30.0
176
     1
 62
     7
420
 16777215
176
     1
 90
        1
176
     1
 90
        0
176
     1
 62
     7
176
     1
 62
   257
176
     1
 90
        1
176
     1
 90
        1
176
     1
 40
1.0
176
     1
 90
        0
176
     1
 62
   257
176
     1
 40
1.0
176
     1
 90
        1
176
     1
 90
        6
176
     1
 90
        2
176
     1
 62
     7
176
     1
 90
        5
176
     1
 90
        0
176
     1
 90
        0
176
     1
290
     0
176
     1
 90
       13
176
     1
 40
0.0
176
     1
 90
        0
176
     1
290
     0
176
     1
290
     1
176
     1
290
     1
176
     1
290
     0
176
     1
290
     0
176
     1
290
     0
176
     1
290
     0
176
     1
290
     0
176
     1
290
     0
176
     1
 90
       50
176
     1
 40
0.0
176
     1
 40
1.0
176
     1
 90
        0
176
     1
 62
    18
420
        0
176
     1
 90
       50
176
     1
 90
        3
176
     1
 62
     5
420
      255
176
     1
290
     0
176
     1
 90
       50
176
     1
 90
       50
176
     1
 90
       50
176
     1
290
     0
176
     1
 90
       50
176
     1
 62
   256
176
     0
 40
1.0
176
     0
 90
        2
176
     1
  1
strokes_ogs.tif
176
     1
290
     0
176
     1
 40
1.0
176
     1
 40
1.0
176
     1
1001
ACAD
1000
AcDbSavedByObjectVersion
1070
     0
  0
VISUALSTYLE
  5
F2
102
{ACAD_REACTORS
330
EF
102
}
330
EF
100
AcDbVisualStyle
  2

 70
     2
177
     3
291
     1
 70
    58
 90
        2
176
     1
 90
        2
176
     1
 90
        1
176
     1
 90
        2
176
     1
 40
0.6
176
     1
 40
30.0
176
     1
 62
     7
420
 16777215
176
     1
 90
        0
176
     1
 90
        0
176
     1
 62
     7
176
     1
 62
   257
176
     1
 90
        1
176
     1
 90
        1
176
     1
 40
1.0
176
     1
 90
        0
176
     1
 62
     7
176
     1
 40
1.0
176
     1
 90
        1
176
     1
 90
        6
176
     1
 90
        2
176
     1
 62
     7
176
     1
 90
        5
176
     1
 90
        0
176
     1
 90
        0
176
     1
290
     0
176
     1
 90
       13
176
     1
 40
0.0
176
     1
 90
        0
176
     1
290
     0
176
     1
290
     1
176
     1
290
     1
176
     1
290
     0
176
     1
290
     0
176
     1
290
     0
176
     1
290
     0
176
     1
290
     0
176
     1
290
     0
176
     1
 90
       50
176
     1
 40
0.0
176
     1
 40
1.0
176
     1
 90
        0
176
     1
 62
    18
420
        0
176
     1
 90
       50
176
     1
 90
        3
176
     1
 62
     5
420
      255
176
     1
290
     0
176
     1
 90
       50
176
     1
 90
       50
176
     1
 90
       50
176
     1
290
     0
176
     1
 90
       50
176
     1
 62
   256
176
     0
 40
1.0
176
     0
 90
        2
176
     1
  1
strokes_ogs.tif
176
     1
290
     0
176
     1
 40
1.0
176
     1
 40
1.0
176
     1
1001
ACAD
1000
AcDbSavedByObjectVersion
1070
     0
  0
VISUALSTYLE
  5
F3
102
{ACAD_REACTORS
330
EF
102
}
330
EF
100
AcDbVisualStyle
  2

 70
     3
177
     3
291
     1
 70
    58
 90
        2
176
     1
 90
        2
176
     1
 90
        1
176
     1
 90
        2
176
     1
 40
0.6
176
     1
 40
30.0
176
     1
 62
     7
420
 16777215
176
     1
 90
        1
176
     1
 90
        0
176
     1
 62
     7
176
     1
 62
   257
176
     1
 90
        1
176
     1
 90
        1
176
     1
 40
1.0
176
     1
 90
        0
176
     1
 62
   257
176
     1
 40
1.0
176
     1
 90
        1
176
     1
 90
        6
176
     1
 90
        2
176
     1
 62
     7
176
     1
 90
        5
176
     1
 90
        0
176
     1
 90
        0
176
     1
290
     0
176
     1
 90
       13
176
     1
 40
0.0
176
     1
 90
        0
176
     1
290
     0
176
     1
290
     1
176
     1
290
     1
176
     1
290
     0
176
     1
290
     0
176
     1
290
     0
176
     1
290
     0
176
     1
290
     0
176
     1
290
     0
176
     1
 90
       50
176
     1
 40
0.0
176
     1
 40
1.0
176
     1
 90
        0
176
     1
 62
    18
420
        0
176
     1
 90
       50
176
     1
 90
        3
176
     1
 62
     5
420
      255
176
     1
290
     0
176
     1
 90
       50
176
     1
 90
       50
176
     1
 90
       50
176
     1
290
     0
176
     1
 90
       50
176
     1
 62
   256
176
     0
 40
1.0
176
     0
 90
        2
176
     1
  1
strokes_ogs.tif
176
     1
290
     0
176
     1
 40
1.0
176
     1
 40
1.0
176
     1
1001
ACAD
1000
AcDbSavedByObjectVersion
1070
     0
  0
VISUALSTYLE
  5
F7
102
{ACAD_REACTORS
330
EF
102
}
330
EF
100
AcDbVisualStyle
  2

 70
     6
177
     3
291
     0
 70
    58
 90
        1
176
     1
 90
        2
176
     1
 90
        2
176
     1
 90
        0
176
     1
 40
0.6
176
     1
 40
30.0
176
     1
 62
     7
420
 16777215
176
     1
 90
        2
176
     1
 90
        2
176
     1
 62
     7
176
     1
 62
   257
176
     1
 90
        2
176
     1
 90
        1
176
     1
 40
40.0
176
     1
 90
        0
176
     1
 62
   257
176
     1
 40
1.0
176
     1
 90
        1
176
     1
 90
        6
176
     1
 90
        2
176
     1
 62
     7
176
     1
 90
        3
176
     1
 90
        0
176
     1
 90
        0
176
     1
290
     0
176
     1
 90
        1
176
     1
 40
0.0
176
     1
 90
        0
176
     1
290
     0
176
     1
290
     1
176
     1
290
     1
176
     1
290
     0
176
     1
290
     0
176
     1
290
     0
176
     1
290
     0
176
     1
290
     0
176
     1
290
     0
176
     1
 90
       50
176
     1
 40
0.0
176
     1
 40
1.0
176
     1
 90
        0
176
     1
 62
    18
420
        0
176
     1
 90
       50
176
     1
 90
        3
176
     1
 62
     5
420
      255
176
     1
290
     0
176
     1
 90
       50
176
     1
 90
       50
176
     1
 90
       50
176
     1
290
     0
176
     1
 90
       50
176
     1
 62
   256
176
     0
 40
1.0
176
     0
 90
        2
176
     1
  1
strokes_ogs.tif
176
     1
290
     0
176
     1
 40
1.0
176
     1
 40
1.0
176
     1
1001
ACAD
1000
AcDbSavedByObjectVersion
1070
     0
  0
VISUALSTYLE
  5
1E4
102
{ACAD_REACTORS
330
EF
102
}
330
EF
100
AcDbVisualStyle
  2

 70
    20
177
     3
291
     1
 70
    58
 90
        2
176
     0
 90
        2
176
     0
 90
        0
176
     0
 90
        0
176
     0
 40
0.6
176
     0
 40
30.0
176
     0
 62
     7
420
 16777215
176
     0
 90
        1
176
     0
 90
        4
176
     0
 62
     7
176
     0
 62
   257
176
     0
 90
        1
176
     0
 90
        1
176
     0
 40
1.0
176
     0
 90
       10
176
     2
 62
     7
176
     0
 40
1.0
176
     0
 90
        1
176
     0
 90
        6
176
     0
 90
        2
176
     0
 62
     7
176
     0
 90
        5
176
     0
 90
        0
176
     0
 90
        0
176
     0
290
     0
176
     0
 90
        1
176
     0
 40
0.0
176
     0
 90
        0
176
     0
290
     0
176
     1
290
     1
176
     1
290
     1
176
     1
290
     0
176
     1
290
     0
176
     1
290
     0
176
     1
290
     0
176
     1
290
     0
176
     1
290
     0
176
     1
 90
       50
176
     1
 40
0.0
176
     1
 40
1.0
176
     1
 90
        0
176
     1
 62
    18
420
        0
176
     1
 90
       50
176
     1
 90
        3
176
     1
 62
     5
420
      255
176
     1
290
     0
176
     1
 90
       50
176
     1
 90
       50
176
     1
 90
       50
176
     1
290
     0
176
     1
 90
       50
176
     1
 62
   256
176
     0
 40
1.0
176
     0
 90
        2
176
     1
  1
strokes_ogs.tif
176
     1
290
     0
176
     1
 40
1.0
176
     1
 40
1.0
176
     1
1001
ACAD
1000
AcDbSavedByObjectVersion
1070
     0
  0
VISUALSTYLE
  5
FD
102
{ACAD_REACTORS
330
EF
102
}
330
EF
100
AcDbVisualStyle
  2

 70
    14
177
     3
291
     1
 70
    58
 90
        2
176
     1
 90
        2
176
     1
 90
        1
176
     1
 90
        0
176
     1
 40
0.6
176
     1
 40
30.0
176
     1
 62
     7
420
 16777215
176
     1
 90
        1
176
     1
 90
        4
176
     1
 62
     7
176
     1
 62
   257
176
     1
 90
        7
176
     1
 90
        7
176
     1
 40
1.0
176
     1
 90
        8
176
     1
 62
     7
176
     1
 40
1.0
176
     1
 90
        1
176
     1
 90
        6
176
     1
 90
        2
176
     1
 62
     7
176
     1
 90
        5
176
     1
 90
        0
176
     1
 90
        0
176
     1
290
     0
176
     1
 90
        1
176
     1
 40
0.0
176
     1
 90
        0
176
     1
290
     0
176
     1
290
     1
176
     1
290
     1
176
     1
290
     0
176
     1
290
     0
176
     1
290
     0
176
     1
290
     0
176
     1
290
     0
176
     1
290
     0
176
     1
 90
       50
176
     1
 40
0.0
176
     1
 40
1.0
176
     1
 90
        0
176
     1
 62
    18
420
        0
176
     1
 90
       50
176
     1
 90
        3
176
     1
 62
     5
420
      255
176
     1
290
     0
176
     1
 90
       50
176
     1
 90
       50
176
     1
 90
       50
176
     1
290
     0
176
     1
 90
       50
176
     1
 62
   256
176
     0
 40
1.0
176
     0
 90
        2
176
     1
  1
strokes_ogs.tif
176
     1
290
     0
176
     1
 40
1.0
176
     1
 40
1.0
176
     1
1001
ACAD
1000
AcDbSavedByObjectVersion
1070
     0
  0
VISUALSTYLE
  5
1E5
102
{ACAD_REACTORS
330
EF
102
}
330
EF
100
AcDbVisualStyle
  2

 70
    21
177
     3
291
     1
 70
    58
 90
        2
176
     0
 90
        2
176
     0
 90
        0
176
     0
 90
        0
176
     0
 40
0.6
176
     0
 40
30.0
176
     0
 62
     7
420
 16777215
176
     0
 90
        1
176
     0
 90
        4
176
     0
 62
     7
176
     0
 62
   257
176
     0
 90
        1
176
     0
 90
        1
176
     0
 40
1.0
176
     0
 90
        9
176
     2
 62
     7
176
     0
 40
1.0
176
     0
 90
        1
176
     0
 90
        6
176
     0
 90
        2
176
     0
 62
     7
176
     0
 90
        5
176
     0
 90
        0
176
     0
 90
        0
176
     0
290
     0
176
     0
 90
        1
176
     0
 40
0.0
176
     0
 90
        0
176
     0
290
     0
176
     1
290
     1
176
     1
290
     1
176
     1
290
     0
176
     1
290
     0
176
     1
290
     0
176
     1
290
     0
176
     1
290
     0
176
     1
290
     0
176
     1
 90
       50
176
     1
 40
0.0
176
     1
 40
1.0
176
     1
 90
        0
176
     1
 62
    18
420
        0
176
     1
 90
       50
176
     1
 90
        3
176
     1
 62
     5
420
      255
176
     1
290
     0
176
     1
 90
       50
176
     1
 90
       50
176
     1
 90
       50
176
     1
290
     0
176
     1
 90
       50
176
     1
 62
   256
176
     0
 40
1.0
176
     0
 90
        2
176
     1
  1
strokes_ogs.tif
176
     1
290
     0
176
     1
 40
1.0
176
     1
 40
1.0
176
     1
1001
ACAD
1000
AcDbSavedByObjectVersion
1070
     0
  0
VISUALSTYLE
  5
F9
102
{ACAD_REACTORS
330
EF
102
}
330
EF
100
AcDbVisualStyle
  2

 70
     8
177
     3
291
     0
 70
    58
 90
        2
176
     1
 90
        3
176
     1
 90
        0
176
     1
 90
        2
176
     1
 40
0.6
176
     1
 40
30.0
176
     1
 62
     7
420
 16777215
176
     1
 90
        0
176
     1
 90
        0
176
     1
 62
     7
176
     1
 62
   257
176
     1
 90
        1
176
     1
 90
        1
176
     1
 40
1.0
176
     1
 90
        8
176
     1
 62
   257
176
     1
 40
1.0
176
     1
 90
        1
176
     1
 90
        6
176
     1
 90
        2
176
     1
 62
     7
176
     1
 90
        3
176
     1
 90
        0
176
     1
 90
        0
176
     1
290
     0
176
     1
 90
       13
176
     1
 40
0.0
176
     1
 90
        0
176
     1
290
     0
176
     1
290
     1
176
     1
290
     1
176
     1
290
     0
176
     1
290
     0
176
     1
290
     0
176
     1
290
     0
176
     1
290
     0
176
     1
290
     0
176
     1
 90
       50
176
     1
 40
0.0
176
     1
 40
1.0
176
     1
 90
        0
176
     1
 62
    18
420
        0
176
     1
 90
       50
176
     1
 90
        3
176
     1
 62
     5
420
      255
176
     1
290
     0
176
     1
 90
       50
176
     1
 90
       50
176
     1
 90
       50
176
     1
290
     0
176
     1
 90
       50
176
     1
 62
   256
176
     0
 40
1.0
176
     0
 90
        2
176
     1
  1
strokes_ogs.tif
176
     1
290
     0
176
     1
 40
1.0
176
     1
 40
1.0
176
     1
1001
ACAD
1000
AcDbSavedByObjectVersion
1070
     0
  0
VISUALSTYLE
  5
1F3
102
{ACAD_REACTORS
330
EF
102
}
330
EF
100
AcDbVisualStyle
  2

 70
    27
177
     3
291
     0
 70
    58
 90
        2
176
     1
 90
        2
176
     1
 90
        1
176
     1
 90
        2
176
     1
 40
0.6
176
     1
 40
30.0
176
     1
 62
     7
420
 16777215
176
     1
 90
        0
176
     1
 90
        4
176
     1
 62
     7
176
     1
 62
   257
176
     1
 90
        1
176
     1
 90
        1
176
     1
 40
1.0
176
     1
 90
        8
176
     1
 62
   257
176
     1
 40
1.0
176
     1
 90
        1
176
     1
 90
        6
176
     1
 90
        2
176
     1
 62
     8
420
  7895160
176
     1
 90
        3
176
     1
 90
        0
176
     1
 90
        0
176
     1
290
     0
176
     1
 90
        5
176
     1
 40
0.0
176
     1
 90
        0
176
     1
290
     0
176
     1
290
     1
176
     1
290
     1
176
     1
290
     0
176
     1
290
     0
176
     1
290
     0
176
     1
290
     0
176
     1
290
     0
176
     1
290
     0
176
     1
 90
       50
176
     1
 40
0.0
176
     1
 40
1.0
176
     1
 90
        0
176
     1
 62
    18
420
        0
176
     1
 90
       50
176
     1
 90
        3
176
     1
 62
     5
420
      255
176
     1
290
     0
176
     1
 90
       50
176
     1
 90
       50
176
     1
 90
       50
176
     1
290
     0
176
     1
 90
       50
176
     1
 62
   256
176
     0
 40
1.0
176
     0
 90
        2
176
     1
  1
strokes_ogs.tif
176
     1
290
     0
176
     1
 40
1.0
176
     1
 40
1.0
176
     1
1001
ACAD
1000
AcDbSavedByObjectVersion
1070
     0
  0
VISUALSTYLE
  5
1F2
102
{ACAD_REACTORS
330
EF
102
}
330
EF
100
AcDbVisualStyle
  2

 70
    26
177
     3
291
     0
 70
    58
 90
        2
176
     1
 90
        2
176
     1
 90
        1
176
     1
 90
        2
176
     1
 40
0.6
176
     1
 40
30.0
176
     1
 62
     7
420
 16777215
176
     1
 90
        1
176
     1
 90
        2
176
     1
 62
     7
176
     1
 62
   257
176
     1
 90
        2
176
     1
 90
        1
176
     1
 40
1.0
176
     1
 90
        8
176
     1
 62
   257
176
     1
 40
1.0
176
     1
 90
        1
176
     1
 90
        6
176
     1
 90
        2
176
     1
 62
     7
176
     1
 90
        3
176
     1
 90
        0
176
     1
 90
        0
176
     1
290
     0
176
     1
 90
        5
176
     1
 40
0.0
176
     1
 90
        0
176
     1
290
     0
176
     1
290
     1
176
     1
290
     1
176
     1
290
     0
176
     1
290
     0
176
     1
290
     0
176
     1
290
     0
176
     1
290
     0
176
     1
290
     0
176
     1
 90
       50
176
     1
 40
0.0
176
     1
 40
1.0
176
     1
 90
        0
176
     1
 62
    18
420
        0
176
     1
 90
       50
176
     1
 90
        3
176
     1
 62
     5
420
      255
176
     1
290
     0
176
     1
 90
       50
176
     1
 90
       50
176
     1
 90
       50
176
     1
290
     0
176
     1
 90
       50
176
     1
 62
   256
176
     0
 40
1.0
176
     0
 90
        2
176
     1
  1
strokes_ogs.tif
176
     1
290
     0
176
     1
 40
1.0
176
     1
 40
1.0
176
     1
1001
ACAD
1000
AcDbSavedByObjectVersion
1070
     0
  0
VISUALSTYLE
  5
1EF
102
{ACAD_REACTORS
330
EF
102
}
330
EF
100
AcDbVisualStyle
  2

 70
    23
177
     3
291
     0
 70
    58
 90
        2
176
     1
 90
        2
176
     1
 90
        3
176
     1
 90
        0
176
     1
 40
0.6
176
     1
 40
30.0
176
     1
 62
     7
420
 16777215
176
     1
 90
        2
176
     1
 90
        2
176
     1
 62
     7
176
     1
 62
     7
176
     1
 90
        1
176
     1
 90
        1
176
     1
 40
40.0
176
     1
 90
        8
176
     1
 62
     7
176
     1
 40
1.0
176
     1
 90
        1
176
     1
 90
        6
176
     1
 90
        2
176
     1
 62
     7
176
     1
 90
        3
176
     1
 90
        0
176
     1
 90
        0
176
     1
290
     0
176
     1
 90
        1
176
     1
 40
0.0
176
     1
 90
        0
176
     1
290
     0
176
     1
290
     1
176
     1
290
     1
176
     1
290
     0
176
     1
290
     0
176
     1
290
     0
176
     1
290
     0
176
     1
290
     0
176
     1
290
     0
176
     1
 90
       50
176
     1
 40
0.0
176
     1
 40
1.0
176
     1
 90
        0
176
     1
 62
    18
420
        0
176
     1
 90
       50
176
     1
 90
        3
176
     1
 62
     5
420
      255
176
     1
290
     0
176
     1
 90
       50
176
     1
 90
       50
176
     1
 90
       50
176
     1
290
     0
176
     1
 90
       50
176
     1
 62
   256
176
     0
 40
1.0
176
     0
 90
        2
176
     1
  1
strokes_ogs.tif
176
     1
290
     0
176
     1
 40
1.0
176
     1
 40
1.0
176
     1
1001
ACAD
1000
AcDbSavedByObjectVersion
1070
     0
  0
VISUALSTYLE
  5
1F0
102
{ACAD_REACTORS
330
EF
102
}
330
EF
100
AcDbVisualStyle
  2

 70
    24
177
     3
291
     0
 70
    58
 90
        1
176
     1
 90
        2
176
     1
 90
        2
176
     1
 90
        0
176
     1
 40
0.6
176
     1
 40
30.0
176
     1
 62
     7
420
 16777215
176
     1
 90
        2
176
     1
 90
        2
176
     1
 62
     7
176
     1
 62
     7
176
     1
 90
        1
176
     1
 90
        1
176
     1
 40
40.0
176
     1
 90
       11
176
     1
 62
     7
176
     1
 40
1.0
176
     1
 90
        1
176
     1
 90
        6
176
     1
 90
        2
176
     1
 62
     7
176
     1
 90
        6
176
     1
 90
        0
176
     1
 90
        0
176
     1
290
     0
176
     1
 90
        1
176
     1
 40
0.0
176
     1
 90
        0
176
     1
290
     0
176
     1
290
     1
176
     1
290
     1
176
     1
290
     0
176
     1
290
     0
176
     1
290
     0
176
     1
290
     0
176
     1
290
     0
176
     1
290
     0
176
     1
 90
       50
176
     1
 40
0.0
176
     1
 40
1.0
176
     1
 90
        0
176
     1
 62
    18
420
        0
176
     1
 90
       50
176
     1
 90
        3
176
     1
 62
     5
420
      255
176
     1
290
     0
176
     1
 90
       50
176
     1
 90
       50
176
     1
 90
       50
176
     1
290
     0
176
     1
 90
       50
176
     1
 62
   256
176
     0
 40
1.0
176
     0
 90
        2
176
     1
  1
strokes_ogs.tif
176
     1
290
     0
176
     1
 40
1.0
176
     1
 40
1.0
176
     1
1001
ACAD
1000
AcDbSavedByObjectVersion
1070
     0
  0
VISUALSTYLE
  5
FC
102
{ACAD_REACTORS
330
EF
102
}
330
EF
100
AcDbVisualStyle
  2

 70
    13
177
     3
291
     1
 70
    58
 90
        2
176
     1
 90
        2
176
     1
 90
        1
176
     1
 90
        0
176
     1
 40
0.6
176
     1
 40
30.0
176
     1
 62
     7
420
 16777215
176
     1
 90
        1
176
     1
 90
        4
176
     1
 62
     7
176
     1
 62
   257
176
     1
 90
        1
176
     1
 90
        1
176
     1
 40
1.0
176
     1
 90
       12
176
     1
 62
     7
176
     1
 40
1.0
176
     1
 90
        1
176
     1
 90
        6
176
     1
 90
        2
176
     1
 62
     7
176
     1
 90
        5
176
     1
 90
        0
176
     1
 90
        0
176
     1
290
     0
176
     1
 90
        1
176
     1
 40
0.0
176
     1
 90
        0
176
     1
290
     0
176
     1
290
     1
176
     1
290
     1
176
     1
290
     0
176
     1
290
     0
176
     1
290
     0
176
     1
290
     0
176
     1
290
     0
176
     1
290
     0
176
     1
 90
       50
176
     1
 40
0.0
176
     1
 40
1.0
176
     1
 90
        0
176
     1
 62
    18
420
        0
176
     1
 90
       50
176
     1
 90
        3
176
     1
 62
     5
420
      255
176
     1
290
     0
176
     1
 90
       50
176
     1
 90
       50
176
     1
 90
       50
176
     1
290
     0
176
     1
 90
       50
176
     1
 62
   256
176
     0
 40
1.0
176
     0
 90
        2
176
     1
  1
strokes_ogs.tif
176
     1
290
     0
176
     1
 40
1.0
176
     1
 40
1.0
176
     1
1001
ACAD
1000
AcDbSavedByObjectVersion
1070
     0
  0
VISUALSTYLE
  5
F6
102
{ACAD_REACTORS
330
EF
102
}
330
EF
100
AcDbVisualStyle
  2

 70
     5
177
     3
291
     0
 70
    58
 90
        0
176
     1
 90
        2
176
     1
 90
        0
176
     1
 90
        0
176
     1
 40
0.6
176
     1
 40
30.0
176
     1
 62
     7
420
 16777215
176
     1
 90
        1
176
     1
 90
        4
176
     1
 62
     7
176
     1
 62
   257
176
     1
 90
        1
176
     1
 90
        1
176
     1
 40
1.0
176
     1
 90
        0
176
     1
 62
   257
176
     1
 40
1.0
176
     1
 90
        1
176
     1
 90
        6
176
     1
 90
        2
176
     1
 62
     7
176
     1
 90
        3
176
     1
 90
        0
176
     1
 90
        0
176
     1
290
     0
176
     1
 90
        1
176
     1
 40
0.0
176
     1
 90
        0
176
     1
290
     0
176
     1
290
     1
176
     1
290
     1
176
     1
290
     0
176
     1
290
     0
176
     1
290
     0
176
     1
290
     0
176
     1
290
     0
176
     1
290
     0
176
     1
 90
       50
176
     1
 40
0.0
176
     1
 40
1.0
176
     1
 90
        0
176
     1
 62
    18
420
        0
176
     1
 90
       50
176
     1
 90
        3
176
     1
 62
     5
420
      255
176
     1
290
     0
176
     1
 90
       50
176
     1
 90
       50
176
     1
 90
       50
176
     1
290
     0
176
     1
 90
       50
176
     1
 62
   256
176
     0
 40
1.0
176
     0
 90
        2
176
     1
  1
strokes_ogs.tif
176
     1
290
     0
176
     1
 40
1.0
176
     1
 40
1.0
176
     1
1001
ACAD
1000
AcDbSavedByObjectVersion
1070
     0
  0
VISUALSTYLE
  5
1F1
102
{ACAD_REACTORS
330
EF
102
}
330
EF
100
AcDbVisualStyle
  2

 70
    25
177
     3
291
     0
 70
    58
 90
        2
176
     1
 90
        2
176
     1
 90
        1
176
     1
 90
        1
176
     1
 40
0.5
176
     1
 40
30.0
176
     1
 62
     7
420
 16777215
176
     1
 90
        1
176
     1
 90
        0
176
     1
 62
     7
176
     1
 62
   257
176
     1
 90
        1
176
     1
 90
        1
176
     1
 40
1.0
176
     1
 90
        8
176
     1
 62
     7
176
     1
 40
1.0
176
     1
 90
        1
176
     1
 90
        6
176
     1
 90
        2
176
     1
 62
     7
176
     1
 90
        3
176
     1
 90
        0
176
     1
 90
        0
176
     1
290
     0
176
     1
 90
       13
176
     1
 40
0.0
176
     1
 90
        0
176
     1
290
     0
176
     1
290
     1
176
     1
290
     1
176
     1
290
     0
176
     1
290
     0
176
     1
290
     0
176
     1
290
     0
176
     1
290
     0
176
     1
290
     0
176
     1
 90
       50
176
     1
 40
0.0
176
     1
 40
1.0
176
     1
 90
        0
176
     1
 62
    18
420
        0
176
     1
 90
       50
176
     1
 90
        3
176
     1
 62
     5
420
      255
176
     1
290
     0
176
     1
 90
       50
176
     1
 90
       50
176
     1
 90
       50
176
     1
290
     0
176
     1
 90
       50
176
     1
 62
   256
176
     0
 40
1.0
176
     0
 90
        2
176
     1
  1
strokes_ogs.tif
176
     1
290
     0
176
     1
 40
1.0
176
     1
 40
1.0
176
     1
1001
ACAD
1000
AcDbSavedByObjectVersion
1070
     0
  0
DICTIONARYVAR
  5
146
102
{ACAD_REACTORS
330
5E
102
}
330
5E
100
DictionaryVariables
280
     0
  1
1:1
  0
DICTIONARYVAR
  5
259
102
{ACAD_REACTORS
330
5E
102
}
330
5E
100
DictionaryVariables
280
     0
  1
3.500000
  0
DICTIONARYVAR
  5
25A
102
{ACAD_REACTORS
330
5E
102
}
330
5E
100
DictionaryVariables
280
     0
  1
acadiso.lin
  0
DICTIONARYVAR
  5
145
102
{ACAD_REACTORS
330
5E
102
}
330
5E
100
DictionaryVariables
280
     0
  1
STANDARD
  0
DICTIONARYVAR
  5
84
102
{ACAD_REACTORS
330
5E
102
}
330
5E
100
DictionaryVariables
280
     0
  1
STANDARD
  0
DICTIONARYVAR
  5
227
102
{ACAD_REACTORS
330
5E
102
}
330
5E
100
DictionaryVariables
280
     0
  1
Metric50
  0
DICTIONARYVAR
  5
228
102
{ACAD_REACTORS
330
5E
102
}
330
5E
100
DictionaryVariables
280
     0
  1
Metric50
  0
DICTIONARYVAR
  5
5F
102
{ACAD_REACTORS
330
5E
102
}
330
5E
100
DictionaryVariables
280
     0
  1
2
  0
DICTIONARYVAR
  5
63
102
{ACAD_REACTORS
330
5E
102
}
330
5E
100
DictionaryVariables
280
     0
  1
1
  0
DICTIONARYVAR
  5
1AE
102
{ACAD_REACTORS
330
5E
102
}
330
5E
100
DictionaryVariables
280
     0
  1
0
  0
DICTIONARYVAR
  5
1AF
102
{ACAD_REACTORS
330
5E
102
}
330
5E
100
DictionaryVariables
280
     0
  1
0
  0
DICTIONARYVAR
  5
1461
102
{ACAD_REACTORS
330
5E
102
}
330
5E
100
DictionaryVariables
280
     0
  1
2
  0
DICTIONARYVAR
  5
1460
102
{ACAD_REACTORS
330
5E
102
}
330
5E
100
DictionaryVariables
280
     0
  1
1
  0
DICTIONARY
  5
193A
330
734
100
AcDbDictionary
280
     1
281
     1
  3
ACAD_XREC_ROUNDTRIP
360
193B
  0
DICTIONARY
  5
1936
330
21C
100
AcDbDictionary
280
     1
281
     1
  3
ACAD_XREC_ROUNDTRIP
360
1937
  0
DICTIONARY
  5
205
330
22
100
AcDbDictionary
280
     1
281
     1
  0
DICTIONARY
  5
1F9
330
ED
100
AcDbDictionary
280
     1
281
     1
  3
ACAD_XREC_ROUNDTRIP
360
18DC
  3
FBXASSET
360
1FA
  0
DICTIONARY
  5
1F7
330
EC
100
AcDbDictionary
280
     1
281
     1
  3
ACAD_XREC_ROUNDTRIP
360
18DB
  3
FBXASSET
360
1F8
  0
DICTIONARY
  5
173
330
EE
100
AcDbDictionary
280
     1
281
     1
  3
ACAD_XREC_ROUNDTRIP
360
18DD
  3
BUMPTILE
360
175
  3
DIFFUSETILE
360
174
  3
FBXASSET
360
1FB
  3
OPACITYTILE
360
176
  3
REFLECTIONTILE
360
177
  0
DICTIONARY
  5
1938
330
733
100
AcDbDictionary
280
     1
281
     1
  3
ACAD_XREC_ROUNDTRIP
360
1939
  0
DICTIONARY
  5
1934
330
21A
100
AcDbDictionary
280
     1
281
     1
  3
ACAD_XREC_ROUNDTRIP
360
1935
  0
DICTIONARY
  5
162
330
7F
100
AcDbDictionary
280
     1
281
     1
  3
ACAD_ROUNDTRIP_2008_TABLESTYLE_CELLSTYLEMAP
360
1932
  0
XRECORD
  5
193B
102
{ACAD_REACTORS
330
193A
102
}
330
193A
100
AcDbXrecord
280
     1
102
DISPLAYNAME
  1
Imperial24
102
FLAGS
 90
        0
  0
XRECORD
  5
1937
102
{ACAD_REACTORS
330
1936
102
}
330
1936
100
AcDbXrecord
280
     1
102
DISPLAYNAME
  1
Metric50
102
FLAGS
 90
        0
  0
XRECORD
  5
18DC
102
{ACAD_REACTORS
330
1F9
102
}
330
1F9
100
AcDbXrecord
280
     1
102
MATERIAL
148
0.0
149
0.0
149
0.0
 93
        0
 94
       63
282
     0
 72
     1
 77
     1
171
     1
175
     1
179
     1
273
     0
  0
XRECORD
  5
1FA
102
{ACAD_REACTORS
330
1F9
102
}
330
1F9
100
AcDbXrecord
280
     1
 70
     1
 90
429727718
  1
D62C5603-E3A1-4AEA-B7FB-FE5D8D0755AF
310
504B03040A0000080000CC70623B3DEE336E79000000790000001B0000006175746F6465736B2D64657369676E2D7061636B6167652E786D6C3C3F786D6C2076657273696F6E3D22312E302220656E636F64696E673D227574662D3822203F3E3C666F726D6174733E3C666F726D61743E687474703A2F2F736368656D612E
310
6175746F6465736B2E636F6D2F64657369676E2D7061636B6167652F323030393C2F666F726D61743E3C2F666F726D6174733E504B0304140006080800CC70623BD486FD9CA0000000F4000000130000005B436F6E74656E745F54797065735D2E786D6C7D8EC10E82300C865F65E91D8A1E8C310C0EEA1BF002731658846E
310
D98AC1B77784ABF1D8FE5FBFBF75BBCE937A534CCEB38643598122B6FEE978D0B0485F9C41B54DDD7D022595594E1A469170414C76A4D9A4D207E29CF43ECE46F218070CC6BECC4078ACAA135ACF422C856C0E68EA1BF5669944DDD7BCDE7B1F8E415D77AECB980613C2E4AC91FC167A2B244592486606FC29C8FD7F045B9A
310
EF7053A7E60B504B0304140006080800CC70623B853B8169EB0000007C01000008000000636F72652E786D6C8D90416EC3201045AF62CDB6C206821CC7C244919D9CA01740401C94182C03558F5F9C3852BBEB6A467FFE9B197D7EFC9E1EC5975982F5AE035262288C535E5B377690E21535501C055FBC8FBF6C503839990E
310
5619041F179FE64D52DE45E362569DD7661365082642A11EB9E920A89B99642953CC8E702F67A9EE7234257977194EC9EAE275C4EABCCF5EAD5940D4AC6F0E35A568B8F43562CD7046CD199FD07E60174276A7BE677B5EADB0E0D14EEFFB6A31321A0D82627C4084204C3F096B71DD52F6819B16635EADF63F509AF53FA164
310
5DDCD1EDDD17164090FCC8732078B56691CB33A85CD7DCC40F504B0304140006080800CC70623B55019EA25F0000007C00000007000000636E782E786D6C4DCB3B0E80201045D1AD90E915ED2CF8AC45050C11660C8261F98AB1B07AC9C97D42D718D865D3E909258CFD00CCE24AC6E326A164D74DC0B4128928FF32603847
310
2BA13128B1252AC747C6BAB984FC68F0B87FE8960A5C09FE86CFB69FBA01504B0304140006080800CC70623BDBABAAF470010000D40300000C0000006662782F636F72652E786D6CC553D16E823014FD95A6AF4B694182CC941A83FA05FB810A9511A125A5257EFE2E82712ECEB8A7F100CD39F7F69E734AF9FADC366850B6
310
AF8DCE7018308C942E4C59EB2AC3DE1D498AD15A706B8CFB56869196ADCAF00863C12B6B7C374385D14E6907A836A59A41D9F7CA615434B0C8705F7CAA5606D23BA8E84F41278B93AC54100640439DE0BDB320004D43C63716C7C399D30917DCFBBA9CD9BA8469F5B156168B24CED3F7248AC8769F27244EB73B92EED8862C
310
B7F13E0C179B3C8F979C8ECD82BBBABDAA2BAC924E9558448CBD9330242CFA08E3154B5651FCC6D215639C8EE5774DBE2B5F6CF2B5768B68963BB5F5588420E442FC700B1139D4CB01F450C1E918227C2E09DF070D8140C84E1E9AAB8F1340832A9CB13130A5F1376A908D57309505ECF2A0DF179C4E9D30F5B239B87E3823
310
7A79C6F31DE1A8A5AEC08474B03C7837EAE4938639B44E5932B833D2C6B6B279CDC613877FA26EE21F4A2A4C63EC7F29A2F301D1F9F7A0E37D145F504B0304140006080800CC70623B9C113CC27E0000009D0000000B0000006662782F636E782E786D6C4DCCDF0A83201C86E15B91DFB94BFB330DD428C8FB886521330DA7
310
6397BF1A1DECE883878F57749FCDA1B7892F1BBC047A23808C7F84D9FA55424E0BE6803A256208E9EF06C84F9B91703228B1C690F78B66B34CD9A5439DF5CF0BFBF65E35BCA1B8D6A5C6F540381E886698B5741C695F9503EBA150A2F8958E3DC3EA0B504B0304140006080800CC70623B7DF2F77C2A010000120200003100
310
00006662782F41393633353835312D344632462D344230382D423046372D3739314545314133324237412F636F72652E786D6C8D51DB8EC22014FC15C2939B0D2DB4B45643319AE817EC0F6041255A68B86CFCFC856D4D76DF7CE190393373060EDB3DC707F856CE6B6B7A480A0C81328395DA5C7B18C3057510EC3873D686
310
3F34088C18550F330C39BB3A1BA7051AAC09CA84841A2BD5020AEF55806078A44B0FFD7053A328440C89E1EFC52486BBB8AA8214A99D789CF9E05200300FC927E4FB4D5B375D43103D5527440FB843077C5AA3F5861C8F645F5787F59E95B390B318B55CE45AA638FAA2957BD7248B390B7A7CC51F9C124149C82B8C378810
310
84AB2F42B7B8DD56F413775B8C5999E9FF4471926F8AA236A1AE96B8B3CC434E5839373893369E1FAF30EA395917409EB7F26AF8801C171837A4A6AC9C89E9F9C9B1A58BA30FD6A5EF5DDDCF894B9AD9B6A59C957943A9FCAE2FD5BC4DFE03504B0304140006080800CC70623BAD7543B64E01000033030000300000006662
310
782F41393633353835312D344632462D344230382D423046372D3739314545314133324237412F636E782E786D6CD593CD6EC32010845F0571AD6CE3D48AD20813A9873E410FBD12D82434182C7EAAE6EDBB2424CD25871E7B41D6EC30B3FA84F9E67BB2E40B4234DE8DB46F1925E094D7C6ED479AD3AE5951B2113C789FEE
310
6C943839C1488B4C05DF079FE72A69D8C96C13AAD6B8631503449F83828872B949AC57D26200B826A308D316B4064D6E46FCDA41C05550DC9E483A00797BFD207EFB092A45DE9514C1BBD22178396BD39D891265658C238DEA00936C654E5E433CB65A26D9F6EDB5EBC14EBF49A45CB856E66048291F6939A9A81BB5C89177
310
38143CA680F4AA299D66A042CEB3354A2684DC9D8D178FE0D9B8B41CAAD720F880EE7EF93C0C18769E099ECC04D5A102C8049A8A05632F4DDF376CF1DE0F6BB65C2F8627B65A33C6BB62177CEBBDAD973006829F89F22E814B54F4BC2BE347F8AA8F681390B50FA73F804400B5F542E796F19FF974E7F78DB802FE05E20750
310
4B0304140006080800CC70623BE75B7789680500003C100000340000006662782F41393633353835312D344632462D344230382D423046372D3739314545314133324237412F6F626A656374732E786D6CAD575B8F9B3818FD2B887D06C22499CB8AA1CA655245D5B455A356FB305264C061D8018C6C3393D95FBFC7600890
310
A4CD5EF210B0B1BFEBF98E3F7B1FF6596ABC522E1296DF9BAE3D320D9A872C4AF2F8DE2CE5CEBA358D0FBEC719939D65A691938CDE9B6ADAF4BD98B3B2D05311DD91329583D9D5FC0F438434A7A611A644887B5384CF34233629258BA878B12322891DEFF6B66BD70BFB62634E8AE781D082709A4B588AF91C528CDA28B73F
310
1C998EEF39EABBEFA97FBD6A7C7E9553F9D3D79FE442923C3C523610337627CB87ABE99D359D4CC6D6E4FACAB5E6ABF9D2726FC6A3C5F56271377BB88362213924694B38DD99FE47C48627A1E7D49F5A8BB5E1A74C0A599ED3B0F21F1E56366B89112D681E218F0915D0D6F17AD41FBA2A369DCF6335D62ABBD39779D5DDD1
310
11D4D8DE3CBB96B2E04FB8202E41051754A1AA8E8F76B4C6DFE810B580B1547F4B84911149794252234D024EF8BBE963A95AE27B3D310A9D5C215C7960FAEE415ED75694C6AFB17BCACA5D99A60A9AA65F217B0BFC53292ACB92BF283FAD0D3621576592CB5BED907C2FA8E9DF794E35E97BEA31BED21FEB401ABB94C44839
310
DCACBF0E1C5DA8DA5B2F4DFFD32AD86F543D9E565E7056502E157C00AD2671CD534549AB752FCA9CDA00677A313F04E51B22FF19E57B300579E3C97EB29F682D92935CEC18CF901B7B54FD8C51F362B56FC72FE0B3C1EAE335EDCCBF5AEC39ADB17DC238973F804BA5E6F6BFE7AF1FB32E523BE9F3BD571418E3631DCA4D48
310
5250CF639223210A9446CA30052EDF057BD35F8329C1ECD84552BF0DC8D18BE7BCE23BFE6BD960AB4A7DE79923A103BEBD80F911CBAA2C60DB19B01CF164A5583B772EE6D3FFA56666CBCDA74DC97724A48F9A58967497E489C4D979006FD7A05E227A1EBDD0F737C623387A9C844D3709995625106D157315F8B8392CD4E0
310
A0B9A720C4BE9829CEF37EA1E13111214D53925356365ADA634861B52519DD27A00AEB808EAF0628E6F435519D446F45CF2C9CF5214F0A15B2F6D06B79DA3EE3CBF7F56780D2F4E7EF73A0F5E5B02A38D07DC852C6B7C1FBB6664213E0C39E3EBA7FF4E1AD23EA2829407C85E586727488B751B2DB9502BC7B228A3FD68B6E
310
A65A22397E690AA8D158D7E404EC8CDA235CC3B7D1898680131CEC2CDF2638C65196279577750F15884AEE19F94199155B92B13297978469D4F8D358DF0AEF7631E28DC8F0D9F437D5D39A83B2231A1D52D543813A824EF8D44BCFF2FA6A31BD1E8DAD87F1CCB526B3879935BF59CDADD5C37479BB1CDD4CA7B3556B516589
310
EF352754B706114D9C885EC9131DE6EFEB43D99AFE2391C2F958179413D7CFEF6B1B6DB1E7600F00DE6E5C67454A339A4BA2E0FBA85ED26F045D454F463DBFCE484C2F90F2E5E3666003662ED8F755951A7D1BECD5B30B550B2785C8E7320B7292A4838DDA71BBC863ED7613CAF659337A3354231D4FF4A182A54904C2898C
310
98B28C4AD0CE056CCF332A80986E571EE9DBC305BB5FEB7E509220A58D25CF042D712A806AC0AD0C657FDEF80D2D9CEAA2EE4D1C76F60BFE74219A06527D6F82DF6412526107381E55E353090704D085B52408A8913C4ED159D79BDA71BB4BC506F4831350EB6F975CD22D69BF7AC49B91A2C0A9DDA3D5CA36AD20FC478E37
310
E61844E2352865EBCB61A275A65283CAAA9DD27703B4102F5AF51EF5F573B75CBB5AD38BC845F7A49F82A0966A49C2E3EA5EA0ECD326CD965F1DB402C6FA8B51A4658C5C5E2EC9E214602E55810345408596591009A82E7E7FFACA19EEA299B14A0081A705CB3296EBC14CDF658DCD336EA6D1136881AAEB87B81AB9EE53D5
310
F5EB8BC8362082DA24122F98680A4E7930C01A0079749CEA14382A0783E5EBA5A10F8C098456A03D6A4AEB6BB881E2513747552A5DB22C7EDAF83BD5528081A365F7FF06504B0304140006080000CC70623B000000000000000000000000350000006662782F41393633353835312D344632462D344230382D423046372D37
310
39314545314133324237412F76657274696365732E62696E504B0304140006080800CC70623BF270F1330600000004000000360000006662782F41393633353835312D344632462D344230382D423046372D3739314545314133324237412F747269616E676C65732E62696E636660600000504B0304140006080000CC7062
310
3B000000000000000000000000370000006662782F41393633353835312D344632462D344230382D423046372D3739314545314133324237412F617474726962757465732E62696E504B0304140006080800CC70623B08DA0BD19000000041010000360000006662782F41393633353835312D344632462D344230382D4230
310
46372D3739314545314133324237412F6469726563746F72792E786D6C858F410AC3201045AF22B36F53E9A60B35CBEEBAE80D244E44489C6234F4F835464A48035D0DF398FF9F8AF63D0E6CC63039F212F8F9020C7D47C6792B21C5FE7403D62A1188E2E60C98D7234A5830286103A55745067B9D86B8A3CF9C7F90C11DE6
310
07FB144396D7B6A82D282E9A152AD114D5EF2CB866EEE831B8EEA07A7BB5A8D7D61A2BAAEB7FD5F70921FF497D00504B0304140006080800CC70623BEDD1DC58FD000000A00100003B0000006662782F41393633353835312D344632462D344230382D423046372D3739314545314133324237412F7265736F75726365732F
310
636F72652E786D6C8D504B6E833010BD0A9A6D65B00922041947112427E8052C33A156828DFCA97AFC9A40A576D7CDCCE87D344F8F9FBFE667F689CE6B6B3A6039850C8DB2A336530731DC4903D95970676DF82583CCC8193B5861107C72362E3BA4AC096842428D1D7107A5F7182053CF7474E0D507CE32973124857FE48B
310
540F3961CEF244279DE03EB81420DB9EAC1384436FA353E879B1B182C7A8C75DA3C7F453DF353A1075D537A7BA6464B8F535A99AE14A9A2BBD90E350DD183B5CFABE3AF262350B1EF4FC9351399401471025A527C218A1E53BAB5A5AB765F5469B96525EACF23FA6B88CFF34456DC2A1DCE36E360F82A5202F42F062ED2BAD
310
579969AFDD8A6F504B010214000A0000080000CC70623B3DEE336E79000000790000001B00000000000000000000000000000000006175746F6465736B2D64657369676E2D7061636B6167652E786D6C504B01021400140006080800CC70623BD486FD9CA0000000F40000001300000000000000000000000000B20000005B
310
436F6E74656E745F54797065735D2E786D6C504B01021400140006080800CC70623B853B8169EB0000007C010000080000000000000000000000000083010000636F72652E786D6C504B01021400140006080800CC70623B55019EA25F0000007C000000070000000000000000000000000094020000636E782E786D6C504B
310
01021400140006080800CC70623BDBABAAF470010000D40300000C00000000000000000000000000180300006662782F636F72652E786D6C504B01021400140006080800CC70623B9C113CC27E0000009D0000000B00000000000000000000000000B20400006662782F636E782E786D6C504B01021400140006080800CC70
310
623B7DF2F77C2A010000120200003100000000000000000000000000590500006662782F41393633353835312D344632462D344230382D423046372D3739314545314133324237412F636F72652E786D6C504B01021400140006080800CC70623BAD7543B64E010000330300003000000000000000000000000000D2060000
310
6662782F41393633353835312D344632462D344230382D423046372D3739314545314133324237412F636E782E786D6C504B01021400140006080800CC70623BE75B7789680500003C10000034000000000000000000000000006E0800006662782F41393633353835312D344632462D344230382D423046372D3739314545
310
314133324237412F6F626A656374732E786D6C504B01021400140006080000CC70623B0000000000000000000000003500000000000000000000000000280E00006662782F41393633353835312D344632462D344230382D423046372D3739314545314133324237412F76657274696365732E62696E504B01021400140006
310
080800CC70623BF270F133060000000400000036000000000000000000000000007B0E00006662782F41393633353835312D344632462D344230382D423046372D3739314545314133324237412F747269616E676C65732E62696E504B01021400140006080000CC70623B0000000000000000000000003700000000000000
310
000000000000D50E00006662782F41393633353835312D344632462D344230382D423046372D3739314545314133324237412F617474726962757465732E62696E504B01021400140006080800CC70623B08DA0BD1900000004101000036000000000000000000000000002A0F00006662782F41393633353835312D344632
310
462D344230382D423046372D3739314545314133324237412F6469726563746F72792E786D6C504B01021400140006080800CC70623BEDD1DC58FD000000A00100003B000000000000000000000000000E1000006662782F41393633353835312D344632462D344230382D423046372D3739314545314133324237412F7265
310
736F75726365732F636F72652E786D6C504B0506000000000E000E0080040000641100000000
  0
XRECORD
  5
18DB
102
{ACAD_REACTORS
330
1F7
102
}
330
1F7
100
AcDbXrecord
280
     1
102
MATERIAL
148
0.0
149
0.0
149
0.0
 93
        0
 94
       63
282
     0
 72
     1
 77
     1
171
     1
175
     1
179
     1
273
     0
  0
XRECORD
  5
1F8
102
{ACAD_REACTORS
330
1F7
102
}
330
1F7
100
AcDbXrecord
280
     1
 70
     1
 90
429727718
  1
30362254-06B7-45E0-A893-8CFA70E3D6BC
310
504B03040A0000080000CC70623B3DEE336E79000000790000001B0000006175746F6465736B2D64657369676E2D7061636B6167652E786D6C3C3F786D6C2076657273696F6E3D22312E302220656E636F64696E673D227574662D3822203F3E3C666F726D6174733E3C666F726D61743E687474703A2F2F736368656D612E
310
6175746F6465736B2E636F6D2F64657369676E2D7061636B6167652F323030393C2F666F726D61743E3C2F666F726D6174733E504B0304140006080800CC70623BD486FD9CA0000000F4000000130000005B436F6E74656E745F54797065735D2E786D6C7D8EC10E82300C865F65E91D8A1E8C310C0EEA1BF002731658846E
310
D98AC1B77784ABF1D8FE5FBFBF75BBCE937A534CCEB38643598122B6FEE978D0B0485F9C41B54DDD7D022595594E1A469170414C76A4D9A4D207E29CF43ECE46F218070CC6BECC4078ACAA135ACF422C856C0E68EA1BF5669944DDD7BCDE7B1F8E415D77AECB980613C2E4AC91FC167A2B244592486606FC29C8FD7F045B9A
310
EF7053A7E60B504B0304140006080800CC70623B1EC5D7A3EB0000007C01000008000000636F72652E786D6C8D90416EC3201045AF82665B6103C6756C6122AB4D4ED00B204C5C94182C03558F5F9C3852BBEB6A467FFE9B197D71FC9E6FE8CBACC17AD7032D0820E3B41FAD9B7A48F1820F808E52ACDEC75F36404ECDA687
310
4D0629A6D5A76597B477D1B89855E747B38B2A041301E95B6E7A08FAD3CCAA50296647B8168BD2573599823EBB0CA76447F43862C7BCCF5EAC59410E4DDD9C7973C2755553CCCFA4C603E3040F1565ED3B1FDE4E432BCA0D9622DAF9795FAF464533826484B498524CD807E51D79ED187F21878E10516EF63F505AC67F42C9
310
BA58B1FDDD071640D2FCC87D2045B96591CB3DA85CB7DCE40F504B0304140006080800CC70623B55019EA25F0000007C00000007000000636E782E786D6C4DCB3B0E80201045D1AD90E915ED2CF8AC45050C11660C8261F98AB1B07AC9C97D42D718D865D3E909258CFD00CCE24AC6E326A164D74DC0B4128928FF32603847
310
2BA13128B1252AC747C6BAB984FC68F0B87FE8960A5C09FE86CFB69FBA01504B0304140006080800CC70623B8C9102E971010000D40300000C0000006662782F636F72652E786D6CC5535B6E833010BC8AE5DF0A6C08340F1947A84D4ED00B38C6A128602363A31CBFCB234A53A551FA553EC09AD9F5CE8C31DB9E9B1AF5CA
310
7695D1198E428A91D2D214952E33ECDD315861B4E5CC1AE3BE9561A445A3323CC098B3D21ADFCE9034DA29ED00D5A6503328BA4E398C640D8B0C77F253352214DE4145770A5B214FA2546114020D759C75CE8200340D19DE981F0F6746269C33EFAB6266AB02A655C74A59CCF365BADC27CB5D902ED22848F6340DF238A141
310
BE88E2F57B92BFEDF23523433367AE6A2EEAA455C2A902F398D2751045018D3FA264435F3771F242571B4A1919CA6F9A7C5B3CD9E42BED16F12C776AEB308F40C848FC700B1139D4891EF410CEC810227CC6846F8386402064270EF5C5C709A05E49676C024C61FC95EA45ED154CA5211D1FF4FB8291A913A68E9B83EBBB33
310
E2A7673CDE118E5AE8124C0807CB8377834E366998436B950D7A7746DAD846D4CFD978E0F04FD455FC5D49D2D4C6FE9722321F10997F0F32DC47FE05504B0304140006080800CC70623BFFEA85907E0000009D0000000B0000006662782F636E782E786D6C4DCCD10A83201886E15B91FFDC95D95A811AB6F23E625948A6C3
310
E9D8E5AF46073BFAE0E1E365ED67B3E8ADC3CB78C7815C7240DA3DFC64DCC221C519D7805AC182F7F1EF06C88D9BE6703008B6049F9E274D7A1E938DBB5AE3D6131B2589BA0D3D965551E0B2EA732C9B9A624AAEB41E3A557677029960D9AFB4EF11165F504B0304140006080800CC70623B4FEEA4082C0100001202000031
310
0000006662782F39464131463745442D413632322D343644302D413938332D3331353338454246344243312F636F72652E786D6C8D515B6EC32010BC0AE2AB55850DD871ED0813254D72825EC00192A2C460F1A872FC42ED48ED5F7E00CDCECCCEB26C731F6FE05B39AFADE921293004CA082BB5B9F43086336A21D870E6AC
310
0D7F68109861543DCC30E4ECE26C9C164858139409093556AA051CBC570102714B8F1E7AF1A5C6A11862480C7F2DA6415C878B2A4891CA89C7990F2E050073937C42DE1DB7E4F87ED8A36D4329AA9B3D46DBAEAD504556557BD81DEBDD0761E52CE42C462D17B996298E3E6BE59E35C962CE821E1FF18553435012728A7187
310
0841987E927A8D9B35ADDF70BBC6989599FE4F1427F9A4286A132ABAC49D651EF234CD5CE04CDA78BA3DC2A8FB645D00B9DF8B57E215725C60BCA2A463E54C4CE327C7A65E1C7DB02E7DEFCBF594B864C5CA6CDBD49C957943E9FA5D5FBAF336F90F504B0304140006080800CC70623BAD7543B64E01000033030000300000
310
006662782F39464131463745442D413632322D343644302D413938332D3331353338454246344243312F636E782E786D6CD593CD6EC32010845F0571AD6CE3D48AD20813A9873E410FBD12D82434182C7EAAE6EDBB2424CD25871E7B41D6EC30B3FA84F9E67BB2E40B4234DE8DB46F1925E094D7C6ED479AD3AE5951B2113C
310
789FEE6C943839C1488B4C05DF079FE72A69D8C96C13AAD6B8631503449F83828872B949AC57D26200B826A308D316B4064D6E46FCDA41C05550DC9E483A00797BFD207EFB092A45DE9514C1BBD22178396BD39D891265658C238DEA00936C654E5E433CB65A26D9F6EDB5EBC14EBF49A45CB856E66048291F6939A9A81BB5
310
C8917738143CA680F4AA299D66A042CEB3354A2684DC9D8D178FE0D9B8B41CAAD720F880EE7EF93C0C18769E099ECC04D5A102C8049A8A05632F4DDF376CF1DE0F6BB65C2F8627B65A33C6BB62177CEBBDAD973006829F89F22E814B54F4BC2BE347F8AA8F681390B50FA73F804400B5F542E796F19FF974E7F78DB802FE05
310
E207504B0304140006080800CC70623B16AB87BA640500003C100000340000006662782F39464131463745442D413632322D343644302D413938332D3331353338454246344243312F6F626A656374732E786D6CAD575B6FA33818FD2B887DE6924B3BED8A326A92B68A663B534DD4D13E548A0C38942D60649B369D5FBFC7
310
600890A493BDE42160637FD7F31D7FF63E6FB3D478A55C242CBF3247B66B1A340F5994E4F19559CA8D75611A9F7D8F33263BCB4C232719BD32D5B4E97B316765A1A722BA21652A07B3B7B33F0D11D29C9A46981221AE4C113ED38CD8A4942CA2E2C58E882476BCD9DA23BB5ED8171B73523C0F841684D35CC252CCE79062D4
310
468DFA43D7747CCF51DF7D4FFDEB5593E3AB9CCA9FBEFE241792E4E19EB28198C968BAB8199F5D5A67D3E9C49A9E8F47D6EC76B6B0469F26EEFC7C3EBFBCBEB98462213924694B38DD98FE1D62C393D073EA4FADC5DAF04326852CCF6958F90F0F2B9BB5C48816348F90C7840A68EB78EDF68723159BCEE7891A6B95DDE9D3
310
BCEAEEE8086A6C6F9E5D4B59F0175C10A7A0820BAA5055C7473B5AE3CFDD452D602CD5DF12616444529E90D448938013FE6EFA58AA96F85E4F8C42275708571E98FE6827AF6B2B4AE3D7D83D64E5A64C53054DD3AF90BD06FEA9149565C94FCA0F6B834DC85599E4F2423B24DF0B6AFA979E534DFA9E7A4CC6FA631D486393
310
921829879BF5D781A373557BCB85E97FB90DB62B558F8795179C15944B051F40AB495CF35451D26A4727654E6D8033BD98EF82F21D91FF8AF2DD9982BCF1643BDD4EB516C9492E368C67C88DED563FC36D5EACF66DFF057C3658BDBFA69DF9578B3DA735B64F18C7F20770A9D45CFCF7FCF563D6456A277DBEF78A02637CA2
310
43B90A490AEAB94F72244481D24819A6C0E59B606BFA4B3025981DBB48EAB701D97BF19C577CC77F2D1B6C55A9EF3C732474C0B727303F625995056C3B02963D9EAC146BE78EC5FCEC7FA999EBC5EACBAAE41B12D27B4D2C0BBA49F244E2ECDC81B76B502F113D8F5EE8FB1BE3111CDD4FC2AA9B844CAB1288B68AB90A7CDC
310
1C166AB0D3DC5310625FCC14E779BFD0709F8890A629C9292B1B2DED31A4B0DA928CEE135085754027E3018A397D4D5427D15BD1330B677DC8934285AC3DF45A9EB68FF8F2B8FC0A509AFEECFD0FF2DE25CC6047F7214B195F07EFEB9A094D800F7BFAE8FED187B78EA8A3A400F115961BCAD1215E47C966530AF0EE8128FE
310
58CEBB996A8964FFA529A046635D9353B0336A8F700DDF46271A024E70B0B37C9DE01847591E54DED53D54202AB947E4076556AC49C6CA5C9E1226B7F1A7B1BE15DEED62C41B91E1B3E9AFAAA735036547343A925075041DF0A9979E893B391F8FCFA6967B3EFB644DCF6E5CEBFAE272625DCC6FAF3FB93793C5F90CE1EF57
310
407342756B10D1C489E8953CD1617E5CEECAD6F4EF8914CE5D5D504E5C3F1F9736DA62CFC11E00BCDDB8CC8A9466349744C1F75EBDA4DF09BA8A9E8C7A7E9991989E20E5DBDD6A6003664ED8F7A04A8DBE0DF6EAD9B9AA858342E47399053949D2C146EDB85DE4B176BB0965FBAC19BD19AA918E27FA50C1D22402E144464C
310
59462568E704B6E71915404CB72B8FF4EDE184DDAF753F284990D2C6926782963815403548A70C657FDEF80D2D9CEAA2AE4C1C76F60BFE74219A06527D6582DF6412526107381E55E353090704D085B52408D0933C4ED159D79BDA71BB4BC506F4831350EB6F979CD22D69BF7AC49B91A2C0A9DDA3D5CA36AD20FC478E37E6
310
1844E2352865EBCB6EA275A652E3836BE04EFB400BF1A2556F515F1FBB35B2AB35BD889C744FFA1004B5544B121E57F70215746DD2F5E2C1412B602CBF19455AC6C8E5E9922C4E01E65215385004546899059180EAFCF7A707CE7017CD8CDB0410789AB32C63B91E5CEBBBACB17AC6CD347A022D5075FD106377347AAABA7E
310
7D11590744509B44E205134DC1290F06580320F78E537D3D73540E06CB970B431F185308AD40BBD794D6D77003C5A36E8EAA54BA64597CD8F83BD552A080A365F7FF06504B0304140006080000CC70623B000000000000000000000000350000006662782F39464131463745442D413632322D343644302D413938332D3331
310
353338454246344243312F76657274696365732E62696E504B0304140006080800CC70623BF270F1330600000004000000360000006662782F39464131463745442D413632322D343644302D413938332D3331353338454246344243312F747269616E676C65732E62696E636660600000504B0304140006080000CC70623B
310
000000000000000000000000370000006662782F39464131463745442D413632322D343644302D413938332D3331353338454246344243312F617474726962757465732E62696E504B0304140006080800CC70623B08DA0BD19000000041010000360000006662782F39464131463745442D413632322D343644302D413938
310
332D3331353338454246344243312F6469726563746F72792E786D6C858F410AC3201045AF22B36F53E9A60B35CBEEBAE80D244E44489C6234F4F835464A48035D0DF398FF9F8AF63D0E6CC63039F212F8F9020C7D47C6792B21C5FE7403D62A1188E2E60C98D7234A5830286103A55745067B9D86B8A3CF9C7F90C11DE607
310
FB144396D7B6A82D282E9A152AD114D5EF2CB866EEE831B8EEA07A7BB5A8D7D61A2BAAEB7FD5F70921FF497D00504B0304140006080800CC70623B0D6EF93BFE000000A00100003B0000006662782F39464131463745442D413632322D343644302D413938332D3331353338454246344243312F7265736F75726365732F63
310
6F72652E786D6C8D50596E833010BD0A9ADFCA60B334011947A8694ED00B586642AC041B79A97AFC9A40A5F6AF3F33A3B7689E1E3F7DCD8FEC139DD7D6F4C0720A191A65476DA61E62B892236427C19DB5E1970C322367EC618541F0C9D9B8EC90B226A009093576C41D94DE63804C3DD2D18357379C652E63480A7FCF17A9
310
EE72C29CE5894E3AC17D702940B63D59270887DE46A7D0F36263058F518FBB468FE9A7BE6A7420864373B8D4873369AA8691FA421B3294352543C5CAF65C0F6FEF43CB8BD52C78D0F34F46E550061C419494B6843142CB0F5677F4B52BEB177AEC28E5C52AFF638ACBF84F53D42654E51E77B379102C05791282176B5F693D
310
CB4C7BED567C03504B010214000A0000080000CC70623B3DEE336E79000000790000001B00000000000000000000000000000000006175746F6465736B2D64657369676E2D7061636B6167652E786D6C504B01021400140006080800CC70623BD486FD9CA0000000F40000001300000000000000000000000000B20000005B
310
436F6E74656E745F54797065735D2E786D6C504B01021400140006080800CC70623B1EC5D7A3EB0000007C010000080000000000000000000000000083010000636F72652E786D6C504B01021400140006080800CC70623B55019EA25F0000007C000000070000000000000000000000000094020000636E782E786D6C504B
310
01021400140006080800CC70623B8C9102E971010000D40300000C00000000000000000000000000180300006662782F636F72652E786D6C504B01021400140006080800CC70623BFFEA85907E0000009D0000000B00000000000000000000000000B30400006662782F636E782E786D6C504B01021400140006080800CC70
310
623B4FEEA4082C0100001202000031000000000000000000000000005A0500006662782F39464131463745442D413632322D343644302D413938332D3331353338454246344243312F636F72652E786D6C504B01021400140006080800CC70623BAD7543B64E010000330300003000000000000000000000000000D5060000
310
6662782F39464131463745442D413632322D343644302D413938332D3331353338454246344243312F636E782E786D6C504B01021400140006080800CC70623B16AB87BA640500003C1000003400000000000000000000000000710800006662782F39464131463745442D413632322D343644302D413938332D3331353338
310
454246344243312F6F626A656374732E786D6C504B01021400140006080000CC70623B0000000000000000000000003500000000000000000000000000270E00006662782F39464131463745442D413632322D343644302D413938332D3331353338454246344243312F76657274696365732E62696E504B01021400140006
310
080800CC70623BF270F133060000000400000036000000000000000000000000007A0E00006662782F39464131463745442D413632322D343644302D413938332D3331353338454246344243312F747269616E676C65732E62696E504B01021400140006080000CC70623B0000000000000000000000003700000000000000
310
000000000000D40E00006662782F39464131463745442D413632322D343644302D413938332D3331353338454246344243312F617474726962757465732E62696E504B01021400140006080800CC70623B08DA0BD190000000410100003600000000000000000000000000290F00006662782F39464131463745442D413632
310
322D343644302D413938332D3331353338454246344243312F6469726563746F72792E786D6C504B01021400140006080800CC70623B0D6EF93BFE000000A00100003B000000000000000000000000000D1000006662782F39464131463745442D413632322D343644302D413938332D3331353338454246344243312F7265
310
736F75726365732F636F72652E786D6C504B0506000000000E000E0080040000641100000000
  0
XRECORD
  5
18DD
102
{ACAD_REACTORS
330
173
102
}
330
173
100
AcDbXrecord
280
     1
102
MATERIAL
148
0.0
149
0.0
149
0.0
 93
        0
 94
       63
282
     0
 72
     1
 77
     1
171
     1
175
     1
179
     1
273
     0
  0
XRECORD
  5
175
102
{ACAD_REACTORS
330
173
102
}
330
173
100
AcDbXrecord
280
     1
270
     1
271
     1
  0
XRECORD
  5
174
102
{ACAD_REACTORS
330
173
102
}
330
173
100
AcDbXrecord
280
     1
270
     1
271
     1
  0
XRECORD
  5
1FB
102
{ACAD_REACTORS
330
173
102
}
330
173
100
AcDbXrecord
280
     1
 70
     0
 90
1673772943
  1
ECE7A1D2-D628-4531-984C-D00F80459256
310
504B03040A0000080000CC70623B3DEE336E79000000790000001B0000006175746F6465736B2D64657369676E2D7061636B6167652E786D6C3C3F786D6C2076657273696F6E3D22312E302220656E636F64696E673D227574662D3822203F3E3C666F726D6174733E3C666F726D61743E687474703A2F2F736368656D612E
310
6175746F6465736B2E636F6D2F64657369676E2D7061636B6167652F323030393C2F666F726D61743E3C2F666F726D6174733E504B0304140006080800CC70623BD486FD9CA0000000F4000000130000005B436F6E74656E745F54797065735D2E786D6C7D8EC10E82300C865F65E91D8A1E8C310C0EEA1BF002731658846E
310
D98AC1B77784ABF1D8FE5FBFBF75BBCE937A534CCEB38643598122B6FEE978D0B0485F9C41B54DDD7D022595594E1A469170414C76A4D9A4D207E29CF43ECE46F218070CC6BECC4078ACAA135ACF422C856C0E68EA1BF5669944DDD7BCDE7B1F8E415D77AECB980613C2E4AC91FC167A2B244592486606FC29C8FD7F045B9A
310
EF7053A7E60B504B0304140006080800CC70623BD9DDAED0EC0000007C01000008000000636F72652E786D6C8D90416EC3201045AF82665B61836D9CD8C2444DD39CA01740405C94182C03558F5F9C3852BBEB6A467FFE9B197D7EF89E6EE8CB2CC17A37002D0820E394D7D68D03A478C17B4007C117EFE32F1B20272733C0
310
2A83E0E3E2D3BC49CABB685CCCAAF3DA6CA20CC14440EA969B0182FA34932C648AD911AEC52CD5558EA6A0CF2EC329598D1E47ACCEFBECC59A050463A7EA5833865FEBDD0E37353BE3EE8DBDE3F6786A48D375FBF6CC78B9C282473B3DEFABC5C86834888A900E538A49F5419B9EB47DD5BC907D4F082F57FB1F28CDFA9F50
310
B22ED6D5F6EE030B20687EE43E10BC5CB3C8E51E54AE6B6EE207504B0304140006080800CC70623B55019EA25F0000007C00000007000000636E782E786D6C4DCB3B0E80201045D1AD90E915ED2CF8AC45050C11660C8261F98AB1B07AC9C97D42D718D865D3E909258CFD00CCE24AC6E326A164D74DC0B4128928FF326038
310
472BA13128B1252AC747C6BAB984FC68F0B87FE8960A5C09FE86CFB69FBA01504B0304140006080800CC70623BA24EB22D72010000D40300000C0000006662782F636F72652E786D6CC5535B6E833010BC8AE5DF0A6C5E49888CA3A6694ED00B38E05014B091B1518EDFE511A5A9D228FD2A1F60CDEC7A67C6986DCE4D8D7A
310
69BA4AAB0C073EC548AA5C17952A33ECECD15B61B4E1CC686DBF9561A44423333CC098B3D268D7CE50AE9595CA02AA74216750749DB418E5352C32DCE59FB211BE70162ABA93DF8AFC244AE9073ED050C759670D0840D390E18DF9F1706664C23973AE2A66B62A605A75ACA4C13C4976E1364A12EF355A2EBD384AF65EFA96
310
BC7B8BED2EA6719AAE16FB8491A199335B351775B991C2CA02F390D2D40B028F861F41BCA68B7518BFD0D59A524686F29B26D7164F36B94AD9289CE54E6D1DE6010819891F6E21228B3AD1831EC219194284CF98F06DD01008846CC5A1BEF83801D4CBDC6A1303536877A57A513B0953A94FC707FDBE6064EA84A9E3E6E0FA
310
EE8CF0E9198F7784A316AA0413C2C2F2E0ECA0934D1AE6D05A69BCDE9E91D2A611F573361E38FC1375157F5752AE6B6DFE4B11990F88CCBF0719EE23FF02504B0304140006080800CC70623B408A7D3B7C0000009D0000000B0000006662782F636E782E786D6C4DCCD10A83201886E15B91FFDC552A92A0064DBC8F581632
310
D3703A76F9ABD1C18E3E78F878E5F0D9027ABBFCF2292AE86E2D20171F69F6715550CB827B40839639A5F2770314A7CD293819B45C73AAFB45B35BA61ACAA1C1C7E7855C58C15BC331339661262CC762340413D68D77DA5B42298546CBE6573AF60CEB2F504B0304140006080800CC70623B449FB9BD290100001202000031
310
0000006662782F36394639363044362D344446342D343946362D394244322D3234314243333846323333332F636F72652E786D6C8D515B6EC32010BC0AE22B55850D98B871848994463E412FE002495162B07854397EA176A4F62F3F2C9A9D991D587EB84F37F0AD7D30CEF6905418026DA553C65E7A98E219ED203808EE9D
310
8B7F6810D871D23D2C3014FCE25D9A57483A1BB58D19B54EE9151C43D0110279CB971E06F9A5A7B11A53CC8C70ADE6515EC78BAE4895DB992778883E0700CB907242D17643D7E2538BD869608875438BBAE38922CAC8F1BDD90DB4691A5E2F42C153326A951B95E398B3D1FE599322163C9AE9115F7A3D46ADA0A018778810
310
84E907617BDCEE297BC5BB3DC6BC2EF47FA234AB2745C9D8D8D035EE220B50105E2F0DC1954B9FB747187D9F9D8FA0CCDB042D5FA0C015C65B42DF78BD10F3F3B363CB56C7109DCFDFBBB97E662ED92EB62D13BC2E1BCAE5777DB9966D8A1F504B0304140006080800CC70623BAD7543B64E01000033030000300000006662
310
782F36394639363044362D344446342D343946362D394244322D3234314243333846323333332F636E782E786D6CD593CD6EC32010845F0571AD6CE3D48AD20813A9873E410FBD12D82434182C7EAAE6EDBB2424CD25871E7B41D6EC30B3FA84F9E67BB2E40B4234DE8DB46F1925E094D7C6ED479AD3AE5951B2113C789FEE
310
6C943839C1488B4C05DF079FE72A69D8C96C13AAD6B8631503449F83828872B949AC57D26200B826A308D316B4064D6E46FCDA41C05550DC9E483A00797BFD207EFB092A45DE9514C1BBD22178396BD39D891265658C238DEA00936C654E5E433CB65A26D9F6EDB5EBC14EBF49A45CB856E66048291F6939A9A81BB5C89177
310
38143CA680F4AA299D66A042CEB3354A2684DC9D8D178FE0D9B8B41CAAD720F880EE7EF93C0C18769E099ECC04D5A102C8049A8A05632F4DDF376CF1DE0F6BB65C2F8627B65A33C6BB62177CEBBDAD973006829F89F22E814B54F4BC2BE347F8AA8F681390B50FA73F804400B5F542E796F19FF974E7F78DB802FE05E20750
310
4B0304140006080800CC70623B8D05915C650500003B100000340000006662782F36394639363044362D344446342D343946362D394244322D3234314243333846323333332F6F626A656374732E786D6CAD575B6FA33814FE2B887D06429276DA1565D4266D158D3A339A6846FB502932E050B66023DB74D2FDF5FB190C01
310
9276B2973C046C8ECFF53B17071F77456EBD502133CEAE6CDF9DD81665314F32965ED995DA3A17B6F5310C04E7AA47665B8C14F4CAD6DB7618A48257A5D94AE89654B91AEDDEDDFC61C998326A5B714EA4BCB265FC440BE2924AF184CA6737218AB8E976E7FA6E4338649B0A523E8D98964450A6A029F619B8588D52FE7039
310
B1BD30F0F4F730D0FF866AF6369557DB33949F31A9088B0F848DD8CCFCF9F2767A76E99CCDE733677E3EF59D9BBB9BA5E37F984D16E78BC5E5F5ED25044B25C0C96822E8D60EEFE11B91C581D77CEA34368A1F5329E68CD1B8B61F16D63A1B8E092D294B10C78C4A48EB593D192E7DED9BDEE7995E1B91FDEDD3ACEA9FE831
310
6A756F9F7D4D79F4274C90A7A04248AA51D5F8C718DAE06FB2F75AC4796EBE65D22A88A22223B995679120E2D50E41AA49C260C046A35368846B0BECD0DFF3EBEB8AD4F835768F69B9ADF25C43D30E6B646F807FAA64AD59F61715C7A54127C4AACA98BA3006A9D792DAE165E0D59B61A01FB3A9F9D838D2DAE62445C86166
310
F37564E842E7DE6A69879FEEA2DD5AE7E371E1A5E025154AC307D06A03D73EB5978C58FFA4C8E9033066E0F3BD53BEC1F39F91BE7B55103791EDE6BBB991A2046172CB4581D8B893FA674DDA17A77B3B7C413D1B511FD2743BFF8A38F03A658705E3ADF8015C3A3417FF3D7E439FF591DA0B5F18BC20C1B8981957AE6392A3
310
F43C640C01D1A0B4728E2DD4F26DB4B3C3152A252A3B4E913CEC1C72F012782FF88EFF8637AA552DBEF76408E8A8DE9E50F9E1CB3A2DA0DB1B6039A893B56063DC5B3E3FFB5F72E67AB9FEB4AEC496C4F4C1149625DD662C53E89D7BF0F6151A046260D1337DFDC94502430F83B0EE07A130A224BCAD7DAE1D9FB6CD422FF6
310
920702629C4BB9AE79C12F243C6432A6794E18E5552BA56B431AAB5D91317302B2B071E86C3A42B1A02F999E24061403B5D0EB639195DA655DD3EBEAB4FB862DDF579F014AD0E73C22F99E28DA57FB98E75C6CA2D74D53086D600F4786E0FE3144B771A8A7B900F03594DB8A633CBC49B2EDB69228BB479CF863B5E807AAAB
310
23872F6DFEB4129B949CA33823F58830E86D65621E10047D9DB34D862E8EAC3C2ABC2F7B2C40D67CDFE01F5545B92105AF983AC54D93D69E56FB8E797F88913F898A9FEC705D3F9D1B54EC8426FB500D40A03BD0119B06E1B95DDC7EB8F6975367793EBD70E66733DFB9BC982F9CE564727731999F5D4ECFCE3B8D6A4DC2A0
310
6D50FD148437D110834A64C6CDDF57FBACB5C307A2A477DFE4939736CFEF2B175371E0E10CF0DD1D5C15654E0BCA14D1E87DD02FF93782A162C0A3D95F1524A52770F972BF1EE9809D13CE7DD599467F8ECE9ADD85CE85A34CD45355448C64F9E8A031DC2D596ACC6E5DD93D9B82DE2EF5CAF81363A8E47996A0DE24564A79
310
4115AACE09C55E14540231FDA13C319787134EBF34E3A022514E5B4D9E0826E25C02D5805B15ABE1BEF51B26383D445DD9E875EE33FE4C22DA16427D65A3BCA92CA6D28DD01DF5DC53330704308475351050232CCD31583787BA75774AFB06E5070DD0C8EF484E19968C5D83BA5B90B244D31E54D55A372320FE4786B7EA58
310
44E135AA5467CB7EA333A61683CC6A8C3257034C10CF46F40EF9F5BE59BE5BD30C3C72D235E95D10345C1D45445A5F0BB47E46A5EBE5570F9380B5FA629579952296A773720405982B9DE04011506178964401AA8BDF1FBF0A8EAB6861DD6580C0E38217056766716DAEB2D6FA0917D3E4116581EADB879C4E7CFFB11EFACD
310
3D641311495D92C8676CB409A72D18610D803CE8A626049E8EC1887CB5B44CC39883690DDA8399B4B9855B481E7D71D4A9D22F96E5BB73BF5793020C02137BF837504B0304140006080000CC70623B000000000000000000000000350000006662782F36394639363044362D344446342D343946362D394244322D32343142
310
43333846323333332F76657274696365732E62696E504B0304140006080800CC70623BF270F1330600000004000000360000006662782F36394639363044362D344446342D343946362D394244322D3234314243333846323333332F747269616E676C65732E62696E636660600000504B0304140006080000CC70623B0000
310
00000000000000000000370000006662782F36394639363044362D344446342D343946362D394244322D3234314243333846323333332F617474726962757465732E62696E504B0304140006080800CC70623B08DA0BD19000000041010000360000006662782F36394639363044362D344446342D343946362D394244322D
310
3234314243333846323333332F6469726563746F72792E786D6C858F410AC3201045AF22B36F53E9A60B35CBEEBAE80D244E44489C6234F4F835464A48035D0DF398FF9F8AF63D0E6CC63039F212F8F9020C7D47C6792B21C5FE7403D62A1188E2E60C98D7234A5830286103A55745067B9D86B8A3CF9C7F90C11DE607FB14
310
4396D7B6A82D282E9A152AD114D5EF2CB866EEE831B8EEA07A7BB5A8D7D61A2BAAEB7FD5F70921FF497D00504B0304140006080800CC70623BCA768048FE000000A00100003B0000006662782F36394639363044362D344446342D343946362D394244322D3234314243333846323333332F7265736F75726365732F636F72
310
652E786D6C8D50596E833010BD0A9ADFCA60D600328E9AA639412F609909B1126CE4A5EAF16B0295DABFFECC8CDEA2797AECF8353F924FB44E193D409E5248504B332A3D0D10FC95B4901C39B3C6F85F3248B49871801506CE266BC2B243D2688FDA47549B11775038871E12F988C7004EDE7016A9083E2ADC3D5D84BC8B09
310
D33C8D74D471E6BC8D0192EDC93A815B742658898E651BCB59086ADC356A8C3FD555A1055ED7E7E254D615792D0F075295F585746FF53B694EE78A565DD736979A65AB9933AFE69F8CD2A2F038022F28ED489E135A7CE4554F9BBEA85E68DB53CAB255FEC71496F19FA6A0B42F8B3DEE6673C0F318E4497096AD7DC5F52C33
310
EEB55BFE0D504B010214000A0000080000CC70623B3DEE336E79000000790000001B00000000000000000000000000000000006175746F6465736B2D64657369676E2D7061636B6167652E786D6C504B01021400140006080800CC70623BD486FD9CA0000000F40000001300000000000000000000000000B20000005B436F
310
6E74656E745F54797065735D2E786D6C504B01021400140006080800CC70623BD9DDAED0EC0000007C010000080000000000000000000000000083010000636F72652E786D6C504B01021400140006080800CC70623B55019EA25F0000007C000000070000000000000000000000000095020000636E782E786D6C504B0102
310
1400140006080800CC70623BA24EB22D72010000D40300000C00000000000000000000000000190300006662782F636F72652E786D6C504B01021400140006080800CC70623B408A7D3B7C0000009D0000000B00000000000000000000000000B50400006662782F636E782E786D6C504B01021400140006080800CC70623B
310
449FB9BD290100001202000031000000000000000000000000005A0500006662782F36394639363044362D344446342D343946362D394244322D3234314243333846323333332F636F72652E786D6C504B01021400140006080800CC70623BAD7543B64E010000330300003000000000000000000000000000D20600006662
310
782F36394639363044362D344446342D343946362D394244322D3234314243333846323333332F636E782E786D6C504B01021400140006080800CC70623B8D05915C650500003B10000034000000000000000000000000006E0800006662782F36394639363044362D344446342D343946362D394244322D32343142433338
310
46323333332F6F626A656374732E786D6C504B01021400140006080000CC70623B0000000000000000000000003500000000000000000000000000250E00006662782F36394639363044362D344446342D343946362D394244322D3234314243333846323333332F76657274696365732E62696E504B010214001400060808
310
00CC70623BF270F13306000000040000003600000000000000000000000000780E00006662782F36394639363044362D344446342D343946362D394244322D3234314243333846323333332F747269616E676C65732E62696E504B01021400140006080000CC70623B00000000000000000000000037000000000000000000
310
00000000D20E00006662782F36394639363044362D344446342D343946362D394244322D3234314243333846323333332F617474726962757465732E62696E504B01021400140006080800CC70623B08DA0BD190000000410100003600000000000000000000000000270F00006662782F36394639363044362D344446342D
310
343946362D394244322D3234314243333846323333332F6469726563746F72792E786D6C504B01021400140006080800CC70623BCA768048FE000000A00100003B000000000000000000000000000B1000006662782F36394639363044362D344446342D343946362D394244322D3234314243333846323333332F7265736F
310
75726365732F636F72652E786D6C504B0506000000000E000E0080040000621100000000
  0
XRECORD
  5
176
102
{ACAD_REACTORS
330
173
102
}
330
173
100
AcDbXrecord
280
     1
270
     1
271
     1
  0
XRECORD
  5
177
102
{ACAD_REACTORS
330
173
102
}
330
173
100
AcDbXrecord
280
     1
270
     1
271
     1
  0
XRECORD
  5
1939
102
{ACAD_REACTORS
330
1938
102
}
330
1938
100
AcDbXrecord
280
     1
102
DISPLAYNAME
  1
Imperial24
102
FLAGS
 90
        0
  0
XRECORD
  5
1935
102
{ACAD_REACTORS
330
1934
102
}
330
1934
100
AcDbXrecord
280
     1
102
DISPLAYNAME
  1
Metric50
102
FLAGS
 90
        0
  0
CELLSTYLEMAP
  5
1932
102
{ACAD_REACTORS
330
162
102
}
330
162
100
AcDbCellStyleMap
 90
        3
300
CELLSTYLE
  1
TABLEFORMAT_BEGIN
 90
        5
170
     1
 91
        0
 92
    32768
 62
   257
 93
        1
300
CONTENTFORMAT
  1
CONTENTFORMAT_BEGIN
 90
        0
 91
        0
 92
      512
 93
        0
300

 40
0.0
140
1.0
 94
        5
 62
     0
340
11
144
6.0
309
CONTENTFORMAT_END
171
     1
301
MARGIN
  1
CELLMARGIN_BEGIN
 40
1.5
 40
1.5
 40
1.5
 40
1.5
 40
0.18
 40
0.18
309
CELLMARGIN_END
 94
        6
 95
        1
302
GRIDFORMAT
  1
GRIDFORMAT_BEGIN
 90
        0
 91
        1
 62
     0
 92
       -2
340
14
 93
        0
 40
1.125
309
GRIDFORMAT_END
 95
        2
302
GRIDFORMAT
  1
GRIDFORMAT_BEGIN
 90
        0
 91
        1
 62
     0
 92
       -2
340
14
 93
        0
 40
1.125
309
GRIDFORMAT_END
 95
        4
302
GRIDFORMAT
  1
GRIDFORMAT_BEGIN
 90
        0
 91
        1
 62
     0
 92
       -2
340
14
 93
        0
 40
1.125
309
GRIDFORMAT_END
 95
        8
302
GRIDFORMAT
  1
GRIDFORMAT_BEGIN
 90
        0
 91
        1
 62
     0
 92
       -2
340
14
 93
        0
 40
1.125
309
GRIDFORMAT_END
 95
       16
302
GRIDFORMAT
  1
GRIDFORMAT_BEGIN
 90
        0
 91
        1
 62
     0
 92
       -2
340
14
 93
        0
 40
1.125
309
GRIDFORMAT_END
 95
       32
302
GRIDFORMAT
  1
GRIDFORMAT_BEGIN
 90
        0
 91
        1
 62
     0
 92
       -2
340
14
 93
        0
 40
1.125
309
GRIDFORMAT_END
309
TABLEFORMAT_END
  1
CELLSTYLE_BEGIN
 90
        1
 91
        1
300
_TITLE
309
CELLSTYLE_END
300
CELLSTYLE
  1
TABLEFORMAT_BEGIN
 90
        5
170
     1
 91
        0
 92
        0
 62
   257
 93
        1
300
CONTENTFORMAT
  1
CONTENTFORMAT_BEGIN
 90
        0
 91
        0
 92
      512
 93
        0
300

 40
0.0
140
1.0
 94
        5
 62
     0
340
11
144
4.5
309
CONTENTFORMAT_END
171
     1
301
MARGIN
  1
CELLMARGIN_BEGIN
 40
1.5
 40
1.5
 40
1.5
 40
1.5
 40
0.18
 40
0.18
309
CELLMARGIN_END
 94
        6
 95
        1
302
GRIDFORMAT
  1
GRIDFORMAT_BEGIN
 90
        0
 91
        1
 62
     0
 92
       -2
340
14
 93
        0
 40
1.125
309
GRIDFORMAT_END
 95
        2
302
GRIDFORMAT
  1
GRIDFORMAT_BEGIN
 90
        0
 91
        1
 62
     0
 92
       -2
340
14
 93
        0
 40
1.125
309
GRIDFORMAT_END
 95
        4
302
GRIDFORMAT
  1
GRIDFORMAT_BEGIN
 90
        0
 91
        1
 62
     0
 92
       -2
340
14
 93
        0
 40
1.125
309
GRIDFORMAT_END
 95
        8
302
GRIDFORMAT
  1
GRIDFORMAT_BEGIN
 90
        0
 91
        1
 62
     0
 92
       -2
340
14
 93
        0
 40
1.125
309
GRIDFORMAT_END
 95
       16
302
GRIDFORMAT
  1
GRIDFORMAT_BEGIN
 90
        0
 91
        1
 62
     0
 92
       -2
340
14
 93
        0
 40
1.125
309
GRIDFORMAT_END
 95
       32
302
GRIDFORMAT
  1
GRIDFORMAT_BEGIN
 90
        0
 91
        1
 62
     0
 92
       -2
340
14
 93
        0
 40
1.125
309
GRIDFORMAT_END
309
TABLEFORMAT_END
  1
CELLSTYLE_BEGIN
 90
        2
 91
        1
300
_HEADER
309
CELLSTYLE_END
300
CELLSTYLE
  1
TABLEFORMAT_BEGIN
 90
        5
170
     1
 91
        0
 92
        0
 62
   257
 93
        1
300
CONTENTFORMAT
  1
CONTENTFORMAT_BEGIN
 90
        0
 91
        0
 92
      512
 93
        0
300

 40
0.0
140
1.0
 94
        2
 62
     0
340
11
144
4.5
309
CONTENTFORMAT_END
171
     1
301
MARGIN
  1
CELLMARGIN_BEGIN
 40
1.5
 40
1.5
 40
1.5
 40
1.5
 40
0.18
 40
0.18
309
CELLMARGIN_END
 94
        6
 95
        1
302
GRIDFORMAT
  1
GRIDFORMAT_BEGIN
 90
        0
 91
        1
 62
     0
 92
       -2
340
14
 93
        0
 40
1.125
309
GRIDFORMAT_END
 95
        2
302
GRIDFORMAT
  1
GRIDFORMAT_BEGIN
 90
        0
 91
        1
 62
     0
 92
       -2
340
14
 93
        0
 40
1.125
309
GRIDFORMAT_END
 95
        4
302
GRIDFORMAT
  1
GRIDFORMAT_BEGIN
 90
        0
 91
        1
 62
     0
 92
       -2
340
14
 93
        0
 40
1.125
309
GRIDFORMAT_END
 95
        8
302
GRIDFORMAT
  1
GRIDFORMAT_BEGIN
 90
        0
 91
        1
 62
     0
 92
       -2
340
14
 93
        0
 40
1.125
309
GRIDFORMAT_END
 95
       16
302
GRIDFORMAT
  1
GRIDFORMAT_BEGIN
 90
        0
 91
        1
 62
     0
 92
       -2
340
14
 93
        0
 40
1.125
309
GRIDFORMAT_END
 95
       32
302
GRIDFORMAT
  1
GRIDFORMAT_BEGIN
 90
        0
 91
        1
 62
     0
 92
       -2
340
14
 93
        0
 40
1.125
309
GRIDFORMAT_END
309
TABLEFORMAT_END
  1
CELLSTYLE_BEGIN
 90
        3
 91
        2
300
_DATA
309
CELLSTYLE_END
  0
ENDSEC
  0
EOF
