  0
SECTION
  2
HEADER
  9
$ACADVER
  1
AC1018
  9
$ACADMAINTVER
 70
   104
  9
$DWGCODEPAGE
  3
ANSI_936
  9
$LASTSAVEDBY
  1
Administrator
  9
$INSBASE
 10
0.0
 20
0.0
 30
0.0
  9
$EXTMIN
 10
67.52868111951102
 20
55.43193705874
 30
-0.0015258207003583
  9
$EXTMAX
 10
1128.073134877471
 20
792.4142704111491
 30
0.0000000349246037
  9
$LIMMIN
 10
0.0
 20
0.0
  9
$LIMMAX
 10
1189.0
 20
841.0
  9
$ORTHOMODE
 70
     0
  9
$REGENMODE
 70
     1
  9
$FILLMODE
 70
     1
  9
$QTEXTMODE
 70
     0
  9
$MIRRTEXT
 70
     1
  9
$LTSCALE
 40
1.0
  9
$ATTMODE
 70
     1
  9
$TEXTSIZE
 40
3.5
  9
$TRACEWID
 40
1.0
  9
$TEXTSTYLE
  7
Standard
  9
$CLAYER
  8
0
  9
$CELTYPE
  6
ByLayer
  9
$CECOLOR
 62
   256
  9
$CELTSCALE
 40
1.0
  9
$DISPSILH
 70
     0
  9
$DIMSCALE
 40
1.0
  9
$DIMASZ
 40
9.438183593749998
  9
$DIMEXO
 40
0.0
  9
$DIMDLI
 40
3.75
  9
$DIMRND
 40
0.0
  9
$DIMDLE
 40
0.0
  9
$DIMEXE
 40
2.0
  9
$DIMTP
 40
0.0
  9
$DIMTM
 40
0.0
  9
$DIMTXT
 40
12.7
  9
$DIMCEN
 40
2.5
  9
$DIMTSZ
 40
0.0
  9
$DIMTOL
 70
     0
  9
$DIMLIM
 70
     0
  9
$DIMTIH
 70
     1
  9
$DIMTOH
 70
     1
  9
$DIMSE1
 70
     0
  9
$DIMSE2
 70
     0
  9
$DIMTAD
 70
     1
  9
$DIMZIN
 70
     0
  9
$DIMBLK
  1

  9
$DIMASO
 70
     1
  9
$DIMSHO
 70
     1
  9
$DIMPOST
  1

  9
$DIMAPOST
  1

  9
$DIMALT
 70
     0
  9
$DIMALTD
 70
     3
  9
$DIMALTF
 40
0.0393700787401575
  9
$DIMLFAC
 40
1.0
  9
$DIMTOFL
 70
     1
  9
$DIMTVP
 40
0.0
  9
$DIMTIX
 70
     0
  9
$DIMSOXD
 70
     0
  9
$DIMSAH
 70
     0
  9
$DIMBLK1
  1

  9
$DIMBLK2
  1

  9
$DIMSTYLE
  2
ISO-25
  9
$DIMCLRD
 70
     0
  9
$DIMCLRE
 70
     0
  9
$DIMCLRT
 70
     0
  9
$DIMTFAC
 40
1.0
  9
$DIMGAP
 40
1.524
  9
$DIMJUST
 70
     0
  9
$DIMSD1
 70
     0
  9
$DIMSD2
 70
     0
  9
$DIMTOLJ
 70
     0
  9
$DIMTZIN
 70
     0
  9
$DIMALTZ
 70
     0
  9
$DIMALTTZ
 70
     0
  9
$DIMUPT
 70
     0
  9
$DIMDEC
 70
     2
  9
$DIMTDEC
 70
     2
  9
$DIMALTU
 70
     2
  9
$DIMALTTD
 70
     3
  9
$DIMTXSTY
  7
Standard
  9
$DIMAUNIT
 70
     0
  9
$DIMADEC
 70
     2
  9
$DIMALTRND
 40
0.0
  9
$DIMAZIN
 70
     0
  9
$DIMDSEP
 70
    44
  9
$DIMATFIT
 70
     3
  9
$DIMFRAC
 70
     0
  9
$DIMLDRBLK
  1

  9
$DIMLUNIT
 70
     2
  9
$DIMLWD
 70
    -2
  9
$DIMLWE
 70
    -2
  9
$DIMTMOVE
 70
     0
  9
$LUNITS
 70
     2
  9
$LUPREC
 70
     2
  9
$SKETCHINC
 40
1.0
  9
$FILLETRAD
 40
10.0
  9
$AUNITS
 70
     0
  9
$AUPREC
 70
     2
  9
$MENU
  1
.
  9
$ELEVATION
 40
0.0
  9
$PELEVATION
 40
0.0
  9
$THICKNESS
 40
0.0
  9
$LIMCHECK
 70
     0
  9
$CHAMFERA
 40
0.0
  9
$CHAMFERB
 40
0.0
  9
$CHAMFERC
 40
0.0
  9
$CHAMFERD
 40
0.0
  9
$SKPOLY
 70
     0
  9
$TDCREATE
 40
2459223.723586331
  9
$TDUCREATE
 40
2459223.390252998
  9
$TDUPDATE
 40
2459223.771089954
  9
$TDUUPDATE
 40
2459223.437756620
  9
$TDINDWG
 40
0.0084248264
  9
$TDUSRTIMER
 40
0.0084248264
  9
$USRTIMER
 70
     1
  9
$ANGBASE
 50
0.0
  9
$ANGDIR
 70
     0
  9
$PDMODE
 70
     0
  9
$PDSIZE
 40
-1.0
  9
$PLINEWID
 40
0.0
  9
$SPLFRAME
 70
     0
  9
$SPLINETYPE
 70
     6
  9
$SPLINESEGS
 70
     8
  9
$HANDSEED
  5
5AE
  9
$SURFTAB1
 70
     6
  9
$SURFTAB2
 70
     6
  9
$SURFTYPE
 70
     6
  9
$SURFU
 70
     6
  9
$SURFV
 70
     6
  9
$UCSBASE
  2

  9
$UCSNAME
  2

  9
$UCSORG
 10
0.0
 20
0.0
 30
0.0
  9
$UCSXDIR
 10
1.0
 20
0.0
 30
0.0
  9
$UCSYDIR
 10
0.0
 20
1.0
 30
0.0
  9
$UCSORTHOREF
  2

  9
$UCSORTHOVIEW
 70
     0
  9
$UCSORGTOP
 10
0.0
 20
0.0
 30
0.0
  9
$UCSORGBOTTOM
 10
0.0
 20
0.0
 30
0.0
  9
$UCSORGLEFT
 10
0.0
 20
0.0
 30
0.0
  9
$UCSORGRIGHT
 10
0.0
 20
0.0
 30
0.0
  9
$UCSORGFRONT
 10
0.0
 20
0.0
 30
0.0
  9
$UCSORGBACK
 10
0.0
 20
0.0
 30
0.0
  9
$PUCSBASE
  2

  9
$PUCSNAME
  2

  9
$PUCSORG
 10
0.0
 20
0.0
 30
0.0
  9
$PUCSXDIR
 10
1.0
 20
0.0
 30
0.0
  9
$PUCSYDIR
 10
0.0
 20
1.0
 30
0.0
  9
$PUCSORTHOREF
  2

  9
$PUCSORTHOVIEW
 70
     0
  9
$PUCSORGTOP
 10
0.0
 20
0.0
 30
0.0
  9
$PUCSORGBOTTOM
 10
0.0
 20
0.0
 30
0.0
  9
$PUCSORGLEFT
 10
0.0
 20
0.0
 30
0.0
  9
$PUCSORGRIGHT
 10
0.0
 20
0.0
 30
0.0
  9
$PUCSORGFRONT
 10
0.0
 20
0.0
 30
0.0
  9
$PUCSORGBACK
 10
0.0
 20
0.0
 30
0.0
  9
$USERI1
 70
     0
  9
$USERI2
 70
     0
  9
$USERI3
 70
     0
  9
$USERI4
 70
     0
  9
$USERI5
 70
     0
  9
$USERR1
 40
0.0
  9
$USERR2
 40
0.0
  9
$USERR3
 40
0.0
  9
$USERR4
 40
0.0
  9
$USERR5
 40
0.0
  9
$WORLDVIEW
 70
     1
  9
$SHADEDGE
 70
     3
  9
$SHADEDIF
 70
    70
  9
$TILEMODE
 70
     1
  9
$MAXACTVP
 70
    64
  9
$PINSBASE
 10
0.0
 20
0.0
 30
0.0
  9
$PLIMCHECK
 70
     0
  9
$PEXTMIN
 10
1.000000000000000E+20
 20
1.000000000000000E+20
 30
1.000000000000000E+20
  9
$PEXTMAX
 10
-1.000000000000000E+20
 20
-1.000000000000000E+20
 30
-1.000000000000000E+20
  9
$PLIMMIN
 10
0.0
 20
0.0
  9
$PLIMMAX
 10
420.0
 20
297.0
  9
$UNITMODE
 70
     0
  9
$VISRETAIN
 70
     1
  9
$PLINEGEN
 70
     0
  9
$PSLTSCALE
 70
     1
  9
$TREEDEPTH
 70
  3020
  9
$CMLSTYLE
  2
Standard
  9
$CMLJUST
 70
     0
  9
$CMLSCALE
 40
20.0
  9
$PROXYGRAPHICS
 70
     1
  9
$MEASUREMENT
 70
     1
  9
$CELWEIGHT
370
    -1
  9
$ENDCAPS
280
     0
  9
$JOINSTYLE
280
     0
  9
$LWDISPLAY
290
     1
  9
$INSUNITS
 70
     4
  9
$HYPERLINKBASE
  1

  9
$STYLESHEET
  1

  9
$XEDIT
290
     1
  9
$CEPSNTYPE
380
     0
  9
$PSTYLEMODE
290
     1
  9
$FINGERPRINTGUID
  2
{DB5CA9B4-7157-40D8-B0A9-0618F9BE85F3}
  9
$VERSIONGUID
  2
{70CEA47B-A6AA-4033-8161-0B1DDB7F5361}
  9
$EXTNAMES
290
     1
  9
$PSVPSCALE
 40
0.0
  9
$OLESTARTUP
290
     0
  9
$SORTENTS
280
   127
  9
$INDEXCTL
280
     0
  9
$HIDETEXT
280
     0
  9
$XCLIPFRAME
290
     0
  9
$HALOGAP
280
     0
  9
$OBSCOLOR
 70
   257
  9
$OBSLTYPE
280
     0
  9
$INTERSECTIONDISPLAY
280
     0
  9
$INTERSECTIONCOLOR
 70
   257
  9
$DIMASSOC
280
     1
  9
$PROJECTNAME
  1

  0
ENDSEC
  0
SECTION
  2
CLASSES
  0
CLASS
  1
ACDBDICTIONARYWDFLT
  2
AcDbDictionaryWithDefault
  3
ObjectDBX Classes
 90
        0
 91
        1
280
     0
281
     0
  0
CLASS
  1
VISUALSTYLE
  2
AcDbVisualStyle
  3
ObjectDBX Classes
 90
     4095
 91
       24
280
     0
281
     0
  0
CLASS
  1
MATERIAL
  2
AcDbMaterial
  3
ObjectDBX Classes
 90
     1153
 91
        3
280
     0
281
     0
  0
CLASS
  1
SCALE
  2
AcDbScale
  3
ObjectDBX Classes
 90
     1153
 91
       33
280
     0
281
     0
  0
CLASS
  1
TABLESTYLE
  2
AcDbTableStyle
  3
ObjectDBX Classes
 90
     4095
 91
        1
280
     0
281
     0
  0
CLASS
  1
MLEADERSTYLE
  2
AcDbMLeaderStyle
  3
ACDB_MLEADERSTYLE_CLASS
 90
     4095
 91
        1
280
     0
281
     0
  0
CLASS
  1
SUN
  2
AcDbSun
  3
SCENEOE
 90
     1153
 91
        1
280
     0
281
     0
  0
CLASS
  1
ACDBSECTIONVIEWSTYLE
  2
AcDbSectionViewStyle
  3
ObjectDBX Classes
 90
     1025
 91
        1
280
     0
281
     0
  0
CLASS
  1
ACDBDETAILVIEWSTYLE
  2
AcDbDetailViewStyle
  3
ObjectDBX Classes
 90
     1025
 91
        1
280
     0
281
     0
  0
CLASS
  1
CELLSTYLEMAP
  2
AcDbCellStyleMap
  3
ObjectDBX Classes
 90
     1152
 91
        3
280
     0
281
     0
  0
CLASS
  1
DICTIONARYVAR
  2
AcDbDictionaryVar
  3
ObjectDBX Classes
 90
        0
 91
       12
280
     0
281
     0
  0
ENDSEC
  0
SECTION
  2
TABLES
  0
TABLE
  2
VPORT
  5
8
330
0
100
AcDbSymbolTable
 70
     1
  0
VPORT
  5
29
330
8
100
AcDbSymbolTableRecord
100
AcDbViewportTableRecord
  2
*Active
 70
     0
 10
0.0
 20
0.0
 11
1.0
 21
1.0
 12
610.3802008909988
 22
384.8669717283184
 13
0.0
 23
0.0
 14
10.0
 24
10.0
 15
10.0
 25
10.0
 16
0.0
 26
0.0
 36
1.0
 17
0.0
 27
0.0
 37
0.0
 40
1195.057344069894
 41
2.658947368421052
 42
50.0
 43
0.0
 44
0.0
 50
0.0
 51
0.0
 71
     0
 72
  2000
 73
     1
 74
     3
 75
     0
 76
     0
 77
     0
 78
     0
281
     0
 65
     1
110
0.0
120
0.0
130
0.0
111
1.0
121
0.0
131
0.0
112
0.0
122
1.0
132
0.0
 79
     0
146
0.0
1001
ACAD_NAV_VCDISPLAY
1070
     3
  0
ENDTAB
  0
TABLE
  2
LTYPE
  5
5
330
0
100
AcDbSymbolTable
 70
     6
  0
LTYPE
  5
14
330
5
100
AcDbSymbolTableRecord
100
AcDbLinetypeTableRecord
  2
ByBlock
 70
     0
  3

 72
    65
 73
     0
 40
0.0
  0
LTYPE
  5
15
330
5
100
AcDbSymbolTableRecord
100
AcDbLinetypeTableRecord
  2
ByLayer
 70
     0
  3

 72
    65
 73
     0
 40
0.0
  0
LTYPE
  5
16
330
5
100
AcDbSymbolTableRecord
100
AcDbLinetypeTableRecord
  2
Continuous
 70
     0
  3
Solid line
 72
    65
 73
     0
 40
0.0
  0
LTYPE
  5
6E
330
5
100
AcDbSymbolTableRecord
100
AcDbLinetypeTableRecord
  2
HIDDEN
 70
     0
  3
Hidden __ __ __ __ __ __ __ __ __ __ __ __ __ __
 72
    65
 73
     2
 40
1.905
 49
1.27
 74
     0
 49
-0.635
 74
     0
  0
LTYPE
  5
6F
330
5
100
AcDbSymbolTableRecord
100
AcDbLinetypeTableRecord
  2
PHANTOM
 70
     0
  3
Phantom ______  __  __  ______  __  __  ______
 72
    65
 73
     6
 40
12.7
 49
6.349999999999999
 74
     0
 49
-1.27
 74
     0
 49
1.27
 74
     0
 49
-1.27
 74
     0
 49
1.27
 74
     0
 49
-1.27
 74
     0
  0
LTYPE
  5
70
330
5
100
AcDbSymbolTableRecord
100
AcDbLinetypeTableRecord
  2
CENTER
 70
     0
  3
Center ____ _ ____ _ ____ _ ____ _ ____ _ ____
 72
    65
 73
     4
 40
10.16
 49
6.349999999999999
 74
     0
 49
-1.27
 74
     0
 49
1.27
 74
     0
 49
-1.27
 74
     0
  0
LTYPE
  5
71
330
5
100
AcDbSymbolTableRecord
100
AcDbLinetypeTableRecord
  2
CENTERX2
 70
     0
  3
Center (2x) ________  __  ________  __  _____
 72
    65
 73
     4
 40
20.32
 49
12.7
 74
     0
 49
-2.54
 74
     0
 49
2.54
 74
     0
 49
-2.54
 74
     0
  0
LTYPE
  5
72
330
5
100
AcDbSymbolTableRecord
100
AcDbLinetypeTableRecord
  2
DOT2
 70
     0
  3
Dot (.5x) ........................................
 72
    65
 73
     2
 40
0.635
 49
0.0
 74
     0
 49
-0.635
 74
     0
  0
ENDTAB
  0
TABLE
  2
LAYER
  5
2
102
{ACAD_XDICTIONARY
360
4A7
102
}
330
0
100
AcDbSymbolTable
 70
    20
  0
LAYER
  5
10
102
{ACAD_XDICTIONARY
360
47E
102
}
330
2
100
AcDbSymbolTableRecord
100
AcDbLayerTableRecord
  2
0
 70
     0
 62
     7
  6
Continuous
370
    -3
390
F
  0
LAYER
  5
73
102
{ACAD_XDICTIONARY
360
480
102
}
330
2
100
AcDbSymbolTableRecord
100
AcDbLayerTableRecord
  2
SLD-0
 70
     0
 62
     7
  6
Continuous
370
    -3
390
F
  0
LAYER
  5
74
102
{ACAD_XDICTIONARY
360
482
102
}
330
2
100
AcDbSymbolTableRecord
100
AcDbLayerTableRecord
  2
10
 70
     0
 62
     7
  6
Continuous
370
    -3
390
F
  0
LAYER
  5
75
102
{ACAD_XDICTIONARY
360
484
102
}
330
2
100
AcDbSymbolTableRecord
100
AcDbLayerTableRecord
  2
5
 70
     0
 62
     7
  6
Continuous
370
    -3
390
F
  0
LAYER
  5
76
102
{ACAD_XDICTIONARY
360
486
102
}
330
2
100
AcDbSymbolTableRecord
100
AcDbLayerTableRecord
  2
9
 70
     0
 62
     7
  6
Continuous
370
    -3
390
F
  0
LAYER
  5
77
102
{ACAD_XDICTIONARY
360
488
102
}
330
2
100
AcDbSymbolTableRecord
100
AcDbLayerTableRecord
  2
轮廓实线层
 70
     0
 62
     7
  6
Continuous
370
    50
390
F
  0
LAYER
  5
78
102
{ACAD_XDICTIONARY
360
48A
102
}
330
2
100
AcDbSymbolTableRecord
100
AcDbLayerTableRecord
  2
细线层
 70
     0
 62
     4
  6
Continuous
370
    25
390
F
  0
LAYER
  5
79
102
{ACAD_XDICTIONARY
360
48C
102
}
330
2
100
AcDbSymbolTableRecord
100
AcDbLayerTableRecord
  2
中心线层
 70
     0
 62
     1
  6
CENTERX2
370
    25
390
F
  0
LAYER
  5
7A
102
{ACAD_XDICTIONARY
360
48E
102
}
330
2
100
AcDbSymbolTableRecord
100
AcDbLayerTableRecord
  2
虚线层
 70
     0
 62
     6
  6
HIDDEN
370
    25
390
F
  0
LAYER
  5
7B
102
{ACAD_XDICTIONARY
360
490
102
}
330
2
100
AcDbSymbolTableRecord
100
AcDbLayerTableRecord
  2
剖面线层
 70
     0
 62
     2
  6
Continuous
370
    25
390
F
  0
LAYER
  5
7C
102
{ACAD_XDICTIONARY
360
492
102
}
330
2
100
AcDbSymbolTableRecord
100
AcDbLayerTableRecord
  2
文字层
 70
     0
 62
     3
  6
Continuous
370
    25
390
F
  0
LAYER
  5
7D
102
{ACAD_XDICTIONARY
360
494
102
}
330
2
100
AcDbSymbolTableRecord
100
AcDbLayerTableRecord
  2
标注层
 70
     0
 62
     1
  6
Continuous
370
    25
390
F
  0
LAYER
  5
7E
102
{ACAD_XDICTIONARY
360
496
102
}
330
2
100
AcDbSymbolTableRecord
100
AcDbLayerTableRecord
  2
符号标注层
 70
     0
 62
    31
  6
Continuous
370
    25
390
F
  0
LAYER
  5
7F
102
{ACAD_XDICTIONARY
360
498
102
}
330
2
100
AcDbSymbolTableRecord
100
AcDbLayerTableRecord
  2
双点划线层
 70
     0
 62
     6
  6
PHANTOM
370
    25
390
F
  0
LAYER
  5
80
102
{ACAD_XDICTIONARY
360
49A
102
}
330
2
100
AcDbSymbolTableRecord
100
AcDbLayerTableRecord
  2
粗实线层
 70
     0
 62
     7
  6
Continuous
370
    25
390
F
  0
LAYER
  5
81
102
{ACAD_XDICTIONARY
360
49C
102
}
330
2
100
AcDbSymbolTableRecord
100
AcDbLayerTableRecord
  2
细实线层
 70
     0
 62
     7
  6
Continuous
370
    -3
390
F
  0
LAYER
  5
82
102
{ACAD_XDICTIONARY
360
49E
102
}
330
2
100
AcDbSymbolTableRecord
100
AcDbLayerTableRecord
  2
点划线层
 70
     0
 62
     7
  6
CENTER
370
    -3
390
F
  0
LAYER
  5
83
102
{ACAD_XDICTIONARY
360
4A0
102
}
330
2
100
AcDbSymbolTableRecord
100
AcDbLayerTableRecord
  2
图框
 70
     0
 62
     7
  6
Continuous
370
    -3
390
F
  0
LAYER
  5
84
102
{ACAD_XDICTIONARY
360
4A2
102
}
330
2
100
AcDbSymbolTableRecord
100
AcDbLayerTableRecord
  2
TB
 70
     0
 62
   254
  6
Continuous
370
    -3
390
F
  0
LAYER
  5
419
330
2
100
AcDbSymbolTableRecord
100
AcDbLayerTableRecord
  2
Defpoints
 70
     0
 62
     7
  6
Continuous
290
     0
370
    -3
390
F
  0
ENDTAB
  0
TABLE
  2
STYLE
  5
3
330
0
100
AcDbSymbolTable
 70
     7
  0
STYLE
  5
11
330
3
100
AcDbSymbolTableRecord
100
AcDbTextStyleTableRecord
  2
Standard
 70
     0
 40
0.0
 41
1.0
 50
0.0
 71
     0
 42
3.5
  3
txt
  4

  0
STYLE
  5
15B
330
3
100
AcDbSymbolTableRecord
100
AcDbTextStyleTableRecord
  2
SLDTEXTSTYLE0
 70
     0
 40
0.0
 41
0.7
 50
0.0
 71
     0
 42
3.5
  3
TXT
  4

  0
STYLE
  5
161
330
3
100
AcDbSymbolTableRecord
100
AcDbTextStyleTableRecord
  2
SLDTEXTSTYLE1
 70
     0
 40
0.0
 41
0.7368421052631579
 50
0.0
 71
     0
 42
3.5
  3
TXT
  4

  0
STYLE
  5
165
330
3
100
AcDbSymbolTableRecord
100
AcDbTextStyleTableRecord
  2
SLDTEXTSTYLE2
 70
     0
 40
0.0
 41
0.6353383458646617
 50
0.0
 71
     0
 42
3.5
  3
TXT
  4

  0
STYLE
  5
17B
330
3
100
AcDbSymbolTableRecord
100
AcDbTextStyleTableRecord
  2
SLDTEXTSTYLE3
 70
     0
 40
0.0
 41
0.65
 50
0.0
 71
     0
 42
3.5
  3
TXT
  4

  0
STYLE
  5
17D
330
3
100
AcDbSymbolTableRecord
100
AcDbTextStyleTableRecord
  2
SLDTEXTSTYLE4
 70
     0
 40
0.0
 41
0.6333333333333334
 50
0.0
 71
     0
 42
3.5
  3
TXT
  4

  0
ENDTAB
  0
TABLE
  2
VIEW
  5
6
330
0
100
AcDbSymbolTable
 70
     2
  0
ENDTAB
  0
TABLE
  2
UCS
  5
7
330
0
100
AcDbSymbolTable
 70
     0
  0
ENDTAB
  0
TABLE
  2
APPID
  5
9
330
0
100
AcDbSymbolTable
 70
     3
  0
APPID
  5
12
330
9
100
AcDbSymbolTableRecord
100
AcDbRegAppTableRecord
  2
ACAD
 70
     0
  0
APPID
  5
4AD
330
9
100
AcDbSymbolTableRecord
100
AcDbRegAppTableRecord
  2
ACAD_NAV_VCDISPLAY
 70
     0
  0
APPID
  5
5A5
330
9
100
AcDbSymbolTableRecord
100
AcDbRegAppTableRecord
  2
ACAD_MLEADERVER
 70
     0
  0
ENDTAB
  0
TABLE
  2
DIMSTYLE
  5
A
330
0
100
AcDbSymbolTable
 70
     6
100
AcDbDimStyleTable
 71
     1
340
27
  0
DIMSTYLE
105
27
330
A
100
AcDbSymbolTableRecord
100
AcDbDimStyleTableRecord
  2
ISO-25
 70
     0
 41
2.5
 42
0.625
 43
3.75
 44
1.25
 73
     0
 74
     0
 77
     1
 78
     8
140
2.5
141
2.5
143
0.03937007874016
147
0.625
171
     3
172
     1
271
     2
272
     2
274
     3
278
    44
283
     0
284
     8
340
11
  0
DIMSTYLE
105
1CA
102
{ACAD_REACTORS
330
1C9
102
}
330
A
100
AcDbSymbolTableRecord
100
AcDbDimStyleTableRecord
  2
SLDDIMSTYLE0
 70
     0
 41
9.438183593749998
 44
0.0
 45
0.000000001
 73
     0
 74
     0
 77
     2
 78
    12
 79
     3
140
9.438183593749998
141
0.0
143
0.0393700787401575
147
2.359545898437499
148
0.000000001
170
     1
172
     1
173
     1
271
     2
272
     2
276
     2
284
    12
340
15B
  0
DIMSTYLE
105
1DB
102
{ACAD_REACTORS
330
1DA
102
}
330
A
100
AcDbSymbolTableRecord
100
AcDbDimStyleTableRecord
  2
SLDDIMSTYLE1
 70
     0
 41
9.438183593749998
 44
0.0
 73
     0
 74
     0
 77
     2
 78
    12
 79
     3
140
9.438183593749998
147
2.359545898437499
173
     1
179
     2
272
     2
276
     2
284
    12
340
15B
  0
DIMSTYLE
105
213
102
{ACAD_REACTORS
330
212
330
224
330
255
330
287
330
2EC
330
2FD
102
}
330
A
100
AcDbSymbolTableRecord
100
AcDbDimStyleTableRecord
  2
SLDDIMSTYLE2
 70
     0
 41
9.438183593749998
 44
0.0
 45
0.000000001
 73
     0
 74
     0
 77
     2
 78
    12
 79
     3
140
9.438183593749998
143
0.0393700787401575
147
2.359545898437499
148
0.000000001
170
     1
173
     1
271
     2
272
     2
276
     2
284
    12
340
15B
  0
DIMSTYLE
105
2B6
102
{ACAD_REACTORS
330
2B5
102
}
330
A
100
AcDbSymbolTableRecord
100
AcDbDimStyleTableRecord
  2
SLDDIMSTYLE3
 70
     0
 41
9.438183593749998
 44
0.0
 45
0.000000001
 73
     0
 74
     0
 77
     2
 78
     4
 79
     1
140
9.438183593749998
143
0.0393700787401575
147
2.359545898437499
148
0.000000001
170
     1
173
     1
271
     2
272
     2
276
     2
284
    12
340
15B
  0
ENDTAB
  0
TABLE
  2
BLOCK_RECORD
  5
1
330
0
100
AcDbSymbolTable
 70
    12
  0
BLOCK_RECORD
  5
1F
330
1
100
AcDbSymbolTableRecord
100
AcDbBlockTableRecord
  2
*Model_Space
340
22
  0
BLOCK_RECORD
  5
1B
330
1
100
AcDbSymbolTableRecord
100
AcDbBlockTableRecord
  2
*Paper_Space
340
1E
  0
BLOCK_RECORD
  5
23
330
1
100
AcDbSymbolTableRecord
100
AcDbBlockTableRecord
  2
*Paper_Space0
340
26
  0
BLOCK_RECORD
  5
184
330
1
100
AcDbSymbolTableRecord
100
AcDbBlockTableRecord
  2
SW_NOTE_0
340
0
102
{BLKREFS
331
18C
102
}
  0
BLOCK_RECORD
  5
1CB
330
1
100
AcDbSymbolTableRecord
100
AcDbBlockTableRecord
  2
_D
340
0
  0
BLOCK_RECORD
  5
1DC
330
1
100
AcDbSymbolTableRecord
100
AcDbBlockTableRecord
  2
_D_1
340
0
  0
BLOCK_RECORD
  5
214
330
1
100
AcDbSymbolTableRecord
100
AcDbBlockTableRecord
  2
_D_2
340
0
  0
BLOCK_RECORD
  5
225
330
1
100
AcDbSymbolTableRecord
100
AcDbBlockTableRecord
  2
_D_3
340
0
  0
BLOCK_RECORD
  5
256
330
1
100
AcDbSymbolTableRecord
100
AcDbBlockTableRecord
  2
_D_4
340
0
  0
BLOCK_RECORD
  5
288
330
1
100
AcDbSymbolTableRecord
100
AcDbBlockTableRecord
  2
_D_5
340
0
  0
BLOCK_RECORD
  5
2B7
330
1
100
AcDbSymbolTableRecord
100
AcDbBlockTableRecord
  2
_D_6
340
0
  0
BLOCK_RECORD
  5
2ED
330
1
100
AcDbSymbolTableRecord
100
AcDbBlockTableRecord
  2
_D_7
340
0
  0
BLOCK_RECORD
  5
2FE
330
1
100
AcDbSymbolTableRecord
100
AcDbBlockTableRecord
  2
_D_8
340
0
  0
ENDTAB
  0
ENDSEC
  0
SECTION
  2
BLOCKS
  0
BLOCK
  5
20
330
1F
100
AcDbEntity
  8
0
100
AcDbBlockBegin
  2
*Model_Space
 70
     0
 10
0.0
 20
0.0
 30
0.0
  3
*Model_Space
  1

  0
ENDBLK
  5
21
330
1F
100
AcDbEntity
  8
0
100
AcDbBlockEnd
  0
BLOCK
  5
1C
330
1B
100
AcDbEntity
 67
     1
  8
0
100
AcDbBlockBegin
  2
*Paper_Space
 70
     0
 10
0.0
 20
0.0
 30
0.0
  3
*Paper_Space
  1

  0
ENDBLK
  5
1D
330
1B
100
AcDbEntity
 67
     1
  8
0
100
AcDbBlockEnd
  0
BLOCK
  5
24
330
23
100
AcDbEntity
 67
     1
  8
0
100
AcDbBlockBegin
  2
*Paper_Space0
 70
     0
 10
0.0
 20
0.0
 30
0.0
  3
*Paper_Space0
  1

  0
ENDBLK
  5
25
330
23
100
AcDbEntity
 67
     1
  8
0
100
AcDbBlockEnd
  0
BLOCK
  5
185
330
184
100
AcDbEntity
  8
0
100
AcDbBlockBegin
  2
SW_NOTE_0
 70
     0
 10
0.0
 20
0.0
 30
0.0
  3
SW_NOTE_0
  1

  0
MTEXT
  5
187
330
184
100
AcDbEntity
  8
标注层
 62
     0
100
AcDbMText
 10
-9.549843505477273
 20
-0.0000000000000278
 30
0.0
 40
7.408333333333332
 41
0.0
 71
     1
 72
     1
  1
991 Calle Amanecer, San Clemente,
  7
SLDTEXTSTYLE0
 11
-0.0000000000000035
 21
1.0
 31
0.0
 73
     1
 44
1.0
  0
MTEXT
  5
188
330
184
100
AcDbEntity
  8
标注层
 62
     0
100
AcDbMText
 10
1.827934398794806
 20
0.0
 30
0.0
 40
7.408333333333332
 41
0.0
 71
     1
 72
     1
  1
CA. 92673
  7
SLDTEXTSTYLE0
 11
-0.0000000000000035
 21
1.0
 31
0.0
 73
     1
 44
1.0
  0
MTEXT
  5
189
330
184
100
AcDbEntity
  8
标注层
 62
     0
100
AcDbMText
 10
13.20571230306688
 20
0.0000000000000278
 30
0.0
 40
7.408333333333332
 41
0.0
 71
     1
 72
     1
  1
58800 2-7777 949 492-7777
  7
SLDTEXTSTYLE0
 11
-0.0000000000000035
 21
1.0
 31
0.0
 73
     1
 44
1.0
  0
MTEXT
  5
18A
330
184
100
AcDbEntity
  8
标注层
 62
     0
100
AcDbMText
 10
24.58349020733896
 20
0.0000000000000555
 30
0.0
 40
7.408333333333332
 41
0.0
 71
     1
 72
     1
  1
FAX 949 361-5579
  7
SLDTEXTSTYLE0
 11
-0.0000000000000035
 21
1.0
 31
0.0
 73
     1
 44
1.0
  0
MTEXT
  5
18B
330
184
100
AcDbEntity
  8
标注层
 62
     0
100
AcDbMText
 10
35.96126811161105
 20
0.0000000000000833
 30
0.0
 40
7.408333333333332
 41
0.0
 71
     1
 72
     1
  1
www.sonance.com
  7
SLDTEXTSTYLE0
 11
-0.0000000000000035
 21
1.0
 31
0.0
 73
     1
 44
1.0
  0
ENDBLK
  5
186
330
184
100
AcDbEntity
  8
0
100
AcDbBlockEnd
  0
BLOCK
  5
1CC
330
1CB
100
AcDbEntity
  8
0
100
AcDbBlockBegin
  2
_D
 70
     0
 10
0.0
 20
0.0
 30
0.0
  3
_D
  1

  0
LINE
  5
46F
330
1CB
100
AcDbEntity
  8
标注层
 62
     0
440
 16777216
370
    -2
100
AcDbLine
 10
207.7492187210802
 20
613.2585605684916
 30
0.0
 11
135.9011419082451
 21
556.4844683630703
 31
0.0
  0
MTEXT
  5
470
102
{ACAD_XDICTIONARY
360
5AC
102
}
330
1CB
100
AcDbEntity
  8
标注层
 62
     0
440
 16777216
100
AcDbMText
 10
146.7465385245336
 20
580.0909462708753
 30
0.0
 40
9.438183593749998
 41
0.0
 71
     1
 72
     1
  1
\A1;\U+2205147 [\U+22055.79]
  7
SLDTEXTSTYLE0
 11
0.7846069021844487
 21
0.6199935556475755
 31
0.0
 73
     1
 44
1.0
  0
SOLID
  5
471
330
1CB
100
AcDbEntity
  8
标注层
 62
     0
440
 16777216
100
AcDbTrace
 10
134.9258730740545
 20
557.7186790283604
 30
0.0
 11
136.8764107424357
 21
555.2502576977803
 31
0.0
 12
128.4958779165049
 22
550.6328553579266
 32
0.0
 13
128.4958779165049
 23
550.6328553579266
 33
0.0
  0
POINT
  5
472
330
1CB
100
AcDbEntity
  8
Defpoints
 62
     0
440
 16777216
100
AcDbPoint
 10
128.4958779165049
 20
550.6328553579266
 30
0.0
  0
POINT
  5
473
330
1CB
100
AcDbEntity
  8
Defpoints
 62
     0
440
 16777216
100
AcDbPoint
 10
243.8330925376187
 20
641.7719080381202
 30
0.0
  0
ENDBLK
  5
1CD
330
1CB
100
AcDbEntity
  8
0
100
AcDbBlockEnd
  0
BLOCK
  5
1DD
330
1DC
100
AcDbEntity
  8
0
100
AcDbBlockBegin
  2
_D_1
 70
     0
 10
0.0
 20
0.0
 30
0.0
  3
_D_1
  1

  0
ARC
  5
1DF
330
1DC
100
AcDbEntity
  8
标注层
440
 16777216
100
AcDbCircle
 10
186.1644852270618
 20
596.2023816980235
 30
0.0
 40
80.03905078582453
100
AcDbArc
 50
335.0000000000008
 51
25.00000000000015
  0
SOLID
  5
1E0
330
1DC
100
AcDbEntity
  8
标注层
440
 16777216
100
AcDbTrace
 10
258.7045002212764
 20
562.3764171835428
 30
0.0
 11
263.5343639622885
 21
570.614142101105
 31
0.0
 12
260.8349384961537
 22
571.6849577958571
 32
0.0
 13
260.8349384961537
 23
571.6849577958571
 33
0.0
  0
SOLID
  5
1E1
330
1DC
100
AcDbEntity
  8
标注层
440
 16777216
100
AcDbTrace
 10
258.7045002212764
 20
630.0283462125045
 30
0.0
 11
260.8349384961537
 21
620.7198056001901
 31
0.0
 12
263.5343639622885
 22
621.7906212949422
 32
0.0
 13
263.5343639622885
 23
621.7906212949422
 33
0.0
  0
MTEXT
  5
1E2
102
{ACAD_XDICTIONARY
360
56F
102
}
330
1DC
100
AcDbEntity
  8
标注层
440
 16777216
100
AcDbMText
 10
254.4212828469556
 20
588.6142230388527
 30
0.0
 40
9.524999999999998
 41
0.0
 71
     1
 72
     1
  1
50\U+00B0
  7
SLDTEXTSTYLE0
 11
-0.0528224468754547
 21
0.9986039200334083
 31
0.0
 73
     1
 44
1.0
  0
ENDBLK
  5
1DE
330
1DC
100
AcDbEntity
  8
0
100
AcDbBlockEnd
  0
BLOCK
  5
215
330
214
100
AcDbEntity
  8
0
100
AcDbBlockBegin
  2
_D_2
 70
     0
 10
0.0
 20
0.0
 30
0.0
  3
_D_2
  1

  0
LINE
  5
440
330
214
100
AcDbEntity
  8
标注层
 62
     0
440
 16777216
370
    -2
100
AcDbLine
 10
988.9390842616146
 20
538.1770685495297
 30
0.0
 11
986.9787667981874
 21
538.1770685495297
 31
0.0
  0
LINE
  5
441
330
214
100
AcDbEntity
  8
标注层
 62
     0
440
 16777216
370
    -2
100
AcDbLine
 10
971.3009514062724
 20
565.2918878269377
 30
0.0
 11
986.9787667981874
 21
565.2918878269377
 31
0.0
  0
LINE
  5
442
330
214
100
AcDbEntity
  8
标注层
 62
     0
440
 16777216
370
    -2
100
AcDbLine
 10
986.9787667981874
 20
547.6152521432797
 30
0.0
 11
986.9787667981874
 21
555.8537042331878
 31
0.0
  0
LINE
  5
443
330
214
100
AcDbEntity
  8
标注层
 62
     0
440
 16777216
370
    -2
100
AcDbLine
 10
986.9787667981874
 20
565.2918878269377
 30
0.0
 11
986.9787667981874
 21
635.6063556003753
 31
0.0
  0
SOLID
  5
444
330
214
100
AcDbEntity
  8
标注层
 62
     0
440
 16777216
100
AcDbTrace
 10
985.4057361992291
 20
547.6152521432797
 30
0.0
 11
988.5517973971458
 21
547.6152521432797
 31
0.0
 12
986.9787667981874
 22
538.1770685495297
 32
0.0
 13
986.9787667981874
 23
538.1770685495297
 33
0.0
  0
SOLID
  5
445
330
214
100
AcDbEntity
  8
标注层
 62
     0
440
 16777216
100
AcDbTrace
 10
985.4057361992291
 20
555.8537042331878
 30
0.0
 11
988.5517973971458
 21
555.8537042331878
 31
0.0
 12
986.9787667981874
 22
565.2918878269377
 32
0.0
 13
986.9787667981874
 23
565.2918878269377
 33
0.0
  0
MTEXT
  5
446
330
214
100
AcDbEntity
  8
标注层
 62
     0
440
 16777216
100
AcDbMText
 10
975.1810373059997
 20
605.1682135105316
 30
0.0
 40
9.438183593749998
 41
0.0
 71
     2
 72
     1
  1
\A1;27.11 [1.07]
  7
SLDTEXTSTYLE0
 11
0.0000000000000001
 21
1.0
 31
0.0
 73
     1
 44
1.0
  0
POINT
  5
447
330
214
100
AcDbEntity
  8
Defpoints
 62
     0
440
 16777216
100
AcDbPoint
 10
989.0015842616145
 20
538.1770685495297
 30
0.0
  0
POINT
  5
448
330
214
100
AcDbEntity
  8
Defpoints
 62
     0
440
 16777216
100
AcDbPoint
 10
971.2384514062724
 20
565.2918878269377
 30
0.0
  0
POINT
  5
449
330
214
100
AcDbEntity
  8
Defpoints
 62
     0
440
 16777216
100
AcDbPoint
 10
986.9787667981874
 20
565.2918878269377
 30
0.0
  0
ENDBLK
  5
216
330
214
100
AcDbEntity
  8
0
100
AcDbBlockEnd
  0
BLOCK
  5
226
330
225
100
AcDbEntity
  8
0
100
AcDbBlockBegin
  2
_D_3
 70
     0
 10
0.0
 20
0.0
 30
0.0
  3
_D_3
  1

  0
LINE
  5
423
330
225
100
AcDbEntity
  8
标注层
 62
     0
440
 16777216
370
    -2
100
AcDbLine
 10
439.1084514062725
 20
565.3543878269378
 30
0.0
 11
439.1084514062725
 21
595.3124263984236
 31
0.0
  0
LINE
  5
424
330
225
100
AcDbEntity
  8
标注层
 62
     0
440
 16777216
370
    -2
100
AcDbLine
 10
971.2384514062724
 20
565.3543878269378
 30
0.0
 11
971.2384514062724
 21
595.3124263984236
 31
0.0
  0
LINE
  5
425
330
225
100
AcDbEntity
  8
标注层
 62
     0
440
 16777216
370
    -2
100
AcDbLine
 10
448.5466350000225
 20
595.3124263984236
 30
0.0
 11
961.8002678125225
 21
595.3124263984236
 31
0.0
  0
SOLID
  5
426
330
225
100
AcDbEntity
  8
标注层
 62
     0
440
 16777216
100
AcDbTrace
 10
448.5466350000225
 20
596.885456997382
 30
0.0
 11
448.5466350000225
 21
593.7393957994653
 31
0.0
 12
439.1084514062725
 22
595.3124263984236
 32
0.0
 13
439.1084514062725
 23
595.3124263984236
 33
0.0
  0
SOLID
  5
427
330
225
100
AcDbEntity
  8
标注层
 62
     0
440
 16777216
100
AcDbTrace
 10
961.8002678125225
 20
596.885456997382
 30
0.0
 11
961.8002678125225
 21
593.7393957994653
 31
0.0
 12
971.2384514062724
 22
595.3124263984236
 32
0.0
 13
971.2384514062724
 23
595.3124263984236
 33
0.0
  0
MTEXT
  5
428
330
225
100
AcDbEntity
  8
标注层
 62
     0
440
 16777216
100
AcDbMText
 10
711.3019274145827
 20
607.1101558906112
 30
0.0
 40
9.438183593749998
 41
0.0
 71
     2
 72
     1
  1
\A1;532.13 [20.95]
  7
SLDTEXTSTYLE0
 73
     1
 44
1.0
  0
POINT
  5
429
330
225
100
AcDbEntity
  8
Defpoints
 62
     0
440
 16777216
100
AcDbPoint
 10
439.1084514062725
 20
565.2918878269377
 30
0.0
  0
POINT
  5
42A
330
225
100
AcDbEntity
  8
Defpoints
 62
     0
440
 16777216
100
AcDbPoint
 10
971.2384514062724
 20
565.2918878269377
 30
0.0
  0
POINT
  5
42B
330
225
100
AcDbEntity
  8
Defpoints
 62
     0
440
 16777216
100
AcDbPoint
 10
971.2384514062724
 20
595.3124263984236
 30
0.0
  0
ENDBLK
  5
227
330
225
100
AcDbEntity
  8
0
100
AcDbBlockEnd
  0
BLOCK
  5
257
330
256
100
AcDbEntity
  8
0
100
AcDbBlockBegin
  2
_D_4
 70
     0
 10
0.0
 20
0.0
 30
0.0
  3
_D_4
  1

  0
LINE
  5
44A
330
256
100
AcDbEntity
  8
标注层
 62
     0
440
 16777216
370
    -2
100
AcDbLine
 10
971.3009514062726
 20
708.2189685143153
 30
0.0
 11
1017.007387621287
 21
708.2189685143153
 31
0.0
  0
LINE
  5
44B
330
256
100
AcDbEntity
  8
标注层
 62
     0
440
 16777216
370
    -2
100
AcDbLine
 10
1013.709980957221
 20
674.0789685143153
 30
0.0
 11
1017.007387621287
 21
674.0789685143153
 31
0.0
  0
LINE
  5
44C
330
256
100
AcDbEntity
  8
标注层
 62
     0
440
 16777216
370
    -2
100
AcDbLine
 10
1017.007387621287
 20
683.5171521080653
 30
0.0
 11
1017.007387621287
 21
698.7807849205653
 31
0.0
  0
LINE
  5
44D
330
256
100
AcDbEntity
  8
标注层
 62
     0
440
 16777216
370
    -2
100
AcDbLine
 10
1017.007387621287
 20
708.2189685143153
 30
0.0
 11
1017.007387621287
 21
781.8368005455652
 31
0.0
  0
SOLID
  5
44E
330
256
100
AcDbEntity
  8
标注层
 62
     0
440
 16777216
100
AcDbTrace
 10
1015.434357022329
 20
683.5171521080653
 30
0.0
 11
1018.580418220246
 21
683.5171521080653
 31
0.0
 12
1017.007387621287
 22
674.0789685143153
 32
0.0
 13
1017.007387621287
 23
674.0789685143153
 33
0.0
  0
SOLID
  5
44F
330
256
100
AcDbEntity
  8
标注层
 62
     0
440
 16777216
100
AcDbTrace
 10
1015.434357022329
 20
698.7807849205653
 30
0.0
 11
1018.580418220246
 21
698.7807849205653
 31
0.0
 12
1017.007387621287
 22
708.2189685143153
 32
0.0
 13
1017.007387621287
 23
708.2189685143153
 33
0.0
  0
MTEXT
  5
450
330
256
100
AcDbEntity
  8
标注层
 62
     0
440
 16777216
100
AcDbMText
 10
1019.366933519725
 20
749.7469763268153
 30
0.0
 40
9.438183593749998
 41
0.0
 71
     2
 72
     1
  1
\A1;34.14 [1.34]
  7
SLDTEXTSTYLE0
 11
0.0000000000000001
 21
1.0
 31
0.0
 73
     1
 44
1.0
  0
POINT
  5
451
330
256
100
AcDbEntity
  8
Defpoints
 62
     0
440
 16777216
100
AcDbPoint
 10
971.2384514062726
 20
708.2189685143153
 30
0.0
  0
POINT
  5
452
330
256
100
AcDbEntity
  8
Defpoints
 62
     0
440
 16777216
100
AcDbPoint
 10
1013.647480957221
 20
674.0789685143153
 30
0.0
  0
POINT
  5
453
330
256
100
AcDbEntity
  8
Defpoints
 62
     0
440
 16777216
100
AcDbPoint
 10
1017.007387621287
 20
674.0789685143153
 30
0.0
  0
ENDBLK
  5
258
330
256
100
AcDbEntity
  8
0
100
AcDbBlockEnd
  0
BLOCK
  5
289
330
288
100
AcDbEntity
  8
0
100
AcDbBlockBegin
  2
_D_5
 70
     0
 10
0.0
 20
0.0
 30
0.0
  3
_D_5
  1

  0
LINE
  5
41A
330
288
100
AcDbEntity
  8
标注层
 62
     0
440
 16777216
370
    -2
100
AcDbLine
 10
376.0902413859175
 20
408.8942575395357
 30
0.0
 11
376.0902413859175
 21
461.9428672788298
 31
0.0
  0
LINE
  5
41B
330
288
100
AcDbEntity
  8
标注层
 62
     0
440
 16777216
370
    -2
100
AcDbLine
 10
1034.256661426628
 20
408.8942575395357
 30
0.0
 11
1034.256661426628
 21
461.9428672788298
 31
0.0
  0
LINE
  5
41C
330
288
100
AcDbEntity
  8
标注层
 62
     0
440
 16777216
370
    -2
100
AcDbLine
 10
385.5284249796675
 20
461.9428672788298
 30
0.0
 11
1024.818477832878
 21
461.9428672788298
 31
0.0
  0
SOLID
  5
41D
330
288
100
AcDbEntity
  8
标注层
 62
     0
440
 16777216
100
AcDbTrace
 10
385.5284249796675
 20
463.5158978777882
 30
0.0
 11
385.5284249796675
 21
460.3698366798716
 31
0.0
 12
376.0902413859175
 22
461.9428672788298
 32
0.0
 13
376.0902413859175
 23
461.9428672788298
 33
0.0
  0
SOLID
  5
41E
330
288
100
AcDbEntity
  8
标注层
 62
     0
440
 16777216
100
AcDbTrace
 10
1024.818477832878
 20
463.5158978777882
 30
0.0
 11
1024.818477832878
 21
460.3698366798716
 31
0.0
 12
1034.256661426628
 22
461.9428672788298
 32
0.0
 13
1034.256661426628
 23
461.9428672788298
 33
0.0
  0
MTEXT
  5
41F
330
288
100
AcDbEntity
  8
标注层
 62
     0
440
 16777216
100
AcDbMText
 10
714.0358449253564
 20
473.7405967710174
 30
0.0
 40
9.438183593749998
 41
0.0
 71
     2
 72
     1
  1
\A1;658.17 [25.91]
  7
SLDTEXTSTYLE0
 73
     1
 44
1.0
  0
POINT
  5
420
330
288
100
AcDbEntity
  8
Defpoints
 62
     0
440
 16777216
100
AcDbPoint
 10
376.0902413859175
 20
408.8317575395358
 30
0.0
  0
POINT
  5
421
330
288
100
AcDbEntity
  8
Defpoints
 62
     0
440
 16777216
100
AcDbPoint
 10
1034.256661426628
 20
408.8317575395358
 30
0.0
  0
POINT
  5
422
330
288
100
AcDbEntity
  8
Defpoints
 62
     0
440
 16777216
100
AcDbPoint
 10
1034.256661426628
 20
461.9428672788298
 30
0.0
  0
ENDBLK
  5
28A
330
288
100
AcDbEntity
  8
0
100
AcDbBlockEnd
  0
BLOCK
  5
2B8
330
2B7
100
AcDbEntity
  8
0
100
AcDbBlockBegin
  2
_D_6
 70
     0
 10
0.0
 20
0.0
 30
0.0
  3
_D_6
  1

  0
LINE
  5
474
330
2B7
100
AcDbEntity
  8
标注层
 62
     0
440
 16777216
370
    -2
100
AcDbLine
 10
224.2269852270587
 20
388.7077852662633
 30
0.0
 11
316.9149373499695
 21
388.7077852662633
 31
0.0
  0
LINE
  5
475
330
2B7
100
AcDbEntity
  8
标注层
 62
     0
440
 16777216
370
    -2
100
AcDbLine
 10
224.2269852270587
 20
358.8077852662635
 30
0.0
 11
316.9149373499694
 21
358.8077852662635
 31
0.0
  0
LINE
  5
476
330
2B7
100
AcDbEntity
  8
标注层
 62
     0
440
 16777216
370
    -2
100
AcDbLine
 10
316.9149373499694
 20
368.2459688600135
 30
0.0
 11
316.9149373499694
 21
379.2696016725133
 31
0.0
  0
LINE
  5
477
330
2B7
100
AcDbEntity
  8
标注层
 62
     0
440
 16777216
370
    -2
100
AcDbLine
 10
316.9149373499695
 20
388.7077852662633
 30
0.0
 11
316.9149373499695
 21
461.2244958782424
 31
0.0
  0
SOLID
  5
478
330
2B7
100
AcDbEntity
  8
标注层
 62
     0
440
 16777216
100
AcDbTrace
 10
315.3419067510111
 20
368.2459688600135
 30
0.0
 11
318.4879679489278
 21
368.2459688600135
 31
0.0
 12
316.9149373499694
 22
358.8077852662635
 32
0.0
 13
316.9149373499694
 23
358.8077852662635
 33
0.0
  0
SOLID
  5
479
330
2B7
100
AcDbEntity
  8
标注层
 62
     0
440
 16777216
100
AcDbTrace
 10
315.3419067510111
 20
379.2696016725133
 30
0.0
 11
318.4879679489278
 21
379.2696016725133
 31
0.0
 12
316.9149373499695
 22
388.7077852662633
 32
0.0
 13
316.9149373499695
 23
388.7077852662633
 33
0.0
  0
MTEXT
  5
47A
330
2B7
100
AcDbEntity
  8
标注层
 62
     0
440
 16777216
100
AcDbMText
 10
319.2744832484069
 20
429.6852323691279
 30
0.0
 40
9.438183593749998
 41
0.0
 71
     2
 72
     1
  1
\A1;29.90 [1.18]
  7
SLDTEXTSTYLE0
 11
0.0000000000000001
 21
1.0
 31
0.0
 73
     1
 44
1.0
  0
POINT
  5
47B
330
2B7
100
AcDbEntity
  8
Defpoints
 62
     0
440
 16777216
100
AcDbPoint
 10
224.1644852270586
 20
388.7077852662633
 30
0.0
  0
POINT
  5
47C
330
2B7
100
AcDbEntity
  8
Defpoints
 62
     0
440
 16777216
100
AcDbPoint
 10
224.1644852270586
 20
358.8077852662635
 30
0.0
  0
POINT
  5
47D
330
2B7
100
AcDbEntity
  8
Defpoints
 62
     0
440
 16777216
100
AcDbPoint
 10
316.9149373499694
 20
358.8077852662635
 30
0.0
  0
ENDBLK
  5
2B9
330
2B7
100
AcDbEntity
  8
0
100
AcDbBlockEnd
  0
BLOCK
  5
2EE
330
2ED
100
AcDbEntity
  8
0
100
AcDbBlockBegin
  2
_D_7
 70
     0
 10
0.0
 20
0.0
 30
0.0
  3
_D_7
  1

  0
LINE
  5
466
330
2ED
100
AcDbEntity
  8
标注层
 62
     0
440
 16777216
370
    -2
100
AcDbLine
 10
327.3193472177204
 20
708.5464033517112
 30
0.0
 11
294.2033748500734
 21
708.5464033517112
 31
0.0
  0
LINE
  5
467
330
2ED
100
AcDbEntity
  8
标注层
 62
     0
440
 16777216
370
    -2
100
AcDbLine
 10
327.3193472177204
 20
483.8583600443359
 30
0.0
 11
294.2033748500734
 21
483.8583600443359
 31
0.0
  0
LINE
  5
468
330
2ED
100
AcDbEntity
  8
标注层
 62
     0
440
 16777216
370
    -2
100
AcDbLine
 10
294.2033748500734
 20
699.1082197579612
 30
0.0
 11
294.2033748500734
 21
493.2965436380859
 31
0.0
  0
SOLID
  5
469
330
2ED
100
AcDbEntity
  8
标注层
 62
     0
440
 16777216
100
AcDbTrace
 10
292.6303442511151
 20
699.1082197579612
 30
0.0
 11
295.7764054490318
 21
699.1082197579612
 31
0.0
 12
294.2033748500734
 22
708.5464033517112
 32
0.0
 13
294.2033748500734
 23
708.5464033517112
 33
0.0
  0
SOLID
  5
46A
330
2ED
100
AcDbEntity
  8
标注层
 62
     0
440
 16777216
100
AcDbTrace
 10
292.6303442511151
 20
493.2965436380859
 30
0.0
 11
295.7764054490317
 21
493.2965436380859
 31
0.0
 12
294.2033748500734
 22
483.8583600443359
 32
0.0
 13
294.2033748500734
 23
483.8583600443359
 33
0.0
  0
MTEXT
  5
46B
330
2ED
100
AcDbEntity
  8
标注层
 62
     0
440
 16777216
100
AcDbMText
 10
282.4056453578858
 20
597.0459516429342
 30
0.0
 40
9.438183593749998
 41
0.0
 71
     2
 72
     1
  1
\A1;224.69 [8.85]
  7
SLDTEXTSTYLE0
 11
0.0000000000000001
 21
1.0
 31
0.0
 73
     1
 44
1.0
  0
POINT
  5
46C
330
2ED
100
AcDbEntity
  8
Defpoints
 62
     0
440
 16777216
100
AcDbPoint
 10
327.3818472177204
 20
708.5464033517112
 30
0.0
  0
POINT
  5
46D
330
2ED
100
AcDbEntity
  8
Defpoints
 62
     0
440
 16777216
100
AcDbPoint
 10
327.3818472177204
 20
483.8583600443359
 30
0.0
  0
POINT
  5
46E
330
2ED
100
AcDbEntity
  8
Defpoints
 62
     0
440
 16777216
100
AcDbPoint
 10
294.2033748500734
 20
483.8583600443359
 30
0.0
  0
ENDBLK
  5
2EF
330
2ED
100
AcDbEntity
  8
0
100
AcDbBlockEnd
  0
BLOCK
  5
2FF
330
2FE
100
AcDbEntity
  8
0
100
AcDbBlockBegin
  2
_D_8
 70
     0
 10
0.0
 20
0.0
 30
0.0
  3
_D_8
  1

  0
LINE
  5
45D
330
2FE
100
AcDbEntity
  8
标注层
 62
     0
440
 16777216
370
    -2
100
AcDbLine
 10
350.4443472177204
 20
702.9423816980234
 30
0.0
 11
354.2899732087827
 21
702.9423816980234
 31
0.0
  0
LINE
  5
45E
330
2FE
100
AcDbEntity
  8
标注层
 62
     0
440
 16777216
370
    -2
100
AcDbLine
 10
350.4443472177204
 20
489.4623816980239
 30
0.0
 11
354.2899732087827
 21
489.4623816980239
 31
0.0
  0
LINE
  5
45F
330
2FE
100
AcDbEntity
  8
标注层
 62
     0
440
 16777216
370
    -2
100
AcDbLine
 10
354.2899732087827
 20
693.5041981042734
 30
0.0
 11
354.2899732087827
 21
498.9005652917739
 31
0.0
  0
SOLID
  5
460
330
2FE
100
AcDbEntity
  8
标注层
 62
     0
440
 16777216
100
AcDbTrace
 10
352.7169426098244
 20
693.5041981042734
 30
0.0
 11
355.863003807741
 21
693.5041981042734
 31
0.0
 12
354.2899732087827
 22
702.9423816980234
 32
0.0
 13
354.2899732087827
 23
702.9423816980234
 33
0.0
  0
SOLID
  5
461
330
2FE
100
AcDbEntity
  8
标注层
 62
     0
440
 16777216
100
AcDbTrace
 10
352.7169426098244
 20
498.9005652917739
 30
0.0
 11
355.863003807741
 21
498.9005652917739
 31
0.0
 12
354.2899732087827
 22
489.4623816980239
 32
0.0
 13
354.2899732087827
 23
489.4623816980239
 33
0.0
  0
MTEXT
  5
462
330
2FE
100
AcDbEntity
  8
标注层
 62
     0
440
 16777216
100
AcDbMText
 10
356.6495191072202
 20
613.2457528172162
 30
0.0
 40
9.438183593749998
 41
0.0
 71
     2
 72
     1
  1
\A1;213.48 [8.40]
  7
SLDTEXTSTYLE0
 11
0.0000000000000001
 21
1.0
 31
0.0
 73
     1
 44
1.0
  0
POINT
  5
463
330
2FE
100
AcDbEntity
  8
Defpoints
 62
     0
440
 16777216
100
AcDbPoint
 10
350.3818472177203
 20
702.9423816980234
 30
0.0
  0
POINT
  5
464
330
2FE
100
AcDbEntity
  8
Defpoints
 62
     0
440
 16777216
100
AcDbPoint
 10
350.3818472177203
 20
489.4623816980239
 30
0.0
  0
POINT
  5
465
330
2FE
100
AcDbEntity
  8
Defpoints
 62
     0
440
 16777216
100
AcDbPoint
 10
354.2899732087827
 20
489.4623816980239
 30
0.0
  0
ENDBLK
  5
300
330
2FE
100
AcDbEntity
  8
0
100
AcDbBlockEnd
  0
ENDSEC
  0
SECTION
  2
ENTITIES
  0
LINE
  5
8B
330
1F
100
AcDbEntity
  8
细实线层
100
AcDbLine
 10
100.3087986422531
 20
792.3850091141103
 30
0.0
 11
1050.014798642253
 21
792.3850091141103
 31
0.0
  0
LINE
  5
8C
330
1F
100
AcDbEntity
  8
细实线层
100
AcDbLine
 10
68.55879864225314
 20
760.6350091141101
 30
0.0
 11
68.55879864225321
 21
87.28100911411031
 31
0.0
  0
LINE
  5
8D
330
1F
100
AcDbEntity
  8
细实线层
100
AcDbLine
 10
100.3087986422532
 20
55.53100911411029
 30
0.0
 11
1050.014798642253
 21
55.53100911411029
 31
0.0
  0
LINE
  5
8E
330
1F
100
AcDbEntity
  8
细实线层
100
AcDbLine
 10
1126.214798642252
 20
87.28100911411031
 30
0.0
 11
1126.214798642253
 21
760.6350091141102
 31
0.0
  0
LINE
  5
8F
330
1F
100
AcDbEntity
  8
细实线层
100
AcDbLine
 10
1057.888798642253
 20
792.3850091141103
 30
0.0
 11
1057.888798642253
 21
55.53100911411029
 31
0.0
  0
LINE
  5
90
330
1F
100
AcDbEntity
  8
细实线层
100
AcDbLine
 10
1050.014798642253
 20
792.3850091141103
 30
0.0
 11
1050.014798642253
 21
55.53100911411029
 31
0.0
  0
LINE
  5
92
330
1F
100
AcDbEntity
  8
细实线层
100
AcDbLine
 10
1057.888798642253
 20
792.3850091141103
 30
0.0
 11
1094.464798642252
 21
792.3850091141104
 31
0.0
  0
LINE
  5
93
330
1F
100
AcDbEntity
  8
细实线层
100
AcDbLine
 10
1057.888798642253
 20
425.3550091141102
 30
0.0
 11
1126.214798642252
 21
425.3550091141102
 31
0.0
  0
LINE
  5
A1
330
1F
100
AcDbEntity
  8
标注层
  6
Continuous
 62
     7
370
    18
100
AcDbLine
 10
1057.888798642253
 20
55.53100911411029
 30
0.0
 11
1094.464798642252
 21
55.53100911411036
 31
0.0
  0
LINE
  5
EB
330
1F
100
AcDbEntity
  8
SLD-0
100
AcDbLine
 10
1108.942798642253
 20
425.3550091141102
 30
0.0
 11
1108.942798642253
 21
522.1290091141103
 31
0.0
  0
LINE
  5
EC
330
1F
100
AcDbEntity
  8
SLD-0
100
AcDbLine
 10
1108.942798642253
 20
522.1290091141103
 30
0.0
 11
1126.214798642253
 21
522.1290091141103
 31
0.0
  0
LINE
  5
ED
330
1F
100
AcDbEntity
  8
SLD-0
100
AcDbLine
 10
1108.942798642253
 20
522.1290091141103
 30
0.0
 11
1091.670798642253
 21
522.1290091141103
 31
0.0
  0
LINE
  5
EE
330
1F
100
AcDbEntity
  8
SLD-0
100
AcDbLine
 10
1091.670798642253
 20
522.1290091141103
 30
0.0
 11
1091.670798642253
 21
425.3550091141102
 31
0.0
  0
LINE
  5
EF
330
1F
100
AcDbEntity
  8
SLD-0
100
AcDbLine
 10
1108.942798642253
 20
522.1290091141103
 30
0.0
 11
1108.942798642253
 21
618.9030091141103
 31
0.0
  0
LINE
  5
F0
330
1F
100
AcDbEntity
  8
SLD-0
100
AcDbLine
 10
1108.942798642253
 20
618.9030091141103
 30
0.0
 11
1126.214798642253
 21
618.9030091141103
 31
0.0
  0
LINE
  5
F1
330
1F
100
AcDbEntity
  8
TB
100
AcDbLine
 10
1108.942798642253
 20
618.9030091141103
 30
0.0
 11
1126.214798642253
 21
618.9030091141103
 31
0.0
  0
LINE
  5
F2
330
1F
100
AcDbEntity
  8
SLD-0
100
AcDbLine
 10
1091.670798642253
 20
522.1290091141103
 30
0.0
 11
1091.670798642253
 21
618.9030091141103
 31
0.0
  0
LINE
  5
F3
330
1F
100
AcDbEntity
  8
SLD-0
100
AcDbLine
 10
1091.670798642253
 20
618.9030091141103
 30
0.0
 11
1108.942798642253
 21
618.9030091141103
 31
0.0
  0
LINE
  5
F4
330
1F
100
AcDbEntity
  8
SLD-0
100
AcDbLine
 10
1091.670798642253
 20
618.9030091141103
 30
0.0
 11
1091.670798642253
 21
733.2030091141103
 31
0.0
  0
LINE
  5
F5
330
1F
100
AcDbEntity
  8
SLD-0
100
AcDbLine
 10
1091.670798642253
 20
733.2030091141103
 30
0.0
 11
1126.214798642253
 21
733.2030091141103
 31
0.0
  0
LINE
  5
F6
330
1F
100
AcDbEntity
  8
SLD-0
100
AcDbLine
 10
1091.670798642253
 20
733.2030091141103
 30
0.0
 11
1091.670798642253
 21
792.3850091141104
 31
0.0
  0
LINE
  5
F7
330
1F
100
AcDbEntity
  8
文字层
100
AcDbLine
 10
1075.644846272918
 20
86.32571751306008
 30
0.0
 11
1075.679694521636
 21
86.32571751306018
 31
0.0
  0
LINE
  5
F8
330
1F
100
AcDbEntity
  8
文字层
100
AcDbLine
 10
1075.714894025911
 20
96.58156635431774
 30
0.0
 11
1075.679694521636
 21
96.58156635431788
 31
0.0
  0
LINE
  5
F9
330
1F
100
AcDbEntity
  8
文字层
100
AcDbLine
 10
1075.661817462479
 20
97.86357519017697
 30
0.0
 11
1075.579142996555
 21
97.84985773630488
 31
0.0
  0
LINE
  5
FA
330
1F
100
AcDbEntity
  8
文字层
100
AcDbLine
 10
1075.679694521636
 20
85.05707487551532
 30
0.0
 11
1075.714894025911
 21
85.05707487551539
 31
0.0
  0
LINE
  5
FB
330
1F
100
AcDbEntity
  8
文字层
100
AcDbLine
 10
1078.646491394849
 20
80.75709677787473
 30
0.0
 11
1078.611273403439
 21
80.75709677787504
 31
0.0
  0
LINE
  5
FC
330
1F
100
AcDbEntity
  8
文字层
100
AcDbLine
 10
1072.537417766814
 20
73.06238161533794
 30
0.0
 11
1072.502033391193
 21
73.06238161533777
 31
0.0
  0
LINE
  5
FD
330
1F
100
AcDbEntity
  8
文字层
100
AcDbLine
 10
1071.690152388171
 20
79.5430651359341
 30
0.0
 11
1071.793606393384
 21
79.6643037646302
 31
0.0
  0
LINE
  5
FE
330
1F
100
AcDbEntity
  8
文字层
100
AcDbLine
 10
1071.793606393384
 20
79.6643037646302
 30
0.0
 11
1070.828078814714
 21
80.44910111546609
 31
0.0
  0
LINE
  5
FF
330
1F
100
AcDbEntity
  8
文字层
100
AcDbLine
 10
1070.828078814714
 20
80.44910111546609
 30
0.0
 11
1070.730060027075
 21
80.32597679904055
 31
0.0
  0
LINE
  5
100
330
1F
100
AcDbEntity
  8
文字层
100
AcDbLine
 10
1072.589958203342
 20
71.82912335341473
 30
0.0
 11
1072.624991323407
 21
71.82912335341473
 31
0.0
  0
LINE
  5
101
330
1F
100
AcDbEntity
  8
文字层
100
AcDbLine
 10
1078.699383086936
 20
79.52393095162418
 30
0.0
 11
1078.734231335653
 21
79.52393095162404
 31
0.0
  0
LINE
  5
102
330
1F
100
AcDbEntity
  8
文字层
100
AcDbLine
 10
1079.233587328289
 20
72.19605600092322
 30
0.0
 11
1079.126898074523
 21
72.0790694131848
 31
0.0
  0
LINE
  5
103
330
1F
100
AcDbEntity
  8
文字层
100
AcDbLine
 10
1079.126898074523
 20
72.0790694131848
 30
0.0
 11
1080.047280070502
 21
71.26900014935294
 31
0.0
  0
LINE
  5
104
330
1F
100
AcDbEntity
  8
文字层
100
AcDbLine
 10
1080.047280070502
 20
71.26900014935294
 30
0.0
 11
1080.150013077465
 21
71.38526573884206
 31
0.0
  0
LINE
  5
105
330
1F
100
AcDbEntity
  8
文字层
100
AcDbLine
 10
1081.979758737205
 20
113.4362684805246
 30
0.0
 11
1069.379815177411
 21
113.4362684805247
 31
0.0
  0
LINE
  5
106
330
1F
100
AcDbEntity
  8
文字层
100
AcDbLine
 10
1069.379815177411
 20
113.4362684805247
 30
0.0
 11
1069.379815177411
 21
112.2385794655686
 31
0.0
  0
LINE
  5
107
330
1F
100
AcDbEntity
  8
文字层
100
AcDbLine
 10
1069.379815177411
 20
112.2385794655686
 30
0.0
 11
1079.783339249843
 21
112.2385794655684
 31
0.0
  0
LINE
  5
108
330
1F
100
AcDbEntity
  8
文字层
100
AcDbLine
 10
1079.783339249843
 20
112.2385794655684
 30
0.0
 11
1069.379815177412
 21
103.9052816997346
 31
0.0
  0
LINE
  5
109
330
1F
100
AcDbEntity
  8
文字层
100
AcDbLine
 10
1069.379815177412
 20
103.9052816997346
 30
0.0
 11
1069.379815177413
 21
102.8061660864569
 31
0.0
  0
LINE
  5
10A
330
1F
100
AcDbEntity
  8
文字层
100
AcDbLine
 10
1069.379815177413
 20
102.8061660864569
 30
0.0
 11
1081.979758737205
 21
102.8061660864566
 31
0.0
  0
LINE
  5
10B
330
1F
100
AcDbEntity
  8
文字层
100
AcDbLine
 10
1081.979758737205
 20
102.8061660864566
 30
0.0
 11
1081.979758737206
 21
104.004039972759
 31
0.0
  0
LINE
  5
10C
330
1F
100
AcDbEntity
  8
文字层
100
AcDbLine
 10
1081.979758737206
 20
104.004039972759
 30
0.0
 11
1071.348029475293
 21
104.0040399727593
 31
0.0
  0
LINE
  5
10D
330
1F
100
AcDbEntity
  8
文字层
100
AcDbLine
 10
1071.348029475293
 20
104.0040399727593
 30
0.0
 11
1081.979758737206
 21
112.5146293593916
 31
0.0
  0
LINE
  5
10E
330
1F
100
AcDbEntity
  8
文字层
100
AcDbLine
 10
1081.979758737206
 20
112.5146293593916
 30
0.0
 11
1081.979758737205
 21
113.4362684805246
 31
0.0
  0
LINE
  5
10F
330
1F
100
AcDbEntity
  8
文字层
100
AcDbLine
 10
1075.654052865949
 20
127.7703052656463
 30
0.0
 11
1069.292075236608
 21
124.7991824029375
 31
0.0
  0
LINE
  5
110
330
1F
100
AcDbEntity
  8
文字层
100
AcDbLine
 10
1069.292075236608
 20
124.7991824029375
 30
0.0
 11
1069.292075236608
 21
123.7146901131269
 31
0.0
  0
LINE
  5
111
330
1F
100
AcDbEntity
  8
文字层
100
AcDbLine
 10
1069.292075236608
 20
123.7146901131269
 30
0.0
 11
1075.654052865948
 21
120.7431975077261
 31
0.0
  0
LINE
  5
112
330
1F
100
AcDbEntity
  8
文字层
100
AcDbLine
 10
1075.654052865948
 20
120.7431975077261
 30
0.0
 11
1075.654052865948
 21
122.0087712809269
 31
0.0
  0
LINE
  5
113
330
1F
100
AcDbEntity
  8
文字层
100
AcDbLine
 10
1075.654052865948
 20
122.0087712809269
 30
0.0
 11
1070.820332705317
 21
124.2387818918565
 31
0.0
  0
LINE
  5
114
330
1F
100
AcDbEntity
  8
文字层
100
AcDbLine
 10
1070.820332705317
 20
124.2387818918565
 30
0.0
 11
1075.654052865948
 21
126.4565170454124
 31
0.0
  0
LINE
  5
115
330
1F
100
AcDbEntity
  8
文字层
100
AcDbLine
 10
1075.654052865948
 20
126.4565170454124
 30
0.0
 11
1075.654052865949
 21
127.7703052656463
 31
0.0
  0
LINE
  5
116
330
1F
100
AcDbEntity
  8
文字层
100
AcDbLine
 10
1081.979758737206
 20
130.724456938794
 30
0.0
 11
1077.402566056262
 21
128.5868820008563
 31
0.0
  0
LINE
  5
117
330
1F
100
AcDbEntity
  8
文字层
100
AcDbLine
 10
1077.402566056262
 20
128.5868820008563
 30
0.0
 11
1077.402566056262
 21
119.9268056438616
 31
0.0
  0
LINE
  5
118
330
1F
100
AcDbEntity
  8
文字层
100
AcDbLine
 10
1077.402566056262
 20
119.9268056438616
 30
0.0
 11
1081.979758737206
 21
117.7892307059237
 31
0.0
  0
LINE
  5
119
330
1F
100
AcDbEntity
  8
文字层
100
AcDbLine
 10
1081.979758737206
 20
117.7892307059237
 30
0.0
 11
1081.979758737206
 21
119.0907434687842
 31
0.0
  0
LINE
  5
11A
330
1F
100
AcDbEntity
  8
文字层
100
AcDbLine
 10
1081.979758737206
 20
119.0907434687842
 30
0.0
 11
1078.539062655698
 21
120.6688237652365
 31
0.0
  0
LINE
  5
11B
330
1F
100
AcDbEntity
  8
文字层
100
AcDbLine
 10
1078.539062655698
 20
120.6688237652365
 30
0.0
 11
1078.539062655698
 21
127.7917873160493
 31
0.0
  0
LINE
  5
11C
330
1F
100
AcDbEntity
  8
文字层
100
AcDbLine
 10
1078.539062655698
 20
127.7917873160493
 30
0.0
 11
1081.979758737206
 21
129.3695163569445
 31
0.0
  0
LINE
  5
11D
330
1F
100
AcDbEntity
  8
文字层
100
AcDbLine
 10
1081.979758737206
 20
129.3695163569445
 30
0.0
 11
1081.979758737206
 21
130.724456938794
 31
0.0
  0
LINE
  5
11E
330
1F
100
AcDbEntity
  8
文字层
100
AcDbLine
 10
1081.979758737207
 20
145.7073366869151
 30
0.0
 11
1069.379815177413
 21
145.7073366869152
 31
0.0
  0
LINE
  5
11F
330
1F
100
AcDbEntity
  8
文字层
100
AcDbLine
 10
1069.379815177413
 20
145.7073366869152
 30
0.0
 11
1069.379815177413
 21
144.509832543305
 31
0.0
  0
LINE
  5
120
330
1F
100
AcDbEntity
  8
文字层
100
AcDbLine
 10
1069.379815177413
 20
144.509832543305
 30
0.0
 11
1079.783339249843
 21
144.509832543305
 31
0.0
  0
LINE
  5
121
330
1F
100
AcDbEntity
  8
文字层
100
AcDbLine
 10
1079.783339249843
 20
144.509832543305
 30
0.0
 11
1069.379815177413
 21
136.1765347774711
 31
0.0
  0
LINE
  5
122
330
1F
100
AcDbEntity
  8
文字层
100
AcDbLine
 10
1069.379815177413
 20
136.1765347774711
 30
0.0
 11
1069.379815177413
 21
135.0774191641937
 31
0.0
  0
LINE
  5
123
330
1F
100
AcDbEntity
  8
文字层
100
AcDbLine
 10
1069.379815177413
 20
135.0774191641937
 30
0.0
 11
1081.979758737206
 21
135.0774191641934
 31
0.0
  0
LINE
  5
124
330
1F
100
AcDbEntity
  8
文字层
100
AcDbLine
 10
1081.979758737206
 20
135.0774191641934
 30
0.0
 11
1081.979758737206
 21
136.2751081791494
 31
0.0
  0
LINE
  5
125
330
1F
100
AcDbEntity
  8
文字层
100
AcDbLine
 10
1081.979758737206
 20
136.2751081791494
 30
0.0
 11
1071.348029475294
 21
136.2751081791498
 31
0.0
  0
LINE
  5
126
330
1F
100
AcDbEntity
  8
文字层
100
AcDbLine
 10
1071.348029475294
 20
136.2751081791498
 30
0.0
 11
1081.979758737206
 21
144.7858639499937
 31
0.0
  0
LINE
  5
127
330
1F
100
AcDbEntity
  8
文字层
100
AcDbLine
 10
1081.979758737206
 20
144.7858639499937
 30
0.0
 11
1081.979758737207
 21
145.7073366869151
 31
0.0
  0
LINE
  5
128
330
1F
100
AcDbEntity
  8
文字层
100
AcDbLine
 10
1080.004315969698
 20
162.026743830826
 30
0.0
 11
1079.892025114147
 21
162.1415674238166
 31
0.0
  0
LINE
  5
129
330
1F
100
AcDbEntity
  8
文字层
100
AcDbLine
 10
1079.892025114147
 20
162.1415674238166
 30
0.0
 11
1079.079589497085
 21
161.2968347826129
 31
0.0
  0
LINE
  5
12A
330
1F
100
AcDbEntity
  8
文字层
100
AcDbLine
 10
1079.079589497085
 20
161.2968347826129
 30
0.0
 11
1079.184670370144
 21
161.1888699165582
 31
0.0
  0
LINE
  5
12B
330
1F
100
AcDbEntity
  8
文字层
100
AcDbLine
 10
1075.679694521637
 20
151.9321212904007
 30
0.0
 11
1075.644846272918
 21
151.9321212904005
 31
0.0
  0
LINE
  5
12C
330
1F
100
AcDbEntity
  8
文字层
100
AcDbLine
 10
1072.070728541014
 20
161.0834377879441
 30
0.0
 11
1072.176881667878
 21
161.1944715183414
 31
0.0
  0
LINE
  5
12D
330
1F
100
AcDbEntity
  8
文字层
100
AcDbLine
 10
1072.176881667878
 20
161.1944715183414
 30
0.0
 11
1071.284674065026
 21
162.0717045421691
 31
0.0
  0
LINE
  5
12E
330
1F
100
AcDbEntity
  8
文字层
100
AcDbLine
 10
1071.284674065026
 20
162.0717045421691
 30
0.0
 11
1071.175803329376
 21
161.9518154742989
 31
0.0
  0
LINE
  5
12F
330
1F
100
AcDbEntity
  8
文字层
100
AcDbLine
 10
1075.679694521637
 20
150.6632937815101
 30
0.0
 11
1075.714894025912
 21
150.6632937815099
 31
0.0
  0
LINE
  5
130
330
1F
100
AcDbEntity
  8
文字层
100
AcDbLine
 10
1081.979758737207
 20
175.6559586093845
 30
0.0
 11
1080.825773308441
 21
175.6559586093846
 31
0.0
  0
LINE
  5
131
330
1F
100
AcDbEntity
  8
文字层
100
AcDbLine
 10
1080.825773308441
 20
175.6559586093846
 30
0.0
 11
1080.825773308441
 21
167.6599031528938
 31
0.0
  0
LINE
  5
132
330
1F
100
AcDbEntity
  8
文字层
100
AcDbLine
 10
1080.825773308441
 20
167.6599031528938
 30
0.0
 11
1076.204156043058
 21
167.659903152894
 31
0.0
  0
LINE
  5
133
330
1F
100
AcDbEntity
  8
文字层
100
AcDbLine
 10
1076.204156043058
 20
167.659903152894
 30
0.0
 11
1076.204156043058
 21
174.7696853767381
 31
0.0
  0
LINE
  5
134
330
1F
100
AcDbEntity
  8
文字层
100
AcDbLine
 10
1076.204156043058
 20
174.7696853767381
 30
0.0
 11
1075.050336998504
 21
174.7696853767382
 31
0.0
  0
LINE
  5
135
330
1F
100
AcDbEntity
  8
文字层
100
AcDbLine
 10
1075.050336998504
 20
174.7696853767382
 30
0.0
 11
1075.050336998504
 21
167.659903152894
 31
0.0
  0
LINE
  5
136
330
1F
100
AcDbEntity
  8
文字层
100
AcDbLine
 10
1075.050336998504
 20
167.659903152894
 30
0.0
 11
1070.533819093312
 21
167.659903152894
 31
0.0
  0
LINE
  5
137
330
1F
100
AcDbEntity
  8
文字层
100
AcDbLine
 10
1070.533819093312
 20
167.659903152894
 30
0.0
 11
1070.533819093312
 21
175.5674976703316
 31
0.0
  0
LINE
  5
138
330
1F
100
AcDbEntity
  8
文字层
100
AcDbLine
 10
1070.533819093312
 20
175.5674976703316
 30
0.0
 11
1069.379815177413
 21
175.5674976703315
 31
0.0
  0
LINE
  5
139
330
1F
100
AcDbEntity
  8
文字层
100
AcDbLine
 10
1069.379815177413
 20
175.5674976703315
 30
0.0
 11
1069.379815177413
 21
166.4266448909706
 31
0.0
  0
LINE
  5
13A
330
1F
100
AcDbEntity
  8
文字层
100
AcDbLine
 10
1069.379815177413
 20
166.4266448909706
 30
0.0
 11
1081.979758737206
 21
166.4266448909703
 31
0.0
  0
LINE
  5
13B
330
1F
100
AcDbEntity
  8
文字层
100
AcDbLine
 10
1081.979758737206
 20
166.4266448909703
 30
0.0
 11
1081.979758737207
 21
175.6559586093845
 31
0.0
  0
ARC
  5
13C
330
1F
100
AcDbEntity
  8
细实线层
100
AcDbCircle
 10
100.3087986422531
 20
760.6350091141101
 30
0.0
 40
31.75000000000011
100
AcDbArc
 50
90.0
 51
180.0
  0
ARC
  5
13D
330
1F
100
AcDbEntity
  8
标注层
  6
Continuous
 62
     7
370
    18
100
AcDbCircle
 10
1094.464798642252
 20
87.2810091141104
 30
0.0
 40
31.75000000000005
100
AcDbArc
 50
270.0000000000008
 51
0.0000000000006107
  0
ARC
  5
13E
330
1F
100
AcDbEntity
  8
细实线层
100
AcDbCircle
 10
1094.464798642252
 20
760.6350091141102
 30
0.0
 40
31.75000000000023
100
AcDbArc
 50
0.0
 51
90.0
  0
ARC
  5
13F
330
1F
100
AcDbEntity
  8
细实线层
100
AcDbCircle
 10
100.3087986422532
 20
87.28100911411031
 30
0.0
 40
31.75000000000002
100
AcDbArc
 50
180.0
 51
270.0000000000008
  0
ARC
  5
146
330
1F
100
AcDbEntity
  8
文字层
100
AcDbCircle
 10
1075.663206493679
 20
97.70843539409963
 30
0.0
 40
0.1551460142401634
100
AcDbArc
 50
65.71953212221185
 51
90.51297926683991
  0
SPLINE
  5
147
330
1F
100
AcDbEntity
  8
文字层
100
AcDbSpline
210
0.0
220
0.0
230
1.0
 70
     8
 71
     3
 72
     8
 73
     4
 74
     0
 42
0.000000001
 43
0.0000000001
 40
5.0
 40
5.0
 40
5.0
 40
5.0
 40
6.0
 40
6.0
 40
6.0
 40
6.0
 10
1075.679694521636
 20
96.58156635431788
 30
0.0
 10
1072.666143685023
 20
96.58156635431788
 30
0.0
 10
1070.305429032482
 20
94.32140322685857
 30
0.0
 10
1070.305429032482
 20
91.43585731020507
 30
0.0
  0
SPLINE
  5
148
330
1F
100
AcDbEntity
  8
文字层
100
AcDbSpline
210
0.0
220
0.0
230
1.0
 70
     8
 71
     3
 72
     8
 73
     4
 74
     0
 42
0.000000001
 43
0.0000000001
 40
0.0
 40
0.0
 40
0.0
 40
0.0
 40
1.0
 40
1.0
 40
1.0
 40
1.0
 10
1070.305429032482
 20
91.43585731020507
 30
0.0
 10
1070.305429032482
 20
88.52250674311605
 30
0.0
 10
1072.600791664219
 20
86.3257175130599
 30
0.0
 10
1075.644846272918
 20
86.32571751306008
 30
0.0
  0
SPLINE
  5
149
330
1F
100
AcDbEntity
  8
文字层
100
AcDbSpline
210
0.0
220
0.0
230
1.0
 70
     8
 71
     3
 72
    11
 73
     7
 74
     0
 42
0.000000001
 43
0.0000000001
 40
2.0
 40
2.0
 40
2.0
 40
2.0
 40
3.0
 40
3.0
 40
3.0
 40
4.0
 40
4.0
 40
4.0
 40
4.0
 10
1075.679694521636
 20
86.32571751306018
 30
0.0
 10
1078.693245358248
 20
86.32571751306011
 30
0.0
 10
1081.054144882133
 20
88.58569576917304
 30
0.0
 10
1081.054144882133
 20
91.47124168582633
 30
0.0
 10
1081.054144882133
 20
94.38459225291579
 30
0.0
 10
1078.7587822504
 20
96.58156635431781
 30
0.0
 10
1075.714894025911
 20
96.58156635431774
 30
0.0
  0
SPLINE
  5
14A
330
1F
100
AcDbEntity
  8
文字层
100
AcDbSpline
210
0.0
220
0.0
230
1.0
 70
     8
 71
     3
 72
     8
 73
     4
 74
     0
 42
0.000000001
 43
0.0000000001
 40
21.0
 40
21.0
 40
21.0
 40
21.0
 40
22.0
 40
22.0
 40
22.0
 40
22.0
 10
1082.155257105948
 20
76.48817706635956
 30
0.0
 10
1082.155257105948
 20
79.00172486062391
 30
0.0
 10
1080.712391711949
 20
80.75709677787504
 30
0.0
 10
1078.646491394849
 20
80.75709677787489
 30
0.0
  0
SPLINE
  5
14B
330
1F
100
AcDbEntity
  8
文字层
100
AcDbSpline
210
0.0
220
0.0
230
1.0
 70
     8
 71
     3
 72
     8
 73
     4
 74
     0
 42
0.000000001
 43
0.0000000001
 40
19.0
 40
19.0
 40
19.0
 40
19.0
 40
20.0
 40
20.0
 40
20.0
 40
20.0
 10
1078.611273403439
 20
80.75709677787489
 30
0.0
 10
1076.723570576732
 20
80.75709677787497
 30
0.0
 10
1075.665071198169
 20
79.50028590647327
 30
0.0
 10
1075.070913179311
 20
76.55461982810585
 30
0.0
  0
SPLINE
  5
14C
330
1F
100
AcDbEntity
  8
文字层
100
AcDbSpline
210
0.0
220
0.0
230
1.0
 70
     8
 71
     3
 72
     8
 73
     4
 74
     0
 42
0.000000001
 43
0.0000000001
 40
18.0
 40
18.0
 40
18.0
 40
18.0
 40
19.0
 40
19.0
 40
19.0
 40
19.0
 10
1075.070913179311
 20
76.55461982810585
 30
0.0
 10
1074.4754980353
 20
73.61888134101798
 30
0.0
 10
1073.721038072341
 20
73.06238161533774
 30
0.0
 10
1072.537417766814
 20
73.06238161533777
 30
0.0
  0
SPLINE
  5
14D
330
1F
100
AcDbEntity
  8
文字层
100
AcDbSpline
210
0.0
220
0.0
230
1.0
 70
     8
 71
     3
 72
    11
 73
     7
 74
     0
 42
0.000000001
 43
0.0000000001
 40
15.0
 40
15.0
 40
15.0
 40
15.0
 40
16.0
 40
16.0
 40
16.0
 40
17.0
 40
17.0
 40
17.0
 40
17.0
 10
1072.502033391193
 20
73.06238161533777
 30
0.0
 10
1071.249825816307
 20
73.06238161533784
 30
0.0
 10
1070.340628536759
 20
74.27197634497524
 30
0.0
 10
1070.340628536759
 20
75.93862850328808
 30
0.0
 10
1070.340628536759
 20
77.33997179297969
 30
0.0
 10
1070.756958807914
 20
78.4515292478418
 30
0.0
 10
1071.690152388171
 20
79.5430651359341
 30
0.0
  0
SPLINE
  5
14E
330
1F
100
AcDbEntity
  8
文字层
100
AcDbSpline
210
0.0
220
0.0
230
1.0
 70
     8
 71
     3
 72
    11
 73
     7
 74
     0
 42
0.000000001
 43
0.0000000001
 40
10.0
 40
10.0
 40
10.0
 40
10.0
 40
11.0
 40
11.0
 40
11.0
 40
12.0
 40
12.0
 40
12.0
 40
12.0
 10
1070.730060027075
 20
80.32597679904055
 30
0.0
 10
1069.646455119723
 20
78.96255062241031
 30
0.0
 10
1069.204150424458
 20
77.70176501707037
 30
0.0
 10
1069.204150424458
 20
75.97410531458267
 30
0.0
 10
1069.204150424458
 20
73.61111674448712
 30
0.0
 10
1070.659827402734
 20
71.82912335341469
 30
0.0
 10
1072.589958203342
 20
71.82912335341473
 30
0.0
  0
SPLINE
  5
14F
330
1F
100
AcDbEntity
  8
文字层
100
AcDbSpline
210
0.0
220
0.0
230
1.0
 70
     8
 71
     3
 72
     8
 73
     4
 74
     0
 42
0.000000001
 43
0.0000000001
 40
8.0
 40
8.0
 40
8.0
 40
8.0
 40
9.0
 40
9.0
 40
9.0
 40
9.0
 10
1072.624991323407
 20
71.82912335341473
 30
0.0
 10
1074.576789045765
 20
71.82912335341462
 30
0.0
 10
1075.622643224265
 20
73.07772593705429
 30
0.0
 10
1076.235935427431
 20
76.13884417098887
 30
0.0
  0
SPLINE
  5
150
330
1F
100
AcDbEntity
  8
文字层
100
AcDbSpline
210
0.0
220
0.0
230
1.0
 70
     8
 71
     3
 72
     8
 73
     4
 74
     0
 42
0.000000001
 43
0.0000000001
 40
7.0
 40
7.0
 40
7.0
 40
7.0
 40
8.0
 40
8.0
 40
8.0
 40
8.0
 10
1076.235935427431
 20
76.13884417098887
 30
0.0
 10
1076.80336104966
 20
78.98449485117855
 30
0.0
 10
1077.539241442348
 20
79.52393095162404
 30
0.0
 10
1078.699383086936
 20
79.52393095162418
 30
0.0
  0
SPLINE
  5
151
330
1F
100
AcDbEntity
  8
文字层
100
AcDbSpline
210
0.0
220
0.0
230
1.0
 70
     8
 71
     3
 72
    11
 73
     7
 74
     0
 42
0.000000001
 43
0.0000000001
 40
4.0
 40
4.0
 40
4.0
 40
4.0
 40
5.0
 40
5.0
 40
5.0
 40
6.0
 40
6.0
 40
6.0
 40
6.0
 10
1078.734231335653
 20
79.52393095162404
 30
0.0
 10
1080.079244326222
 20
79.52393095162404
 30
0.0
 10
1081.018945377859
 20
78.29753141663747
 30
0.0
 10
1081.018945377859
 20
76.54143850113742
 30
0.0
 10
1081.018945377859
 20
74.82126608816185
 30
0.0
 10
1080.518313772935
 20
73.60300089239837
 30
0.0
 10
1079.233587328289
 20
72.19605600092322
 30
0.0
  0
SPLINE
  5
152
330
1F
100
AcDbEntity
  8
文字层
100
AcDbSpline
210
0.0
220
0.0
230
1.0
 70
     8
 71
     3
 72
     8
 73
     4
 74
     0
 42
0.000000001
 43
0.0000000001
 40
0.0
 40
0.0
 40
0.0
 40
0.0
 40
1.0
 40
1.0
 40
1.0
 40
1.0
 10
1080.150013077465
 20
71.38526573884213
 30
0.0
 10
1081.536548172344
 20
72.95388062238011
 30
0.0
 10
1082.155257105948
 20
74.52789374922075
 30
0.0
 10
1082.155257105948
 20
76.48817706635965
 30
0.0
  0
SPLINE
  5
153
330
1F
100
AcDbEntity
  8
文字层
100
AcDbSpline
210
0.0
220
0.0
230
1.0
 70
     8
 71
     3
 72
     8
 73
     4
 74
     0
 42
0.000000001
 43
0.0000000001
 40
6.0
 40
6.0
 40
6.0
 40
6.0
 40
7.0
 40
7.0
 40
7.0
 40
7.0
 10
1082.190271738878
 20
91.43585731020506
 30
0.0
 10
1082.190271738878
 20
95.43100104545315
 30
0.0
 10
1078.912595210257
 20
97.82637907536473
 30
0.0
 10
1075.727003099073
 20
97.84985773630488
 30
0.0
  0
SPLINE
  5
154
330
1F
100
AcDbEntity
  8
文字层
100
AcDbSpline
210
0.0
220
0.0
230
1.0
 70
     8
 71
     3
 72
    11
 73
     7
 74
     0
 42
0.000000001
 43
0.0000000001
 40
2.0
 40
2.0
 40
2.0
 40
2.0
 40
3.0
 40
3.0
 40
3.0
 40
4.0
 40
4.0
 40
4.0
 40
4.0
 10
1075.579142996555
 20
97.84985773630488
 30
0.0
 10
1071.919984445499
 20
97.81770860923838
 30
0.0
 10
1069.169117304394
 20
95.08634539513577
 30
0.0
 10
1069.169117304394
 20
91.47124168582648
 30
0.0
 10
1069.169117304394
 20
87.45642763936613
 30
0.0
 10
1072.479479086983
 20
85.05707487551523
 30
0.0
 10
1075.679694521636
 20
85.05707487551532
 30
0.0
  0
SPLINE
  5
155
330
1F
100
AcDbEntity
  8
文字层
100
AcDbSpline
210
0.0
220
0.0
230
1.0
 70
     8
 71
     3
 72
     8
 73
     4
 74
     0
 42
0.000000001
 43
0.0000000001
 40
0.0
 40
0.0
 40
0.0
 40
0.0
 40
1.0
 40
1.0
 40
1.0
 40
1.0
 10
1075.714894025911
 20
85.05707487551536
 30
0.0
 10
1079.406552959592
 20
85.05707487551509
 30
0.0
 10
1082.190271738878
 20
87.79927155049298
 30
0.0
 10
1082.190271738878
 20
91.43585731020506
 30
0.0
  0
SPLINE
  5
156
330
1F
100
AcDbEntity
  8
文字层
100
AcDbSpline
210
0.0
220
0.0
230
1.0
 70
     8
 71
     3
 72
     8
 73
     4
 74
     0
 42
0.000000001
 43
0.0000000001
 40
15.0
 40
15.0
 40
15.0
 40
15.0
 40
16.0
 40
16.0
 40
16.0
 40
16.0
 10
1082.190271738878
 20
156.988999652768
 30
0.0
 10
1082.190271738878
 20
159.4560523035175
 30
0.0
 10
1081.08520326826
 20
160.919863621017
 30
0.0
 10
1080.004315969698
 20
162.026743830826
 30
0.0
  0
SPLINE
  5
157
330
1F
100
AcDbEntity
  8
文字层
100
AcDbSpline
210
0.0
220
0.0
230
1.0
 70
     8
 71
     3
 72
    11
 73
     7
 74
     0
 42
0.000000001
 43
0.0000000001
 40
10.0
 40
10.0
 40
10.0
 40
10.0
 40
11.0
 40
11.0
 40
11.0
 40
12.0
 40
12.0
 40
12.0
 40
12.0
 10
1079.184670370144
 20
161.1888699165582
 30
0.0
 10
1080.512527299806
 20
159.8286974756172
 30
0.0
 10
1081.054144882135
 20
158.6223379945347
 30
0.0
 10
1081.054144882135
 20
157.0243840283892
 30
0.0
 10
1081.054144882135
 20
154.1688057569199
 30
0.0
 10
1078.693245358249
 20
151.9321212904007
 30
0.0
 10
1075.679694521637
 20
151.9321212904007
 30
0.0
  0
SPLINE
  5
158
330
1F
100
AcDbEntity
  8
文字层
100
AcDbSpline
210
0.0
220
0.0
230
1.0
 70
     8
 71
     3
 72
    11
 73
     7
 74
     0
 42
0.000000001
 43
0.0000000001
 40
7.0
 40
7.0
 40
7.0
 40
7.0
 40
8.0
 40
8.0
 40
8.0
 40
9.0
 40
9.0
 40
9.0
 40
9.0
 10
1075.644846272918
 20
151.9321212904005
 30
0.0
 10
1072.600976535565
 20
151.9321212904008
 30
0.0
 10
1070.30561390383
 20
154.1135661987398
 30
0.0
 10
1070.30561390383
 20
157.0068767119245
 30
0.0
 10
1070.30561390383
 20
158.974739754249
 30
0.0
 10
1071.197655122471
 20
160.1720775136478
 30
0.0
 10
1072.070728541014
 20
161.0834377879441
 30
0.0
  0
SPLINE
  5
159
330
1F
100
AcDbEntity
  8
文字层
100
AcDbSpline
210
0.0
220
0.0
230
1.0
 70
     8
 71
     3
 72
    11
 73
     7
 74
     0
 42
0.000000001
 43
0.0000000001
 40
2.0
 40
2.0
 40
2.0
 40
2.0
 40
3.0
 40
3.0
 40
3.0
 40
4.0
 40
4.0
 40
4.0
 40
4.0
 10
1071.175803329376
 20
161.9518154742989
 30
0.0
 10
1069.971255587484
 20
160.6246795428849
 30
0.0
 10
1069.168932433049
 20
159.2791304254112
 30
0.0
 10
1069.168932433049
 20
157.0243840283894
 30
0.0
 10
1069.168932433049
 20
153.4574947661132
 30
0.0
 10
1072.028855181149
 20
150.6632937815099
 30
0.0
 10
1075.679694521637
 20
150.6632937815101
 30
0.0
  0
SPLINE
  5
15A
330
1F
100
AcDbEntity
  8
文字层
100
AcDbSpline
210
0.0
220
0.0
230
1.0
 70
     8
 71
     3
 72
     8
 73
     4
 74
     0
 42
0.000000001
 43
0.0000000001
 40
0.0
 40
0.0
 40
0.0
 40
0.0
 40
1.0
 40
1.0
 40
1.0
 40
1.0
 10
1075.714894025912
 20
150.6632937815101
 30
0.0
 10
1079.406368088245
 20
150.6632937815101
 30
0.0
 10
1082.190271738878
 20
153.382751280931
 30
0.0
 10
1082.190271738878
 20
156.9889996527681
 30
0.0
  0
MTEXT
  5
15C
330
1F
100
AcDbEntity
  8
标注层
100
AcDbMText
 10
251.6602133155901
 20
335.0698095521252
 30
0.0
 40
12.7
 41
0.0
 71
     1
 72
     1
  1
ISOMETRIC
  7
SLDTEXTSTYLE0
 73
     1
 44
1.0
  0
MTEXT
  5
15D
330
1F
100
AcDbEntity
  8
标注层
100
AcDbMText
 10
152.7048024099522
 20
756.7155617523207
 30
0.0
 40
12.7
 41
0.0
 71
     1
 72
     1
  1
C-Ring
  7
SLDTEXTSTYLE0
 73
     1
 44
1.0
  0
MTEXT
  5
15E
330
1F
100
AcDbEntity
  8
标注层
100
AcDbMText
 10
467.0046704988899
 20
245.6716141833366
 30
0.0
 40
12.7
 41
0.0
 71
     1
 72
     1
  1
GRILLE
  7
SLDTEXTSTYLE0
 73
     1
 44
1.0
  0
MTEXT
  5
15F
330
1F
100
AcDbEntity
  8
标注层
100
AcDbMText
 10
751.6844325675645
 20
316.085417155833
 30
0.0
 40
12.7
 41
0.0
 71
     1
 72
     1
  1
ISOMETRIC
  7
SLDTEXTSTYLE0
 73
     1
 44
1.0
  0
MTEXT
  5
160
330
1F
100
AcDbEntity
  8
标注层
100
AcDbMText
 10
635.2896246642566
 20
756.7155617523208
 30
0.0
 40
12.7
 41
0.0
 71
     1
 72
     1
  1
TILESUPPORT
  7
SLDTEXTSTYLE0
 73
     1
 44
1.0
  0
MTEXT
  5
17C
330
1F
100
AcDbEntity
  8
文字层
100
AcDbMText
 10
1097.594325409723
 20
428.9620798176736
 30
0.0
 40
5.820833333333331
 41
0.0
 71
     1
 72
     1
  1
SCALE: 1 : 1
  7
SLDTEXTSTYLE3
 11
-0.0000000000000035
 21
1.0
 31
0.0
 73
     1
 44
1.0
  0
MTEXT
  5
17E
330
1F
100
AcDbEntity
  8
文字层
100
AcDbMText
 10
1115.249726606354
 20
427.8689747277072
 30
0.0
 40
5.820833333333331
 41
0.0
 71
     1
 72
     1
  1
SHEET:    OF
  7
SLDTEXTSTYLE4
 11
-0.0000000000000035
 21
1.0
 31
0.0
 73
     1
 44
1.0
  0
MTEXT
  5
17F
330
1F
100
AcDbEntity
  8
文字层
100
AcDbMText
 10
1097.88161718488
 20
524.606364894445
 30
0.0
 40
5.820833333333331
 41
0.0
 71
     1
 72
     1
  1
DRAWN BY:
  7
SLDTEXTSTYLE0
 11
-0.0000000000000035
 21
1.0
 31
0.0
 73
     1
 44
1.0
  0
MTEXT
  5
180
330
1F
100
AcDbEntity
  8
文字层
100
AcDbMText
 10
1116.144375245934
 20
524.9435819696591
 30
0.0
 40
5.820833333333331
 41
0.0
 71
     1
 72
     1
  1
RELEASED ON:
  7
SLDTEXTSTYLE0
 11
-0.0000000000000035
 21
1.0
 31
0.0
 73
     1
 44
1.0
  0
MTEXT
  5
181
330
1F
100
AcDbEntity
  8
文字层
100
AcDbMText
 10
1097.643011907795
 20
624.5964746722831
 30
0.0
 40
5.820833333333331
 41
0.0
 71
     1
 72
     1
  1
DRWN - PART NUMBER
  7
SLDTEXTSTYLE0
 11
-0.0000000000000035
 21
1.0
 31
0.0
 73
     1
 44
1.0
  0
MTEXT
  5
182
330
1F
100
AcDbEntity
  8
文字层
100
AcDbMText
 10
1096.953473648204
 20
747.6934958650615
 30
0.0
 40
5.820833333333331
 41
0.0
 71
     1
 72
     1
  1
REV.
  7
SLDTEXTSTYLE0
 11
-0.0000000000000035
 21
1.0
 31
0.0
 73
     1
 44
1.0
  0
MTEXT
  5
183
330
1F
100
AcDbEntity
  8
文字层
100
AcDbMText
 10
1070.569038605452
 20
470.2250563750398
 30
0.0
 40
9.524999999999998
 41
0.0
 71
     1
 72
     1
  1
PS-C41RT C-Ring and Tile Support
  7
SLDTEXTSTYLE0
 11
-0.0000000000000035
 21
1.0
 31
0.0
 73
     1
 44
1.0
  0
INSERT
  5
18C
330
1F
100
AcDbEntity
  8
文字层
100
AcDbBlockReference
  2
SW_NOTE_0
 10
1076.42155115999
 20
189.6175350159807
 30
0.0
  0
LINE
  5
18D
330
1F
100
AcDbEntity
  8
0
  6
Continuous
 62
     7
370
    25
100
AcDbLine
 10
148.164486448957
 20
484.8323844350689
 30
0.0
 11
224.1644840051666
 21
484.8323844350689
 31
0.0
  0
LINE
  5
18E
330
1F
100
AcDbEntity
  8
0
  6
Continuous
 62
     7
370
    25
100
AcDbLine
 10
224.1644840051666
 20
486.8306003488415
 30
0.0
 11
148.164486448957
 21
486.8306003488415
 31
0.0
  0
LINE
  5
18F
330
1F
100
AcDbEntity
  8
0
  6
Continuous
 62
     7
370
    25
100
AcDbLine
 10
148.164486448957
 20
484.8323844350689
 30
0.0
 11
148.164486448957
 21
486.8306003488415
 31
0.0
  0
LINE
  5
190
330
1F
100
AcDbEntity
  8
0
  6
Continuous
 62
     7
370
    25
100
AcDbLine
 10
224.1644840051666
 20
484.8323844350689
 30
0.0
 11
224.1644840051666
 21
486.8306003488415
 31
0.0
  0
LINE
  5
191
330
1F
100
AcDbEntity
  8
0
  6
Continuous
 62
     7
370
    25
100
AcDbLine
 10
148.164486448957
 20
487.4623797811382
 30
0.0
 11
224.1644840051666
 21
487.4623797811382
 31
0.0
  0
LINE
  5
192
330
1F
100
AcDbEntity
  8
0
  6
Continuous
 62
     7
370
    25
100
AcDbLine
 10
148.164486448957
 20
486.8306003488415
 30
0.0
 11
148.164486448957
 21
487.4623797811382
 31
0.0
  0
LINE
  5
193
330
1F
100
AcDbEntity
  8
0
  6
Continuous
 62
     7
370
    25
100
AcDbLine
 10
224.1644840051666
 20
487.4623797811382
 30
0.0
 11
224.1644840051666
 21
486.8306003488415
 31
0.0
  0
LINE
  5
194
330
1F
100
AcDbEntity
  8
0
  6
Continuous
 62
     7
370
    25
100
AcDbLine
 10
224.1644840051666
 20
489.4623838342541
 30
0.0
 11
148.164486448957
 21
489.4623838342541
 31
0.0
  0
LINE
  5
195
330
1F
100
AcDbEntity
  8
0
  6
Continuous
 62
     7
370
    25
100
AcDbLine
 10
148.164486448957
 20
487.4623797811382
 30
0.0
 11
148.164486448957
 21
489.4623838342541
 31
0.0
  0
LINE
  5
196
330
1F
100
AcDbEntity
  8
0
  6
Continuous
 62
     7
370
    25
100
AcDbLine
 10
224.1644840051666
 20
487.4623797811382
 30
0.0
 11
224.1644840051666
 21
489.4623838342541
 31
0.0
  0
LINE
  5
197
330
1F
100
AcDbEntity
  8
0
  6
Continuous
 62
     7
370
    25
100
AcDbLine
 10
224.1644840051666
 20
483.8583625830525
 30
0.0
 11
148.164486448957
 21
483.8583625830525
 31
0.0
  0
ELLIPSE
  5
198
330
1F
100
AcDbEntity
  8
0
  6
Continuous
 62
     7
370
    25
100
AcDbEllipse
 10
193.6644852270586
 20
484.3224950659634
 30
0.0
 11
2.000000000000028
 21
-0.0000000000000568
 31
0.0
210
0.0
220
0.0
230
1.0
 40
0.0421940928752627
 41
4.712388980384691
 42
7.853981633974484
  0
LINE
  5
199
330
1F
100
AcDbEntity
  8
0
  6
Continuous
 62
     7
370
    25
100
AcDbLine
 10
193.6644850594237
 20
484.4068817771786
 30
0.0
 11
178.6644853946999
 21
484.4068817771786
 31
0.0
  0
ELLIPSE
  5
19A
330
1F
100
AcDbEntity
  8
0
  6
Continuous
 62
     7
370
    25
100
AcDbEllipse
 10
178.6644852270586
 20
484.3224950659634
 30
0.0
 11
2.0
 21
0.0
 31
0.0
210
0.0
220
0.0
230
1.0
 40
0.0421940928752633
 41
1.570796326794896
 42
4.712388980384689
  0
LINE
  5
19B
330
1F
100
AcDbEntity
  8
0
  6
Continuous
 62
     7
370
    25
100
AcDbLine
 10
178.6644853946999
 20
484.2381037749165
 30
0.0
 11
193.6644850594237
 21
484.2381037749165
 31
0.0
  0
LINE
  5
19C
330
1F
100
AcDbEntity
  8
0
  6
Continuous
 62
     7
370
    25
100
AcDbLine
 10
148.164486448957
 20
483.8583625830525
 30
0.0
 11
148.164486448957
 21
484.8323844350689
 31
0.0
  0
LINE
  5
19D
330
1F
100
AcDbEntity
  8
0
  6
Continuous
 62
     7
370
    25
100
AcDbLine
 10
224.1644840051666
 20
483.8583625830525
 30
0.0
 11
224.1644840051666
 21
484.8323844350689
 31
0.0
  0
LINE
  5
19E
330
1F
100
AcDbEntity
  8
0
  6
Continuous
 62
     7
370
    25
100
AcDbLine
 10
224.1644840051666
 20
490.9133024491184
 30
0.0
 11
148.164486448957
 21
490.9133024491184
 31
0.0
  0
LINE
  5
19F
330
1F
100
AcDbEntity
  8
0
  6
Continuous
 62
     7
370
    25
100
AcDbLine
 10
148.164486448957
 20
489.4623838342541
 30
0.0
 11
148.164486448957
 21
490.9133024491184
 31
0.0
  0
LINE
  5
1A0
330
1F
100
AcDbEntity
  8
0
  6
Continuous
 62
     7
370
    25
100
AcDbLine
 10
224.1644840051666
 20
489.4623838342541
 30
0.0
 11
224.1644840051666
 21
490.9133024491184
 31
0.0
  0
LINE
  5
1A1
330
1F
100
AcDbEntity
  8
0
  6
Continuous
 62
     7
370
    25
100
AcDbLine
 10
148.164486448957
 20
490.9133024491184
 30
0.0
 11
148.164486448957
 21
503.1634129561298
 31
0.0
  0
LINE
  5
1A2
330
1F
100
AcDbEntity
  8
0
  6
Continuous
 62
     7
370
    25
100
AcDbLine
 10
224.1644840051666
 20
490.9133024491184
 30
0.0
 11
224.1644840051666
 21
503.1634129561298
 31
0.0
  0
LINE
  5
1A3
330
1F
100
AcDbEntity
  8
0
  6
Continuous
 62
     7
370
    25
100
AcDbLine
 10
224.1644840051666
 20
707.5723789609782
 30
0.0
 11
148.164486448957
 21
707.5723789609782
 31
0.0
  0
LINE
  5
1A4
330
1F
100
AcDbEntity
  8
0
  6
Continuous
 62
     7
370
    25
100
AcDbLine
 10
148.164486448957
 20
705.5741630472057
 30
0.0
 11
224.1644840051666
 21
705.5741630472057
 31
0.0
  0
LINE
  5
1A5
330
1F
100
AcDbEntity
  8
0
  6
Continuous
 62
     7
370
    25
100
AcDbLine
 10
224.1644840051666
 20
707.5723789609782
 30
0.0
 11
224.1644840051666
 21
705.5741630472057
 31
0.0
  0
LINE
  5
1A6
330
1F
100
AcDbEntity
  8
0
  6
Continuous
 62
     7
370
    25
100
AcDbLine
 10
148.164486448957
 20
707.5723789609782
 30
0.0
 11
148.164486448957
 21
705.5741630472057
 31
0.0
  0
LINE
  5
1A7
330
1F
100
AcDbEntity
  8
0
  6
Continuous
 62
     7
370
    25
100
AcDbLine
 10
224.1644840051666
 20
704.9423836149089
 30
0.0
 11
148.164486448957
 21
704.9423836149089
 31
0.0
  0
LINE
  5
1A8
330
1F
100
AcDbEntity
  8
0
  6
Continuous
 62
     7
370
    25
100
AcDbLine
 10
224.1644840051666
 20
705.5741630472057
 30
0.0
 11
224.1644840051666
 21
704.9423836149089
 31
0.0
  0
LINE
  5
1A9
330
1F
100
AcDbEntity
  8
0
  6
Continuous
 62
     7
370
    25
100
AcDbLine
 10
148.164486448957
 20
704.9423836149089
 30
0.0
 11
148.164486448957
 21
705.5741630472057
 31
0.0
  0
LINE
  5
1AA
330
1F
100
AcDbEntity
  8
0
  6
Continuous
 62
     7
370
    25
100
AcDbLine
 10
148.164486448957
 20
702.9423795617931
 30
0.0
 11
224.1644840051666
 21
702.9423795617931
 31
0.0
  0
LINE
  5
1AB
330
1F
100
AcDbEntity
  8
0
  6
Continuous
 62
     7
370
    25
100
AcDbLine
 10
224.1644840051666
 20
704.9423836149089
 30
0.0
 11
224.1644840051666
 21
702.9423795617931
 31
0.0
  0
LINE
  5
1AC
330
1F
100
AcDbEntity
  8
0
  6
Continuous
 62
     7
370
    25
100
AcDbLine
 10
148.164486448957
 20
704.9423836149089
 30
0.0
 11
148.164486448957
 21
702.9423795617931
 31
0.0
  0
LINE
  5
1AD
330
1F
100
AcDbEntity
  8
0
  6
Continuous
 62
     7
370
    25
100
AcDbLine
 10
148.164486448957
 20
708.5464008129947
 30
0.0
 11
224.1644840051666
 21
708.5464008129947
 31
0.0
  0
ELLIPSE
  5
1AE
330
1F
100
AcDbEntity
  8
0
  6
Continuous
 62
     7
370
    25
100
AcDbEllipse
 10
178.6644852270586
 20
708.0822683300838
 30
0.0
 11
2.0
 21
0.0
 31
0.0
210
0.0
220
0.0
230
1.0
 40
0.0421940928752633
 41
1.570796326794896
 42
4.712388980384689
  0
LINE
  5
1AF
330
1F
100
AcDbEntity
  8
0
  6
Continuous
 62
     7
370
    25
100
AcDbLine
 10
178.6644853946999
 20
707.9978816188686
 30
0.0
 11
193.6644850594237
 21
707.9978816188686
 31
0.0
  0
ELLIPSE
  5
1B0
330
1F
100
AcDbEntity
  8
0
  6
Continuous
 62
     7
370
    25
100
AcDbEllipse
 10
193.6644852270586
 20
708.0822683300839
 30
0.0
 11
2.000000000000028
 21
0.0
 31
0.0
210
0.0
220
0.0
230
1.0
 40
0.0421940928752627
 41
4.712388980384689
 42
7.853981633974482
  0
LINE
  5
1B1
330
1F
100
AcDbEntity
  8
0
  6
Continuous
 62
     7
370
    25
100
AcDbLine
 10
193.6644850594237
 20
708.1666596211307
 30
0.0
 11
178.6644853946999
 21
708.1666596211307
 31
0.0
  0
LINE
  5
1B2
330
1F
100
AcDbEntity
  8
0
  6
Continuous
 62
     7
370
    25
100
AcDbLine
 10
224.1644840051666
 20
708.5464008129947
 30
0.0
 11
224.1644840051666
 21
707.5723789609782
 31
0.0
  0
LINE
  5
1B3
330
1F
100
AcDbEntity
  8
0
  6
Continuous
 62
     7
370
    25
100
AcDbLine
 10
148.164486448957
 20
708.5464008129947
 30
0.0
 11
148.164486448957
 21
707.5723789609782
 31
0.0
  0
LINE
  5
1B4
330
1F
100
AcDbEntity
  8
0
  6
Continuous
 62
     7
370
    25
100
AcDbLine
 10
148.164486448957
 20
701.4914609469287
 30
0.0
 11
224.1644840051666
 21
701.4914609469287
 31
0.0
  0
LINE
  5
1B5
330
1F
100
AcDbEntity
  8
0
  6
Continuous
 62
     7
370
    25
100
AcDbLine
 10
224.1644840051666
 20
702.9423795617931
 30
0.0
 11
224.1644840051666
 21
701.4914609469287
 31
0.0
  0
LINE
  5
1B6
330
1F
100
AcDbEntity
  8
0
  6
Continuous
 62
     7
370
    25
100
AcDbLine
 10
148.164486448957
 20
702.9423795617931
 30
0.0
 11
148.164486448957
 21
701.4914609469287
 31
0.0
  0
LINE
  5
1B7
330
1F
100
AcDbEntity
  8
0
  6
Continuous
 62
     7
370
    25
100
AcDbLine
 10
224.1644840051666
 20
701.4914609469287
 30
0.0
 11
224.1644840051666
 21
689.2413504399173
 31
0.0
  0
LINE
  5
1B8
330
1F
100
AcDbEntity
  8
0
  6
Continuous
 62
     7
370
    25
100
AcDbLine
 10
148.164486448957
 20
701.4914609469287
 30
0.0
 11
148.164486448957
 21
689.2413504399173
 31
0.0
  0
ARC
  5
1B9
330
1F
100
AcDbEntity
  8
0
  6
Continuous
 62
     7
370
    25
100
AcDbCircle
 10
253.2557142229504
 20
628.5909134927997
 30
0.0
 40
0.9999999999999577
100
AcDbArc
 50
205.7690939620024
 51
295.0000000000059
  0
ARC
  5
1BA
330
1F
100
AcDbEntity
  8
0
  6
Continuous
 62
     7
370
    25
100
AcDbCircle
 10
253.2557142229504
 20
563.8138499032475
 30
0.0
 40
0.9999999999999104
100
AcDbArc
 50
64.9999999999979
 51
154.2309060380042
  0
LINE
  5
1BB
330
1F
100
AcDbEntity
  8
0
  6
Continuous
 62
     7
370
    25
100
AcDbLine
 10
276.3375583400264
 20
554.1539870180003
 30
0.0
 11
253.6783310880199
 21
564.7201582766883
 31
0.0
  0
ARC
  5
1BC
330
1F
100
AcDbEntity
  8
0
  6
Continuous
 62
     7
370
    25
100
AcDbCircle
 10
275.9149373499693
 20
553.2476806312756
 30
0.0
 40
1.000000000000116
100
AcDbArc
 50
334.4241533255519
 51
65.0000000000034
  0
ARC
  5
1BD
330
1F
100
AcDbEntity
  8
0
  6
Continuous
 62
     7
370
    25
100
AcDbCircle
 10
186.1644852270618
 20
596.2023816980235
 30
0.0
 40
100.5
100
AcDbArc
 50
25.57584667445222
 51
334.4241533255486
  0
LINE
  5
1BE
330
1F
100
AcDbEntity
  8
0
  6
Continuous
 62
     7
370
    25
100
AcDbLine
 10
253.6783310880199
 20
627.6846051193587
 30
0.0
 11
276.3375583400264
 21
638.2507763780467
 31
0.0
  0
CIRCLE
  5
1BF
330
1F
100
AcDbEntity
  8
0
  6
Continuous
 62
     7
370
    25
100
AcDbCircle
 10
161.1644852270614
 20
682.6147558101775
 30
0.0
 40
1.0
  0
CIRCLE
  5
1C0
330
1F
100
AcDbEntity
  8
0
  6
Continuous
 62
     7
370
    25
100
AcDbCircle
 10
211.1644852270615
 20
682.6147558101776
 30
0.0
 40
1.0
  0
CIRCLE
  5
1C1
330
1F
100
AcDbEntity
  8
0
  6
Continuous
 62
     7
370
    25
100
AcDbCircle
 10
211.1644852270615
 20
509.7900075858695
 30
0.0
 40
1.0
  0
CIRCLE
  5
1C2
330
1F
100
AcDbEntity
  8
0
  6
Continuous
 62
     7
370
    25
100
AcDbCircle
 10
161.1644852270614
 20
509.7900075858696
 30
0.0
 40
1.0
  0
ARC
  5
1C3
330
1F
100
AcDbEntity
  8
0
  6
Continuous
 62
     7
370
    25
100
AcDbCircle
 10
186.1644852270618
 20
596.2023816980235
 30
0.0
 40
73.49999999999997
100
AcDbArc
 50
25.76909396200108
 51
334.2309060379997
  0
ARC
  5
1C4
330
1F
100
AcDbEntity
  8
0
  6
Continuous
 62
     7
370
    25
100
AcDbCircle
 10
275.9149373499693
 20
639.1570827647716
 30
0.0
 40
1.000000000000065
100
AcDbArc
 50
295.0000000000002
 51
25.57584667445343
  0
LINE
  5
1C5
330
1F
100
AcDbEntity
  8
0
  6
Continuous
 62
     8
370
    25
100
AcDbLine
 10
178.6644853946999
 20
484.2381037749165
 30
0.0
 11
178.6644853946999
 21
484.4068817771786
 31
0.0
  0
LINE
  5
1C6
330
1F
100
AcDbEntity
  8
0
  6
Continuous
 62
     8
370
    25
100
AcDbLine
 10
193.6644850594237
 20
484.2381037749165
 30
0.0
 11
193.6644850594237
 21
484.4068817771786
 31
0.0
  0
LINE
  5
1C7
330
1F
100
AcDbEntity
  8
0
  6
Continuous
 62
     8
370
    25
100
AcDbLine
 10
193.6644850594237
 20
708.1666596211307
 30
0.0
 11
193.6644850594237
 21
707.9978816188686
 31
0.0
  0
LINE
  5
1C8
330
1F
100
AcDbEntity
  8
0
  6
Continuous
 62
     8
370
    25
100
AcDbLine
 10
178.6644853946999
 20
708.1666596211307
 30
0.0
 11
178.6644853946999
 21
707.9978816188686
 31
0.0
  0
DIMENSION
  5
1C9
330
1F
100
AcDbEntity
  8
标注层
100
AcDbDimension
  2
_D
 10
243.8330925376187
 20
641.7719080381202
 30
0.0
 11
179.9794787520541
 21
591.3150117992029
 31
0.0
 70
   163
  1
<>
 42
147.0
  3
SLDDIMSTYLE0
100
AcDbDiametricDimension
 15
128.4958779165049
 25
550.6328553579266
 35
0.0
 40
0.0
  0
DIMENSION
  5
1DA
330
1F
100
AcDbEntity
  8
标注层
100
AcDbDimension
  2
_D_1
 10
253.6783324846911
 20
627.6846057057632
 30
0.0
 11
266.0917950975391
 21
600.4302402061195
 31
0.0
 70
   162
  1
<>
 42
-1.0
  3
SLDDIMSTYLE1
100
AcDb2LineAngularDimension
 13
253.6783324846911
 23
564.720157690284
 33
0.0
 14
276.33755561171
 24
554.1539884183123
 34
0.0
 15
276.33755561171
 25
638.2507749777349
 35
0.0
 16
266.2035360128863
 26
596.2023816980235
 36
0.0
  0
ARC
  5
1E3
330
1F
100
AcDbEntity
  8
0
  6
Continuous
 62
     7
370
    25
100
AcDbCircle
 10
1011.48474918033
 20
570.8015830249308
 30
0.0
 40
2.510843373493041
100
AcDbArc
 50
30.5307432858203
 51
144.0408301065148
  0
LINE
  5
1E4
330
1F
100
AcDbEntity
  8
0
  6
Continuous
 62
     7
370
    25
100
AcDbLine
 10
1012.69637416056
 20
571.7603296221653
 30
0.0
 11
1033.035356504234
 21
538.1770685495297
 31
0.0
  0
ARC
  5
1E5
330
1F
100
AcDbEntity
  8
0
  6
Continuous
 62
     7
370
    25
100
AcDbCircle
 10
1011.398351004666
 20
570.9966121754098
 30
0.0
 40
1.506024096385857
100
AcDbArc
 50
30.47137252859534
 51
144.2331309577041
  0
LINE
  5
1E6
330
1F
100
AcDbEntity
  8
0
  6
Continuous
 62
     7
370
    25
100
AcDbLine
 10
989.0015907113873
 20
538.1770685495298
 30
0.0
 11
1010.176349384101
 21
571.8768678785721
 31
0.0
  0
LINE
  5
1E7
330
1F
100
AcDbEntity
  8
0
  6
Continuous
 62
     7
370
    25
100
AcDbLine
 10
421.3453121011577
 20
538.1770685495297
 30
0.0
 11
989.0015907113873
 21
538.1770685495297
 31
0.0
  0
LINE
  5
1E8
330
1F
100
AcDbEntity
  8
0
  6
Continuous
 62
     7
370
    25
100
AcDbLine
 10
400.1705534284435
 20
571.8768678785721
 30
0.0
 11
421.3453121011577
 21
538.1770685495297
 31
0.0
  0
ARC
  5
1E9
330
1F
100
AcDbEntity
  8
0
  6
Continuous
 62
     7
370
    25
100
AcDbCircle
 10
398.948551807881
 20
570.9966121754098
 30
0.0
 40
1.506024096385853
100
AcDbArc
 50
35.76686904252643
 51
149.5286274694475
  0
LINE
  5
1EA
330
1F
100
AcDbEntity
  8
0
  6
Continuous
 62
     7
370
    25
100
AcDbLine
 10
377.3115463083111
 20
538.1770685495297
 30
0.0
 11
397.6505286519848
 21
571.7603296221653
 31
0.0
  0
LINE
  5
1EB
330
1F
100
AcDbEntity
  8
0
  6
Continuous
 62
     7
370
    25
100
AcDbLine
 10
376.0902471368634
 20
538.1770685495297
 30
0.0
 11
377.3115463083111
 21
538.1770685495297
 31
0.0
  0
LINE
  5
1EC
330
1F
100
AcDbEntity
  8
0
  6
Continuous
 62
     7
370
    25
100
AcDbLine
 10
396.6994173353039
 20
572.0770947815339
 30
0.0
 11
376.0902471368634
 21
538.1770685495297
 31
0.0
  0
ARC
  5
1ED
330
1F
100
AcDbEntity
  8
0
  6
Continuous
 62
     7
370
    25
100
AcDbCircle
 10
398.8621536322116
 20
570.8015830249236
 30
0.0
 40
2.510843373495492
100
AcDbArc
 50
35.95916989363915
 51
149.4692567138091
  0
LINE
  5
1EE
330
1F
100
AcDbEntity
  8
0
  6
Continuous
 62
     7
370
    25
100
AcDbLine
 10
421.9310767476879
 20
539.1818878421048
 30
0.0
 11
400.8945114438854
 21
572.2759731294075
 31
0.0
  0
LINE
  5
1EF
330
1F
100
AcDbEntity
  8
0
  6
Continuous
 62
     7
370
    25
100
AcDbLine
 10
988.4158260648572
 20
539.1818878421048
 30
0.0
 11
421.9310767476879
 21
539.1818878421048
 31
0.0
  0
LINE
  5
1F0
330
1F
100
AcDbEntity
  8
0
  6
Continuous
 62
     7
370
    25
100
AcDbLine
 10
1009.452391368659
 20
572.2759731294075
 30
0.0
 11
988.4158260648572
 21
539.1818878421048
 31
0.0
  0
LINE
  5
1F1
330
1F
100
AcDbEntity
  8
0
  6
Continuous
 62
     7
370
    25
100
AcDbLine
 10
1033.035356504234
 20
538.1770685495297
 30
0.0
 11
1034.256655675682
 21
538.1770685495297
 31
0.0
  0
LINE
  5
1F2
330
1F
100
AcDbEntity
  8
0
  6
Continuous
 62
     7
370
    25
100
AcDbLine
 10
1034.256655675682
 20
538.1770685495297
 30
0.0
 11
1013.647485477241
 21
572.0770947815339
 31
0.0
  0
LINE
  5
1F3
330
1F
100
AcDbEntity
  8
0
  6
Continuous
 62
     7
370
    25
100
AcDbLine
 10
971.2384528940045
 20
541.1818879370997
 30
0.0
 11
439.1084499185406
 21
541.1818879370997
 31
0.0
  0
LINE
  5
1F4
330
1F
100
AcDbEntity
  8
0
  6
Continuous
 62
     7
370
    25
100
AcDbLine
 10
971.2384528940045
 20
539.1818878421048
 30
0.0
 11
971.2384528940045
 21
541.1818879370997
 31
0.0
  0
LINE
  5
1F5
330
1F
100
AcDbEntity
  8
0
  6
Continuous
 62
     7
370
    25
100
AcDbLine
 10
439.1084499185406
 20
541.1818879370997
 30
0.0
 11
439.1084499185406
 21
539.1818878421048
 31
0.0
  0
CIRCLE
  5
1F6
330
1F
100
AcDbEntity
  8
0
  6
Continuous
 62
     7
370
    25
100
AcDbCircle
 10
720.1734514062725
 20
553.7418878269378
 30
0.0
 40
1.5
  0
CIRCLE
  5
1F7
330
1F
100
AcDbEntity
  8
0
  6
Continuous
 62
     7
370
    25
100
AcDbCircle
 10
525.1734514062724
 20
553.7418878269366
 30
0.0
 40
1.500000000000113
  0
CIRCLE
  5
1F8
330
1F
100
AcDbEntity
  8
0
  6
Continuous
 62
     7
370
    25
100
AcDbCircle
 10
540.1734514062725
 20
553.7418878269367
 30
0.0
 40
1.5
  0
CIRCLE
  5
1F9
330
1F
100
AcDbEntity
  8
0
  6
Continuous
 62
     7
370
    25
100
AcDbCircle
 10
555.1734514062725
 20
553.7418878269368
 30
0.0
 40
1.5
  0
CIRCLE
  5
1FA
330
1F
100
AcDbEntity
  8
0
  6
Continuous
 62
     7
370
    25
100
AcDbCircle
 10
570.1734514062725
 20
553.7418878269369
 30
0.0
 40
1.499999999999886
  0
CIRCLE
  5
1FB
330
1F
100
AcDbEntity
  8
0
  6
Continuous
 62
     7
370
    25
100
AcDbCircle
 10
585.1734514062725
 20
553.741887826937
 30
0.0
 40
1.5
  0
CIRCLE
  5
1FC
330
1F
100
AcDbEntity
  8
0
  6
Continuous
 62
     7
370
    25
100
AcDbCircle
 10
600.1734514062725
 20
553.7418878269371
 30
0.0
 40
1.5
  0
CIRCLE
  5
1FD
330
1F
100
AcDbEntity
  8
0
  6
Continuous
 62
     7
370
    25
100
AcDbCircle
 10
615.1734514062725
 20
553.7418878269372
 30
0.0
 40
1.5
  0
CIRCLE
  5
1FE
330
1F
100
AcDbEntity
  8
0
  6
Continuous
 62
     7
370
    25
100
AcDbCircle
 10
630.1734514062725
 20
553.7418878269374
 30
0.0
 40
1.5
  0
CIRCLE
  5
1FF
330
1F
100
AcDbEntity
  8
0
  6
Continuous
 62
     7
370
    25
100
AcDbCircle
 10
645.1734514062725
 20
553.7418878269375
 30
0.0
 40
1.5
  0
CIRCLE
  5
200
330
1F
100
AcDbEntity
  8
0
  6
Continuous
 62
     7
370
    25
100
AcDbCircle
 10
660.1734514062725
 20
553.7418878269376
 30
0.0
 40
1.5
  0
CIRCLE
  5
201
330
1F
100
AcDbEntity
  8
0
  6
Continuous
 62
     7
370
    25
100
AcDbCircle
 10
675.1734514062725
 20
553.7418878269376
 30
0.0
 40
1.5
  0
CIRCLE
  5
202
330
1F
100
AcDbEntity
  8
0
  6
Continuous
 62
     7
370
    25
100
AcDbCircle
 10
690.1734514062725
 20
553.7418878269376
 30
0.0
 40
1.5
  0
CIRCLE
  5
203
330
1F
100
AcDbEntity
  8
0
  6
Continuous
 62
     7
370
    25
100
AcDbCircle
 10
885.1734514062725
 20
553.7418878269378
 30
0.0
 40
1.5
  0
CIRCLE
  5
204
330
1F
100
AcDbEntity
  8
0
  6
Continuous
 62
     7
370
    25
100
AcDbCircle
 10
870.1734514062724
 20
553.7418878269378
 30
0.0
 40
1.5
  0
CIRCLE
  5
205
330
1F
100
AcDbEntity
  8
0
  6
Continuous
 62
     7
370
    25
100
AcDbCircle
 10
855.1734514062726
 20
553.7418878269378
 30
0.0
 40
1.5
  0
CIRCLE
  5
206
330
1F
100
AcDbEntity
  8
0
  6
Continuous
 62
     7
370
    25
100
AcDbCircle
 10
840.1734514062725
 20
553.7418878269378
 30
0.0
 40
1.5
  0
CIRCLE
  5
207
330
1F
100
AcDbEntity
  8
0
  6
Continuous
 62
     7
370
    25
100
AcDbCircle
 10
825.1734514062725
 20
553.7418878269378
 30
0.0
 40
1.5
  0
CIRCLE
  5
208
330
1F
100
AcDbEntity
  8
0
  6
Continuous
 62
     7
370
    25
100
AcDbCircle
 10
810.1734514062725
 20
553.7418878269378
 30
0.0
 40
1.5
  0
CIRCLE
  5
209
330
1F
100
AcDbEntity
  8
0
  6
Continuous
 62
     7
370
    25
100
AcDbCircle
 10
795.1734514062725
 20
553.7418878269378
 30
0.0
 40
1.5
  0
CIRCLE
  5
20A
330
1F
100
AcDbEntity
  8
0
  6
Continuous
 62
     7
370
    25
100
AcDbCircle
 10
780.1734514062725
 20
553.7418878269378
 30
0.0
 40
1.5
  0
CIRCLE
  5
20B
330
1F
100
AcDbEntity
  8
0
  6
Continuous
 62
     7
370
    25
100
AcDbCircle
 10
765.1734514062724
 20
553.7418878269378
 30
0.0
 40
1.500000000000113
  0
CIRCLE
  5
20C
330
1F
100
AcDbEntity
  8
0
  6
Continuous
 62
     7
370
    25
100
AcDbCircle
 10
750.1734514062725
 20
553.7418878269378
 30
0.0
 40
1.5
  0
CIRCLE
  5
20D
330
1F
100
AcDbEntity
  8
0
  6
Continuous
 62
     7
370
    25
100
AcDbCircle
 10
735.1734514062725
 20
553.7418878269378
 30
0.0
 40
1.5
  0
CIRCLE
  5
20E
330
1F
100
AcDbEntity
  8
0
  6
Continuous
 62
     7
370
    25
100
AcDbCircle
 10
705.1734514062725
 20
553.7418878269378
 30
0.0
 40
1.499999999999886
  0
LINE
  5
20F
330
1F
100
AcDbEntity
  8
0
  6
Continuous
 62
     7
370
    25
100
AcDbLine
 10
439.1084499185406
 20
565.2918882848183
 30
0.0
 11
971.2384528940045
 21
565.2918882848183
 31
0.0
  0
LINE
  5
210
330
1F
100
AcDbEntity
  8
0
  6
Continuous
 62
     7
370
    25
100
AcDbLine
 10
971.2384528940045
 20
541.1818879370997
 30
0.0
 11
971.2384528940045
 21
565.2918882848183
 31
0.0
  0
LINE
  5
211
330
1F
100
AcDbEntity
  8
0
  6
Continuous
 62
     7
370
    25
100
AcDbLine
 10
439.1084499185406
 20
565.2918882848183
 30
0.0
 11
439.1084499185406
 21
541.1818879370997
 31
0.0
  0
DIMENSION
  5
212
330
1F
100
AcDbEntity
  8
标注层
100
AcDbDimension
  2
_D_2
 10
986.9787667981874
 20
565.2918878269377
 30
0.0
 11
986.9787667981873
 21
605.1682135105316
 31
0.0
 70
   160
  1
<>
 71
     2
 42
27.11481927740806
  3
SLDDIMSTYLE2
100
AcDbAlignedDimension
 13
989.0015842616145
 23
538.1770685495297
 33
0.0
 14
971.2384514062724
 24
565.2918878269377
 34
0.0
 50
90.00000000000019
100
AcDbRotatedDimension
  0
DIMENSION
  5
224
330
1F
100
AcDbEntity
  8
标注层
100
AcDbDimension
  2
_D_3
 10
971.2384514062724
 20
595.3124263984236
 30
0.0
 11
711.3019274145827
 21
595.3124263984236
 31
0.0
 70
   160
  1
<>
 71
     2
 42
532.1299999999999
  3
SLDDIMSTYLE2
100
AcDbAlignedDimension
 13
439.1084514062725
 23
565.2918878269377
 33
0.0
 14
971.2384514062724
 24
565.2918878269377
 34
0.0
100
AcDbRotatedDimension
  0
LINE
  5
235
330
1F
100
AcDbEntity
  8
0
  6
Continuous
 62
     7
370
    25
100
AcDbLine
 10
1013.647485477241
 20
674.0789691848676
 30
0.0
 11
1013.647485477241
 21
704.0789685143153
 31
0.0
  0
LINE
  5
236
330
1F
100
AcDbEntity
  8
0
  6
Continuous
 62
     7
370
    25
100
AcDbLine
 10
1013.647485477241
 20
674.0789691848676
 30
0.0
 11
1009.452391368659
 21
674.0789691848676
 31
0.0
  0
LINE
  5
237
330
1F
100
AcDbEntity
  8
0
  6
Continuous
 62
     7
370
    25
100
AcDbLine
 10
1009.452391368659
 20
704.0789685143153
 30
0.0
 11
1009.452391368659
 21
674.0789691848676
 31
0.0
  0
LINE
  5
238
330
1F
100
AcDbEntity
  8
0
  6
Continuous
 62
     7
370
    25
100
AcDbLine
 10
1013.647485477241
 20
704.0789685143153
 30
0.0
 11
1009.452391368659
 21
704.0789685143153
 31
0.0
  0
LINE
  5
239
330
1F
100
AcDbEntity
  8
0
  6
Continuous
 62
     7
370
    25
100
AcDbLine
 10
400.8945114438855
 20
674.0789691848676
 30
0.0
 11
400.8945114438855
 21
704.0789685143153
 31
0.0
  0
LINE
  5
23A
330
1F
100
AcDbEntity
  8
0
  6
Continuous
 62
     7
370
    25
100
AcDbLine
 10
396.699417335304
 20
704.0789685143153
 30
0.0
 11
396.699417335304
 21
674.0789691848676
 31
0.0
  0
LINE
  5
23B
330
1F
100
AcDbEntity
  8
0
  6
Continuous
 62
     7
370
    25
100
AcDbLine
 10
400.8945114438855
 20
704.0789685143153
 30
0.0
 11
396.699417335304
 21
704.0789685143153
 31
0.0
  0
LINE
  5
23C
330
1F
100
AcDbEntity
  8
0
  6
Continuous
 62
     7
370
    25
100
AcDbLine
 10
400.8945114438855
 20
674.0789691848676
 30
0.0
 11
396.699417335304
 21
674.0789691848676
 31
0.0
  0
LINE
  5
23D
330
1F
100
AcDbEntity
  8
0
  6
Continuous
 62
     7
370
    25
100
AcDbLine
 10
988.4158260648572
 20
704.0789685143153
 30
0.0
 11
988.4158260648572
 21
674.0789691848676
 31
0.0
  0
LINE
  5
23E
330
1F
100
AcDbEntity
  8
0
  6
Continuous
 62
     7
370
    25
100
AcDbLine
 10
1009.452391368659
 20
674.0789691848676
 30
0.0
 11
988.4158260648572
 21
674.0789691848676
 31
0.0
  0
LINE
  5
23F
330
1F
100
AcDbEntity
  8
0
  6
Continuous
 62
     7
370
    25
100
AcDbLine
 10
1009.452391368659
 20
704.0789685143153
 30
0.0
 11
988.4158260648572
 21
704.0789685143153
 31
0.0
  0
LINE
  5
240
330
1F
100
AcDbEntity
  8
0
  6
Continuous
 62
     7
370
    25
100
AcDbLine
 10
421.931076747688
 20
674.0789691848676
 30
0.0
 11
421.931076747688
 21
704.0789685143153
 31
0.0
  0
LINE
  5
241
330
1F
100
AcDbEntity
  8
0
  6
Continuous
 62
     7
370
    25
100
AcDbLine
 10
421.931076747688
 20
704.0789685143153
 30
0.0
 11
400.8945114438855
 21
704.0789685143153
 31
0.0
  0
LINE
  5
242
330
1F
100
AcDbEntity
  8
0
  6
Continuous
 62
     7
370
    25
100
AcDbLine
 10
421.931076747688
 20
674.0789691848676
 30
0.0
 11
400.8945114438855
 21
674.0789691848676
 31
0.0
  0
LINE
  5
243
330
1F
100
AcDbEntity
  8
0
  6
Continuous
 62
     7
370
    25
100
AcDbLine
 10
376.0902471368634
 20
674.0789691848676
 30
0.0
 11
376.0902471368634
 21
704.0789685143153
 31
0.0
  0
LINE
  5
244
330
1F
100
AcDbEntity
  8
0
  6
Continuous
 62
     7
370
    25
100
AcDbLine
 10
396.699417335304
 20
704.0789685143153
 30
0.0
 11
376.0902471368634
 21
704.0789685143153
 31
0.0
  0
LINE
  5
245
330
1F
100
AcDbEntity
  8
0
  6
Continuous
 62
     7
370
    25
100
AcDbLine
 10
396.699417335304
 20
674.0789691848676
 30
0.0
 11
376.0902471368634
 21
674.0789691848676
 31
0.0
  0
LINE
  5
246
330
1F
100
AcDbEntity
  8
0
  6
Continuous
 62
     7
370
    25
100
AcDbLine
 10
1034.256655675682
 20
704.0789685143153
 30
0.0
 11
1034.256655675682
 21
674.0789691848676
 31
0.0
  0
LINE
  5
247
330
1F
100
AcDbEntity
  8
0
  6
Continuous
 62
     7
370
    25
100
AcDbLine
 10
1034.256655675682
 20
674.0789691848676
 30
0.0
 11
1013.647485477241
 21
674.0789691848676
 31
0.0
  0
LINE
  5
248
330
1F
100
AcDbEntity
  8
0
  6
Continuous
 62
     7
370
    25
100
AcDbLine
 10
1034.256655675682
 20
704.0789685143153
 30
0.0
 11
1013.647485477241
 21
704.0789685143153
 31
0.0
  0
LINE
  5
249
330
1F
100
AcDbEntity
  8
0
  6
Continuous
 62
     7
370
    25
100
AcDbLine
 10
439.1084499185406
 20
708.2189683733504
 30
0.0
 11
971.2384528940045
 21
708.2189683733504
 31
0.0
  0
LINE
  5
24A
330
1F
100
AcDbEntity
  8
0
  6
Continuous
 62
     7
370
    25
100
AcDbLine
 10
439.1084499185406
 20
707.2189684422682
 30
0.0
 11
971.2384528940045
 21
707.2189684422682
 31
0.0
  0
LINE
  5
24B
330
1F
100
AcDbEntity
  8
0
  6
Continuous
 62
     7
370
    25
100
AcDbLine
 10
439.1084499185406
 20
708.2189683733504
 30
0.0
 11
439.1084499185406
 21
707.2189684422682
 31
0.0
  0
LINE
  5
24C
330
1F
100
AcDbEntity
  8
0
  6
Continuous
 62
     7
370
    25
100
AcDbLine
 10
971.2384528940045
 20
707.2189684422682
 30
0.0
 11
971.2384528940045
 21
708.2189683733504
 31
0.0
  0
LINE
  5
24D
330
1F
100
AcDbEntity
  8
0
  6
Continuous
 62
     7
370
    25
100
AcDbLine
 10
439.1084499185406
 20
705.2189684636887
 30
0.0
 11
971.2384528940045
 21
705.2189684636887
 31
0.0
  0
LINE
  5
24E
330
1F
100
AcDbEntity
  8
0
  6
Continuous
 62
     7
370
    25
100
AcDbLine
 10
439.1084499185406
 20
707.2189684422682
 30
0.0
 11
439.1084499185406
 21
705.2189684636887
 31
0.0
  0
LINE
  5
24F
330
1F
100
AcDbEntity
  8
0
  6
Continuous
 62
     7
370
    25
100
AcDbLine
 10
971.2384528940045
 20
705.2189684636887
 30
0.0
 11
971.2384528940045
 21
707.2189684422682
 31
0.0
  0
LINE
  5
250
330
1F
100
AcDbEntity
  8
0
  6
Continuous
 62
     7
370
    25
100
AcDbLine
 10
439.1084499185406
 20
705.2189684636887
 30
0.0
 11
439.1084499185406
 21
704.0789685143153
 31
0.0
  0
LINE
  5
251
330
1F
100
AcDbEntity
  8
0
  6
Continuous
 62
     7
370
    25
100
AcDbLine
 10
971.2384528940045
 20
704.0789685143153
 30
0.0
 11
971.2384528940045
 21
705.2189684636887
 31
0.0
  0
LINE
  5
252
330
1F
100
AcDbEntity
  8
0
  6
Continuous
 62
     7
370
    25
100
AcDbLine
 10
439.1084499185406
 20
704.0789685143153
 30
0.0
 11
421.931076747688
 21
704.0789685143153
 31
0.0
  0
LINE
  5
253
330
1F
100
AcDbEntity
  8
0
  6
Continuous
 62
     7
370
    25
100
AcDbLine
 10
988.4158260648572
 20
674.0789691848676
 30
0.0
 11
421.931076747688
 21
674.0789691848676
 31
0.0
  0
LINE
  5
254
330
1F
100
AcDbEntity
  8
0
  6
Continuous
 62
     7
370
    25
100
AcDbLine
 10
988.4158260648572
 20
704.0789685143153
 30
0.0
 11
971.2384528940045
 21
704.0789685143153
 31
0.0
  0
DIMENSION
  5
255
330
1F
100
AcDbEntity
  8
标注层
100
AcDbDimension
  2
_D_4
 10
1017.007387621287
 20
674.0789685143153
 30
0.0
 11
1017.007387621287
 21
749.7469763268153
 31
0.0
 70
   160
  1
<>
 71
     2
 42
34.13999999999999
  3
SLDDIMSTYLE2
100
AcDbAlignedDimension
 13
971.2384514062726
 23
708.2189685143153
 33
0.0
 14
1013.647480957221
 24
674.0789685143153
 34
0.0
 50
90.00000000000019
100
AcDbRotatedDimension
  0
LINE
  5
267
330
1F
100
AcDbEntity
  8
0
  6
Continuous
 62
     7
370
    25
100
AcDbLine
 10
1013.647485477241
 20
378.831758210088
 30
0.0
 11
1013.647485477241
 21
408.8317575395358
 31
0.0
  0
LINE
  5
268
330
1F
100
AcDbEntity
  8
0
  6
Continuous
 62
     7
370
    25
100
AcDbLine
 10
1013.647485477241
 20
378.831758210088
 30
0.0
 11
1009.452391368659
 21
378.831758210088
 31
0.0
  0
LINE
  5
269
330
1F
100
AcDbEntity
  8
0
  6
Continuous
 62
     7
370
    25
100
AcDbLine
 10
1009.452391368659
 20
408.8317575395358
 30
0.0
 11
1009.452391368659
 21
378.831758210088
 31
0.0
  0
LINE
  5
26A
330
1F
100
AcDbEntity
  8
0
  6
Continuous
 62
     7
370
    25
100
AcDbLine
 10
1013.647485477241
 20
408.8317575395358
 30
0.0
 11
1009.452391368659
 21
408.8317575395358
 31
0.0
  0
LINE
  5
26B
330
1F
100
AcDbEntity
  8
0
  6
Continuous
 62
     7
370
    25
100
AcDbLine
 10
400.8945114438854
 20
378.831758210088
 30
0.0
 11
400.8945114438854
 21
408.8317575395358
 31
0.0
  0
LINE
  5
26C
330
1F
100
AcDbEntity
  8
0
  6
Continuous
 62
     7
370
    25
100
AcDbLine
 10
396.6994173353039
 20
408.8317575395358
 30
0.0
 11
396.6994173353039
 21
378.831758210088
 31
0.0
  0
LINE
  5
26D
330
1F
100
AcDbEntity
  8
0
  6
Continuous
 62
     7
370
    25
100
AcDbLine
 10
400.8945114438854
 20
408.8317575395358
 30
0.0
 11
396.6994173353039
 21
408.8317575395358
 31
0.0
  0
LINE
  5
26E
330
1F
100
AcDbEntity
  8
0
  6
Continuous
 62
     7
370
    25
100
AcDbLine
 10
400.8945114438854
 20
378.831758210088
 30
0.0
 11
396.6994173353039
 21
378.831758210088
 31
0.0
  0
LINE
  5
26F
330
1F
100
AcDbEntity
  8
0
  6
Continuous
 62
     7
370
    25
100
AcDbLine
 10
988.4158260648572
 20
408.8317575395358
 30
0.0
 11
988.4158260648572
 21
378.831758210088
 31
0.0
  0
LINE
  5
270
330
1F
100
AcDbEntity
  8
0
  6
Continuous
 62
     7
370
    25
100
AcDbLine
 10
1009.452391368659
 20
378.831758210088
 30
0.0
 11
988.4158260648572
 21
378.831758210088
 31
0.0
  0
LINE
  5
271
330
1F
100
AcDbEntity
  8
0
  6
Continuous
 62
     7
370
    25
100
AcDbLine
 10
1009.452391368659
 20
408.8317575395358
 30
0.0
 11
988.4158260648572
 21
408.8317575395358
 31
0.0
  0
LINE
  5
272
330
1F
100
AcDbEntity
  8
0
  6
Continuous
 62
     7
370
    25
100
AcDbLine
 10
421.9310767476879
 20
378.831758210088
 30
0.0
 11
421.9310767476879
 21
408.8317575395358
 31
0.0
  0
LINE
  5
273
330
1F
100
AcDbEntity
  8
0
  6
Continuous
 62
     7
370
    25
100
AcDbLine
 10
421.9310767476879
 20
408.8317575395358
 30
0.0
 11
400.8945114438854
 21
408.8317575395358
 31
0.0
  0
LINE
  5
274
330
1F
100
AcDbEntity
  8
0
  6
Continuous
 62
     7
370
    25
100
AcDbLine
 10
421.9310767476879
 20
378.831758210088
 30
0.0
 11
400.8945114438854
 21
378.831758210088
 31
0.0
  0
LINE
  5
275
330
1F
100
AcDbEntity
  8
0
  6
Continuous
 62
     7
370
    25
100
AcDbLine
 10
376.0902471368634
 20
378.831758210088
 30
0.0
 11
376.0902471368634
 21
408.8317575395358
 31
0.0
  0
LINE
  5
276
330
1F
100
AcDbEntity
  8
0
  6
Continuous
 62
     7
370
    25
100
AcDbLine
 10
396.6994173353039
 20
408.8317575395358
 30
0.0
 11
376.0902471368634
 21
408.8317575395358
 31
0.0
  0
LINE
  5
277
330
1F
100
AcDbEntity
  8
0
  6
Continuous
 62
     7
370
    25
100
AcDbLine
 10
396.6994173353039
 20
378.831758210088
 30
0.0
 11
376.0902471368634
 21
378.831758210088
 31
0.0
  0
LINE
  5
278
330
1F
100
AcDbEntity
  8
0
  6
Continuous
 62
     7
370
    25
100
AcDbLine
 10
1034.256655675682
 20
408.8317575395358
 30
0.0
 11
1034.256655675682
 21
378.831758210088
 31
0.0
  0
LINE
  5
279
330
1F
100
AcDbEntity
  8
0
  6
Continuous
 62
     7
370
    25
100
AcDbLine
 10
1034.256655675682
 20
378.831758210088
 30
0.0
 11
1013.647485477241
 21
378.831758210088
 31
0.0
  0
LINE
  5
27A
330
1F
100
AcDbEntity
  8
0
  6
Continuous
 62
     7
370
    25
100
AcDbLine
 10
1034.256655675682
 20
408.8317575395358
 30
0.0
 11
1013.647485477241
 21
408.8317575395358
 31
0.0
  0
LINE
  5
27B
330
1F
100
AcDbEntity
  8
0
  6
Continuous
 62
     7
370
    25
100
AcDbLine
 10
439.1084499185406
 20
412.9717573985708
 30
0.0
 11
971.2384528940045
 21
412.9717573985708
 31
0.0
  0
LINE
  5
27C
330
1F
100
AcDbEntity
  8
0
  6
Continuous
 62
     7
370
    25
100
AcDbLine
 10
439.1084499185406
 20
411.9717574674886
 30
0.0
 11
971.2384528940045
 21
411.9717574674886
 31
0.0
  0
LINE
  5
27D
330
1F
100
AcDbEntity
  8
0
  6
Continuous
 62
     7
370
    25
100
AcDbLine
 10
439.1084499185406
 20
412.9717573985708
 30
0.0
 11
439.1084499185406
 21
411.9717574674886
 31
0.0
  0
LINE
  5
27E
330
1F
100
AcDbEntity
  8
0
  6
Continuous
 62
     7
370
    25
100
AcDbLine
 10
971.2384528940045
 20
411.9717574674886
 30
0.0
 11
971.2384528940045
 21
412.9717573985708
 31
0.0
  0
LINE
  5
27F
330
1F
100
AcDbEntity
  8
0
  6
Continuous
 62
     7
370
    25
100
AcDbLine
 10
439.1084499185406
 20
409.9717574889091
 30
0.0
 11
971.2384528940045
 21
409.9717574889091
 31
0.0
  0
LINE
  5
280
330
1F
100
AcDbEntity
  8
0
  6
Continuous
 62
     7
370
    25
100
AcDbLine
 10
439.1084499185406
 20
411.9717574674886
 30
0.0
 11
439.1084499185406
 21
409.9717574889091
 31
0.0
  0
LINE
  5
281
330
1F
100
AcDbEntity
  8
0
  6
Continuous
 62
     7
370
    25
100
AcDbLine
 10
971.2384528940045
 20
409.9717574889091
 30
0.0
 11
971.2384528940045
 21
411.9717574674886
 31
0.0
  0
LINE
  5
282
330
1F
100
AcDbEntity
  8
0
  6
Continuous
 62
     7
370
    25
100
AcDbLine
 10
439.1084499185406
 20
409.9717574889091
 30
0.0
 11
439.1084499185406
 21
408.8317575395358
 31
0.0
  0
LINE
  5
283
330
1F
100
AcDbEntity
  8
0
  6
Continuous
 62
     7
370
    25
100
AcDbLine
 10
971.2384528940045
 20
408.8317575395358
 30
0.0
 11
971.2384528940045
 21
409.9717574889091
 31
0.0
  0
LINE
  5
284
330
1F
100
AcDbEntity
  8
0
  6
Continuous
 62
     7
370
    25
100
AcDbLine
 10
439.1084499185406
 20
408.8317575395358
 30
0.0
 11
421.9310767476879
 21
408.8317575395358
 31
0.0
  0
LINE
  5
285
330
1F
100
AcDbEntity
  8
0
  6
Continuous
 62
     7
370
    25
100
AcDbLine
 10
988.4158260648572
 20
378.831758210088
 30
0.0
 11
421.9310767476879
 21
378.831758210088
 31
0.0
  0
LINE
  5
286
330
1F
100
AcDbEntity
  8
0
  6
Continuous
 62
     7
370
    25
100
AcDbLine
 10
988.4158260648572
 20
408.8317575395358
 30
0.0
 11
971.2384528940045
 21
408.8317575395358
 31
0.0
  0
DIMENSION
  5
287
330
1F
100
AcDbEntity
  8
标注层
100
AcDbDimension
  2
_D_5
 10
1034.256661426628
 20
461.9428672788298
 30
0.0
 11
714.0358449253564
 21
461.9428672788298
 31
0.0
 70
   160
  1
<>
 71
     2
 42
658.1664200407104
  3
SLDDIMSTYLE2
100
AcDbAlignedDimension
 13
376.0902413859175
 23
408.8317575395358
 33
0.0
 14
1034.256661426628
 24
408.8317575395358
 34
0.0
100
AcDbRotatedDimension
  0
LINE
  5
298
330
1F
100
AcDbEntity
  8
0
  6
Continuous
 62
     7
370
    25
100
AcDbLine
 10
85.66448272366672
 20
387.5077852662641
 30
0.0
 11
85.66448272366672
 21
386.3077852092672
 31
0.0
  0
LINE
  5
299
330
1F
100
AcDbEntity
  8
0
  6
Continuous
 62
     7
370
    25
100
AcDbLine
 10
276.9149336328045
 20
386.3077852092672
 30
0.0
 11
276.9149336328045
 21
387.5077852662641
 31
0.0
  0
LINE
  5
29A
330
1F
100
AcDbEntity
  8
0
  6
Continuous
 62
     7
370
    25
100
AcDbLine
 10
148.164486448957
 20
383.8583730775851
 30
0.0
 11
224.1644840051666
 21
383.8583730775851
 31
0.0
  0
LINE
  5
29B
330
1F
100
AcDbEntity
  8
0
  6
Continuous
 62
     7
370
    25
100
AcDbLine
 10
148.164486448957
 20
383.8077852651465
 30
0.0
 11
224.1644840051666
 21
383.8077852651465
 31
0.0
  0
LINE
  5
29C
330
1F
100
AcDbEntity
  8
0
  6
Continuous
 62
     7
370
    25
100
AcDbLine
 10
148.164486448957
 20
383.8583730775851
 30
0.0
 11
148.164486448957
 21
383.8077852651465
 31
0.0
  0
LINE
  5
29D
330
1F
100
AcDbEntity
  8
0
  6
Continuous
 62
     7
370
    25
100
AcDbLine
 10
224.1644840051666
 20
383.8077852651465
 30
0.0
 11
224.1644840051666
 21
383.8583730775851
 31
0.0
  0
LINE
  5
29E
330
1F
100
AcDbEntity
  8
0
  6
Continuous
 62
     7
370
    25
100
AcDbLine
 10
224.1644840051666
 20
360.7234714236099
 30
0.0
 11
148.164486448957
 21
360.7234714236099
 31
0.0
  0
LINE
  5
29F
330
1F
100
AcDbEntity
  8
0
  6
Continuous
 62
     7
370
    25
100
AcDbLine
 10
148.164486448957
 20
383.8077852651465
 30
0.0
 11
148.164486448957
 21
360.7234714236099
 31
0.0
  0
ARC
  5
2A0
330
1F
100
AcDbEntity
  8
0
  6
Continuous
 62
     7
370
    25
100
AcDbCircle
 10
178.6644852270586
 20
372.8077852662637
 30
0.0
 40
2.0
100
AcDbArc
 50
90.0
 51
270.0000000000008
  0
LINE
  5
2A1
330
1F
100
AcDbEntity
  8
0
  6
Continuous
 62
     7
370
    25
100
AcDbLine
 10
178.6644853946999
 20
370.8077856954175
 30
0.0
 11
193.6644850594237
 21
370.8077856954175
 31
0.0
  0
ARC
  5
2A2
330
1F
100
AcDbEntity
  8
0
  6
Continuous
 62
     7
370
    25
100
AcDbCircle
 10
193.6644852270586
 20
372.8077852662637
 30
0.0
 40
2.0
100
AcDbArc
 50
270.0000000000008
 51
90.0
  0
LINE
  5
2A3
330
1F
100
AcDbEntity
  8
0
  6
Continuous
 62
     7
370
    25
100
AcDbLine
 10
193.6644850594237
 20
374.8077854197461
 30
0.0
 11
178.6644853946999
 21
374.8077854197461
 31
0.0
  0
LINE
  5
2A4
330
1F
100
AcDbEntity
  8
0
  6
Continuous
 62
     7
370
    25
100
AcDbLine
 10
224.1644840051666
 20
383.8077852651465
 30
0.0
 11
224.1644840051666
 21
360.7234714236099
 31
0.0
  0
LINE
  5
2A5
330
1F
100
AcDbEntity
  8
0
  6
Continuous
 62
     7
370
    25
100
AcDbLine
 10
148.164486448957
 20
358.8077855911094
 30
0.0
 11
224.1644840051666
 21
358.8077855911094
 31
0.0
  0
LINE
  5
2A6
330
1F
100
AcDbEntity
  8
0
  6
Continuous
 62
     7
370
    25
100
AcDbLine
 10
148.164486448957
 20
360.7234714236099
 30
0.0
 11
148.164486448957
 21
358.8077855911094
 31
0.0
  0
LINE
  5
2A7
330
1F
100
AcDbEntity
  8
0
  6
Continuous
 62
     7
370
    25
100
AcDbLine
 10
224.1644840051666
 20
360.7234714236099
 30
0.0
 11
224.1644840051666
 21
358.8077855911094
 31
0.0
  0
LINE
  5
2A8
330
1F
100
AcDbEntity
  8
0
  6
Continuous
 62
     7
370
    25
100
AcDbLine
 10
148.164486448957
 20
386.0568618783716
 30
0.0
 11
224.1644840051666
 21
386.0568618783716
 31
0.0
  0
LINE
  5
2A9
330
1F
100
AcDbEntity
  8
0
  6
Continuous
 62
     7
370
    25
100
AcDbLine
 10
148.164486448957
 20
386.0568618783716
 30
0.0
 11
148.164486448957
 21
383.8583730775851
 31
0.0
  0
LINE
  5
2AA
330
1F
100
AcDbEntity
  8
0
  6
Continuous
 62
     7
370
    25
100
AcDbLine
 10
224.1644840051666
 20
386.0568618783716
 30
0.0
 11
224.1644840051666
 21
383.8583730775851
 31
0.0
  0
LINE
  5
2AB
330
1F
100
AcDbEntity
  8
0
  6
Continuous
 62
     7
370
    25
100
AcDbLine
 10
148.164486448957
 20
388.707785323261
 30
0.0
 11
224.1644840051666
 21
388.707785323261
 31
0.0
  0
LINE
  5
2AC
330
1F
100
AcDbEntity
  8
0
  6
Continuous
 62
     7
370
    25
100
AcDbLine
 10
148.164486448957
 20
388.707785323261
 30
0.0
 11
148.164486448957
 21
386.0568618783716
 31
0.0
  0
LINE
  5
2AD
330
1F
100
AcDbEntity
  8
0
  6
Continuous
 62
     7
370
    25
100
AcDbLine
 10
224.1644840051666
 20
386.0568618783716
 30
0.0
 11
224.1644840051666
 21
388.707785323261
 31
0.0
  0
LINE
  5
2AE
330
1F
100
AcDbEntity
  8
0
  6
Continuous
 62
     7
370
    25
100
AcDbLine
 10
276.8169510473743
 20
386.3077852092672
 30
0.0
 11
276.8169510473743
 21
387.5077852662641
 31
0.0
  0
LINE
  5
2AF
330
1F
100
AcDbEntity
  8
0
  6
Continuous
 62
     7
370
    25
100
AcDbLine
 10
276.8169510473743
 20
387.5077852662641
 30
0.0
 11
224.1644840051666
 21
387.5077852662641
 31
0.0
  0
LINE
  5
2B0
330
1F
100
AcDbEntity
  8
0
  6
Continuous
 62
     7
370
    25
100
AcDbLine
 10
148.164486448957
 20
387.5077852662641
 30
0.0
 11
85.66448272366672
 21
387.5077852662641
 31
0.0
  0
LINE
  5
2B1
330
1F
100
AcDbEntity
  8
0
  6
Continuous
 62
     7
370
    25
100
AcDbLine
 10
85.66448272366672
 20
386.3077852092672
 30
0.0
 11
148.164486448957
 21
386.3077852092672
 31
0.0
  0
LINE
  5
2B2
330
1F
100
AcDbEntity
  8
0
  6
Continuous
 62
     7
370
    25
100
AcDbLine
 10
224.1644840051666
 20
386.3077852092672
 30
0.0
 11
276.8169510473743
 21
386.3077852092672
 31
0.0
  0
LINE
  5
2B3
330
1F
100
AcDbEntity
  8
0
  6
Continuous
 62
     7
370
    25
100
AcDbLine
 10
276.9149336328045
 20
387.5077852662641
 30
0.0
 11
276.8169510473743
 21
387.5077852662641
 31
0.0
  0
LINE
  5
2B4
330
1F
100
AcDbEntity
  8
0
  6
Continuous
 62
     7
370
    25
100
AcDbLine
 10
276.8169510473743
 20
386.3077852092672
 30
0.0
 11
276.9149336328045
 21
386.3077852092672
 31
0.0
  0
DIMENSION
  5
2B5
330
1F
100
AcDbEntity
  8
标注层
100
AcDbDimension
  2
_D_6
 10
316.9149373499694
 20
358.8077852662635
 30
0.0
 11
316.9149373499694
 21
429.6852323691279
 31
0.0
 70
   160
  1
<>
 71
     2
 42
29.89999999999986
  3
SLDDIMSTYLE3
100
AcDbAlignedDimension
 13
224.1644852270586
 23
388.7077852662633
 33
0.0
 14
224.1644852270586
 24
358.8077852662635
 34
0.0
 50
90.00000000000019
100
AcDbRotatedDimension
  0
LINE
  5
2C8
330
1F
100
AcDbEntity
  8
0
  6
Continuous
 62
     7
370
    25
100
AcDbLine
 10
323.6818472177199
 20
495.7023791946285
 30
0.0
 11
324.8818472747168
 21
495.7023791946285
 31
0.0
  0
LINE
  5
2C9
330
1F
100
AcDbEntity
  8
0
  6
Continuous
 62
     7
370
    25
100
AcDbLine
 10
324.8818472747168
 20
696.7023842014186
 30
0.0
 11
323.6818472177199
 21
696.7023842014186
 31
0.0
  0
LINE
  5
2CA
330
1F
100
AcDbEntity
  8
0
  6
Continuous
 62
     7
370
    25
100
AcDbLine
 10
327.3818472188374
 20
483.8583625830525
 30
0.0
 11
350.4661610603741
 21
484.8323844350689
 31
0.0
  0
LINE
  5
2CB
330
1F
100
AcDbEntity
  8
0
  6
Continuous
 62
     7
370
    25
100
AcDbLine
 10
327.3818472188374
 20
483.8583625830525
 30
0.0
 11
327.3312594063988
 21
485.0572951115482
 31
0.0
  0
LINE
  5
2CC
330
1F
100
AcDbEntity
  8
0
  6
Continuous
 62
     7
370
    25
100
AcDbLine
 10
350.415571618121
 20
486.0313169635647
 30
0.0
 11
327.3312594063988
 21
485.0572951115482
 31
0.0
  0
ARC
  5
2CD
330
1F
100
AcDbEntity
  8
0
  6
Continuous
 62
     7
370
    25
100
AcDbCircle
 10
350.3818472177202
 20
486.8306037302408
 30
0.0
 40
0.8000000000000508
100
AcDbArc
 50
272.4161102884378
 51
0.0000000000040711
  0
LINE
  5
2CE
330
1F
100
AcDbEntity
  8
0
  6
Continuous
 62
     7
370
    25
100
AcDbLine
 10
351.1818470687082
 20
486.8306003488415
 30
0.0
 11
351.1818470687082
 21
487.4623797811382
 31
0.0
  0
ARC
  5
2CF
330
1F
100
AcDbEntity
  8
0
  6
Continuous
 62
     7
370
    25
100
AcDbCircle
 10
350.3818472177202
 20
487.4623816980239
 30
0.0
 40
0.8000000000000682
100
AcDbArc
 50
0.0000000000081422
 51
90.0
  0
LINE
  5
2D0
330
1F
100
AcDbEntity
  8
0
  6
Continuous
 62
     7
370
    25
100
AcDbLine
 10
325.1327706056124
 20
488.2623784221523
 30
0.0
 11
350.381846565049
 21
488.2623784221523
 31
0.0
  0
ARC
  5
2D1
330
1F
100
AcDbEntity
  8
0
  6
Continuous
 62
     7
370
    25
100
AcDbCircle
 10
325.1327705480563
 20
490.9133050283601
 30
0.0
 40
2.650923330336127
100
AcDbArc
 50
180.0000000000032
 51
270.0000000000008
  0
LINE
  5
2D2
330
1F
100
AcDbEntity
  8
0
  6
Continuous
 62
     7
370
    25
100
AcDbLine
 10
322.4818471607229
 20
490.9133024491184
 30
0.0
 11
322.4818471607229
 21
515.7900087512843
 31
0.0
  0
LINE
  5
2D3
330
1F
100
AcDbEntity
  8
0
  6
Continuous
 62
     7
370
    25
100
AcDbLine
 10
323.6818472177201
 20
515.7900087512843
 30
0.0
 11
322.4818471607229
 21
515.7900087512843
 31
0.0
  0
LINE
  5
2D4
330
1F
100
AcDbEntity
  8
0
  6
Continuous
 62
     7
370
    25
100
AcDbLine
 10
323.6818472177203
 20
490.9133024491184
 30
0.0
 11
323.6818472177202
 21
503.1634129561298
 31
0.0
  0
ARC
  5
2D5
330
1F
100
AcDbEntity
  8
0
  6
Continuous
 62
     7
370
    25
100
AcDbCircle
 10
325.1327705480563
 20
490.9133050283601
 30
0.0
 40
1.450923330336138
100
AcDbArc
 50
180.0
 51
270.0000000000008
  0
LINE
  5
2D6
330
1F
100
AcDbEntity
  8
0
  6
Continuous
 62
     7
370
    25
100
AcDbLine
 10
350.381846565049
 20
489.4623838342541
 30
0.0
 11
325.1327706056124
 21
489.4623838342541
 31
0.0
  0
ARC
  5
2D7
330
1F
100
AcDbEntity
  8
0
  6
Continuous
 62
     7
370
    25
100
AcDbCircle
 10
350.3818472177202
 20
487.4623816980239
 30
0.0
 40
2.0
100
AcDbArc
 50
0.0000000000032569
 51
90.0
  0
LINE
  5
2D8
330
1F
100
AcDbEntity
  8
0
  6
Continuous
 62
     7
370
    25
100
AcDbLine
 10
352.3818468928745
 20
486.8306003488415
 30
0.0
 11
352.3818468928745
 21
487.4623797811382
 31
0.0
  0
ARC
  5
2D9
330
1F
100
AcDbEntity
  8
0
  6
Continuous
 62
     7
370
    25
100
AcDbCircle
 10
350.3818472177202
 20
486.8306037302408
 30
0.0
 40
2.0
100
AcDbArc
 50
272.4161102884421
 51
0.0000000000016284
  0
LINE
  5
2DA
330
1F
100
AcDbEntity
  8
0
  6
Continuous
 62
     7
370
    25
100
AcDbLine
 10
350.381846565049
 20
702.9423795617931
 30
0.0
 11
325.1327706056124
 21
702.9423795617931
 31
0.0
  0
ARC
  5
2DB
330
1F
100
AcDbEntity
  8
0
  6
Continuous
 62
     7
370
    25
100
AcDbCircle
 10
325.1327705480563
 20
701.4914583676872
 30
0.0
 40
1.450923330336195
100
AcDbArc
 50
90.0
 51
180.0
  0
LINE
  5
2DC
330
1F
100
AcDbEntity
  8
0
  6
Continuous
 62
     7
370
    25
100
AcDbLine
 10
323.6818472177203
 20
701.4914609469287
 30
0.0
 11
323.6818472177202
 21
689.2413504399173
 31
0.0
  0
LINE
  5
2DD
330
1F
100
AcDbEntity
  8
0
  6
Continuous
 62
     7
370
    25
100
AcDbLine
 10
323.6818472177201
 20
676.6147546447627
 30
0.0
 11
322.4818471607229
 21
676.6147546447627
 31
0.0
  0
LINE
  5
2DE
330
1F
100
AcDbEntity
  8
0
  6
Continuous
 62
     7
370
    25
100
AcDbLine
 10
322.4818471607229
 20
676.6147546447627
 30
0.0
 11
322.4818471607229
 21
701.4914609469287
 31
0.0
  0
ARC
  5
2DF
330
1F
100
AcDbEntity
  8
0
  6
Continuous
 62
     7
370
    25
100
AcDbCircle
 10
325.1327705480563
 20
701.4914583676872
 30
0.0
 40
2.650923330336127
100
AcDbArc
 50
90.0
 51
179.9999999999975
  0
LINE
  5
2E0
330
1F
100
AcDbEntity
  8
0
  6
Continuous
 62
     7
370
    25
100
AcDbLine
 10
325.1327706056124
 20
704.1423849738948
 30
0.0
 11
350.381846565049
 21
704.1423849738948
 31
0.0
  0
ARC
  5
2E1
330
1F
100
AcDbEntity
  8
0
  6
Continuous
 62
     7
370
    25
100
AcDbCircle
 10
350.3818472177202
 20
704.9423816980233
 30
0.0
 40
0.8000000000000682
100
AcDbArc
 50
270.0000000000008
 51
359.9999999999927
  0
LINE
  5
2E2
330
1F
100
AcDbEntity
  8
0
  6
Continuous
 62
     7
370
    25
100
AcDbLine
 10
351.1818470687082
 20
704.9423836149089
 30
0.0
 11
351.1818470687082
 21
705.5741630472057
 31
0.0
  0
ARC
  5
2E3
330
1F
100
AcDbEntity
  8
0
  6
Continuous
 62
     7
370
    25
100
AcDbCircle
 10
350.3818472177202
 20
705.5741596658065
 30
0.0
 40
0.8000000000000113
100
AcDbArc
 50
359.9999999999927
 51
87.58388971156284
  0
LINE
  5
2E4
330
1F
100
AcDbEntity
  8
0
  6
Continuous
 62
     7
370
    25
100
AcDbLine
 10
350.415571618121
 20
706.3734464324824
 30
0.0
 11
327.3312594063988
 21
707.3474682844989
 31
0.0
  0
LINE
  5
2E5
330
1F
100
AcDbEntity
  8
0
  6
Continuous
 62
     7
370
    25
100
AcDbLine
 10
327.3312594063988
 20
707.3474682844989
 30
0.0
 11
327.3818472188374
 21
708.5464008129947
 31
0.0
  0
LINE
  5
2E6
330
1F
100
AcDbEntity
  8
0
  6
Continuous
 62
     7
370
    25
100
AcDbLine
 10
327.3818472188374
 20
708.5464008129947
 30
0.0
 11
350.4661610603741
 21
707.5723789609782
 31
0.0
  0
ARC
  5
2E7
330
1F
100
AcDbEntity
  8
0
  6
Continuous
 62
     7
370
    25
100
AcDbCircle
 10
350.3818472177202
 20
705.5741596658065
 30
0.0
 40
2.0
100
AcDbArc
 50
359.9999999999976
 51
87.58388971155863
  0
LINE
  5
2E8
330
1F
100
AcDbEntity
  8
0
  6
Continuous
 62
     7
370
    25
100
AcDbLine
 10
352.3818468928745
 20
704.9423836149089
 30
0.0
 11
352.3818468928745
 21
705.5741630472057
 31
0.0
  0
ARC
  5
2E9
330
1F
100
AcDbEntity
  8
0
  6
Continuous
 62
     7
370
    25
100
AcDbCircle
 10
350.3818472177202
 20
704.9423816980233
 30
0.0
 40
2.0
100
AcDbArc
 50
270.0000000000008
 51
359.9999999999976
  0
LINE
  5
2EA
330
1F
100
AcDbEntity
  8
0
  6
Continuous
 62
     7
370
    25
100
AcDbLine
 10
324.8818472747168
 20
495.7023791946285
 30
0.0
 11
324.8818472747168
 21
696.7023842014186
 31
0.0
  0
LINE
  5
2EB
330
1F
100
AcDbEntity
  8
0
  6
Continuous
 62
     7
370
    25
100
AcDbLine
 10
323.6818472177202
 20
689.2413504399173
 30
0.0
 11
323.6818472177202
 21
503.1634129561298
 31
0.0
  0
DIMENSION
  5
2EC
330
1F
100
AcDbEntity
  8
标注层
100
AcDbDimension
  2
_D_7
 10
294.2033748500734
 20
483.8583600443359
 30
0.0
 11
294.2033748500733
 21
597.0459516429342
 31
0.0
 70
   160
  1
<>
 71
     2
 42
224.6880433073753
  3
SLDDIMSTYLE2
100
AcDbAlignedDimension
 13
327.3818472177204
 23
708.5464033517112
 33
0.0
 14
327.3818472177204
 24
483.8583600443359
 34
0.0
 50
90.00000000000019
100
AcDbRotatedDimension
  0
DIMENSION
  5
2FD
330
1F
100
AcDbEntity
  8
标注层
100
AcDbDimension
  2
_D_8
 10
354.2899732087827
 20
489.4623816980239
 30
0.0
 11
354.2899732087826
 21
613.2457528172162
 31
0.0
 70
   160
  1
<>
 71
     2
 42
213.4799999999995
  3
SLDDIMSTYLE2
100
AcDbAlignedDimension
 13
350.3818472177203
 23
702.9423816980234
 33
0.0
 14
350.3818472177203
 24
489.4623816980239
 34
0.0
 50
90.00000000000019
100
AcDbRotatedDimension
  0
LINE
  5
30E
330
1F
100
AcDbEntity
  8
0
  6
Continuous
 62
     7
370
    25
100
AcDbLine
 10
253.3109422826012
 20
112.4369384427904
 30
0.0
 11
307.0510559247582
 21
81.41343119109285
 31
0.0
  0
LINE
  5
30F
330
1F
100
AcDbEntity
  8
0
  6
Continuous
 62
     7
370
    25
100
AcDbLine
 10
327.2301222438066
 20
92.93031067980685
 30
0.0
 11
324.2128372614457
 21
94.67215222398399
 31
0.0
  0
LINE
  5
310
330
1F
100
AcDbEntity
  8
0
  6
Continuous
 62
     7
370
    25
100
AcDbLine
 10
327.2301222438066
 20
271.0274832697304
 30
0.0
 11
273.4900086016494
 21
302.050990521428
 31
0.0
  0
LINE
  5
311
330
1F
100
AcDbEntity
  8
0
  6
Continuous
 62
     7
370
    25
100
AcDbLine
 10
330.7263139632628
 20
97.56365387091904
 30
0.0
 11
331.5748421409896
 21
98.05349876127905
 31
0.0
  0
LINE
  5
312
330
1F
100
AcDbEntity
  8
0
  6
Continuous
 62
     7
370
    25
100
AcDbLine
 10
231.083004881691
 20
272.1293256091909
 30
0.0
 11
230.2344767039643
 21
271.6394807188309
 31
0.0
  0
LINE
  5
313
330
1F
100
AcDbEntity
  8
0
  6
Continuous
 62
     7
370
    25
100
AcDbLine
 10
233.5396905161052
 20
237.5689879141829
 30
0.0
 11
234.388218693832
 21
238.0588328045429
 31
0.0
  0
LINE
  5
314
330
1F
100
AcDbEntity
  8
0
  6
Continuous
 62
     7
370
    25
100
AcDbLine
 10
217.3658125399944
 20
187.5196915861376
 30
0.0
 11
216.5172843622677
 21
187.0298466957775
 31
0.0
  0
LINE
  5
315
330
1F
100
AcDbEntity
  8
0
  6
Continuous
 62
     7
370
    25
100
AcDbLine
 10
306.5019239769653
 20
102.939984487076
 30
0.0
 11
252.7618103348082
 21
133.9634917387736
 31
0.0
  0
LINE
  5
316
330
1F
100
AcDbEntity
  8
0
  6
Continuous
 62
     7
370
    25
100
AcDbLine
 10
253.6103385125352
 20
134.4533366291337
 30
0.0
 11
252.7618103348082
 21
133.9634917387736
 31
0.0
  0
LINE
  5
317
330
1F
100
AcDbEntity
  8
0
  6
Continuous
 62
     7
370
    25
100
AcDbLine
 10
253.6103385125352
 20
134.4533366291337
 30
0.0
 11
307.3504521546923
 21
103.4298293774361
 31
0.0
  0
LINE
  5
318
330
1F
100
AcDbEntity
  8
0
  6
Continuous
 62
     7
370
    25
100
AcDbLine
 10
307.3504521546923
 20
103.4298293774361
 30
0.0
 11
306.5019239769653
 21
102.939984487076
 31
0.0
  0
LINE
  5
319
330
1F
100
AcDbEntity
  8
0
  6
Continuous
 62
     7
370
    25
100
AcDbLine
 10
309.9667472458725
 20
78.86669209770762
 30
0.0
 11
326.2898221022615
 21
89.08513122959353
 31
0.0
  0
LINE
  5
31A
330
1F
100
AcDbEntity
  8
0
  6
Continuous
 62
     7
370
    25
100
AcDbLine
 10
309.9667472458725
 20
78.86669209770762
 30
0.0
 11
309.9309762606518
 21
79.82501928770469
 31
0.0
  0
LINE
  5
31B
330
1F
100
AcDbEntity
  8
0
  6
Continuous
 62
     7
370
    25
100
AcDbLine
 10
326.2540499645879
 20
90.04345775429369
 30
0.0
 11
309.9309762606518
 21
79.82501928770469
 31
0.0
  0
ARC
  5
31C
330
1F
100
AcDbEntity
  8
0
  6
Continuous
 62
     7
370
    25
100
AcDbCircle
 10
325.5605956828037
 20
91.06741754376635
 30
0.0
 40
1.236678006346714
100
AcDbArc
 50
304.1069587222071
 51
357.2879394115099
  0
LINE
  5
31D
330
1F
100
AcDbEntity
  8
0
  6
Continuous
 62
     7
370
    25
100
AcDbLine
 10
326.7958885319549
 20
91.00890200550942
 30
0.0
 11
326.7958885319549
 21
91.52477569608974
 31
0.0
  0
ARC
  5
31E
330
1F
100
AcDbEntity
  8
0
  6
Continuous
 62
     7
370
    25
100
AcDbCircle
 10
326.4510311085075
 20
91.58072018977266
 30
0.0
 40
0.3493657523000713
100
AcDbArc
 50
350.7854656990847
 51
129.2040135930316
  0
LINE
  5
31F
330
1F
100
AcDbEntity
  8
0
  6
Continuous
 62
     7
370
    25
100
AcDbLine
 10
308.376409921253
 20
81.54466857095011
 30
0.0
 11
326.2302027508648
 21
91.85144378560606
 31
0.0
  0
ARC
  5
320
330
1F
100
AcDbEntity
  8
0
  6
Continuous
 62
     7
370
    25
100
AcDbCircle
 10
307.6446702951724
 20
82.44176851443928
 30
0.0
 40
1.157683544404471
100
AcDbArc
 50
170.7860521200762
 51
309.2031743359076
  0
LINE
  5
321
330
1F
100
AcDbEntity
  8
0
  6
Continuous
 62
     7
370
    25
100
AcDbLine
 10
306.5019239769653
 20
82.62713852606204
 30
0.0
 11
306.5019239769653
 21
102.939984487076
 31
0.0
  0
LINE
  5
322
330
1F
100
AcDbEntity
  8
0
  6
Continuous
 62
     7
370
    25
100
AcDbLine
 10
307.3504521546923
 20
83.1169834164222
 30
0.0
 11
307.3504521546923
 21
103.4298293774361
 31
0.0
  0
ARC
  5
323
330
1F
100
AcDbEntity
  8
0
  6
Continuous
 62
     7
370
    25
100
AcDbCircle
 10
307.9759067461308
 20
83.01552540675848
 30
0.0
 40
0.6336301552769278
100
AcDbArc
 50
170.7860332091772
 51
309.2035414809989
  0
LINE
  5
324
330
1F
100
AcDbEntity
  8
0
  6
Continuous
 62
     7
370
    25
100
AcDbLine
 10
326.2302027508648
 20
92.8312971790709
 30
0.0
 11
308.376409921253
 21
82.52452196441495
 31
0.0
  0
ARC
  5
325
330
1F
100
AcDbEntity
  8
0
  6
Continuous
 62
     7
370
    25
100
AcDbCircle
 10
326.7822660803446
 20
92.15447467825761
 30
0.0
 40
0.8734200692470571
100
AcDbArc
 50
350.785994580484
 51
129.2030688275661
  0
LINE
  5
326
330
1F
100
AcDbEntity
  8
0
  6
Continuous
 62
     7
370
    25
100
AcDbLine
 10
327.6444165450456
 20
91.49874680082701
 30
0.0
 11
327.6444165450456
 21
92.01462049140733
 31
0.0
  0
ARC
  5
327
330
1F
100
AcDbEntity
  8
0
  6
Continuous
 62
     7
370
    25
100
AcDbCircle
 10
324.5561834029236
 20
91.64502955665891
 30
0.0
 40
3.091695745825248
100
AcDbArc
 50
304.1070165923467
 51
357.2880530361582
  0
LINE
  5
328
330
1F
100
AcDbEntity
  8
0
  6
Continuous
 62
     7
370
    25
100
AcDbLine
 10
252.7618103348082
 20
113.6506457777596
 30
0.0
 11
306.5019239769653
 21
82.62713852606204
 31
0.0
  0
LINE
  5
329
330
1F
100
AcDbEntity
  8
0
  6
Continuous
 62
     7
370
    25
100
AcDbLine
 10
252.7618103348082
 20
133.9634917387736
 30
0.0
 11
252.7618103348082
 21
113.6506457777596
 31
0.0
  0
LWPOLYLINE
  5
32A
330
1F
100
AcDbEntity
  8
0
  6
Continuous
 62
     7
370
    25
100
AcDbPolyline
 90
       17
 70
   128
 43
0.0
 10
262.6613042598955
 20
123.3493868237404
 10
262.6074787830801
 20
123.0679884499589
 10
262.454197280491
 20
122.8915672088169
 10
262.2247959353133
 20
122.8469924439672
 10
261.9541973628052
 20
122.9410545636117
 10
261.683600107386
 20
123.1594181452616
 10
261.4541974451193
 20
123.4688548258645
 10
261.3009159425303
 20
123.8222511228759
 10
261.2470904657147
 20
124.1657950693828
 10
261.3009159425303
 20
124.4471995268674
 10
261.4541974451193
 20
124.6236207680095
 10
261.683600107386
 20
124.6681886888167
 10
261.9541973628052
 20
124.5741334132146
 10
262.2247959353133
 20
124.3557629875223
 10
262.454197280491
 20
124.0463331509618
 10
262.6074787830801
 20
123.6929368539504
 10
262.6613042598955
 20
123.3493868237404
  0
LWPOLYLINE
  5
32B
330
1F
100
AcDbEntity
  8
0
  6
Continuous
 62
     7
370
    25
100
AcDbPolyline
 90
       17
 70
   128
 43
0.0
 10
298.0166438460587
 20
102.939183724037
 10
297.9628183692433
 20
102.6577853502556
 10
297.8095368666542
 20
102.4813641091135
 10
297.5801342043874
 20
102.4367901046032
 10
297.3095369489684
 20
102.5308514639084
 10
297.0389383764602
 20
102.7492158058975
 10
296.8095370312824
 20
103.0586517261612
 10
296.6562555286934
 20
103.4120480231726
 10
296.602430051878
 20
103.7555919696795
 10
296.6562555286934
 20
104.0369964271641
 10
296.8095370312824
 20
104.2134176683061
 10
297.0389383764602
 20
104.2579863494526
 10
297.3095369489684
 20
104.1639303135112
 10
297.5801342043874
 20
103.9455606481583
 10
297.8095368666542
 20
103.6361300512584
 10
297.9628183692433
 20
103.2827337542471
 10
298.0166438460587
 20
102.939183724037
  0
ARC
  5
32C
330
1F
100
AcDbEntity
  8
0
  6
Continuous
 62
     7
370
    25
100
AcDbCircle
 10
299.0568130209836
 20
104.3560750510903
 30
0.0
 40
1.616727518679443
100
AcDbArc
 50
190.8884983299666
 51
229.106315339638
  0
ARC
  5
32D
330
1F
100
AcDbEntity
  8
0
  6
Continuous
 62
     7
370
    25
100
AcDbCircle
 10
254.0117924924818
 20
113.4851111774618
 30
0.0
 40
1.260895355847706
100
AcDbArc
 50
172.4562399518703
 51
236.2317291791526
  0
LINE
  5
32E
330
1F
100
AcDbEntity
  8
0
  6
Continuous
 62
     7
370
    25
100
AcDbLine
 10
307.3731182688401
 20
81.3016392756374
 30
0.0
 11
309.9309762606518
 21
79.82501928770469
 31
0.0
  0
LINE
  5
32F
330
1F
100
AcDbEntity
  8
0
  6
Continuous
 62
     7
370
    25
100
AcDbLine
 10
256.2266336037155
 20
109.8901993494052
 30
0.0
 11
309.9667472458725
 21
78.86669209770762
 31
0.0
  0
LINE
  5
330
330
1F
100
AcDbEntity
  8
0
  6
Continuous
 62
     7
370
    25
100
AcDbLine
 10
256.1936905732481
 20
110.7727622117166
 30
0.0
 11
256.2266336037155
 21
109.8901993494052
 31
0.0
  0
ARC
  5
331
330
1F
100
AcDbEntity
  8
0
  6
Continuous
 62
     7
370
    25
100
AcDbCircle
 10
263.7014779417955
 20
124.7662807526249
 30
0.0
 40
1.616732435996345
100
AcDbArc
 50
190.888558705318
 51
229.1062549642885
  0
LINE
  5
332
330
1F
100
AcDbEntity
  8
0
  6
Continuous
 62
     7
370
    25
100
AcDbLine
 10
326.2302027508648
 20
267.1464262118021
 30
0.0
 11
308.376409921253
 21
256.8396509971461
 31
0.0
  0
ARC
  5
333
330
1F
100
AcDbEntity
  8
0
  6
Continuous
 62
     7
370
    25
100
AcDbCircle
 10
309.5779243089954
 20
254.9612821339442
 30
0.0
 40
2.229777210888682
100
AcDbArc
 50
122.6053552246963
 51
177.3945358029101
  0
LINE
  5
334
330
1F
100
AcDbEntity
  8
0
  6
Continuous
 62
     7
370
    25
100
AcDbLine
 10
307.3504521546923
 20
255.0626439216304
 30
0.0
 11
307.3504521546923
 21
234.7497979606164
 31
0.0
  0
LINE
  5
335
330
1F
100
AcDbEntity
  8
0
  6
Continuous
 62
     7
370
    25
100
AcDbLine
 10
307.3504521546923
 20
234.7497979606164
 30
0.0
 11
306.5019239769653
 21
234.2599530702563
 31
0.0
  0
LINE
  5
336
330
1F
100
AcDbEntity
  8
0
  6
Continuous
 62
     7
370
    25
100
AcDbLine
 10
306.5019239769653
 20
234.2599530702563
 30
0.0
 11
306.5019239769653
 21
254.5727990312703
 31
0.0
  0
ARC
  5
337
330
1F
100
AcDbEntity
  8
0
  6
Continuous
 62
     7
370
    25
100
AcDbCircle
 10
310.5716720209425
 20
254.3875993239283
 30
0.0
 40
4.073959753489937
100
AcDbArc
 50
122.605535990026
 51
177.3944711282251
  0
LINE
  5
338
330
1F
100
AcDbEntity
  8
0
  6
Continuous
 62
     7
370
    25
100
AcDbLine
 10
308.376409921253
 20
257.819504390611
 30
0.0
 11
326.2302027508648
 21
268.1262796052669
 31
0.0
  0
ARC
  5
339
330
1F
100
AcDbEntity
  8
0
  6
Continuous
 62
     7
370
    25
100
AcDbCircle
 10
325.5677292510099
 20
269.1619566216252
 30
0.0
 40
1.22942995742857
100
AcDbArc
 50
302.6051202737639
 51
357.3948025566423
  0
LINE
  5
33A
330
1F
100
AcDbEntity
  8
0
  6
Continuous
 62
     7
370
    25
100
AcDbLine
 10
326.7958885319549
 20
269.1060745954329
 30
0.0
 11
326.7958885319549
 21
269.6219482860132
 31
0.0
  0
ARC
  5
33B
330
1F
100
AcDbEntity
  8
0
  6
Continuous
 62
     7
370
    25
100
AcDbCircle
 10
326.4551188581516
 20
269.680508206582
 30
0.0
 40
0.3457647102887698
100
AcDbArc
 50
350.249186484394
 51
125.5574816131742
  0
LINE
  5
33C
330
1F
100
AcDbEntity
  8
0
  6
Continuous
 62
     7
370
    25
100
AcDbLine
 10
326.2540499645879
 20
269.9617990434789
 30
0.0
 11
309.9309762606518
 21
261.3340177645698
 31
0.0
  0
LINE
  5
33D
330
1F
100
AcDbEntity
  8
0
  6
Continuous
 62
     7
370
    25
100
AcDbLine
 10
309.9309762606518
 20
261.3340177645698
 30
0.0
 11
309.9667472458725
 21
262.3336452550012
 31
0.0
  0
LINE
  5
33E
330
1F
100
AcDbEntity
  8
0
  6
Continuous
 62
     7
370
    25
100
AcDbLine
 10
309.9667472458725
 20
262.3336452550012
 30
0.0
 11
326.2898221022615
 21
270.9614271992072
 31
0.0
  0
ARC
  5
33F
330
1F
100
AcDbEntity
  8
0
  6
Continuous
 62
     7
370
    25
100
AcDbCircle
 10
326.7924919695036
 20
270.2581970698515
 30
0.0
 40
0.8644128702576553
100
AcDbArc
 50
350.2489173504584
 51
125.557236929816
  0
LINE
  5
340
330
1F
100
AcDbEntity
  8
0
  6
Continuous
 62
     7
370
    25
100
AcDbLine
 10
327.6444165450456
 20
269.5959193907505
 30
0.0
 11
327.6444165450456
 21
270.1117930813308
 31
0.0
  0
ARC
  5
341
330
1F
100
AcDbEntity
  8
0
  6
Continuous
 62
     7
370
    25
100
AcDbCircle
 10
324.5739732026557
 20
269.7356440437181
 30
0.0
 40
3.073620877316017
100
AcDbArc
 50
302.6055854249502
 51
357.3944760485025
  0
LINE
  5
342
330
1F
100
AcDbEntity
  8
0
  6
Continuous
 62
     7
370
    25
100
AcDbLine
 10
306.5019239769653
 20
254.5727990312703
 30
0.0
 11
252.7618103348082
 21
285.5963062829678
 31
0.0
  0
ARC
  5
343
330
1F
100
AcDbEntity
  8
0
  6
Continuous
 62
     7
370
    25
100
AcDbCircle
 10
256.8315583787855
 20
285.4111065756257
 30
0.0
 40
4.073959753490068
100
AcDbArc
 50
122.6055359900248
 51
177.3944711282232
  0
LINE
  5
344
330
1F
100
AcDbEntity
  8
0
  6
Continuous
 62
     7
370
    25
100
AcDbLine
 10
308.376409921253
 20
257.819504390611
 30
0.0
 11
254.636296279096
 21
288.8430116423086
 31
0.0
  0
LINE
  5
345
330
1F
100
AcDbEntity
  8
0
  6
Continuous
 62
     7
370
    25
100
AcDbLine
 10
309.9309762606518
 20
261.3340177645698
 30
0.0
 11
256.1908626184947
 21
292.3575250162675
 31
0.0
  0
LINE
  5
346
330
1F
100
AcDbEntity
  8
0
  6
Continuous
 62
     7
370
    25
100
AcDbLine
 10
256.2266336037155
 20
293.3571525066987
 30
0.0
 11
256.1908626184947
 21
292.3575250162675
 31
0.0
  0
LINE
  5
347
330
1F
100
AcDbEntity
  8
0
  6
Continuous
 62
     7
370
    25
100
AcDbLine
 10
309.9667472458725
 20
262.3336452550012
 30
0.0
 11
256.2266336037155
 21
293.3571525066987
 31
0.0
  0
LINE
  5
348
330
1F
100
AcDbEntity
  8
0
  6
Continuous
 62
     7
370
    25
100
AcDbLine
 10
272.5497084601044
 20
301.9849344509047
 30
0.0
 11
326.2898221022615
 21
270.9614271992072
 31
0.0
  0
LINE
  5
349
330
1F
100
AcDbEntity
  8
0
  6
Continuous
 62
     7
370
    25
100
AcDbLine
 10
256.2266336037155
 20
293.3571525066987
 30
0.0
 11
272.5497084601044
 21
301.9849344509047
 31
0.0
  0
ELLIPSE
  5
34A
330
1F
100
AcDbEntity
  8
0
  6
Continuous
 62
     7
370
    25
100
AcDbEllipse
 10
296.1781658759573
 20
278.8951299616637
 30
0.0
 11
1.999624585603384
 21
-0.0701405759232898
 31
0.0
210
0.0
220
0.0
230
1.0
 40
0.5524535246291196
 41
3.946366733529599
 42
7.087959387119378
  0
LINE
  5
34B
330
1F
100
AcDbEntity
  8
0
  6
Continuous
 62
     7
370
    25
100
AcDbLine
 10
297.5923790163326
 20
279.6426327730479
 30
0.0
 11
286.9857775356104
 21
285.7656934748571
 31
0.0
  0
ELLIPSE
  5
34C
330
1F
100
AcDbEntity
  8
0
  6
Continuous
 62
     7
370
    25
100
AcDbEllipse
 10
285.5715641581591
 20
285.018190800334
 30
0.0
 11
1.999624585603384
 21
-0.070140575923233
 31
0.0
210
0.0
220
0.0
230
0.9999999999999998
 40
0.5524535246291192
 41
0.8047740799397598
 42
3.946366733529547
  0
LINE
  5
34D
330
1F
100
AcDbEntity
  8
0
  6
Continuous
 62
     7
370
    25
100
AcDbLine
 10
284.1573506057934
 20
284.2706914907375
 30
0.0
 11
294.7639520865156
 21
278.1476307889283
 31
0.0
  0
LINE
  5
34E
330
1F
100
AcDbEntity
  8
0
  6
Continuous
 62
     7
370
    25
100
AcDbLine
 10
252.7618103348082
 20
265.2834603219539
 30
0.0
 11
306.5019239769653
 21
234.2599530702563
 31
0.0
  0
LINE
  5
34F
330
1F
100
AcDbEntity
  8
0
  6
Continuous
 62
     7
370
    25
100
AcDbLine
 10
252.7618103348082
 20
285.5963062829678
 30
0.0
 11
252.7618103348082
 21
265.2834603219539
 31
0.0
  0
LWPOLYLINE
  5
350
330
1F
100
AcDbEntity
  8
0
  6
Continuous
 62
     7
370
    25
100
AcDbPolyline
 90
       17
 70
   128
 43
0.0
 10
296.602430051878
 20
244.8740579852895
 10
296.6562555286934
 20
245.155456359071
 10
296.8095370312824
 20
245.331877600213
 10
297.0389383764602
 20
245.3764523650627
 10
297.3095369489684
 20
245.2823902454182
 10
297.5801342043874
 20
245.0640266637683
 10
297.8095368666542
 20
244.7545899831653
 10
297.9628183692433
 20
244.401193686154
 10
298.0166438460587
 20
244.0576497396471
 10
297.9628183692433
 20
243.7762452821625
 10
297.8095368666542
 20
243.5998240410204
 10
297.5801342043874
 20
243.5552561202132
 10
297.3095369489684
 20
243.6493113958153
 10
297.0389383764602
 20
243.8676818215076
 10
296.8095370312824
 20
244.1771116580681
 10
296.6562555286934
 20
244.5305079550795
 10
296.602430051878
 20
244.8740579852895
  0
LWPOLYLINE
  5
351
330
1F
100
AcDbEntity
  8
0
  6
Continuous
 62
     7
370
    25
100
AcDbPolyline
 90
       17
 70
   128
 43
0.0
 10
261.2470904657147
 20
265.2842610849928
 10
261.3009159425303
 20
265.5656594587743
 10
261.4541974451193
 20
265.7420806999164
 10
261.683600107386
 20
265.7866547044267
 10
261.9541973628052
 20
265.6925933451215
 10
262.2247959353133
 20
265.4742290031324
 10
262.454197280491
 20
265.1647930828687
 10
262.6074787830801
 20
264.8113967858573
 10
262.6613042598955
 20
264.4678528393504
 10
262.6074787830801
 20
264.1864483818658
 10
262.454197280491
 20
264.0100271407238
 10
262.2247959353133
 20
263.9654584595772
 10
261.9541973628052
 20
264.0595144955186
 10
261.683600107386
 20
264.2778841608716
 10
261.4541974451193
 20
264.5873147577714
 10
261.3009159425303
 20
264.9407110547829
 10
261.2470904657147
 20
265.2842610849928
  0
LINE
  5
352
330
1F
100
AcDbEntity
  8
0
  6
Continuous
 62
     7
370
    25
100
AcDbLine
 10
254.636296279096
 20
288.8430116423086
 30
0.0
 11
258.4575708393377
 21
291.0489864904413
 31
0.0
  0
ARC
  5
353
330
1F
100
AcDbEntity
  8
0
  6
Continuous
 62
     7
370
    25
100
AcDbCircle
 10
273.0791586477537
 20
301.1738325242849
 30
0.0
 40
0.968609228000731
100
AcDbArc
 50
64.90218963628258
 51
123.1346621989513
  0
ARC
  5
354
330
1F
100
AcDbEntity
  8
0
  6
Continuous
 62
     7
370
    25
100
AcDbCircle
 10
299.0568577924421
 20
245.4745608291091
 30
0.0
 40
1.616776366477511
100
AcDbArc
 50
190.8890980712547
 51
229.1057155983499
  0
LINE
  5
355
330
1F
100
AcDbEntity
  8
0
  6
Continuous
 62
     7
370
    25
100
AcDbLine
 10
297.5923790163326
 20
278.6619094100355
 30
0.0
 11
297.5923790163326
 21
279.6426327730479
 31
0.0
  0
ELLIPSE
  5
356
330
1F
100
AcDbEntity
  8
0
  6
Continuous
 62
     7
370
    25
100
AcDbEllipse
 10
296.1781658759573
 20
277.9144091423904
 30
0.0
 11
1.999624585603384
 21
-0.0701405759232898
 31
0.0
210
0.0
220
0.0
230
1.0
 40
0.5524535246291196
 41
0.4787905176344489
 42
0.8047740799398093
  0
LINE
  5
357
330
1F
100
AcDbEntity
  8
0
  6
Continuous
 62
     7
370
    25
100
AcDbLine
 10
286.9857775356104
 20
285.7656934748571
 30
0.0
 11
286.9857775356104
 21
284.7849701118448
 31
0.0
  0
LINE
  5
358
330
1F
100
AcDbEntity
  8
0
  6
Continuous
 62
     7
370
    25
100
AcDbLine
 10
297.5923790163326
 20
278.6619094100355
 30
0.0
 11
286.9857775356104
 21
284.7849701118448
 31
0.0
  0
ELLIPSE
  5
359
330
1F
100
AcDbEntity
  8
0
  6
Continuous
 62
     7
370
    25
100
AcDbEllipse
 10
285.5715641581591
 20
284.0374699810607
 30
0.0
 11
1.999624585603441
 21
-0.0701405759232898
 31
0.0
210
0.0
220
0.0
230
1.0
 40
0.5524535246291029
 41
0.804774079939804
 42
2.701553969041897
  0
ARC
  5
35A
330
1F
100
AcDbEntity
  8
0
  6
Continuous
 62
     7
370
    25
100
AcDbCircle
 10
263.7015227143827
 20
265.8847665312953
 30
0.0
 40
1.616781285043629
100
AcDbArc
 50
190.8891584580758
 51
229.1056552115307
  0
ARC
  5
35B
330
1F
100
AcDbEntity
  8
0
  6
Continuous
 62
     7
370
    25
100
AcDbCircle
 10
232.4389281079307
 20
185.2134108824165
 30
0.0
 40
1.277270445177104
100
AcDbArc
 50
14.31869457527398
 51
76.32480996769331
  0
LWPOLYLINE
  5
35C
330
1F
100
AcDbEntity
  8
0
  6
Continuous
 62
     7
370
    25
100
AcDbPolyline
 90
       88
 70
   128
 43
0.0
 10
233.6765202597959
 20
185.5292992420701
 10
235.1634031233435
 20
181.378491613353
 10
236.8237650495401
 20
177.2400182406284
 10
238.6512471326163
 20
173.1297296157246
 10
240.6388556298977
 20
169.0633529759128
 10
242.7789777668718
 20
165.056458845023
 10
245.0634265182153
 20
161.1243865122824
 10
247.4834511445063
 20
157.2821862381246
 10
250.0297925099625
 20
153.5445629851262
 10
252.6927015216876
 20
149.9258323128893
 10
255.4619812765202
 20
146.439844335707
 10
258.3270371104157
 20
143.0999365785607
 10
261.2768950376932
 20
139.9189050812605
 10
264.3002662883968
 20
136.9089184721937
 10
267.3855762842542
 20
134.0815073245638
 10
270.5210140295147
 20
131.4474869740414
 10
273.6945768919759
 20
129.0169438346339
 10
276.894116701099
 20
126.7991844519977
 10
280.1073848583077
 20
124.8026972944101
 10
283.322081069282
 20
123.0351246202158
 10
286.5258991128012
 20
121.5032299723323
 10
289.7065742559486
 20
120.2128890571449
 10
292.8519309985884
 20
119.1690256799876
 10
295.9499285129366
 20
118.3756402667655
 10
298.988708388038
 20
117.8357823016551
 10
301.9566354595255
 20
117.5515024217731
 10
304.8423511517255
 20
117.5238946278724
 10
307.634806404883
 20
117.7530651084528
 10
310.3233143587224
 20
118.2381383284083
 10
312.897580645495
 20
118.9772547504799
 10
315.3477508051835
 20
119.9675890908151
 10
317.6644445298159
 20
121.2053457594035
 10
319.8387978103149
 20
122.685786240695
 10
321.8624840099215
 20
124.4032443048361
 10
323.7277533768659
 20
126.3511488252633
 10
325.4274699228594
 20
128.5220389914219
 10
326.9551298623414
 20
130.9076053754923
 10
328.3048774175467
 20
133.4987157896109
 10
329.4715495995329
 20
136.2854533132171
 10
330.4506788423576
 20
139.2571482327418
 10
331.2385193448597
 20
142.402425192778
 10
331.8320523390143
 20
145.7092442615718
 10
332.2290071633581
 20
149.1649454200788
 10
332.4278665313446
 20
152.7563000838188
 10
332.4278665313446
 20
156.4695609131961
 10
332.2290071633581
 20
160.2905137160796
 10
331.8320523390143
 20
164.20452915928
 10
331.2385193448597
 20
168.1966268365595
 10
330.4506788423576
 20
172.2515250789511
 10
329.4715495995329
 20
176.3536985593284
 10
328.3048774175467
 20
180.4874471123199
 10
326.9551298623414
 20
184.6369428825136
 10
325.4274699228594
 20
188.7863078892004
 10
323.7277533768659
 20
192.9196490074202
 10
321.8624840099215
 20
197.0211476983805
 10
319.8387978103149
 20
201.0751041148216
 10
317.6644445298159
 20
205.065999457243
 10
315.3477508051835
 20
208.9785537656233
 10
312.897580645495
 20
212.7977943573721
 10
310.3233143587224
 20
216.5090953694236
 10
307.634806404883
 20
220.0982538005705
 10
304.8423511517255
 20
223.551524489544
 10
301.9566354595255
 20
226.8556931150021
 10
298.988708388038
 20
229.9981088925917
 10
295.9499285129366
 20
232.966751490739
 10
292.8519309985884
 20
235.7502378717264
 10
289.7065742559486
 20
238.3379260898717
 10
286.5258991128012
 20
240.7199145272341
 10
283.322081069282
 20
242.8870694559138
 10
280.1073848583077
 20
244.8311060230862
 10
276.894116701099
 20
246.5445793110833
 10
273.6945768919759
 20
248.0209299607175
 10
270.5210140295147
 20
249.2545045093698
 10
267.3855762842542
 20
250.2405835235436
 10
264.3002662883968
 20
250.9753954730801
 10
261.2768950376932
 20
251.456119008221
 10
258.3270371104157
 20
251.6809209785515
 10
255.4619812765202
 20
251.6489362760991
 10
252.6927015216876
 20
251.3602906465009
 10
250.0297925099625
 20
250.8160892760055
 10
247.4834511445063
 20
250.018409185113
 10
245.0634265182153
 20
248.9703098703596
 10
242.7789777668718
 20
247.6758059236986
 10
240.6388556298977
 20
246.1398442168835
 10
238.6512471326163
 20
244.3683115009063
 10
236.8237650495401
 20
242.3679887772353
 10
235.1634031233435
 20
240.1465284797266
 10
233.6765202597959
 20
237.7124392638827
  0
LWPOLYLINE
  5
35D
330
1F
100
AcDbEntity
  8
0
  6
Continuous
 62
     7
370
    25
100
AcDbPolyline
 90
        9
 70
   128
 43
0.0
 10
233.6765202597959
 20
237.7124392638827
 10
233.6050233996532
 20
237.6181716588192
 10
233.5121738923837
 20
237.5547616342953
 10
233.4014751947698
 20
237.5246064980844
 10
233.2771103815263
 20
237.5288473370342
 10
233.1437788262621
 20
237.5673203321172
 10
233.0065170773742
 20
237.6385719508803
 10
232.8705091972296
 20
237.739913682977
 10
232.7408971013465
 20
237.8675132779175
  0
LINE
  5
35E
330
1F
100
AcDbEntity
  8
0
  6
Continuous
 62
     7
370
    25
100
AcDbLine
 10
232.7408971013465
 20
237.8675132779175
 30
0.0
 11
216.7184038550056
 21
255.7448118040966
 31
0.0
  0
ARC
  5
35F
330
1F
100
AcDbEntity
  8
0
  6
Continuous
 62
     7
370
    25
100
AcDbCircle
 10
217.6004857733047
 20
256.6656357590953
 30
0.0
 40
1.275141273228048
100
AcDbArc
 50
163.2538963829271
 51
226.2310202398586
  0
ARC
  5
360
330
1F
100
AcDbEntity
  8
0
  6
Continuous
 62
     7
370
    25
100
AcDbCircle
 10
248.405572474412
 20
240.2909533988873
 30
0.0
 40
36.13823321355044
100
AcDbArc
 50
83.07651733814909
 51
152.4010911083421
  0
LWPOLYLINE
  5
361
330
1F
100
AcDbEntity
  8
0
  6
Continuous
 62
     7
370
    25
100
AcDbPolyline
 90
       47
 70
   128
 43
0.0
 10
307.3504521546921
 20
245.059928742545
 10
308.6870815032984
 20
243.6394516866907
 10
312.0931421872139
 20
239.8474797328585
 10
315.4109368336353
 20
235.9012472038973
 10
318.6311984042466
 20
231.8117738584712
 10
321.7449364494247
 20
227.5904855683819
 10
324.743458181664
 20
223.2491656509197
 10
327.6183842806452
 20
218.7999335773873
 10
330.361696308439
 20
214.2552115171802
 10
332.9657288069725
 20
209.6276923976046
 10
335.4232167132336
 20
204.9302881968497
 10
337.727290090915
 20
200.1761329853448
 10
339.8715215456189
 20
195.3784855909585
 10
341.8499209565006
 20
190.5507508914654
 10
343.6569670864051
 20
185.706400729371
 10
345.2876075818674
 20
180.8589708700607
 10
346.7373011199602
 20
176.0219849594653
 10
348.0019910665145
 20
171.2089575634406
 10
349.0781476229674
 20
166.4333257300622
 10
349.9627678263626
 20
161.7084216129613
 10
350.653380817706
 20
157.0474390114519
 10
351.1480531103224
 20
152.4633961083435
 10
351.4454149316349
 20
147.9690849016303
 10
351.5446286130295
 20
143.5770586538874
 10
351.4454149316349
 20
139.2995820844255
 10
351.1480531103224
 20
135.1485975286865
 10
350.653380817706
 20
131.1356910976512
 10
349.9627678263626
 20
127.2720732835603
 10
349.0781476229674
 20
123.5685299130246
 10
348.0019910665145
 20
120.0354019922873
 10
346.7373011199602
 20
116.6825545277504
 10
345.2876075818674
 20
113.5193491488166
 10
343.6569670864051
 20
110.5546167312252
 10
341.8499209565006
 20
107.7966376210621
 10
339.8715215456189
 20
105.2531142605675
 10
337.727290090915
 20
102.931143807517
 10
335.4232167132336
 20
100.8372150933699
 10
332.9657288069725
 20
98.97716603438169
 10
330.361696308439
 20
97.35619884135566
 10
327.6183842806452
 20
95.97883742927217
 10
324.743458181664
 20
94.84892437593142
 10
321.7449364494247
 20
93.96962395935579
 10
318.6311984042466
 20
93.34338109353536
 10
315.4109368336353
 20
92.97194261693965
 10
312.0931421872139
 20
92.85635424918305
 10
308.6870815032984
 20
92.99693625423493
 10
307.3504521546921
 20
93.11969859550732
  0
ARC
  5
362
330
1F
100
AcDbEntity
  8
0
  6
Continuous
 62
     7
370
    25
100
AcDbCircle
 10
376.8565913516206
 20
240.281364844824
 30
0.0
 40
169.3515093671668
100
AcDbArc
 50
198.6305682833842
 51
222.8813406998066
  0
LWPOLYLINE
  5
363
330
1F
100
AcDbEntity
  8
0
  6
Continuous
 62
     7
370
    25
100
AcDbPolyline
 90
        9
 70
   128
 43
0.0
 10
216.3794220207885
 20
186.1794993640381
 10
216.3319014490925
 20
186.3583892374133
 10
216.3110598325038
 20
186.52970436191
 10
216.3177032295003
 20
186.686777074533
 10
216.3515734906349
 20
186.8234962712657
 10
216.4113482585355
 20
186.9345385877889
 10
216.494709456534
 20
187.015584377368
 10
216.598406508939
 20
187.0634758930671
 10
216.7184038550056
 20
187.0763511430594
  0
LINE
  5
364
330
1F
100
AcDbEntity
  8
0
  6
Continuous
 62
     7
370
    25
100
AcDbLine
 10
216.7184038550056
 20
187.0763511430594
 30
0.0
 11
232.7408971013465
 21
186.4544727330663
 31
0.0
  0
LWPOLYLINE
  5
365
330
1F
100
AcDbEntity
  8
0
  6
Continuous
 62
     7
370
    25
100
AcDbPolyline
 90
       39
 70
   128
 43
0.0
 10
331.5748421409896
 20
98.05349876127905
 10
333.8142569846992
 20
99.46701092474171
 10
336.2717448909604
 20
101.3270599837299
 10
338.5758182686418
 20
103.4209886978769
 10
340.7200497233457
 20
105.7429591509275
 10
342.6984491342274
 20
108.2864825114222
 10
344.5054952641319
 20
111.0444616215852
 10
346.1361357595942
 20
114.0091940391767
 10
347.585829297687
 20
117.1723994181105
 10
348.8505192442413
 20
120.5252468826474
 10
349.9266758006942
 20
124.0583748033847
 10
350.8112960040894
 20
127.7619181739203
 10
351.5019089954328
 20
131.6255359880113
 10
351.9965812880491
 20
135.6384424190466
 10
352.2939431093617
 20
139.7894269747855
 10
352.3931567907563
 20
144.0669035442486
 10
352.2939431093617
 20
148.4589297919904
 10
351.9965812880491
 20
152.9532409987035
 10
351.5019089954328
 20
157.5372839018119
 10
350.8112960040894
 20
162.1982665033213
 10
349.9266758006942
 20
166.9231706204222
 10
348.8505192442413
 20
171.6988024538006
 10
347.585829297687
 20
176.5118298498253
 10
346.1361357595942
 20
181.3488157604208
 10
344.5054952641319
 20
186.196245619731
 10
342.6984491342274
 20
191.0405957818254
 10
340.7200497233457
 20
195.8683304813185
 10
338.5758182686418
 20
200.6659778757049
 10
336.2717448909604
 20
205.4201330872097
 10
333.8142569846992
 20
210.1175372879646
 10
331.2102244861658
 20
214.7450564075402
 10
328.466912458372
 20
219.2897784677473
 10
325.5919863593908
 20
223.7390105412797
 10
322.5934646271515
 20
228.0803304587418
 10
319.4797265819734
 20
232.3016187488313
 10
316.2594650113621
 20
236.3910920942573
 10
312.9416703649407
 20
240.3373246232185
 10
309.5356096810252
 20
244.1292965770507
 10
307.3504536364172
 20
246.4324849648856
  0
ARC
  5
366
330
1F
100
AcDbEntity
  8
0
  6
Continuous
 62
     7
370
    25
100
AcDbCircle
 10
249.3772398651842
 20
239.2427962420377
 30
0.0
 40
37.63247065298656
100
AcDbArc
 50
84.83998775908647
 51
119.086467329383
  0
LINE
  5
367
330
1F
100
AcDbEntity
  8
0
  6
Continuous
 62
     7
370
    25
100
AcDbLine
 10
234.5250484375227
 20
238.2022841542428
 30
0.0
 11
233.6765202597959
 21
237.7124392638827
 31
0.0
  0
LINE
  5
368
330
1F
100
AcDbEntity
  8
0
  6
Continuous
 62
     7
370
    25
100
AcDbLine
 10
233.6765202597959
 20
185.5292992420701
 30
0.0
 11
234.5250484375227
 21
186.0191441324301
 31
0.0
  0
LWPOLYLINE
  5
369
330
1F
100
AcDbEntity
  8
0
  6
Continuous
 62
     7
370
    25
100
AcDbPolyline
 90
       32
 70
   128
 43
0.0
 10
234.5250484375227
 20
186.0191441324301
 10
236.0119313010703
 20
181.8683365037131
 10
237.6722932272668
 20
177.7298631309884
 10
239.4997753103431
 20
173.6195745060846
 10
241.4873838076245
 20
169.5531978662728
 10
243.6275059445986
 20
165.546303735383
 10
245.9119546959421
 20
161.6142314026424
 10
248.3319793222331
 20
157.7720311284846
 10
250.8783206876892
 20
154.0344078754862
 10
253.5412296994143
 20
150.4156772032493
 10
256.3105094542469
 20
146.929689226067
 10
259.1755652881425
 20
143.5897814689207
 10
262.1254232154199
 20
140.4087499716204
 10
265.1487944661235
 20
137.3987633625536
 10
268.2341044619809
 20
134.5713522149238
 10
271.3695422072415
 20
131.9373318644014
 10
274.5431050697027
 20
129.506788724994
 10
277.7426448788258
 20
127.2890293423577
 10
280.9559130360345
 20
125.2925421847701
 10
284.1706092470088
 20
123.5249695105758
 10
287.374427290528
 20
121.9930748626923
 10
290.5551024336753
 20
120.7027339475049
 10
293.7004591763152
 20
119.6588705703476
 10
296.7984566906633
 20
118.8654851571255
 10
299.8372365657647
 20
118.3256271920151
 10
302.8051636372522
 20
118.0413473121331
 10
305.6908793294522
 20
118.0137395182324
 10
308.4833345826098
 20
118.2429099988129
 10
311.1718425364492
 20
118.7279832187682
 10
313.7461088232218
 20
119.4670996408399
 10
316.1962789829102
 20
120.4574339811752
 10
317.6492230966945
 20
121.1961410009386
  0
ARC
  5
36A
330
1F
100
AcDbEntity
  8
0
  6
Continuous
 62
     7
370
    25
100
AcDbCircle
 10
258.3208052462506
 20
225.5871480887094
 30
0.0
 40
26.93287396569562
100
AcDbArc
 50
121.720627713614
 51
152.070047672485
  0
LWPOLYLINE
  5
36B
330
1F
100
AcDbEntity
  8
0
  6
Continuous
 62
     7
370
    25
100
AcDbPolyline
 90
        3
 70
   128
 43
0.0
 10
234.388218693832
 20
238.0588328045429
 10
234.45355157738
 20
238.1080165491792
 10
234.5250484375227
 20
238.2022841542428
  0
LINE
  5
36C
330
1F
100
AcDbEntity
  8
0
  6
Continuous
 62
     7
370
    25
100
AcDbLine
 10
233.5894252790732
 20
186.9443176234263
 30
0.0
 11
232.7408971013465
 21
186.4544727330663
 31
0.0
  0
ARC
  5
36D
330
1F
100
AcDbEntity
  8
0
  6
Continuous
 62
     7
370
    25
100
AcDbCircle
 10
233.2874562856576
 20
185.7032557727766
 30
0.0
 40
1.277270445176976
100
AcDbArc
 50
14.31869457527121
 51
76.32480996769799
  0
LINE
  5
36E
330
1F
100
AcDbEntity
  8
0
  6
Continuous
 62
     7
370
    25
100
AcDbLine
 10
216.7184038550056
 20
187.0763511430594
 30
0.0
 11
217.5669320327323
 21
187.5661960334194
 31
0.0
  0
LINE
  5
36F
330
1F
100
AcDbEntity
  8
0
  6
Continuous
 62
     7
370
    25
100
AcDbLine
 10
217.5669320327323
 20
187.5661960334194
 30
0.0
 11
233.5894252790732
 21
186.9443176234263
 31
0.0
  0
LWPOLYLINE
  5
370
330
1F
100
AcDbEntity
  8
0
  6
Continuous
 62
     7
370
    25
100
AcDbPolyline
 90
        3
 70
   128
 43
0.0
 10
217.5669320327323
 20
187.5661960334194
 10
217.4469346866658
 20
187.5533207834271
 10
217.3658125399944
 20
187.5196915861376
  0
LINE
  5
371
330
1F
100
AcDbEntity
  8
0
  6
Continuous
 62
     8
370
    25
100
AcDbLine
 10
308.376409921253
 20
82.52452196441495
 30
0.0
 11
307.3504528955546
 21
83.11679434847848
 31
0.0
  0
LINE
  5
372
330
1F
100
AcDbEntity
  8
0
  6
Continuous
 62
     8
370
    25
100
AcDbLine
 10
323.4522091351026
 20
94.43499875770248
 30
0.0
 11
326.2302027508648
 21
92.8312971790709
 31
0.0
  0
LINE
  5
373
330
1F
100
AcDbEntity
  8
0
  6
Continuous
 62
     8
370
    25
100
AcDbLine
 10
326.2540499645879
 20
90.04345775429369
 30
0.0
 11
324.6761931285295
 21
90.9543351171804
 31
0.0
  0
LINE
  5
374
330
1F
100
AcDbEntity
  8
0
  6
Continuous
 62
     8
370
    25
100
AcDbLine
 10
326.7958885319549
 20
91.52477569608974
 30
0.0
 11
326.2301118717227
 21
91.85139160982657
 31
0.0
  0
LINE
  5
375
330
1F
100
AcDbEntity
  8
0
  6
Continuous
 62
     8
370
    25
100
AcDbLine
 10
325.7833052281246
 20
91.59345390427363
 30
0.0
 11
326.7958885319549
 21
91.00890200550942
 31
0.0
  0
LINE
  5
376
330
1F
100
AcDbEntity
  8
0
  6
Continuous
 62
     8
370
    25
100
AcDbLine
 10
326.2302027508648
 20
268.1262796052669
 30
0.0
 11
324.5817736511529
 21
269.0778974687748
 31
0.0
  0
LINE
  5
377
330
1F
100
AcDbEntity
  8
0
  6
Continuous
 62
     8
370
    25
100
AcDbLine
 10
326.7958885319549
 20
269.6219482860132
 30
0.0
 11
326.2295824019383
 21
269.9488698561505
 31
0.0
  0
LINE
  5
378
330
1F
100
AcDbEntity
  8
0
  6
Continuous
 62
     8
370
    25
100
AcDbLine
 10
325.7630879117296
 20
269.7022977025234
 30
0.0
 11
326.7958885319549
 21
269.1060745954329
 31
0.0
  0
LINE
  5
379
330
1F
100
AcDbEntity
  8
0
  6
Continuous
 62
     7
370
    25
100
AcDbLine
 10
1013.880470158747
 20
112.5924006649525
 30
0.0
 11
992.6672671973031
 21
100.346279261334
 31
0.0
  0
LINE
  5
37A
330
1F
100
AcDbEntity
  8
0
  6
Continuous
 62
     7
370
    25
100
AcDbLine
 10
580.6908832586555
 20
362.6674261857888
 30
0.0
 11
559.4776802972111
 21
350.4213047821703
 31
0.0
  0
LWPOLYLINE
  5
37B
330
1F
100
AcDbEntity
  8
0
  6
Continuous
 62
     7
370
    25
100
AcDbPolyline
 90
        9
 70
   128
 43
0.0
 10
995.4518673315693
 20
98.33043783409575
 10
995.1841294764038
 20
98.88609207157641
 10
994.8394314758575
 20
99.39815848027787
 10
994.438783533913
 20
99.8354052997854
 10
994.0066518961309
 20
100.1711425783618
 10
993.5693994162546
 20
100.3848859194266
 10
993.153662902543
 20
100.4636186976972
 10
992.7848779780727
 20
100.4024976303345
 10
992.4854878396756
 20
100.2052845517878
  0
LINE
  5
37C
330
1F
100
AcDbEntity
  8
0
  6
Continuous
 62
     7
370
    25
100
AcDbLine
 10
1010.024751333514
 20
62.236936027696
 30
0.0
 11
995.4518673315693
 21
98.33043783409575
 31
0.0
  0
LINE
  5
37D
330
1F
100
AcDbEntity
  8
0
  6
Continuous
 62
     7
370
    25
100
AcDbLine
 10
1009.161162407526
 20
62.73547530296212
 30
0.0
 11
1010.024751333514
 21
62.23693602769597
 31
0.0
  0
LINE
  5
37E
330
1F
100
AcDbEntity
  8
0
  6
Continuous
 62
     7
370
    25
100
AcDbLine
 10
994.779330069881
 20
98.46003365078017
 30
0.0
 11
1009.161162407526
 21
62.73547530296212
 31
0.0
  0
LWPOLYLINE
  5
37F
330
1F
100
AcDbEntity
  8
0
  6
Continuous
 62
     7
370
    25
100
AcDbPolyline
 90
        9
 70
   128
 43
0.0
 10
992.9974034616888
 20
99.58387622802987
 10
993.1767804489512
 20
99.70341044936445
 10
993.3981356973305
 20
99.74099200293917
 10
993.6478557747575
 20
99.69434430639278
 10
993.9106835220714
 20
99.56630397560855
 10
994.1704977697169
 20
99.3647205167757
 10
994.4113670089567
 20
99.10195756160211
 10
994.618539842812
 20
98.79410816254774
 10
994.779330069881
 20
98.46003365078017
  0
LINE
  5
380
330
1F
100
AcDbEntity
  8
0
  6
Continuous
 62
     7
370
    25
100
AcDbLine
 10
978.0245880142242
 20
80.71023709665288
 30
0.0
 11
992.9974034616888
 21
99.58387622802987
 31
0.0
  0
LINE
  5
381
330
1F
100
AcDbEntity
  8
0
  6
Continuous
 62
     7
370
    25
100
AcDbLine
 10
576.6309840258113
 20
312.4298323888948
 30
0.0
 11
978.0245880142242
 21
80.71023709665285
 31
0.0
  0
LINE
  5
382
330
1F
100
AcDbEntity
  8
0
  6
Continuous
 62
     7
370
    25
100
AcDbLine
 10
561.6581685783464
 20
348.590716266564
 30
0.0
 11
576.6309840258113
 21
312.4298323888948
 31
0.0
  0
LWPOLYLINE
  5
383
330
1F
100
AcDbEntity
  8
0
  6
Continuous
 62
     7
370
    25
100
AcDbPolyline
 90
        9
 70
   128
 43
0.0
 10
559.8762419701544
 20
349.5242423588095
 10
560.0370321972234
 20
349.6726724259561
 10
560.2442050310787
 20
349.7413251624853
 10
560.4850742703185
 20
349.7259864135939
 10
560.7448885179638
 20
349.6275947272459
 10
561.0077162652777
 20
349.4521806001912
 10
561.2574363427048
 20
349.2105076324182
 10
561.4787915910841
 20
348.9173547490536
 10
561.6581685783464
 20
348.590716266564
  0
LINE
  5
384
330
1F
100
AcDbEntity
  8
0
  6
Continuous
 62
     7
370
    25
100
AcDbLine
 10
545.4944096325092
 20
330.4045941825855
 30
0.0
 11
559.8762419701544
 21
349.5242423588095
 31
0.0
  0
LINE
  5
385
330
1F
100
AcDbEntity
  8
0
  6
Continuous
 62
     7
370
    25
100
AcDbLine
 10
544.630820706521
 20
330.9031334578516
 30
0.0
 11
545.4944096325092
 21
330.4045941825855
 31
0.0
  0
LINE
  5
386
330
1F
100
AcDbEntity
  8
0
  6
Continuous
 62
     7
370
    25
100
AcDbLine
 10
559.203704708466
 20
350.1711415363096
 30
0.0
 11
544.630820706521
 21
330.9031334578516
 31
0.0
  0
LWPOLYLINE
  5
387
330
1F
100
AcDbEntity
  8
0
  6
Continuous
 62
     7
370
    25
100
AcDbPolyline
 90
        9
 70
   128
 43
0.0
 10
562.1700842003597
 20
348.6210793938961
 10
561.8706940619627
 20
349.1639609684753
 10
561.5019091374923
 20
349.6508720464363
 10
561.0861726237808
 20
350.0521384298274
 10
560.6489201439046
 20
350.3432360561856
 10
560.2167885061224
 20
350.5064273465994
 10
559.8161405641778
 20
350.5317587946058
 10
559.4714425636315
 20
350.417672226096
 10
559.203704708466
 20
350.1711415363096
  0
LINE
  5
388
330
1F
100
AcDbEntity
  8
0
  6
Continuous
 62
     7
370
    25
100
AcDbLine
 10
577.0451821795521
 20
313.0111968453294
 30
0.0
 11
562.1700842003597
 21
348.6210793938961
 31
0.0
  0
LINE
  5
389
330
1F
100
AcDbEntity
  8
0
  6
Continuous
 62
     7
370
    25
100
AcDbLine
 10
977.6103898604834
 20
81.76982456213369
 30
0.0
 11
577.0451821795521
 21
313.0111968453294
 31
0.0
  0
LINE
  5
38A
330
1F
100
AcDbEntity
  8
0
  6
Continuous
 62
     7
370
    25
100
AcDbLine
 10
992.4854878396756
 20
100.2052845517878
 30
0.0
 11
977.6103898604834
 21
81.76982456213369
 31
0.0
  0
LINE
  5
38B
330
1F
100
AcDbEntity
  8
0
  6
Continuous
 62
     7
370
    25
100
AcDbLine
 10
995.4518673315693
 20
98.33043783409575
 30
0.0
 11
1016.665070293014
 21
110.5765592377142
 31
0.0
  0
LINE
  5
38C
330
1F
100
AcDbEntity
  8
0
  6
Continuous
 62
     7
370
    25
100
AcDbLine
 10
1031.237954294959
 20
74.48305743131448
 30
0.0
 11
1016.665070293014
 21
110.5765592377142
 31
0.0
  0
LINE
  5
38D
330
1F
100
AcDbEntity
  8
0
  6
Continuous
 62
     7
370
    25
100
AcDbLine
 10
1031.237954294959
 20
74.48305743131442
 30
0.0
 11
1010.024751333514
 21
62.23693602769595
 31
0.0
  0
LWPOLYLINE
  5
38E
330
1F
100
AcDbEntity
  8
0
  6
Continuous
 62
     7
370
    25
100
AcDbPolyline
 90
        9
 70
   128
 43
0.0
 10
1016.665070293014
 20
110.5765592377142
 10
1016.397332437848
 20
111.1322134751949
 10
1016.052634437302
 20
111.6442798838963
 10
1015.651986495357
 20
112.0815267034038
 10
1015.219854857575
 20
112.4172639819802
 10
1014.782602377699
 20
112.6310073230451
 10
1014.366865863987
 20
112.7097401013157
 10
1013.998080939517
 20
112.648619033953
 10
1013.880470158747
 20
112.5924006649525
  0
LINE
  5
38F
330
1F
100
AcDbEntity
  8
0
  6
Continuous
 62
     7
370
    25
100
AcDbLine
 10
992.9974034616888
 20
99.58387622802987
 30
0.0
 11
993.2391880777947
 21
99.72345551587912
 31
0.0
  0
LINE
  5
390
330
1F
100
AcDbEntity
  8
0
  6
Continuous
 62
     7
370
    25
100
AcDbLine
 10
978.0245880142242
 20
80.71023709665285
 30
0.0
 11
997.4179163987484
 21
91.90576726947845
 31
0.0
  0
LINE
  5
391
330
1F
100
AcDbEntity
  8
0
  6
Continuous
 62
     7
370
    25
100
AcDbLine
 10
611.2107238878325
 20
318.7107974537759
 30
0.0
 11
987.4834574646
 21
101.49317196707
 31
0.0
  0
LINE
  5
392
330
1F
100
AcDbEntity
  8
0
  6
Continuous
 62
     7
370
    25
100
AcDbLine
 10
986.677355769846
 20
101.027819363997
 30
0.0
 11
987.4834574646
 21
101.49317196707
 31
0.0
  0
LINE
  5
393
330
1F
100
AcDbEntity
  8
0
  6
Continuous
 62
     7
370
    25
100
AcDbLine
 10
577.0451821795521
 20
313.0111968453294
 30
0.0
 11
598.2583851409965
 21
325.2573182489479
 31
0.0
  0
LINE
  5
394
330
1F
100
AcDbEntity
  8
0
  6
Continuous
 62
     7
370
    25
100
AcDbLine
 10
610.4046221930783
 20
318.245444850703
 30
0.0
 11
598.2583851409965
 21
325.2573182489479
 31
0.0
  0
LINE
  5
395
330
1F
100
AcDbEntity
  8
0
  6
Continuous
 62
     7
370
    25
100
AcDbLine
 10
611.2107238878325
 20
318.7107974537759
 30
0.0
 11
610.4046221930783
 21
318.245444850703
 31
0.0
  0
LINE
  5
396
330
1F
100
AcDbEntity
  8
0
  6
Continuous
 62
     7
370
    25
100
AcDbLine
 10
991.0925753261501
 20
98.47896736798286
 30
0.0
 11
986.677355769846
 21
101.027819363997
 31
0.0
  0
ARC
  5
397
330
1F
100
AcDbEntity
  8
0
  6
Continuous
 62
     7
370
    25
100
AcDbCircle
 10
984.9991299091403
 20
104.5565128532274
 30
0.0
 40
4.610413940716393
100
AcDbArc
 50
302.6054761956585
 51
357.3945249424467
  0
ARC
  5
398
330
1F
100
AcDbEntity
  8
0
  6
Continuous
 62
     7
370
    25
100
AcDbCircle
 10
985.8272389074246
 20
104.0823833362458
 30
0.0
 40
3.073609510559531
100
AcDbArc
 50
302.6054777462961
 51
357.3945240336732
  0
LINE
  5
399
330
1F
100
AcDbEntity
  8
0
  6
Continuous
 62
     7
370
    25
100
AcDbLine
 10
988.8976710118267
 20
103.9426617714875
 30
0.0
 11
988.8976710118267
 21
123.6294610299794
 31
0.0
  0
LINE
  5
39A
330
1F
100
AcDbEntity
  8
0
  6
Continuous
 62
     7
370
    25
100
AcDbLine
 10
988.8976710118267
 20
123.6294610299794
 30
0.0
 11
989.6047777442809
 21
124.0376650577581
 31
0.0
  0
LINE
  5
39B
330
1F
100
AcDbEntity
  8
0
  6
Continuous
 62
     7
370
    25
100
AcDbLine
 10
989.6047777442809
 20
124.0376650577581
 30
0.0
 11
989.6047777442809
 21
104.34693059392
 31
0.0
  0
LINE
  5
39C
330
1F
100
AcDbEntity
  8
0
  6
Continuous
 62
     7
370
    25
100
AcDbLine
 10
987.4834574646
 20
100.6726960061122
 30
0.0
 11
987.3879857977359
 21
100.6175813859792
 31
0.0
  0
LINE
  5
39D
330
1F
100
AcDbEntity
  8
0
  6
Continuous
 62
     7
370
    25
100
AcDbLine
 10
613.3320441675133
 20
341.255290544464
 30
0.0
 11
989.6047777442809
 21
124.0376650577581
 31
0.0
  0
LINE
  5
39E
330
1F
100
AcDbEntity
  8
0
  6
Continuous
 62
     7
370
    25
100
AcDbLine
 10
612.6249374350591
 20
340.8470865166852
 30
0.0
 11
988.8976710118267
 21
123.6294610299794
 31
0.0
  0
LINE
  5
39F
330
1F
100
AcDbEntity
  8
0
  6
Continuous
 62
     7
370
    25
100
AcDbLine
 10
613.3320441675133
 20
341.255290544464
 30
0.0
 11
612.6249374350591
 21
340.8470865166852
 31
0.0
  0
LINE
  5
3A0
330
1F
100
AcDbEntity
  8
0
  6
Continuous
 62
     7
370
    25
100
AcDbLine
 10
988.8976710118267
 20
103.9426617714875
 30
0.0
 11
612.6249374350591
 21
321.1602872581934
 31
0.0
  0
LINE
  5
3A1
330
1F
100
AcDbEntity
  8
0
  6
Continuous
 62
     7
370
    25
100
AcDbLine
 10
612.6249374350591
 20
340.8470865166852
 30
0.0
 11
612.6249374350591
 21
321.1602872581934
 31
0.0
  0
LWPOLYLINE
  5
3A2
330
1F
100
AcDbEntity
  8
0
  6
Continuous
 62
     7
370
    25
100
AcDbPolyline
 90
       17
 70
   128
 43
0.0
 10
812.4285660498006
 20
216.071859800651
 10
812.347828493122
 20
216.5871837053335
 10
812.1179055806939
 20
217.1172724473171
 10
811.7738029043827
 20
217.5814251869565
 10
811.367905704165
 20
217.9089774034737
 10
810.9620091624918
 20
218.050063738898
 10
810.6179058276362
 20
217.9832038728886
 10
810.3879835737526
 20
217.7185780948787
 10
810.3072460170739
 20
217.296471788945
 10
810.3879835737526
 20
216.7811486447254
 10
810.6179058276362
 20
216.2510595224486
 10
810.9620091624918
 20
215.7869071631025
 10
811.367905704165
 20
215.4593553267549
 10
811.7738029043827
 20
215.3182686111609
 10
812.1179055806939
 20
215.3851280968771
 10
812.347828493122
 20
215.6497542551802
 10
812.4285660498006
 20
216.071859800651
  0
LWPOLYLINE
  5
3A3
330
1F
100
AcDbEntity
  8
0
  6
Continuous
 62
     7
370
    25
100
AcDbPolyline
 90
       17
 70
   128
 43
0.0
 10
674.5427461418678
 20
295.671649304341
 10
674.4620033168331
 20
296.1869762503807
 10
674.232081721494
 20
296.7170642320249
 10
673.887984313539
 20
297.1812139303071
 10
673.4820785522426
 20
297.5087710890298
 10
673.0761833276585
 20
297.6498566641148
 10
672.7320859197034
 20
297.5829933765785
 10
672.5021643243643
 20
297.318367218399
 10
672.4214214993296
 20
296.8962639538225
 10
672.5021643243643
 20
296.3809377682457
 10
672.7320859197034
 20
295.8508490261386
 10
673.0761833276585
 20
295.3867000883193
 10
673.4820785522426
 20
295.059149012311
 10
673.887984313539
 20
294.9180573545115
 10
674.232081721494
 20
294.9849198815849
 10
674.4620033168331
 20
295.2495468002274
 10
674.5427461418678
 20
295.671649304341
  0
LWPOLYLINE
  5
3A4
330
1F
100
AcDbEntity
  8
0
  6
Continuous
 62
     7
370
    25
100
AcDbPolyline
 90
       17
 70
   128
 43
0.0
 10
685.1493482811345
 20
289.5485882223621
 10
685.0686054560997
 20
290.0639151684018
 10
684.8386838607607
 20
290.594003150046
 10
684.4945864528057
 20
291.0581528483282
 10
684.0886806915094
 20
291.3857100070509
 10
683.6827854669252
 20
291.5267955821359
 10
683.33868805897
 20
291.4599322945996
 10
683.108766463631
 20
291.1953061364201
 10
683.0280236385964
 20
290.7732028718436
 10
683.108766463631
 20
290.2578766862668
 10
683.33868805897
 20
289.7277879441597
 10
683.6827854669252
 20
289.2636390063404
 10
684.0886806915094
 20
288.9360879303321
 10
684.4945864528057
 20
288.7949962725327
 10
684.8386838607607
 20
288.861858799606
 10
685.0686054560997
 20
289.1264857182485
 10
685.1493482811345
 20
289.5485882223621
  0
LWPOLYLINE
  5
3A5
330
1F
100
AcDbEntity
  8
0
  6
Continuous
 62
     7
370
    25
100
AcDbPolyline
 90
       17
 70
   128
 43
0.0
 10
695.7559504204011
 20
283.4255271403831
 10
695.6752075953665
 20
283.9408540864229
 10
695.4452860000274
 20
284.4709420680672
 10
695.1011885920723
 20
284.9350917663493
 10
694.6952828307761
 20
285.262648925072
 10
694.2893876061918
 20
285.403734500157
 10
693.9452901982368
 20
285.3368712126207
 10
693.7153686028977
 20
285.0722450544412
 10
693.634625777863
 20
284.6501417898647
 10
693.7153686028977
 20
284.1348156042879
 10
693.9452901982368
 20
283.6047268621808
 10
694.2893876061918
 20
283.1405779243615
 10
694.6952828307761
 20
282.8130268483532
 10
695.1011885920723
 20
282.6719351905538
 10
695.4452860000274
 20
282.7387977176271
 10
695.6752075953665
 20
283.0034246362696
 10
695.7559504204011
 20
283.4255271403831
  0
LWPOLYLINE
  5
3A6
330
1F
100
AcDbEntity
  8
0
  6
Continuous
 62
     7
370
    25
100
AcDbPolyline
 90
       17
 70
   128
 43
0.0
 10
706.3625525596678
 20
277.3024660584042
 10
706.2818097346331
 20
277.817793004444
 10
706.051888139294
 20
278.3478809860882
 10
705.7077907313391
 20
278.8120306843704
 10
705.3018849700428
 20
279.1395878430931
 10
704.8959897454586
 20
279.2806734181781
 10
704.5518923375034
 20
279.2138101306418
 10
704.3219707421643
 20
278.9491839724623
 10
704.2412279171298
 20
278.5270807078858
 10
704.3219707421643
 20
278.011754522309
 10
704.5518923375034
 20
277.4816657802018
 10
704.8959897454586
 20
277.0175168423826
 10
705.3018849700428
 20
276.6899657663743
 10
705.7077907313391
 20
276.5488741085749
 10
706.051888139294
 20
276.6157366356482
 10
706.2818097346331
 20
276.8803635542907
 10
706.3625525596678
 20
277.3024660584042
  0
LWPOLYLINE
  5
3A7
330
1F
100
AcDbEntity
  8
0
  6
Continuous
 62
     7
370
    25
100
AcDbPolyline
 90
       17
 70
   128
 43
0.0
 10
716.9691494305785
 20
271.1794080177826
 10
716.8884118738998
 20
271.694731922465
 10
716.6584902785607
 20
272.2248199041093
 10
716.3143876022497
 20
272.6889726437487
 10
715.9084923776655
 20
273.0165237197569
 10
715.5025918847252
 20
273.1576123361992
 10
715.158489208414
 20
273.0907520900201
 10
714.9285676130751
 20
272.8261259318406
 10
714.8478300563964
 20
272.4040196259069
 10
714.9285676130751
 20
271.8886964816873
 10
715.158489208414
 20
271.3586077395801
 10
715.5025918847252
 20
270.8944557604037
 10
715.9084923776655
 20
270.5669016430382
 10
716.3143876022497
 20
270.4258160679532
 10
716.6584902785607
 20
270.4926755536693
 10
716.8884118738998
 20
270.7573024723118
 10
716.9691494305785
 20
271.1794080177826
  0
LWPOLYLINE
  5
3A8
330
1F
100
AcDbEntity
  8
0
  6
Continuous
 62
     7
370
    25
100
AcDbPolyline
 90
       17
 70
   128
 43
0.0
 10
727.5757515698452
 20
265.0563469358037
 10
727.4950140131664
 20
265.5716708404861
 10
727.2650924178273
 20
266.1017588221304
 10
726.9209897415163
 20
266.5659115617698
 10
726.5150945169322
 20
266.893462637778
 10
726.1091940239919
 20
267.0345512542203
 10
725.7650913476807
 20
266.9676910080412
 10
725.5351697523417
 20
266.7030648498617
 10
725.4544321956631
 20
266.280958543928
 10
725.5351697523417
 20
265.7656353997085
 10
725.7650913476807
 20
265.2355466576012
 10
726.1091940239919
 20
264.7713946784248
 10
726.5150945169322
 20
264.4438405610593
 10
726.9209897415163
 20
264.3027549859743
 10
727.2650924178273
 20
264.3696144716904
 10
727.4950140131664
 20
264.6342413903329
 10
727.5757515698452
 20
265.0563469358037
  0
LWPOLYLINE
  5
3A9
330
1F
100
AcDbEntity
  8
0
  6
Continuous
 62
     7
370
    25
100
AcDbPolyline
 90
       17
 70
   128
 43
0.0
 10
738.1823537091118
 20
258.9332858538248
 10
738.1016161524331
 20
259.4486097585072
 10
737.8716945570941
 20
259.9786977401515
 10
737.527591880783
 20
260.4428504797909
 10
737.1216913878428
 20
260.7704045971564
 10
736.7157961632586
 20
260.9114901722414
 10
736.3716934869475
 20
260.8446299260624
 10
736.1417718916084
 20
260.5800037678828
 10
736.0610343349297
 20
260.1578974619491
 10
736.1417718916084
 20
259.6425743177295
 10
736.3716934869475
 20
259.1124855756223
 10
736.7157961632586
 20
258.6483335964459
 10
737.1216913878428
 20
258.3207825204376
 10
737.527591880783
 20
258.1796939039953
 10
737.8716945570941
 20
258.2465533897115
 10
738.1016161524331
 20
258.511180308354
 10
738.1823537091118
 20
258.9332858538248
  0
LWPOLYLINE
  5
3AA
330
1F
100
AcDbEntity
  8
0
  6
Continuous
 62
     7
370
    25
100
AcDbPolyline
 90
       17
 70
   128
 43
0.0
 10
748.7889558483786
 20
252.8102247718458
 10
748.7082182916998
 20
253.3255486765284
 10
748.4782966963607
 20
253.8556366581726
 10
748.1341940200496
 20
254.319789397812
 10
747.7282935271094
 20
254.6473435151775
 10
747.3223983025254
 20
254.7884290902625
 10
746.9782956262141
 20
254.7215688440835
 10
746.748374030875
 20
254.4569426859038
 10
746.6676364741964
 20
254.0348363799702
 10
746.748374030875
 20
253.5195132357506
 10
746.9782956262141
 20
252.9894244936434
 10
747.3223983025254
 20
252.5252725144669
 10
747.7282935271094
 20
252.1977214384587
 10
748.1341940200496
 20
252.0566328220165
 10
748.4782966963607
 20
252.1234923077326
 10
748.7082182916998
 20
252.388119226375
 10
748.7889558483786
 20
252.8102247718458
  0
LWPOLYLINE
  5
3AB
330
1F
100
AcDbEntity
  8
0
  6
Continuous
 62
     7
370
    25
100
AcDbPolyline
 90
       17
 70
   128
 43
0.0
 10
759.3955579876452
 20
246.687163689867
 10
759.3148204309665
 20
247.2024875945495
 10
759.0848962014494
 20
247.7325770968723
 10
758.7407935251383
 20
248.1967298365117
 10
758.3348983005541
 20
248.52428091252
 10
757.929000441792
 20
248.6653680082836
 10
757.5848977654808
 20
248.5985077621045
 10
757.3549761701417
 20
248.3338816039249
 10
757.2742359792851
 20
247.9117768186699
 10
757.3549761701417
 20
247.3964521537717
 10
757.5848977654808
 20
246.8663634116645
 10
757.929000441792
 20
246.4022114324881
 10
758.3348983005541
 20
246.0746588358012
 10
758.7407935251383
 20
245.9335732607162
 10
759.0848962014494
 20
246.0004327464323
 10
759.3148204309665
 20
246.2650581443962
 10
759.3955579876452
 20
246.687163689867
  0
LWPOLYLINE
  5
3AC
330
1F
100
AcDbEntity
  8
0
  6
Continuous
 62
     7
370
    25
100
AcDbPolyline
 90
       17
 70
   128
 43
0.0
 10
770.0021601269119
 20
240.564102607888
 10
769.9214225702331
 20
241.0794265125705
 10
769.6914983407162
 20
241.6095160148934
 10
769.347395664405
 20
242.0736687545328
 10
768.9414978056428
 20
242.4012213512197
 10
768.5356025810587
 20
242.5423069263047
 10
768.1914999047474
 20
242.4754466801256
 10
767.9615756752305
 20
242.2108220426246
 10
767.8808381185517
 20
241.788715736691
 10
767.9615756752305
 20
241.2733925924714
 10
768.1914999047474
 20
240.7433023296856
 10
768.5356025810587
 20
240.2791503505091
 10
768.9414978056428
 20
239.9515992745009
 10
769.347395664405
 20
239.8105121787372
 10
769.6914983407162
 20
239.8773716644534
 10
769.9214225702331
 20
240.1419970624173
 10
770.0021601269119
 20
240.564102607888
  0
LWPOLYLINE
  5
3AD
330
1F
100
AcDbEntity
  8
0
  6
Continuous
 62
     7
370
    25
100
AcDbPolyline
 90
       17
 70
   128
 43
0.0
 10
780.6087609490896
 20
234.4410422862484
 10
780.5280233924109
 20
234.9563661909309
 10
780.2981004799828
 20
235.4864549329145
 10
779.9539978036716
 20
235.9506076725539
 10
779.5481012619984
 20
236.2781595089014
 10
779.1422034032364
 20
236.4192466046651
 10
778.7981007269252
 20
236.3523863584861
 10
778.5681778144971
 20
236.0877609606458
 10
778.4874402578184
 20
235.6656546547121
 10
778.5681778144971
 20
235.1503315104925
 10
778.7981007269252
 20
234.620242008046
 10
779.1422034032364
 20
234.1560900288695
 10
779.5481012619984
 20
233.8285374321827
 10
779.9539978036716
 20
233.6874510967583
 10
780.2981004799828
 20
233.7543105824745
 10
780.5280233924109
 20
234.0189367407777
 10
780.6087609490896
 20
234.4410422862484
  0
LWPOLYLINE
  5
3AE
330
1F
100
AcDbEntity
  8
0
  6
Continuous
 62
     7
370
    25
100
AcDbPolyline
 90
       17
 70
   128
 43
0.0
 10
791.2153624298118
 20
228.3179815844392
 10
791.134624873133
 20
228.8333054891217
 10
790.9047026192495
 20
229.3633938509356
 10
790.5605992843938
 20
229.8275469707446
 10
790.1547027427207
 20
230.1550988070922
 10
789.748805542503
 20
230.2961855226862
 10
789.4047028661918
 20
230.2293252765071
 10
789.1747799537638
 20
229.9646998786669
 10
789.094042397085
 20
229.5425935727332
 10
789.1747799537638
 20
229.0272704285136
 10
789.4047028661918
 20
228.4971809260671
 10
789.748805542503
 20
228.0330289468906
 10
790.1547027427207
 20
227.7054767303734
 10
790.5605992843938
 20
227.5643903949491
 10
790.9047026192495
 20
227.6312495004956
 10
791.134624873133
 20
227.8958760389684
 10
791.2153624298118
 20
228.3179815844392
  0
LWPOLYLINE
  5
3AF
330
1F
100
AcDbEntity
  8
0
  6
Continuous
 62
     7
370
    25
100
AcDbPolyline
 90
       17
 70
   128
 43
0.0
 10
929.1011869475561
 20
148.7181894195616
 10
929.0204441225213
 20
149.2335163656013
 10
928.7905225271824
 20
149.7636043472456
 10
928.4464251192272
 20
150.2277540455278
 10
928.040529894643
 20
150.5553051215361
 10
927.6346241333467
 20
150.6963967793355
 10
927.2905267253916
 20
150.6295334917992
 10
927.0606051300527
 20
150.3649073336196
 10
926.9798623050178
 20
149.9428040690432
 10
927.0606051300527
 20
149.4274778834664
 10
927.2905267253916
 20
148.8973891413592
 10
927.6346241333467
 20
148.43324020354
 10
928.040529894643
 20
148.1056830448173
 10
928.4464251192272
 20
147.9645974697323
 10
928.7905225271824
 20
148.0314599968056
 10
929.0204441225213
 20
148.2960869154481
 10
929.1011869475561
 20
148.7181894195616
  0
LWPOLYLINE
  5
3B0
330
1F
100
AcDbEntity
  8
0
  6
Continuous
 62
     7
370
    25
100
AcDbPolyline
 90
       17
 70
   128
 43
0.0
 10
918.4945848082893
 20
154.8412505015406
 10
918.4138419832546
 20
155.3565774475803
 10
918.1839203879155
 20
155.8866654292246
 10
917.8398229799604
 20
156.3508151275067
 10
917.4339277553762
 20
156.678366203515
 10
917.0280219940801
 20
156.8194578613144
 10
916.683924586125
 20
156.7525945737782
 10
916.4540029907859
 20
156.4879684155986
 10
916.3732601657512
 20
156.0658651510221
 10
916.4540029907859
 20
155.5505389654453
 10
916.683924586125
 20
155.0204502233381
 10
917.0280219940801
 20
154.5563012855189
 10
917.4339277553762
 20
154.2287441267962
 10
917.8398229799604
 20
154.0876585517112
 10
918.1839203879155
 20
154.1545210787845
 10
918.4138419832546
 20
154.4191479974271
 10
918.4945848082893
 20
154.8412505015406
  0
LWPOLYLINE
  5
3B1
330
1F
100
AcDbEntity
  8
0
  6
Continuous
 62
     7
370
    25
100
AcDbPolyline
 90
       17
 70
   128
 43
0.0
 10
907.8879826690226
 20
160.9643115835194
 10
907.8072398439879
 20
161.4796385295592
 10
907.5773182486488
 20
162.0097265112035
 10
907.2332208406937
 20
162.4738762094856
 10
906.8273256161097
 20
162.8014272854939
 10
906.4214198548134
 20
162.9425189432933
 10
906.0773224468583
 20
162.8756556557571
 10
905.8474008515192
 20
162.6110294975775
 10
905.7666580264845
 20
162.188926233001
 10
905.8474008515192
 20
161.6736000474242
 10
906.0773224468583
 20
161.143511305317
 10
906.4214198548134
 20
160.6793623674978
 10
906.8273256161097
 20
160.3518052087751
 10
907.2332208406937
 20
160.2107196336901
 10
907.5773182486488
 20
160.2775821607634
 10
907.8072398439879
 20
160.5422090794059
 10
907.8879826690226
 20
160.9643115835194
  0
LWPOLYLINE
  5
3B2
330
1F
100
AcDbEntity
  8
0
  6
Continuous
 62
     7
370
    25
100
AcDbPolyline
 90
       17
 70
   128
 43
0.0
 10
897.281380529756
 20
167.0873726654984
 10
897.2006377047211
 20
167.6026996115381
 10
896.970716109382
 20
168.1327875931824
 10
896.6266187014271
 20
168.5969372914645
 10
896.2207234768429
 20
168.9244883674728
 10
895.8148177155466
 20
169.0655800252722
 10
895.4707203075916
 20
168.998716737736
 10
895.2407987122526
 20
168.7340905795564
 10
895.1600558872177
 20
168.3119873149799
 10
895.2407987122526
 20
167.7966611294031
 10
895.4707203075916
 20
167.266572387296
 10
895.8148177155466
 20
166.8024234494767
 10
896.2207234768429
 20
166.474866290754
 10
896.6266187014271
 20
166.333780715669
 10
896.970716109382
 20
166.4006432427423
 10
897.2006377047211
 20
166.6652701613848
 10
897.281380529756
 20
167.0873726654984
  0
LWPOLYLINE
  5
3B3
330
1F
100
AcDbEntity
  8
0
  6
Continuous
 62
     7
370
    25
100
AcDbPolyline
 90
       17
 70
   128
 43
0.0
 10
886.6747783904893
 20
173.2104337474773
 10
886.5940408338106
 20
173.7257576521598
 10
886.3641192384717
 20
174.2558456338041
 10
886.0200165621604
 20
174.7199983734434
 10
885.6141160692201
 20
175.0475524908089
 10
885.2082208446361
 20
175.1886380658939
 10
884.864118168325
 20
175.1217778197148
 10
884.6341965729859
 20
174.8571516615353
 10
884.5534590163072
 20
174.4350453556016
 10
884.6341965729859
 20
173.919722211382
 10
884.864118168325
 20
173.3896334692749
 10
885.2082208446361
 20
172.9254814900984
 10
885.6141160692201
 20
172.5979304140901
 10
886.0200165621604
 20
172.4568417976479
 10
886.3641192384717
 20
172.523701283364
 10
886.5940408338106
 20
172.7883282020065
 10
886.6747783904893
 20
173.2104337474773
  0
LWPOLYLINE
  5
3B4
330
1F
100
AcDbEntity
  8
0
  6
Continuous
 62
     7
370
    25
100
AcDbPolyline
 90
       17
 70
   128
 43
0.0
 10
876.0681762512227
 20
179.3334948294562
 10
875.987438694544
 20
179.8488187341387
 10
875.7575170992049
 20
180.3789067157829
 10
875.4134144228938
 20
180.8430594554223
 10
875.0075139299536
 20
181.1706135727878
 10
874.6016187053694
 20
181.3116991478728
 10
874.2575160290583
 20
181.2448389016937
 10
874.0275944337193
 20
180.9802127435142
 10
873.9468568770405
 20
180.5581064375805
 10
874.0275944337193
 20
180.0427832933609
 10
874.2575160290583
 20
179.5126945512538
 10
874.6016187053694
 20
179.0485425720773
 10
875.0075139299536
 20
178.720991496069
 10
875.4134144228938
 20
178.5799028796268
 10
875.7575170992049
 20
178.6467623653429
 10
875.987438694544
 20
178.9113892839854
 10
876.0681762512227
 20
179.3334948294562
  0
LWPOLYLINE
  5
3B5
330
1F
100
AcDbEntity
  8
0
  6
Continuous
 62
     7
370
    25
100
AcDbPolyline
 90
       17
 70
   128
 43
0.0
 10
865.461574111956
 20
185.4565559114351
 10
865.3808365552773
 20
185.9718798161176
 10
865.1509149599382
 20
186.5019677977619
 10
864.8068122836271
 20
186.9661205374012
 10
864.4009170590429
 20
187.2936716134095
 10
863.9950165661026
 20
187.4347602298517
 10
863.6509138897915
 20
187.3678999836727
 10
863.4209922944526
 20
187.1032738254931
 10
863.3402547377739
 20
186.6811675195594
 10
863.4209922944526
 20
186.1658443753398
 10
863.6509138897915
 20
185.6357556332327
 10
863.9950165661026
 20
185.1716036540562
 10
864.4009170590429
 20
184.8440495366907
 10
864.8068122836271
 20
184.7029639616057
 10
865.1509149599382
 20
184.7698234473218
 10
865.3808365552773
 20
185.0344503659643
 10
865.461574111956
 20
185.4565559114351
  0
LWPOLYLINE
  5
3B6
330
1F
100
AcDbEntity
  8
0
  6
Continuous
 62
     7
370
    25
100
AcDbPolyline
 90
       17
 70
   128
 43
0.0
 10
854.8549719726892
 20
191.579616993414
 10
854.7742344160106
 20
192.0949408980965
 10
854.5443128206715
 20
192.6250288797408
 10
854.2002101443603
 20
193.0891816193801
 10
853.7943149197763
 20
193.4167326953884
 10
853.3884144268359
 20
193.5578213118306
 10
853.0443117505249
 20
193.4909610656516
 10
852.8143901551858
 20
193.226334907472
 10
852.7336525985072
 20
192.8042286015383
 10
852.8143901551858
 20
192.2889054573188
 10
853.0443117505249
 20
191.7588167152116
 10
853.3884144268359
 20
191.2946647360351
 10
853.7943149197763
 20
190.9671106186696
 10
854.2002101443603
 20
190.8260250435846
 10
854.5443128206715
 20
190.8928845293007
 10
854.7742344160106
 20
191.1575114479433
 10
854.8549719726892
 20
191.579616993414
  0
LWPOLYLINE
  5
3B7
330
1F
100
AcDbEntity
  8
0
  6
Continuous
 62
     7
370
    25
100
AcDbPolyline
 90
       17
 70
   128
 43
0.0
 10
844.2483724676007
 20
197.7026765547143
 10
844.1676322767438
 20
198.2180019800754
 10
843.9377106814047
 20
198.7480899617197
 10
843.5936080050938
 20
199.212242701359
 10
843.1877101463314
 20
199.5397952980459
 10
842.7818149217474
 20
199.680880873131
 10
842.4377122454362
 20
199.6140206269519
 10
842.2077880159191
 20
199.3493959894509
 10
842.1270504592405
 20
198.9272896835172
 10
842.2077880159191
 20
198.4119665392976
 10
842.4377122454362
 20
197.8818762765119
 10
842.7818149217474
 20
197.4177242973354
 10
843.1877101463314
 20
197.0901732213271
 10
843.5936080050938
 20
196.9490861255635
 10
843.9377106814047
 20
197.0159456112797
 10
844.1676322767438
 20
197.2805725299221
 10
844.2483724676007
 20
197.7026765547143
  0
LWPOLYLINE
  5
3B8
330
1F
100
AcDbEntity
  8
0
  6
Continuous
 62
     7
370
    25
100
AcDbPolyline
 90
       17
 70
   128
 43
0.0
 10
833.6417703283339
 20
203.8257376366932
 10
833.5610327716553
 20
204.3410615413757
 10
833.3311085421382
 20
204.8711510436986
 10
832.987005865827
 20
205.3353037833379
 10
832.5811106412428
 20
205.6628548593462
 10
832.1752127824808
 20
205.8039419551099
 10
831.8311101061695
 20
205.7370817089308
 10
831.6011858766525
 20
205.4724570714298
 10
831.5204483199739
 20
205.0503507654962
 10
831.6011858766525
 20
204.5350276212765
 10
831.8311101061695
 20
204.0049373584908
 10
832.1752127824808
 20
203.5407853793143
 10
832.5811106412428
 20
203.2132327826274
 10
832.987005865827
 20
203.0721472075424
 10
833.3311085421382
 20
203.1390066932586
 10
833.5610327716553
 20
203.4036320912224
 10
833.6417703283339
 20
203.8257376366932
  0
LWPOLYLINE
  5
3B9
330
1F
100
AcDbEntity
  8
0
  6
Continuous
 62
     7
370
    25
100
AcDbPolyline
 90
       17
 70
   128
 43
0.0
 10
823.0351681890674
 20
209.9487987186721
 10
822.9544306323886
 20
210.4641226233546
 10
822.7245077199606
 20
210.9942113653382
 10
822.3804050436493
 20
211.4583641049776
 10
821.9745071848873
 20
211.7859167016644
 10
821.5686106432141
 20
211.9270030370887
 10
821.2245079669029
 20
211.8601427909097
 10
820.9945850544748
 20
211.5955173930694
 10
820.9138474977962
 20
211.1734110871358
 10
820.9945850544748
 20
210.6580879429162
 10
821.2245079669029
 20
210.1279984404697
 10
821.5686106432141
 20
209.6638464612932
 10
821.9745071848873
 20
209.3362946249456
 10
822.3804050436493
 20
209.195207529182
 10
822.7245077199606
 20
209.2620670148981
 10
822.9544306323886
 20
209.5266931732013
 10
823.0351681890674
 20
209.9487987186721
  0
LWPOLYLINE
  5
3BA
330
1F
100
AcDbEntity
  8
0
  6
Continuous
 62
     7
370
    25
100
AcDbPolyline
 90
       17
 70
   128
 43
0.0
 10
801.8219644044423
 20
222.1949205975027
 10
801.7412264361732
 20
222.7102447397912
 10
801.5113041822898
 20
223.2403331016052
 10
801.1672013001835
 20
223.7044859600475
 10
800.7613042234428
 20
224.0320381052829
 10
800.3554071467023
 20
224.1731247495951
 10
800.011304264596
 20
224.1062646222191
 10
799.7813820107125
 20
223.8416388442091
 10
799.7006440424434
 20
223.4195327758815
 10
799.7813820107125
 20
222.9042093940559
 10
800.011304264596
 20
222.374120271779
 10
800.3554071467023
 20
221.9099681737996
 10
800.7613042234428
 20
221.5824160285642
 10
801.1672013001835
 20
221.441329384252
 10
801.5113041822898
 20
221.5081887511651
 10
801.7412264361732
 20
221.772815289638
 10
801.8219644044423
 20
222.1949205975027
  0
ARC
  5
3BB
330
1F
100
AcDbEntity
  8
0
  6
Continuous
 62
     7
370
    25
100
AcDbCircle
 10
609.5545053306565
 20
321.300008822952
 30
0.0
 40
3.07360951056004
100
AcDbArc
 50
302.6054777463001
 51
357.3945240336678
  0
ARC
  5
3BC
330
1F
100
AcDbEntity
  8
0
  6
Continuous
 62
     7
370
    25
100
AcDbCircle
 10
929.7046315959878
 20
150.2911665749844
 30
0.0
 40
2.0099824649487
100
AcDbArc
 50
168.8369907294879
 51
251.1576573098044
  0
ARC
  5
3BD
330
1F
100
AcDbEntity
  8
0
  6
Continuous
 62
     7
370
    25
100
AcDbCircle
 10
919.0980294567211
 20
156.4142276569633
 30
0.0
 40
2.009982464948636
100
AcDbArc
 50
168.8369907294872
 51
251.1576573098072
  0
ARC
  5
3BE
330
1F
100
AcDbEntity
  8
0
  6
Continuous
 62
     7
370
    25
100
AcDbCircle
 10
908.4914273174545
 20
162.5372887389423
 30
0.0
 40
2.009982464948844
100
AcDbArc
 50
168.8369907294924
 51
251.1576573098024
  0
ARC
  5
3BF
330
1F
100
AcDbEntity
  8
0
  6
Continuous
 62
     7
370
    25
100
AcDbCircle
 10
897.8848251781883
 20
168.6603498209215
 30
0.0
 40
2.009982464949143
100
AcDbArc
 50
168.8369907295005
 51
251.157657309795
  0
ARC
  5
3C0
330
1F
100
AcDbEntity
  8
0
  6
Continuous
 62
     7
370
    25
100
AcDbCircle
 10
887.2782212184896
 20
174.7834048016132
 30
0.0
 40
2.00997610268866
100
AcDbArc
 50
168.8368660332005
 51
251.1576502510173
  0
ARC
  5
3C1
330
1F
100
AcDbEntity
  8
0
  6
Continuous
 62
     7
370
    25
100
AcDbCircle
 10
876.6716190792227
 20
180.9064658835921
 30
0.0
 40
2.009976102688506
100
AcDbArc
 50
168.8368660331985
 51
251.1576502510227
  0
ARC
  5
3C2
330
1F
100
AcDbEntity
  8
0
  6
Continuous
 62
     7
370
    25
100
AcDbCircle
 10
866.0650208020278
 20
187.0295281627562
 30
0.0
 40
2.009979659911704
100
AcDbArc
 50
168.8369208280047
 51
251.1577272112878
  0
ARC
  5
3C3
330
1F
100
AcDbEntity
  8
0
  6
Continuous
 62
     7
370
    25
100
AcDbCircle
 10
855.4584186627613
 20
193.1525892447351
 30
0.0
 40
2.009979659911677
100
AcDbArc
 50
168.8369208280047
 51
251.1577272112875
  0
ARC
  5
3C4
330
1F
100
AcDbEntity
  8
0
  6
Continuous
 62
     7
370
    25
100
AcDbCircle
 10
844.8518166448566
 20
199.2756509129447
 30
0.0
 40
2.009979665482318
100
AcDbArc
 50
168.8369378924943
 51
251.1576442693268
  0
ARC
  5
3C5
330
1F
100
AcDbEntity
  8
0
  6
Continuous
 62
     7
370
    25
100
AcDbCircle
 10
834.2452164366246
 20
205.3987125935171
 30
0.0
 40
2.009981444093594
100
AcDbArc
 50
168.8369652898256
 51
251.157682749473
  0
ARC
  5
3C6
330
1F
100
AcDbEntity
  8
0
  6
Continuous
 62
     7
370
    25
100
AcDbCircle
 10
823.6386182469004
 20
211.5217759555194
 30
0.0
 40
2.00998487749822
100
AcDbArc
 50
168.8370508499724
 51
251.157597189323
  0
ARC
  5
3C7
330
1F
100
AcDbEntity
  8
0
  6
Continuous
 62
     7
370
    25
100
AcDbCircle
 10
813.0320156605657
 20
217.6448361481137
 30
0.0
 40
2.009983891387214
100
AcDbArc
 50
168.837030507599
 51
251.1576010623437
  0
ARC
  5
3C8
330
1F
100
AcDbEntity
  8
0
  6
Continuous
 62
     7
370
    25
100
AcDbCircle
 10
802.4254125663627
 20
223.7678960901414
 30
0.0
 40
2.009982545487938
100
AcDbArc
 50
168.8369994803097
 51
251.1576223109541
  0
ARC
  5
3C9
330
1F
100
AcDbEntity
  8
0
  6
Continuous
 62
     7
370
    25
100
AcDbCircle
 10
791.8188124439216
 20
229.8909581647478
 30
0.0
 40
2.009984242021866
100
AcDbArc
 50
168.8370392453681
 51
251.1575923245701
  0
ARC
  5
3CA
330
1F
100
AcDbEntity
  8
0
  6
Continuous
 62
     7
370
    25
100
AcDbCircle
 10
781.212206382751
 20
236.0140155910234
 30
0.0
 40
2.009979662694861
100
AcDbArc
 50
168.8369293602141
 51
251.1576857403671
  0
ARC
  5
3CB
330
1F
100
AcDbEntity
  8
0
  6
Continuous
 62
     7
370
    25
100
AcDbCircle
 10
770.6056066742148
 20
242.1370778181485
 30
0.0
 40
2.009981825734217
100
AcDbArc
 50
168.836974800298
 51
251.1576732390006
  0
ARC
  5
3CC
330
1F
100
AcDbEntity
  8
0
  6
Continuous
 62
     7
370
    25
100
AcDbCircle
 10
759.9990040959355
 20
248.2601386466905
 30
0.0
 40
2.009981444093099
100
AcDbArc
 50
168.8369652898145
 51
251.1576827494821
  0
ARC
  5
3CD
330
1F
100
AcDbEntity
  8
0
  6
Continuous
 62
     7
370
    25
100
AcDbCircle
 10
749.392398676379
 20
254.3831958259819
 30
0.0
 40
2.009976102688916
100
AcDbArc
 50
168.8368660332072
 51
251.1576502510189
  0
ARC
  5
3CE
330
1F
100
AcDbEntity
  8
0
  6
Continuous
 62
     7
370
    25
100
AcDbCircle
 10
738.7858012771903
 20
260.5062586120087
 30
0.0
 40
2.009980423177044
100
AcDbArc
 50
168.8369398485956
 51
251.1577081907065
  0
ARC
  5
3CF
330
1F
100
AcDbEntity
  8
0
  6
Continuous
 62
     7
370
    25
100
AcDbCircle
 10
728.1791982599173
 20
266.6293191871251
 30
0.0
 40
2.009979659912039
100
AcDbArc
 50
168.836920828016
 51
251.157727211284
  0
ARC
  5
3D0
330
1F
100
AcDbEntity
  8
0
  6
Continuous
 62
     7
370
    25
100
AcDbCircle
 10
717.5725961206508
 20
272.752380269104
 30
0.0
 40
2.009979659912161
100
AcDbArc
 50
168.836920828015
 51
251.1577272112809
  0
ARC
  5
3D1
330
1F
100
AcDbEntity
  8
0
  6
Continuous
 62
     7
370
    25
100
AcDbCircle
 10
706.9659989641905
 20
278.8754442275973
 30
0.0
 40
2.009983991548554
100
AcDbArc
 50
168.8370287722222
 51
251.1576192670774
  0
ARC
  5
3D2
330
1F
100
AcDbEntity
  8
0
  6
Continuous
 62
     7
370
    25
100
AcDbCircle
 10
696.3593968249238
 20
284.998505309576
 30
0.0
 40
2.009983991548453
100
AcDbArc
 50
168.83702877222
 51
251.1576192670794
  0
ARC
  5
3D3
330
1F
100
AcDbEntity
  8
0
  6
Continuous
 62
     7
370
    25
100
AcDbCircle
 10
685.7527946856569
 20
291.121566391555
 30
0.0
 40
2.00998399154823
100
AcDbArc
 50
168.8370287722187
 51
251.1576192670856
  0
ARC
  5
3D4
330
1F
100
AcDbEntity
  8
0
  6
Continuous
 62
     7
370
    25
100
AcDbCircle
 10
675.1461925463902
 20
297.2446274735339
 30
0.0
 40
2.009983991548249
100
AcDbArc
 50
168.8370287722187
 51
251.1576192670825
  0
LINE
  5
3D5
330
1F
100
AcDbEntity
  8
0
  6
Continuous
 62
     7
370
    25
100
AcDbLine
 10
562.1700842003597
 20
348.6210793938961
 30
0.0
 11
583.3832871618041
 21
360.8672007975146
 31
0.0
  0
LINE
  5
3D6
330
1F
100
AcDbEntity
  8
0
  6
Continuous
 62
     7
370
    25
100
AcDbLine
 10
598.2583851409965
 20
325.2573182489479
 30
0.0
 11
583.3832871618041
 21
360.8672007975146
 31
0.0
  0
LWPOLYLINE
  5
3D7
330
1F
100
AcDbEntity
  8
0
  6
Continuous
 62
     7
370
    25
100
AcDbPolyline
 90
        8
 70
   128
 43
0.0
 10
583.3832871618041
 20
360.8672007975146
 10
583.083897023407
 20
361.4100823720938
 10
582.7151120989366
 20
361.8969934500548
 10
582.2993755852252
 20
362.2982598334459
 10
581.862123105349
 20
362.5893574598041
 10
581.4299914675667
 20
362.7525487502178
 10
581.0293435256221
 20
362.7778801982243
 10
580.6908832586555
 20
362.6674261857888
  0
LINE
  5
3D8
330
1F
100
AcDbEntity
  8
0
  6
Continuous
 62
     7
370
    25
100
AcDbLine
 10
564.6173302577965
 20
341.444021278751
 30
0.0
 11
545.4944096325092
 21
330.4045941825855
 31
0.0
  0
LINE
  5
3D9
330
1F
100
AcDbEntity
  8
0
  6
Continuous
 62
     8
370
    25
100
AcDbLine
 10
560.2541977854428
 20
349.7424316066867
 30
0.0
 11
559.8762419701544
 21
349.5242423588095
 31
0.0
  0
ENDSEC
  0
SECTION
  2
OBJECTS
  0
DICTIONARY
  5
C
330
0
100
AcDbDictionary
281
     1
  3
ACAD_CIP_PREVIOUS_PRODUCT_INFO
350
418
  3
ACAD_COLOR
350
40D
  3
ACAD_DETAILVIEWSTYLE
350
414
  3
ACAD_GROUP
350
D
  3
ACAD_LAYOUT
350
1A
  3
ACAD_MATERIAL
350
3DB
  3
ACAD_MLEADERSTYLE
350
410
  3
ACAD_MLINESTYLE
350
17
  3
ACAD_PLOTSETTINGS
350
19
  3
ACAD_PLOTSTYLENAME
350
E
  3
ACAD_SCALELIST
350
47
  3
ACAD_SECTIONVIEWSTYLE
350
412
  3
ACAD_TABLESTYLE
350
40E
  3
ACAD_VISUALSTYLE
350
3F4
  3
ACDB_RECOMPOSE_DATA
350
566
  3
AcDbVariableDictionary
350
50C
  3
AcDsDecomposeData
350
56C
  0
DICTIONARY
  5
4A7
330
2
100
AcDbDictionary
280
     1
281
     1
  3
ACAD_LAYERSTATES
360
4A8
  0
DICTIONARY
  5
47E
330
10
100
AcDbDictionary
280
     1
281
     1
  3
ADSK_XREC_LAYER_RECONCILED
360
47F
  0
DICTIONARY
  5
480
330
73
100
AcDbDictionary
280
     1
281
     1
  3
ADSK_XREC_LAYER_RECONCILED
360
481
  0
DICTIONARY
  5
482
330
74
100
AcDbDictionary
280
     1
281
     1
  3
ADSK_XREC_LAYER_RECONCILED
360
483
  0
DICTIONARY
  5
484
330
75
100
AcDbDictionary
280
     1
281
     1
  3
ADSK_XREC_LAYER_RECONCILED
360
485
  0
DICTIONARY
  5
486
330
76
100
AcDbDictionary
280
     1
281
     1
  3
ADSK_XREC_LAYER_RECONCILED
360
487
  0
DICTIONARY
  5
488
330
77
100
AcDbDictionary
280
     1
281
     1
  3
ADSK_XREC_LAYER_RECONCILED
360
489
  0
DICTIONARY
  5
48A
330
78
100
AcDbDictionary
280
     1
281
     1
  3
ADSK_XREC_LAYER_RECONCILED
360
48B
  0
DICTIONARY
  5
48C
330
79
100
AcDbDictionary
280
     1
281
     1
  3
ADSK_XREC_LAYER_RECONCILED
360
48D
  0
DICTIONARY
  5
48E
330
7A
100
AcDbDictionary
280
     1
281
     1
  3
ADSK_XREC_LAYER_RECONCILED
360
48F
  0
DICTIONARY
  5
490
330
7B
100
AcDbDictionary
280
     1
281
     1
  3
ADSK_XREC_LAYER_RECONCILED
360
491
  0
DICTIONARY
  5
492
330
7C
100
AcDbDictionary
280
     1
281
     1
  3
ADSK_XREC_LAYER_RECONCILED
360
493
  0
DICTIONARY
  5
494
330
7D
100
AcDbDictionary
280
     1
281
     1
  3
ADSK_XREC_LAYER_RECONCILED
360
495
  0
DICTIONARY
  5
496
330
7E
100
AcDbDictionary
280
     1
281
     1
  3
ADSK_XREC_LAYER_RECONCILED
360
497
  0
DICTIONARY
  5
498
330
7F
100
AcDbDictionary
280
     1
281
     1
  3
ADSK_XREC_LAYER_RECONCILED
360
499
  0
DICTIONARY
  5
49A
330
80
100
AcDbDictionary
280
     1
281
     1
  3
ADSK_XREC_LAYER_RECONCILED
360
49B
  0
DICTIONARY
  5
49C
330
81
100
AcDbDictionary
280
     1
281
     1
  3
ADSK_XREC_LAYER_RECONCILED
360
49D
  0
DICTIONARY
  5
49E
330
82
100
AcDbDictionary
280
     1
281
     1
  3
ADSK_XREC_LAYER_RECONCILED
360
49F
  0
DICTIONARY
  5
4A0
330
83
100
AcDbDictionary
280
     1
281
     1
  3
ADSK_XREC_LAYER_RECONCILED
360
4A1
  0
DICTIONARY
  5
4A2
330
84
100
AcDbDictionary
280
     1
281
     1
  3
ADSK_XREC_LAYER_RECONCILED
360
4A3
  0
DICTIONARY
  5
5AC
330
470
100
AcDbDictionary
280
     1
281
     1
  3
ACAD_MTEXT_2008_RT
360
5AD
  0
DICTIONARY
  5
56F
330
1E2
100
AcDbDictionary
280
     1
281
     1
  3
ACAD_MTEXT_2008_RT
360
570
  0
XRECORD
  5
418
102
{ACAD_REACTORS
330
C
102
}
330
C
100
AcDbXrecord
280
     1
300
ACD
300
2014
300
ACD_F_S
  0
DICTIONARY
  5
40D
102
{ACAD_REACTORS
330
C
102
}
330
C
100
AcDbDictionary
281
     1
  0
DICTIONARY
  5
414
102
{ACAD_REACTORS
330
C
102
}
330
C
100
AcDbDictionary
281
     1
  3
Metric50
350
415
  0
DICTIONARY
  5
D
102
{ACAD_REACTORS
330
C
102
}
330
C
100
AcDbDictionary
281
     1
  0
DICTIONARY
  5
1A
102
{ACAD_REACTORS
330
C
102
}
330
C
100
AcDbDictionary
281
     1
  3
Layout1
350
1E
  3
Layout2
350
26
  3
Model
350
22
  0
DICTIONARY
  5
3DB
102
{ACAD_REACTORS
330
C
102
}
330
C
100
AcDbDictionary
281
     1
  3
ByBlock
350
3E4
  3
ByLayer
350
3DC
  3
Global
350
3EC
  0
DICTIONARY
  5
410
102
{ACAD_REACTORS
330
C
102
}
330
C
100
AcDbDictionary
281
     1
  3
Standard
350
411
  0
DICTIONARY
  5
17
102
{ACAD_REACTORS
330
C
102
}
330
C
100
AcDbDictionary
281
     1
  3
Standard
350
18
  0
DICTIONARY
  5
19
102
{ACAD_REACTORS
330
C
102
}
330
C
100
AcDbDictionary
281
     1
  0
ACDBDICTIONARYWDFLT
  5
E
102
{ACAD_REACTORS
330
C
102
}
330
C
100
AcDbDictionary
281
     1
  3
Normal
350
F
100
AcDbDictionaryWithDefault
340
F
  0
DICTIONARY
  5
47
102
{ACAD_REACTORS
330
C
102
}
330
C
100
AcDbDictionary
281
     1
  3
A0
350
48
  3
A1
350
49
  3
A2
350
4A
  3
A3
350
4B
  3
A4
350
4C
  3
A5
350
4D
  3
A6
350
4E
  3
A7
350
4F
  3
A8
350
50
  3
A9
350
51
  3
B0
350
52
  3
B1
350
53
  3
B2
350
54
  3
B3
350
55
  3
B4
350
56
  3
B5
350
57
  3
B6
350
58
  3
B7
350
59
  3
B8
350
5A
  3
B9
350
5B
  3
C0
350
5C
  3
C1
350
5D
  3
C2
350
5E
  3
C3
350
5F
  3
C4
350
60
  3
C5
350
61
  3
C6
350
62
  3
C7
350
63
  3
C8
350
64
  3
C9
350
65
  3
D0
350
66
  3
D1
350
67
  3
D2
350
68
  0
DICTIONARY
  5
412
102
{ACAD_REACTORS
330
C
102
}
330
C
100
AcDbDictionary
281
     1
  3
Metric50
350
413
  0
DICTIONARY
  5
40E
102
{ACAD_REACTORS
330
C
102
}
330
C
100
AcDbDictionary
281
     1
  3
Standard
350
40F
  0
DICTIONARY
  5
3F4
102
{ACAD_REACTORS
330
C
102
}
330
C
100
AcDbDictionary
281
     1
  3
2dWireframe
350
3FA
  3
Basic
350
3F9
  3
Brighten
350
400
  3
ColorChange
350
404
  3
Conceptual
350
3FD
  3
Dim
350
3FF
  3
EdgeColorOff
350
40C
  3
Facepattern
350
403
  3
Flat
350
3F5
  3
FlatWithEdges
350
3F6
  3
Gouraud
350
3F7
  3
GouraudWithEdges
350
3F8
  3
Hidden
350
3FC
  3
JitterOff
350
40A
  3
Linepattern
350
402
  3
OverhangOff
350
40B
  3
Realistic
350
3FE
  3
Shaded
350
409
  3
Shaded with edges
350
408
  3
Shades of Gray
350
405
  3
Sketchy
350
406
  3
Thicken
350
401
  3
Wireframe
350
3FB
  3
X-Ray
350
407
  0
XRECORD
  5
566
102
{ACAD_REACTORS
330
C
102
}
330
C
100
AcDbXrecord
280
     1
 90
        1
330
40F
  0
DICTIONARY
  5
50C
102
{ACAD_REACTORS
330
C
102
}
330
C
100
AcDbDictionary
281
     1
  3
CANNOSCALE
350
511
  3
CMLEADERSTYLE
350
50E
  3
CTABLESTYLE
350
50D
  3
CVIEWDETAILSTYLE
350
50F
  3
CVIEWSECTIONSTYLE
350
510
  3
XCLIPFRAME
350
512
  0
DICTIONARY
  5
56C
102
{ACAD_REACTORS
330
C
102
}
330
C
100
AcDbDictionary
281
     1
  3
AcDsRecords
350
56E
  3
AcDsSchemas
350
56D
1001
ACAD
1070
     2
  0
DICTIONARY
  5
4A8
102
{ACAD_REACTORS
330
4A7
102
}
330
4A7
100
AcDbDictionary
281
     1
  0
XRECORD
  5
47F
102
{ACAD_REACTORS
330
47E
102
}
330
47E
100
AcDbXrecord
280
     1
290
     1
  0
XRECORD
  5
481
102
{ACAD_REACTORS
330
480
102
}
330
480
100
AcDbXrecord
280
     1
290
     1
  0
XRECORD
  5
483
102
{ACAD_REACTORS
330
482
102
}
330
482
100
AcDbXrecord
280
     1
290
     1
  0
XRECORD
  5
485
102
{ACAD_REACTORS
330
484
102
}
330
484
100
AcDbXrecord
280
     1
290
     1
  0
XRECORD
  5
487
102
{ACAD_REACTORS
330
486
102
}
330
486
100
AcDbXrecord
280
     1
290
     1
  0
XRECORD
  5
489
102
{ACAD_REACTORS
330
488
102
}
330
488
100
AcDbXrecord
280
     1
290
     1
  0
XRECORD
  5
48B
102
{ACAD_REACTORS
330
48A
102
}
330
48A
100
AcDbXrecord
280
     1
290
     1
  0
XRECORD
  5
48D
102
{ACAD_REACTORS
330
48C
102
}
330
48C
100
AcDbXrecord
280
     1
290
     1
  0
XRECORD
  5
48F
102
{ACAD_REACTORS
330
48E
102
}
330
48E
100
AcDbXrecord
280
     1
290
     1
  0
XRECORD
  5
491
102
{ACAD_REACTORS
330
490
102
}
330
490
100
AcDbXrecord
280
     1
290
     1
  0
XRECORD
  5
493
102
{ACAD_REACTORS
330
492
102
}
330
492
100
AcDbXrecord
280
     1
290
     1
  0
XRECORD
  5
495
102
{ACAD_REACTORS
330
494
102
}
330
494
100
AcDbXrecord
280
     1
290
     1
  0
XRECORD
  5
497
102
{ACAD_REACTORS
330
496
102
}
330
496
100
AcDbXrecord
280
     1
290
     1
  0
XRECORD
  5
499
102
{ACAD_REACTORS
330
498
102
}
330
498
100
AcDbXrecord
280
     1
290
     1
  0
XRECORD
  5
49B
102
{ACAD_REACTORS
330
49A
102
}
330
49A
100
AcDbXrecord
280
     1
290
     1
  0
XRECORD
  5
49D
102
{ACAD_REACTORS
330
49C
102
}
330
49C
100
AcDbXrecord
280
     1
290
     1
  0
XRECORD
  5
49F
102
{ACAD_REACTORS
330
49E
102
}
330
49E
100
AcDbXrecord
280
     1
290
     1
  0
XRECORD
  5
4A1
102
{ACAD_REACTORS
330
4A0
102
}
330
4A0
100
AcDbXrecord
280
     1
290
     1
  0
XRECORD
  5
4A3
102
{ACAD_REACTORS
330
4A2
102
}
330
4A2
100
AcDbXrecord
280
     1
290
     1
  0
XRECORD
  5
5AD
102
{ACAD_REACTORS
330
5AC
102
}
330
5AC
100
AcDbXrecord
280
     1
 40
23990.0
  1
\A1;\U+2205147 [\U+22055.79]
  0
XRECORD
  5
570
102
{ACAD_REACTORS
330
56F
102
}
330
56F
100
AcDbXrecord
280
     1
 40
2564.0
  1
50\U+00B0
  0
ACDBDETAILVIEWSTYLE
  5
415
102
{ACAD_XDICTIONARY
360
5AA
102
}
102
{ACAD_REACTORS
330
414
102
}
330
414
100
AcDbModelDocViewStyle
 70
     0
  3
Metric50
290
     0
100
AcDbDetailViewStyle
 70
     0
 71
     0
 90
        3
 71
     1
340
11
 62
   256
 40
5.0
340
0
 62
   256
 40
5.0
300

 40
0.0
280
     1
 71
     2
340
16
 90
       25
 62
   256
 71
     3
340
11
 62
   256
 40
5.0
 90
        0
 40
15.0
 90
        1
300
%<\AcVar ViewDetailId>% (%<\AcVar ViewScale \f "%sn">%)
 71
     4
340
16
 90
       25
 62
   256
340
16
 90
       25
 62
   256
280
     0
  0
LAYOUT
  5
1E
102
{ACAD_REACTORS
330
1A
102
}
330
1A
100
AcDbPlotSettings
  1

  2
none_device
  4

  6

 40
0.0
 41
0.0
 42
0.0
 43
0.0
 44
0.0
 45
0.0
 46
0.0
 47
0.0
 48
0.0
 49
0.0
140
0.0
141
0.0
142
1.0
143
1.0
 70
   688
 72
     1
 73
     0
 74
     5
  7

 75
    16
147
1.0
 76
     0
 77
     2
 78
   300
148
0.0
149
0.0
100
AcDbLayout
  1
Layout1
 70
     1
 71
     1
 10
0.0
 20
0.0
 11
420.0
 21
297.0
 12
0.0
 22
0.0
 32
0.0
 14
1.000000000000000E+20
 24
1.000000000000000E+20
 34
1.000000000000000E+20
 15
-1.000000000000000E+20
 25
-1.000000000000000E+20
 35
-1.000000000000000E+20
146
0.0
 13
0.0
 23
0.0
 33
0.0
 16
1.0
 26
0.0
 36
0.0
 17
0.0
 27
1.0
 37
0.0
 76
     0
330
1B
  0
LAYOUT
  5
26
102
{ACAD_REACTORS
330
1A
102
}
330
1A
100
AcDbPlotSettings
  1

  2
none_device
  4

  6

 40
0.0
 41
0.0
 42
0.0
 43
0.0
 44
0.0
 45
0.0
 46
0.0
 47
0.0
 48
0.0
 49
0.0
140
0.0
141
0.0
142
1.0
143
1.0
 70
   688
 72
     1
 73
     0
 74
     5
  7

 75
    16
147
1.0
 76
     0
 77
     2
 78
   300
148
0.0
149
0.0
100
AcDbLayout
  1
Layout2
 70
     1
 71
     2
 10
0.0
 20
0.0
 11
0.0
 21
0.0
 12
0.0
 22
0.0
 32
0.0
 14
0.0
 24
0.0
 34
0.0
 15
0.0
 25
0.0
 35
0.0
146
0.0
 13
0.0
 23
0.0
 33
0.0
 16
1.0
 26
0.0
 36
0.0
 17
0.0
 27
1.0
 37
0.0
 76
     0
330
23
  0
LAYOUT
  5
22
102
{ACAD_REACTORS
330
1A
102
}
330
1A
100
AcDbPlotSettings
  1

  2
none_device
  4
Letter_(8.50_x_11.00_Inches)
  6

 40
6.349999999999999
 41
6.349999999999999
 42
6.350005079999999
 43
6.350005079999999
 44
215.9
 45
279.4
 46
0.0
 47
0.0
 48
0.0
 49
0.0
140
0.0
141
0.0
142
1.0
143
1.0
 70
  1712
 72
     1
 73
     0
 74
     0
  7

 75
     0
147
1.0
 76
     0
 77
     2
 78
   300
148
0.0
149
0.0
100
AcDbLayout
  1
Model
 70
     1
 71
     0
 10
0.0
 20
0.0
 11
1189.0
 21
841.0
 12
0.0
 22
0.0
 32
0.0
 14
0.0
 24
0.0
 34
0.0
 15
1189.0
 25
841.0
 35
0.0
146
0.0
 13
0.0
 23
0.0
 33
0.0
 16
1.0
 26
0.0
 36
0.0
 17
0.0
 27
1.0
 37
0.0
 76
     0
330
1F
331
29
  0
MATERIAL
  5
3E4
102
{ACAD_XDICTIONARY
360
3E5
102
}
102
{ACAD_REACTORS
330
3DB
102
}
330
3DB
100
AcDbMaterial
  1
ByBlock
 72
     0
 43
0.0008202099737533
 43
0.0
 43
0.0
 43
0.0
 43
0.0
 43
0.0008202099737533
 43
0.0
 43
0.0
 43
0.0
 43
0.0
 43
1.0
 43
0.0
 43
0.0
 43
0.0
 43
0.0
 43
1.0
 77
     0
 47
0.0008202099737533
 47
0.0
 47
0.0
 47
0.0
 47
0.0
 47
0.0008202099737533
 47
0.0
 47
0.0
 47
0.0
 47
0.0
 47
1.0
 47
0.0
 47
0.0
 47
0.0
 47
0.0
 47
1.0
171
     0
 49
0.0008202099737533
 49
0.0
 49
0.0
 49
0.0
 49
0.0
 49
0.0008202099737533
 49
0.0
 49
0.0
 49
0.0
 49
0.0
 49
1.0
 49
0.0
 49
0.0
 49
0.0
 49
0.0
 49
1.0
175
     0
142
0.0008202099737533
142
0.0
142
0.0
142
0.0
142
0.0
142
0.0008202099737533
142
0.0
142
0.0
142
0.0
142
0.0
142
1.0
142
0.0
142
0.0
142
0.0
142
0.0
142
1.0
179
     0
144
0.0008202099737533
144
0.0
144
0.0
144
0.0
144
0.0
144
0.0008202099737533
144
0.0
144
0.0
144
0.0
144
0.0
144
1.0
144
0.0
144
0.0
144
0.0
144
0.0
144
1.0
147
0.0008202099737533
147
0.0
147
0.0
147
0.0
147
0.0
147
0.0008202099737533
147
0.0
147
0.0
147
0.0
147
0.0
147
1.0
147
0.0
147
0.0
147
0.0
147
0.0
147
1.0
  0
MATERIAL
  5
3DC
102
{ACAD_XDICTIONARY
360
3DD
102
}
102
{ACAD_REACTORS
330
3DB
102
}
330
3DB
100
AcDbMaterial
  1
ByLayer
 72
     0
 43
0.0008202099737533
 43
0.0
 43
0.0
 43
0.0
 43
0.0
 43
0.0008202099737533
 43
0.0
 43
0.0
 43
0.0
 43
0.0
 43
1.0
 43
0.0
 43
0.0
 43
0.0
 43
0.0
 43
1.0
 77
     0
 47
0.0008202099737533
 47
0.0
 47
0.0
 47
0.0
 47
0.0
 47
0.0008202099737533
 47
0.0
 47
0.0
 47
0.0
 47
0.0
 47
1.0
 47
0.0
 47
0.0
 47
0.0
 47
0.0
 47
1.0
171
     0
 49
0.0008202099737533
 49
0.0
 49
0.0
 49
0.0
 49
0.0
 49
0.0008202099737533
 49
0.0
 49
0.0
 49
0.0
 49
0.0
 49
1.0
 49
0.0
 49
0.0
 49
0.0
 49
0.0
 49
1.0
175
     0
142
0.0008202099737533
142
0.0
142
0.0
142
0.0
142
0.0
142
0.0008202099737533
142
0.0
142
0.0
142
0.0
142
0.0
142
1.0
142
0.0
142
0.0
142
0.0
142
0.0
142
1.0
179
     0
144
0.0008202099737533
144
0.0
144
0.0
144
0.0
144
0.0
144
0.0008202099737533
144
0.0
144
0.0
144
0.0
144
0.0
144
1.0
144
0.0
144
0.0
144
0.0
144
0.0
144
1.0
147
0.0008202099737533
147
0.0
147
0.0
147
0.0
147
0.0
147
0.0008202099737533
147
0.0
147
0.0
147
0.0
147
0.0
147
1.0
147
0.0
147
0.0
147
0.0
147
0.0
147
1.0
  0
MATERIAL
  5
3EC
102
{ACAD_XDICTIONARY
360
3ED
102
}
102
{ACAD_REACTORS
330
3DB
102
}
330
3DB
100
AcDbMaterial
  1
Global
 72
     0
 43
0.0008202099737533
 43
0.0
 43
0.0
 43
0.0
 43
0.0
 43
0.0008202099737533
 43
0.0
 43
0.0
 43
0.0
 43
0.0
 43
1.0
 43
0.0
 43
0.0
 43
0.0
 43
0.0
 43
1.0
 77
     0
 47
0.0008202099737533
 47
0.0
 47
0.0
 47
0.0
 47
0.0
 47
0.0008202099737533
 47
0.0
 47
0.0
 47
0.0
 47
0.0
 47
1.0
 47
0.0
 47
0.0
 47
0.0
 47
0.0
 47
1.0
171
     0
 49
0.0008202099737533
 49
0.0
 49
0.0
 49
0.0
 49
0.0
 49
0.0008202099737533
 49
0.0
 49
0.0
 49
0.0
 49
0.0
 49
1.0
 49
0.0
 49
0.0
 49
0.0
 49
0.0
 49
1.0
175
     0
142
0.0008202099737533
142
0.0
142
0.0
142
0.0
142
0.0
142
0.0008202099737533
142
0.0
142
0.0
142
0.0
142
0.0
142
1.0
142
0.0
142
0.0
142
0.0
142
0.0
142
1.0
179
     0
144
0.0008202099737533
144
0.0
144
0.0
144
0.0
144
0.0
144
0.0008202099737533
144
0.0
144
0.0
144
0.0
144
0.0
144
1.0
144
0.0
144
0.0
144
0.0
144
0.0
144
1.0
147
0.0008202099737533
147
0.0
147
0.0
147
0.0
147
0.0
147
0.0008202099737533
147
0.0
147
0.0
147
0.0
147
0.0
147
1.0
147
0.0
147
0.0
147
0.0
147
0.0
147
1.0
  0
MLEADERSTYLE
  5
411
102
{ACAD_XDICTIONARY
360
5A6
102
}
102
{ACAD_REACTORS
330
410
102
}
330
410
100
AcDbMLeaderStyle
170
     2
171
     1
172
     0
 90
        2
 40
0.0
 41
0.0
173
     1
 91
-1056964608
340
14
 92
       -2
290
     1
 42
2.0
291
     1
 43
0.36
  3
Standard
 44
4.0
300

342
11
174
     1
178
     6
175
     1
176
     0
 93
-1056964608
 45
4.0
292
     0
297
     0
 46
4.0
 94
-1056964608
 47
1.0
 49
1.0
140
1.0
293
     1
141
0.0
294
     1
177
     0
142
1.0
295
     0
296
     0
143
0.125
1001
ACAD_MLEADERVER
1070
     2
  0
MLINESTYLE
  5
18
102
{ACAD_REACTORS
330
17
102
}
330
17
100
AcDbMlineStyle
  2
STANDARD
 70
     0
  3

 62
   256
 51
90.0
 52
90.0
 71
     2
 49
0.5
 62
   256
  6
BYLAYER
 49
-0.5
 62
   256
  6
BYLAYER
  0
ACDBPLACEHOLDER
  5
F
102
{ACAD_REACTORS
330
E
102
}
330
E
  0
SCALE
  5
48
102
{ACAD_REACTORS
330
47
102
}
330
47
100
AcDbScale
 70
     0
300
1:1
140
1.0
141
1.0
290
     1
  0
SCALE
  5
49
102
{ACAD_REACTORS
330
47
102
}
330
47
100
AcDbScale
 70
     0
300
1:2
140
1.0
141
2.0
290
     0
  0
SCALE
  5
4A
102
{ACAD_REACTORS
330
47
102
}
330
47
100
AcDbScale
 70
     0
300
1:4
140
1.0
141
4.0
290
     0
  0
SCALE
  5
4B
102
{ACAD_REACTORS
330
47
102
}
330
47
100
AcDbScale
 70
     0
300
1:5
140
1.0
141
5.0
290
     0
  0
SCALE
  5
4C
102
{ACAD_REACTORS
330
47
102
}
330
47
100
AcDbScale
 70
     0
300
1:8
140
1.0
141
8.0
290
     0
  0
SCALE
  5
4D
102
{ACAD_REACTORS
330
47
102
}
330
47
100
AcDbScale
 70
     0
300
1:10
140
1.0
141
10.0
290
     0
  0
SCALE
  5
4E
102
{ACAD_REACTORS
330
47
102
}
330
47
100
AcDbScale
 70
     0
300
1:16
140
1.0
141
16.0
290
     0
  0
SCALE
  5
4F
102
{ACAD_REACTORS
330
47
102
}
330
47
100
AcDbScale
 70
     0
300
1:20
140
1.0
141
20.0
290
     0
  0
SCALE
  5
50
102
{ACAD_REACTORS
330
47
102
}
330
47
100
AcDbScale
 70
     0
300
1:30
140
1.0
141
30.0
290
     0
  0
SCALE
  5
51
102
{ACAD_REACTORS
330
47
102
}
330
47
100
AcDbScale
 70
     0
300
1:40
140
1.0
141
40.0
290
     0
  0
SCALE
  5
52
102
{ACAD_REACTORS
330
47
102
}
330
47
100
AcDbScale
 70
     0
300
1:50
140
1.0
141
50.0
290
     0
  0
SCALE
  5
53
102
{ACAD_REACTORS
330
47
102
}
330
47
100
AcDbScale
 70
     0
300
1:100
140
1.0
141
100.0
290
     0
  0
SCALE
  5
54
102
{ACAD_REACTORS
330
47
102
}
330
47
100
AcDbScale
 70
     0
300
2:1
140
2.0
141
1.0
290
     0
  0
SCALE
  5
55
102
{ACAD_REACTORS
330
47
102
}
330
47
100
AcDbScale
 70
     0
300
4:1
140
4.0
141
1.0
290
     0
  0
SCALE
  5
56
102
{ACAD_REACTORS
330
47
102
}
330
47
100
AcDbScale
 70
     0
300
8:1
140
8.0
141
1.0
290
     0
  0
SCALE
  5
57
102
{ACAD_REACTORS
330
47
102
}
330
47
100
AcDbScale
 70
     0
300
10:1
140
10.0
141
1.0
290
     0
  0
SCALE
  5
58
102
{ACAD_REACTORS
330
47
102
}
330
47
100
AcDbScale
 70
     0
300
100:1
140
100.0
141
1.0
290
     0
  0
SCALE
  5
59
102
{ACAD_REACTORS
330
47
102
}
330
47
100
AcDbScale
 70
     0
300
1/128" = 1'-0"
140
0.0078125
141
12.0
290
     0
  0
SCALE
  5
5A
102
{ACAD_REACTORS
330
47
102
}
330
47
100
AcDbScale
 70
     0
300
1/64" = 1'-0"
140
0.015625
141
12.0
290
     0
  0
SCALE
  5
5B
102
{ACAD_REACTORS
330
47
102
}
330
47
100
AcDbScale
 70
     0
300
1/32" = 1'-0"
140
0.03125
141
12.0
290
     0
  0
SCALE
  5
5C
102
{ACAD_REACTORS
330
47
102
}
330
47
100
AcDbScale
 70
     0
300
1/16" = 1'-0"
140
0.0625
141
12.0
290
     0
  0
SCALE
  5
5D
102
{ACAD_REACTORS
330
47
102
}
330
47
100
AcDbScale
 70
     0
300
3/32" = 1'-0"
140
0.09375
141
12.0
290
     0
  0
SCALE
  5
5E
102
{ACAD_REACTORS
330
47
102
}
330
47
100
AcDbScale
 70
     0
300
1/8" = 1'-0"
140
0.125
141
12.0
290
     0
  0
SCALE
  5
5F
102
{ACAD_REACTORS
330
47
102
}
330
47
100
AcDbScale
 70
     0
300
3/16" = 1'-0"
140
0.1875
141
12.0
290
     0
  0
SCALE
  5
60
102
{ACAD_REACTORS
330
47
102
}
330
47
100
AcDbScale
 70
     0
300
1/4" = 1'-0"
140
0.25
141
12.0
290
     0
  0
SCALE
  5
61
102
{ACAD_REACTORS
330
47
102
}
330
47
100
AcDbScale
 70
     0
300
3/8" = 1'-0"
140
0.375
141
12.0
290
     0
  0
SCALE
  5
62
102
{ACAD_REACTORS
330
47
102
}
330
47
100
AcDbScale
 70
     0
300
1/2" = 1'-0"
140
0.5
141
12.0
290
     0
  0
SCALE
  5
63
102
{ACAD_REACTORS
330
47
102
}
330
47
100
AcDbScale
 70
     0
300
3/4" = 1'-0"
140
0.75
141
12.0
290
     0
  0
SCALE
  5
64
102
{ACAD_REACTORS
330
47
102
}
330
47
100
AcDbScale
 70
     0
300
1" = 1'-0"
140
1.0
141
12.0
290
     0
  0
SCALE
  5
65
102
{ACAD_REACTORS
330
47
102
}
330
47
100
AcDbScale
 70
     0
300
1-1/2" = 1'-0"
140
1.5
141
12.0
290
     0
  0
SCALE
  5
66
102
{ACAD_REACTORS
330
47
102
}
330
47
100
AcDbScale
 70
     0
300
3" = 1'-0"
140
3.0
141
12.0
290
     0
  0
SCALE
  5
67
102
{ACAD_REACTORS
330
47
102
}
330
47
100
AcDbScale
 70
     0
300
6" = 1'-0"
140
6.0
141
12.0
290
     0
  0
SCALE
  5
68
102
{ACAD_REACTORS
330
47
102
}
330
47
100
AcDbScale
 70
     0
300
1'-0" = 1'-0"
140
12.0
141
12.0
290
     0
  0
ACDBSECTIONVIEWSTYLE
  5
413
102
{ACAD_XDICTIONARY
360
5A8
102
}
102
{ACAD_REACTORS
330
412
102
}
330
412
100
AcDbModelDocViewStyle
 70
     0
  3
Metric50
290
     0
100
AcDbSectionViewStyle
 70
     0
 71
     0
 90
      102
 71
     1
340
11
 62
   256
 40
5.0
340
0
340
0
 62
   256
 40
5.0
300
I, O, Q, S, X, Z
 40
10.0
 90
        0
 40
2.5
 90
        0
 71
     2
340
16
 90
       25
 62
   256
340
16
 90
       50
 62
   256
 40
5.0
 40
2.5
 40
5.0
 71
     3
340
11
 62
   256
 40
5.0
 90
        0
 40
15.0
 90
        1
300
%<\AcVar ViewSectionStartId>%-%<\AcVar ViewSectionEndId>% (%<\AcVar ViewScale \f "%sn">%)
 71
     4
 62
   256
 62
   257
300
ANSI31
 40
1.0
 90
        0
290
     0
290
     0
 90
        6
 40
0.0
 40
1.570796326794896
 40
0.2617993877991494
 40
1.308996938995747
 40
-0.2617993877991494
 40
1.832595714594046
  0
TABLESTYLE
  5
40F
102
{ACAD_XDICTIONARY
360
564
102
}
102
{ACAD_REACTORS
330
40E
102
}
330
40E
100
AcDbTableStyle
  3
Standard
 70
     0
 71
     0
 40
1.5
 41
1.5
280
     0
281
     0
  7
Standard
140
4.5
170
     2
 62
     0
 63
     7
283
     0
274
    -2
284
     1
 64
     0
275
    -2
285
     1
 65
     0
276
    -2
286
     1
 66
     0
277
    -2
287
     1
 67
     0
278
    -2
288
     1
 68
     0
279
    -2
289
     1
 69
     0
  7
Standard
140
6.0
170
     5
 62
     0
 63
     7
283
     0
274
    -2
284
     1
 64
     0
275
    -2
285
     1
 65
     0
276
    -2
286
     1
 66
     0
277
    -2
287
     1
 67
     0
278
    -2
288
     1
 68
     0
279
    -2
289
     1
 69
     0
  7
Standard
140
4.5
170
     5
 62
     0
 63
     7
283
     0
274
    -2
284
     1
 64
     0
275
    -2
285
     1
 65
     0
276
    -2
286
     1
 66
     0
277
    -2
287
     1
 67
     0
278
    -2
288
     1
 68
     0
279
    -2
289
     1
 69
     0
  0
VISUALSTYLE
  5
3FA
102
{ACAD_XDICTIONARY
360
57E
102
}
102
{ACAD_REACTORS
330
3F4
102
}
330
3F4
100
AcDbVisualStyle
  2
2dWireframe
 70
     4
 71
     0
 72
     2
 73
     0
 90
        0
 40
-0.6
 41
-30.0
 62
     5
 63
     7
421
 16777215
 74
     1
 91
        4
 64
     7
 65
   257
 75
     1
175
     1
 42
1.0
 92
        0
 66
   257
 43
1.0
 76
     1
 77
     6
 78
     2
 67
     7
 79
     5
170
     0
171
     0
290
     0
174
     0
 93
        1
 44
0.0
173
     0
291
     0
 45
0.0
1001
ACAD
1000
AcDbSavedByObjectVersion
1070
     0
  0
VISUALSTYLE
  5
3F9
102
{ACAD_XDICTIONARY
360
57C
102
}
102
{ACAD_REACTORS
330
3F4
102
}
330
3F4
100
AcDbVisualStyle
  2
Basic
 70
     7
 71
     1
 72
     0
 73
     1
 90
        0
 40
-0.6
 41
-30.0
 62
     5
 63
     7
421
 16777215
 74
     0
 91
        4
 64
     7
 65
   257
 75
     1
175
     1
 42
1.0
 92
        8
 66
     7
 43
1.0
 76
     1
 77
     6
 78
     2
 67
     7
 79
     5
170
     0
171
     0
290
     0
174
     0
 93
        1
 44
0.0
173
     0
291
     1
 45
0.0
1001
ACAD
1000
AcDbSavedByObjectVersion
1070
     0
  0
VISUALSTYLE
  5
400
102
{ACAD_XDICTIONARY
360
58A
102
}
102
{ACAD_REACTORS
330
3F4
102
}
330
3F4
100
AcDbVisualStyle
  2
Brighten
 70
    12
 71
     2
 72
     2
 73
     0
 90
        0
 40
-0.6
 41
-30.0
 62
     5
 63
     7
421
 16777215
 74
     1
 91
        4
 64
     7
 65
   257
 75
     1
175
     1
 42
1.0
 92
        8
 66
     7
 43
1.0
 76
     1
 77
     6
 78
     2
 67
     7
 79
     5
170
     0
171
     0
290
     0
174
     0
 93
        1
 44
50.0
173
     0
291
     1
 45
0.0
1001
ACAD
1000
AcDbSavedByObjectVersion
1070
     0
  0
VISUALSTYLE
  5
404
102
{ACAD_XDICTIONARY
360
592
102
}
102
{ACAD_REACTORS
330
3F4
102
}
330
3F4
100
AcDbVisualStyle
  2
ColorChange
 70
    16
 71
     2
 72
     2
 73
     3
 90
        0
 40
-0.6
 41
-30.0
 62
     5
 63
     8
421
  8421504
 74
     1
 91
        4
 64
     7
 65
   257
 75
     1
175
     1
 42
1.0
 92
        8
 66
     8
424
  8421504
 43
1.0
 76
     1
 77
     6
 78
     2
 67
     7
 79
     5
170
     0
171
     0
290
     0
174
     0
 93
        1
 44
0.0
173
     0
291
     1
 45
0.0
1001
ACAD
1000
AcDbSavedByObjectVersion
1070
     0
  0
VISUALSTYLE
  5
3FD
102
{ACAD_XDICTIONARY
360
584
102
}
102
{ACAD_REACTORS
330
3F4
102
}
330
3F4
100
AcDbVisualStyle
  2
Conceptual
 70
     9
 71
     3
 72
     2
 73
     0
 90
        0
 40
-0.6
 41
-30.0
 62
     5
 63
     7
421
 16777215
 74
     2
 91
        2
 64
     7
 65
   257
 75
     1
175
     1
 42
179.0
 92
        8
 66
     7
 43
1.0
 76
     1
 77
     6
 78
     2
 67
     7
 79
     3
170
     0
171
     0
290
     0
174
     0
 93
        1
 44
0.0
173
     0
291
     0
 45
0.0
1001
ACAD
1000
AcDbSavedByObjectVersion
1070
     0
  0
VISUALSTYLE
  5
3FF
102
{ACAD_XDICTIONARY
360
588
102
}
102
{ACAD_REACTORS
330
3F4
102
}
330
3F4
100
AcDbVisualStyle
  2
Dim
 70
    11
 71
     2
 72
     2
 73
     0
 90
        0
 40
-0.6
 41
-30.0
 62
     5
 63
     7
421
 16777215
 74
     1
 91
        4
 64
     7
 65
   257
 75
     1
175
     1
 42
1.0
 92
        8
 66
     7
 43
1.0
 76
     1
 77
     6
 78
     2
 67
     7
 79
     5
170
     0
171
     0
290
     0
174
     0
 93
        1
 44
-50.0
173
     0
291
     1
 45
0.0
1001
ACAD
1000
AcDbSavedByObjectVersion
1070
     0
  0
VISUALSTYLE
  5
40C
102
{ACAD_XDICTIONARY
360
5A2
102
}
102
{ACAD_REACTORS
330
3F4
102
}
330
3F4
100
AcDbVisualStyle
  2
EdgeColorOff
 70
    22
 71
     2
 72
     2
 73
     0
 90
        0
 40
-0.6
 41
-30.0
 62
     5
 63
     7
421
 16777215
 74
     1
 91
        4
 64
     7
 65
   257
 75
     1
175
     1
 42
1.0
 92
        8
 66
     7
 43
1.0
 76
     1
 77
     6
 78
     2
 67
     7
 79
     5
170
     0
171
     0
290
     0
174
     0
 93
        1
 44
0.0
173
     0
291
     1
 45
0.0
1001
ACAD
1000
AcDbSavedByObjectVersion
1070
     0
  0
VISUALSTYLE
  5
403
102
{ACAD_XDICTIONARY
360
590
102
}
102
{ACAD_REACTORS
330
3F4
102
}
330
3F4
100
AcDbVisualStyle
  2
Facepattern
 70
    15
 71
     2
 72
     2
 73
     0
 90
        0
 40
-0.6
 41
-30.0
 62
     5
 63
     7
421
 16777215
 74
     1
 91
        4
 64
     7
 65
   257
 75
     1
175
     1
 42
1.0
 92
        8
 66
     7
 43
1.0
 76
     1
 77
     6
 78
     2
 67
     7
 79
     5
170
     0
171
     0
290
     0
174
     0
 93
        1
 44
0.0
173
     0
291
     1
 45
0.0
1001
ACAD
1000
AcDbSavedByObjectVersion
1070
     0
  0
VISUALSTYLE
  5
3F5
102
{ACAD_XDICTIONARY
360
574
102
}
102
{ACAD_REACTORS
330
3F4
102
}
330
3F4
100
AcDbVisualStyle
  2
Flat
 70
     0
 71
     2
 72
     1
 73
     1
 90
        2
 40
-0.6
 41
30.0
 62
     5
 63
     7
421
 16777215
 74
     0
 91
        0
 64
     7
 65
   257
 75
     1
175
     1
 42
1.0
 92
        8
 66
     7
 43
1.0
 76
     1
 77
     6
 78
     2
 67
     7
 79
     5
170
     0
171
     0
290
     0
174
     0
 93
       13
 44
0.0
173
     0
291
     1
 45
0.0
1001
ACAD
1000
AcDbSavedByObjectVersion
1070
     0
  0
VISUALSTYLE
  5
3F6
102
{ACAD_XDICTIONARY
360
576
102
}
102
{ACAD_REACTORS
330
3F4
102
}
330
3F4
100
AcDbVisualStyle
  2
FlatWithEdges
 70
     1
 71
     2
 72
     1
 73
     1
 90
        2
 40
-0.6
 41
30.0
 62
     5
 63
     7
421
 16777215
 74
     1
 91
        0
 64
     7
 65
   257
 75
     1
175
     1
 42
1.0
 92
        0
 66
   257
 43
1.0
 76
     1
 77
     6
 78
     2
 67
     7
 79
     5
170
     0
171
     0
290
     0
174
     0
 93
       13
 44
0.0
173
     0
291
     1
 45
0.0
1001
ACAD
1000
AcDbSavedByObjectVersion
1070
     0
  0
VISUALSTYLE
  5
3F7
102
{ACAD_XDICTIONARY
360
578
102
}
102
{ACAD_REACTORS
330
3F4
102
}
330
3F4
100
AcDbVisualStyle
  2
Gouraud
 70
     2
 71
     2
 72
     2
 73
     1
 90
        2
 40
-0.6
 41
30.0
 62
     5
 63
     7
421
 16777215
 74
     0
 91
        0
 64
     7
 65
   257
 75
     1
175
     1
 42
1.0
 92
        0
 66
     7
 43
1.0
 76
     1
 77
     6
 78
     2
 67
     7
 79
     5
170
     0
171
     0
290
     0
174
     0
 93
       13
 44
0.0
173
     0
291
     1
 45
0.0
1001
ACAD
1000
AcDbSavedByObjectVersion
1070
     0
  0
VISUALSTYLE
  5
3F8
102
{ACAD_XDICTIONARY
360
57A
102
}
102
{ACAD_REACTORS
330
3F4
102
}
330
3F4
100
AcDbVisualStyle
  2
GouraudWithEdges
 70
     3
 71
     2
 72
     2
 73
     1
 90
        2
 40
-0.6
 41
30.0
 62
     5
 63
     7
421
 16777215
 74
     1
 91
        0
 64
     7
 65
   257
 75
     1
175
     1
 42
1.0
 92
        0
 66
   257
 43
1.0
 76
     1
 77
     6
 78
     2
 67
     7
 79
     5
170
     0
171
     0
290
     0
174
     0
 93
       13
 44
0.0
173
     0
291
     1
 45
0.0
1001
ACAD
1000
AcDbSavedByObjectVersion
1070
     0
  0
VISUALSTYLE
  5
3FC
102
{ACAD_XDICTIONARY
360
582
102
}
102
{ACAD_REACTORS
330
3F4
102
}
330
3F4
100
AcDbVisualStyle
  2
Hidden
 70
     6
 71
     1
 72
     2
 73
     2
 90
        0
 40
-0.6
 41
-30.0
 62
     5
 63
     7
421
 16777215
 74
     2
 91
        2
 64
     7
 65
   257
 75
     2
175
     1
 42
40.0
 92
        0
 66
   257
 43
1.0
 76
     1
 77
     6
 78
     2
 67
     7
 79
     3
170
     0
171
     0
290
     0
174
     0
 93
        1
 44
0.0
173
     0
291
     0
 45
0.0
1001
ACAD
1000
AcDbSavedByObjectVersion
1070
     0
  0
VISUALSTYLE
  5
40A
102
{ACAD_XDICTIONARY
360
59E
102
}
102
{ACAD_REACTORS
330
3F4
102
}
330
3F4
100
AcDbVisualStyle
  2
JitterOff
 70
    20
 71
     2
 72
     2
 73
     0
 90
        0
 40
-0.6
 41
-30.0
 62
     5
 63
     7
421
 16777215
 74
     1
 91
        4
 64
     7
 65
   257
 75
     1
175
     1
 42
1.0
 92
       10
 66
     7
 43
1.0
 76
     1
 77
     6
 78
     2
 67
     7
 79
     5
170
     0
171
     0
290
     0
174
     0
 93
        1
 44
0.0
173
     0
291
     1
 45
0.0
1001
ACAD
1000
AcDbSavedByObjectVersion
1070
     0
  0
VISUALSTYLE
  5
402
102
{ACAD_XDICTIONARY
360
58E
102
}
102
{ACAD_REACTORS
330
3F4
102
}
330
3F4
100
AcDbVisualStyle
  2
Linepattern
 70
    14
 71
     2
 72
     2
 73
     0
 90
        0
 40
-0.6
 41
-30.0
 62
     5
 63
     7
421
 16777215
 74
     1
 91
        4
 64
     7
 65
   257
 75
     7
175
     7
 42
1.0
 92
        8
 66
     7
 43
1.0
 76
     1
 77
     6
 78
     2
 67
     7
 79
     5
170
     0
171
     0
290
     0
174
     0
 93
        1
 44
0.0
173
     0
291
     1
 45
0.0
1001
ACAD
1000
AcDbSavedByObjectVersion
1070
     0
  0
VISUALSTYLE
  5
40B
102
{ACAD_XDICTIONARY
360
5A0
102
}
102
{ACAD_REACTORS
330
3F4
102
}
330
3F4
100
AcDbVisualStyle
  2
OverhangOff
 70
    21
 71
     2
 72
     2
 73
     0
 90
        0
 40
-0.6
 41
-30.0
 62
     5
 63
     7
421
 16777215
 74
     1
 91
        4
 64
     7
 65
   257
 75
     1
175
     1
 42
1.0
 92
        9
 66
     7
 43
1.0
 76
     1
 77
     6
 78
     2
 67
     7
 79
     5
170
     0
171
     0
290
     0
174
     0
 93
        1
 44
0.0
173
     0
291
     1
 45
0.0
1001
ACAD
1000
AcDbSavedByObjectVersion
1070
     0
  0
VISUALSTYLE
  5
3FE
102
{ACAD_XDICTIONARY
360
586
102
}
102
{ACAD_REACTORS
330
3F4
102
}
330
3F4
100
AcDbVisualStyle
  2
Realistic
 70
     8
 71
     2
 72
     3
 73
     0
 90
        2
 40
-0.6
 41
30.0
 62
     5
 63
     7
421
 16777215
 74
     0
 91
        0
 64
     7
 65
   257
 75
     1
175
     1
 42
1.0
 92
        8
 66
   257
 43
1.0
 76
     1
 77
     6
 78
     2
 67
     7
 79
     3
170
     0
171
     0
290
     0
174
     0
 93
       13
 44
0.0
173
     0
291
     0
 45
0.0
1001
ACAD
1000
AcDbSavedByObjectVersion
1070
     0
  0
VISUALSTYLE
  5
409
102
{ACAD_XDICTIONARY
360
59C
102
}
102
{ACAD_REACTORS
330
3F4
102
}
330
3F4
100
AcDbVisualStyle
  2
Shaded
 70
    27
 71
     2
 72
     2
 73
     1
 90
        2
 40
-0.6
 41
30.0
 62
     5
 63
     7
421
 16777215
 74
     0
 91
        4
 64
     7
 65
   257
 75
     1
175
     1
 42
1.0
 92
        8
 66
   257
 43
1.0
 76
     1
 77
     6
 78
     2
 67
     8
425
  7895160
 79
     3
170
     0
171
     0
290
     0
174
     0
 93
        5
 44
0.0
173
     0
291
     0
 45
0.0
1001
ACAD
1000
AcDbSavedByObjectVersion
1070
     0
  0
VISUALSTYLE
  5
408
102
{ACAD_XDICTIONARY
360
59A
102
}
102
{ACAD_REACTORS
330
3F4
102
}
330
3F4
100
AcDbVisualStyle
  2
Shaded with edges
 70
    26
 71
     2
 72
     2
 73
     1
 90
        2
 40
-0.6
 41
30.0
 62
     5
 63
     7
421
 16777215
 74
     1
 91
       10
 64
     7
 65
   257
 75
     2
175
     1
 42
1.0
 92
        8
 66
   257
 43
1.0
 76
     1
 77
     6
 78
     2
 67
     7
 79
     3
170
     0
171
     0
290
     0
174
     0
 93
        5
 44
0.0
173
     0
291
     0
 45
0.0
1001
ACAD
1000
AcDbSavedByObjectVersion
1070
     0
  0
VISUALSTYLE
  5
405
102
{ACAD_XDICTIONARY
360
594
102
}
102
{ACAD_REACTORS
330
3F4
102
}
330
3F4
100
AcDbVisualStyle
  2
Shades of Gray
 70
    23
 71
     2
 72
     2
 73
     3
 90
        0
 40
-0.6
 41
-30.0
 62
     5
 63
     7
421
 16777215
 74
     2
 91
        2
 64
     7
 65
     7
 75
     1
175
     1
 42
40.0
 92
        8
 66
     7
 43
1.0
 76
     1
 77
     6
 78
     2
 67
     7
 79
     3
170
     0
171
     0
290
     0
174
     0
 93
        1
 44
0.0
173
     0
291
     0
 45
0.0
1001
ACAD
1000
AcDbSavedByObjectVersion
1070
     0
  0
VISUALSTYLE
  5
406
102
{ACAD_XDICTIONARY
360
596
102
}
102
{ACAD_REACTORS
330
3F4
102
}
330
3F4
100
AcDbVisualStyle
  2
Sketchy
 70
    24
 71
     1
 72
     2
 73
     2
 90
        0
 40
-0.6
 41
-30.0
 62
     5
 63
     7
421
 16777215
 74
     2
 91
        2
 64
     7
 65
     7
 75
     1
175
     1
 42
40.0
 92
       11
 66
     7
 43
1.0
 76
     1
 77
     6
 78
     2
 67
     7
 79
     6
170
     0
171
     0
290
     0
174
     0
 93
        1
 44
0.0
173
     0
291
     0
 45
0.0
1001
ACAD
1000
AcDbSavedByObjectVersion
1070
     0
  0
VISUALSTYLE
  5
401
102
{ACAD_XDICTIONARY
360
58C
102
}
102
{ACAD_REACTORS
330
3F4
102
}
330
3F4
100
AcDbVisualStyle
  2
Thicken
 70
    13
 71
     2
 72
     2
 73
     0
 90
        0
 40
-0.6
 41
-30.0
 62
     5
 63
     7
421
 16777215
 74
     1
 91
        4
 64
     7
 65
   257
 75
     1
175
     1
 42
1.0
 92
       12
 66
     7
 43
1.0
 76
     1
 77
     6
 78
     2
 67
     7
 79
     5
170
     0
171
     0
290
     0
174
     0
 93
        1
 44
0.0
173
     0
291
     1
 45
0.0
1001
ACAD
1000
AcDbSavedByObjectVersion
1070
     0
  0
VISUALSTYLE
  5
3FB
102
{ACAD_XDICTIONARY
360
580
102
}
102
{ACAD_REACTORS
330
3F4
102
}
330
3F4
100
AcDbVisualStyle
  2
Wireframe
 70
     5
 71
     0
 72
     2
 73
     0
 90
        0
 40
-0.6
 41
-30.0
 62
     5
 63
     7
421
 16777215
 74
     1
 91
        4
 64
     7
 65
   257
 75
     1
175
     1
 42
1.0
 92
        0
 66
   257
 43
1.0
 76
     1
 77
     6
 78
     2
 67
     7
 79
     3
170
     0
171
     0
290
     0
174
     0
 93
        1
 44
0.0
173
     0
291
     0
 45
0.0
1001
ACAD
1000
AcDbSavedByObjectVersion
1070
     0
  0
VISUALSTYLE
  5
407
102
{ACAD_XDICTIONARY
360
598
102
}
102
{ACAD_REACTORS
330
3F4
102
}
330
3F4
100
AcDbVisualStyle
  2
X-Ray
 70
    25
 71
     2
 72
     2
 73
     1
 90
        1
 40
0.5
 41
-30.0
 62
     5
 63
     7
421
 16777215
 74
     1
 91
        0
 64
     7
 65
   257
 75
     1
175
     1
 42
1.0
 92
        8
 66
     7
 43
1.0
 76
     1
 77
     6
 78
     2
 67
     7
 79
     3
170
     0
171
     0
290
     0
174
     0
 93
       13
 44
0.0
173
     0
291
     0
 45
0.0
1001
ACAD
1000
AcDbSavedByObjectVersion
1070
     0
  0
DICTIONARYVAR
  5
511
102
{ACAD_REACTORS
330
50C
102
}
330
50C
100
DictionaryVariables
280
     0
  1
1:1
  0
DICTIONARYVAR
  5
50E
102
{ACAD_REACTORS
330
50C
102
}
330
50C
100
DictionaryVariables
280
     0
  1
STANDARD
  0
DICTIONARYVAR
  5
50D
102
{ACAD_REACTORS
330
50C
102
}
330
50C
100
DictionaryVariables
280
     0
  1
STANDARD
  0
DICTIONARYVAR
  5
50F
102
{ACAD_REACTORS
330
50C
102
}
330
50C
100
DictionaryVariables
280
     0
  1
Metric50
  0
DICTIONARYVAR
  5
510
102
{ACAD_REACTORS
330
50C
102
}
330
50C
100
DictionaryVariables
280
     0
  1
Metric50
  0
DICTIONARYVAR
  5
512
102
{ACAD_REACTORS
330
50C
102
}
330
50C
100
DictionaryVariables
280
     0
  1
2
  0
DICTIONARY
  5
56E
102
{ACAD_REACTORS
330
56C
102
}
330
56C
100
AcDbDictionary
281
     1
  0
DICTIONARY
  5
56D
102
{ACAD_REACTORS
330
56C
102
}
330
56C
100
AcDbDictionary
281
     1
  3
8796088427248
350
567
  3
8796088427264
350
568
  3
8796088427280
350
569
  3
8796088427296
350
56A
  3
8796088427312
350
56B
  0
DICTIONARY
  5
5AA
330
415
100
AcDbDictionary
280
     1
281
     1
  3
ACAD_XREC_ROUNDTRIP
360
5AB
  0
DICTIONARY
  5
3E5
330
3E4
100
AcDbDictionary
280
     1
281
     1
  3
ACAD_XREC_ROUNDTRIP
360
572
  3
BUMPTILE
360
3E7
  3
DIFFUSETILE
360
3E6
  3
OPACITYTILE
360
3EA
  3
REFLECTIONTILE
360
3E9
  3
REFRACTIONTILE
360
3EB
  3
SPECULARTILE
360
3E8
  0
DICTIONARY
  5
3DD
330
3DC
100
AcDbDictionary
280
     1
281
     1
  3
ACAD_XREC_ROUNDTRIP
360
571
  3
BUMPTILE
360
3DF
  3
DIFFUSETILE
360
3DE
  3
OPACITYTILE
360
3E2
  3
REFLECTIONTILE
360
3E1
  3
REFRACTIONTILE
360
3E3
  3
SPECULARTILE
360
3E0
  0
DICTIONARY
  5
3ED
330
3EC
100
AcDbDictionary
280
     1
281
     1
  3
ACAD_XREC_ROUNDTRIP
360
573
  3
BUMPTILE
360
3EF
  3
DIFFUSETILE
360
3EE
  3
OPACITYTILE
360
3F2
  3
REFLECTIONTILE
360
3F1
  3
REFRACTIONTILE
360
3F3
  3
SPECULARTILE
360
3F0
  0
DICTIONARY
  5
5A6
330
411
100
AcDbDictionary
280
     1
281
     1
  3
ACAD_XREC_ROUNDTRIP
360
5A7
  0
DICTIONARY
  5
5A8
330
413
100
AcDbDictionary
280
     1
281
     1
  3
ACAD_XREC_ROUNDTRIP
360
5A9
  0
DICTIONARY
  5
564
330
40F
100
AcDbDictionary
280
     1
281
     1
  3
ACAD_ROUNDTRIP_2008_TABLESTYLE_CELLSTYLEMAP
360
565
  3
ACAD_XREC_ROUNDTRIP
360
5A4
  0
DICTIONARY
  5
57E
330
3FA
100
AcDbDictionary
280
     1
281
     1
  3
ACAD_XREC_ROUNDTRIP
360
57F
  0
DICTIONARY
  5
57C
330
3F9
100
AcDbDictionary
280
     1
281
     1
  3
ACAD_XREC_ROUNDTRIP
360
57D
  0
DICTIONARY
  5
58A
330
400
100
AcDbDictionary
280
     1
281
     1
  3
ACAD_XREC_ROUNDTRIP
360
58B
  0
DICTIONARY
  5
592
330
404
100
AcDbDictionary
280
     1
281
     1
  3
ACAD_XREC_ROUNDTRIP
360
593
  0
DICTIONARY
  5
584
330
3FD
100
AcDbDictionary
280
     1
281
     1
  3
ACAD_XREC_ROUNDTRIP
360
585
  0
DICTIONARY
  5
588
330
3FF
100
AcDbDictionary
280
     1
281
     1
  3
ACAD_XREC_ROUNDTRIP
360
589
  0
DICTIONARY
  5
5A2
330
40C
100
AcDbDictionary
280
     1
281
     1
  3
ACAD_XREC_ROUNDTRIP
360
5A3
  0
DICTIONARY
  5
590
330
403
100
AcDbDictionary
280
     1
281
     1
  3
ACAD_XREC_ROUNDTRIP
360
591
  0
DICTIONARY
  5
574
330
3F5
100
AcDbDictionary
280
     1
281
     1
  3
ACAD_XREC_ROUNDTRIP
360
575
  0
DICTIONARY
  5
576
330
3F6
100
AcDbDictionary
280
     1
281
     1
  3
ACAD_XREC_ROUNDTRIP
360
577
  0
DICTIONARY
  5
578
330
3F7
100
AcDbDictionary
280
     1
281
     1
  3
ACAD_XREC_ROUNDTRIP
360
579
  0
DICTIONARY
  5
57A
330
3F8
100
AcDbDictionary
280
     1
281
     1
  3
ACAD_XREC_ROUNDTRIP
360
57B
  0
DICTIONARY
  5
582
330
3FC
100
AcDbDictionary
280
     1
281
     1
  3
ACAD_XREC_ROUNDTRIP
360
583
  0
DICTIONARY
  5
59E
330
40A
100
AcDbDictionary
280
     1
281
     1
  3
ACAD_XREC_ROUNDTRIP
360
59F
  0
DICTIONARY
  5
58E
330
402
100
AcDbDictionary
280
     1
281
     1
  3
ACAD_XREC_ROUNDTRIP
360
58F
  0
DICTIONARY
  5
5A0
330
40B
100
AcDbDictionary
280
     1
281
     1
  3
ACAD_XREC_ROUNDTRIP
360
5A1
  0
DICTIONARY
  5
586
330
3FE
100
AcDbDictionary
280
     1
281
     1
  3
ACAD_XREC_ROUNDTRIP
360
587
  0
DICTIONARY
  5
59C
330
409
100
AcDbDictionary
280
     1
281
     1
  3
ACAD_XREC_ROUNDTRIP
360
59D
  0
DICTIONARY
  5
59A
330
408
100
AcDbDictionary
280
     1
281
     1
  3
ACAD_XREC_ROUNDTRIP
360
59B
  0
DICTIONARY
  5
594
330
405
100
AcDbDictionary
280
     1
281
     1
  3
ACAD_XREC_ROUNDTRIP
360
595
  0
DICTIONARY
  5
596
330
406
100
AcDbDictionary
280
     1
281
     1
  3
ACAD_XREC_ROUNDTRIP
360
597
  0
DICTIONARY
  5
58C
330
401
100
AcDbDictionary
280
     1
281
     1
  3
ACAD_XREC_ROUNDTRIP
360
58D
  0
DICTIONARY
  5
580
330
3FB
100
AcDbDictionary
280
     1
281
     1
  3
ACAD_XREC_ROUNDTRIP
360
581
  0
DICTIONARY
  5
598
330
407
100
AcDbDictionary
280
     1
281
     1
  3
ACAD_XREC_ROUNDTRIP
360
599
  0
XRECORD
  5
567
102
{ACAD_REACTORS
330
56D
102
}
330
56D
100
AcDbXrecord
280
     1
  1
AcDb_Thumbnail_Schema
102
{ATTRRECORD
341
568
  2
AcDbDs::TreatedAsObjectData
280
     1
291
     1
102
ATTRRECORD}
102
{ATTRRECORD
341
569
  2
AcDbDs::Legacy
280
     1
291
     1
102
ATTRRECORD}
  2
AcDbDs::ID
280
    10
 91
        8
102
{ATTRRECORD
341
56A
  2
AcDs:Indexable
280
     1
291
     1
102
ATTRRECORD}
102
{ATTRRECORD
341
56B
  2
AcDbDs::HandleAttribute
280
     7
282
     1
102
ATTRRECORD}
  2
Thumbnail_Data
280
    15
 91
        0
  0
XRECORD
  5
568
102
{ACAD_REACTORS
330
56D
102
}
330
56D
100
AcDbXrecord
280
     1
  1
AcDbDs::TreatedAsObjectDataSchema
  2
AcDbDs::TreatedAsObjectData
280
     1
 91
        0
  0
XRECORD
  5
569
102
{ACAD_REACTORS
330
56D
102
}
330
56D
100
AcDbXrecord
280
     1
  1
AcDbDs::LegacySchema
  2
AcDbDs::Legacy
280
     1
 91
        0
  0
XRECORD
  5
56A
102
{ACAD_REACTORS
330
56D
102
}
330
56D
100
AcDbXrecord
280
     1
  1
AcDbDs::IndexedPropertySchema
  2
AcDs:Indexable
280
     1
 91
        0
  0
XRECORD
  5
56B
102
{ACAD_REACTORS
330
56D
102
}
330
56D
100
AcDbXrecord
280
     1
  1
AcDbDs::HandleAttributeSchema
  2
AcDbDs::HandleAttribute
280
     7
 91
        1
284
     1
  0
XRECORD
  5
5AB
102
{ACAD_REACTORS
330
5AA
102
}
330
5AA
100
AcDbXrecord
280
     1
102
DISPLAYNAME
  1
Metric50
102
FLAGS
 90
        0
  0
XRECORD
  5
572
102
{ACAD_REACTORS
330
3E5
102
}
330
3E5
100
AcDbXrecord
280
     1
102
MATERIAL
148
0.0
149
0.0
149
0.0
 93
        0
 94
      127
282
     0
 72
     0
 77
     0
171
     0
175
     0
179
     0
273
     0
  0
XRECORD
  5
3E7
102
{ACAD_REACTORS
330
3E5
102
}
330
3E5
100
AcDbXrecord
280
     1
270
     1
271
     1
  0
XRECORD
  5
3E6
102
{ACAD_REACTORS
330
3E5
102
}
330
3E5
100
AcDbXrecord
280
     1
270
     1
271
     1
  0
XRECORD
  5
3EA
102
{ACAD_REACTORS
330
3E5
102
}
330
3E5
100
AcDbXrecord
280
     1
270
     1
271
     1
  0
XRECORD
  5
3E9
102
{ACAD_REACTORS
330
3E5
102
}
330
3E5
100
AcDbXrecord
280
     1
270
     1
271
     1
  0
XRECORD
  5
3EB
102
{ACAD_REACTORS
330
3E5
102
}
330
3E5
100
AcDbXrecord
280
     1
270
     1
271
     1
  0
XRECORD
  5
3E8
102
{ACAD_REACTORS
330
3E5
102
}
330
3E5
100
AcDbXrecord
280
     1
270
     1
271
     1
  0
XRECORD
  5
571
102
{ACAD_REACTORS
330
3DD
102
}
330
3DD
100
AcDbXrecord
280
     1
102
MATERIAL
148
0.0
149
0.0
149
0.0
 93
        0
 94
      127
282
     0
 72
     0
 77
     0
171
     0
175
     0
179
     0
273
     0
  0
XRECORD
  5
3DF
102
{ACAD_REACTORS
330
3DD
102
}
330
3DD
100
AcDbXrecord
280
     1
270
     1
271
     1
  0
XRECORD
  5
3DE
102
{ACAD_REACTORS
330
3DD
102
}
330
3DD
100
AcDbXrecord
280
     1
270
     1
271
     1
  0
XRECORD
  5
3E2
102
{ACAD_REACTORS
330
3DD
102
}
330
3DD
100
AcDbXrecord
280
     1
270
     1
271
     1
  0
XRECORD
  5
3E1
102
{ACAD_REACTORS
330
3DD
102
}
330
3DD
100
AcDbXrecord
280
     1
270
     1
271
     1
  0
XRECORD
  5
3E3
102
{ACAD_REACTORS
330
3DD
102
}
330
3DD
100
AcDbXrecord
280
     1
270
     1
271
     1
  0
XRECORD
  5
3E0
102
{ACAD_REACTORS
330
3DD
102
}
330
3DD
100
AcDbXrecord
280
     1
270
     1
271
     1
  0
XRECORD
  5
573
102
{ACAD_REACTORS
330
3ED
102
}
330
3ED
100
AcDbXrecord
280
     1
102
MATERIAL
148
0.0
149
0.0
149
0.0
 93
        0
 94
      127
282
     0
 72
     0
 77
     0
171
     0
175
     0
179
     0
273
     0
  0
XRECORD
  5
3EF
102
{ACAD_REACTORS
330
3ED
102
}
330
3ED
100
AcDbXrecord
280
     1
270
     1
271
     1
  0
XRECORD
  5
3EE
102
{ACAD_REACTORS
330
3ED
102
}
330
3ED
100
AcDbXrecord
280
     1
270
     1
271
     1
  0
XRECORD
  5
3F2
102
{ACAD_REACTORS
330
3ED
102
}
330
3ED
100
AcDbXrecord
280
     1
270
     1
271
     1
  0
XRECORD
  5
3F1
102
{ACAD_REACTORS
330
3ED
102
}
330
3ED
100
AcDbXrecord
280
     1
270
     1
271
     1
  0
XRECORD
  5
3F3
102
{ACAD_REACTORS
330
3ED
102
}
330
3ED
100
AcDbXrecord
280
     1
270
     1
271
     1
  0
XRECORD
  5
3F0
102
{ACAD_REACTORS
330
3ED
102
}
330
3ED
100
AcDbXrecord
280
     1
270
     1
271
     1
  0
XRECORD
  5
5A7
102
{ACAD_REACTORS
330
5A6
102
}
330
5A6
100
AcDbXrecord
280
     1
102
ACAD_ROUNDTRIP_2012_MLEADER_STYLE
298
     1
  0
XRECORD
  5
5A9
102
{ACAD_REACTORS
330
5A8
102
}
330
5A8
100
AcDbXrecord
280
     1
102
DISPLAYNAME
  1
Metric50
102
FLAGS
 90
        0
  0
CELLSTYLEMAP
  5
565
102
{ACAD_REACTORS
330
564
102
}
330
564
100
AcDbCellStyleMap
 90
        3
300
CELLSTYLE
  1
TABLEFORMAT_BEGIN
 90
        5
170
     1
 91
        0
 92
    32768
 62
   257
 93
        1
300
CONTENTFORMAT
  1
CONTENTFORMAT_BEGIN
 90
        0
 91
        0
 92
      512
 93
        0
300

 40
0.0
140
1.0
 94
        5
 62
     0
340
11
144
6.0
309
CONTENTFORMAT_END
171
     1
301
MARGIN
  1
CELLMARGIN_BEGIN
 40
1.5
 40
1.5
 40
1.5
 40
1.5
 40
4.5
 40
4.5
309
CELLMARGIN_END
 94
        6
 95
        1
302
GRIDFORMAT
  1
GRIDFORMAT_BEGIN
 90
        0
 91
        1
 62
     0
 92
       -2
340
0
 93
        0
 40
1.125
309
GRIDFORMAT_END
 95
        2
302
GRIDFORMAT
  1
GRIDFORMAT_BEGIN
 90
        0
 91
        1
 62
     0
 92
       -2
340
0
 93
        0
 40
1.125
309
GRIDFORMAT_END
 95
        4
302
GRIDFORMAT
  1
GRIDFORMAT_BEGIN
 90
        0
 91
        1
 62
     0
 92
       -2
340
0
 93
        0
 40
1.125
309
GRIDFORMAT_END
 95
        8
302
GRIDFORMAT
  1
GRIDFORMAT_BEGIN
 90
        0
 91
        1
 62
     0
 92
       -2
340
0
 93
        0
 40
1.125
309
GRIDFORMAT_END
 95
       16
302
GRIDFORMAT
  1
GRIDFORMAT_BEGIN
 90
        0
 91
        1
 62
     0
 92
       -2
340
0
 93
        0
 40
1.125
309
GRIDFORMAT_END
 95
       32
302
GRIDFORMAT
  1
GRIDFORMAT_BEGIN
 90
        0
 91
        1
 62
     0
 92
       -2
340
0
 93
        0
 40
1.125
309
GRIDFORMAT_END
309
TABLEFORMAT_END
  1
CELLSTYLE_BEGIN
 90
        1
 91
        1
300
_TITLE
309
CELLSTYLE_END
300
CELLSTYLE
  1
TABLEFORMAT_BEGIN
 90
        5
170
     1
 91
        0
 92
        0
 62
   257
 93
        1
300
CONTENTFORMAT
  1
CONTENTFORMAT_BEGIN
 90
        0
 91
        0
 92
      512
 93
        0
300

 40
0.0
140
1.0
 94
        5
 62
     0
340
11
144
4.5
309
CONTENTFORMAT_END
171
     1
301
MARGIN
  1
CELLMARGIN_BEGIN
 40
1.5
 40
1.5
 40
1.5
 40
1.5
 40
4.5
 40
4.5
309
CELLMARGIN_END
 94
        6
 95
        1
302
GRIDFORMAT
  1
GRIDFORMAT_BEGIN
 90
        0
 91
        1
 62
     0
 92
       -2
340
0
 93
        0
 40
1.125
309
GRIDFORMAT_END
 95
        2
302
GRIDFORMAT
  1
GRIDFORMAT_BEGIN
 90
        0
 91
        1
 62
     0
 92
       -2
340
0
 93
        0
 40
1.125
309
GRIDFORMAT_END
 95
        4
302
GRIDFORMAT
  1
GRIDFORMAT_BEGIN
 90
        0
 91
        1
 62
     0
 92
       -2
340
0
 93
        0
 40
1.125
309
GRIDFORMAT_END
 95
        8
302
GRIDFORMAT
  1
GRIDFORMAT_BEGIN
 90
        0
 91
        1
 62
     0
 92
       -2
340
0
 93
        0
 40
1.125
309
GRIDFORMAT_END
 95
       16
302
GRIDFORMAT
  1
GRIDFORMAT_BEGIN
 90
        0
 91
        1
 62
     0
 92
       -2
340
0
 93
        0
 40
1.125
309
GRIDFORMAT_END
 95
       32
302
GRIDFORMAT
  1
GRIDFORMAT_BEGIN
 90
        0
 91
        1
 62
     0
 92
       -2
340
0
 93
        0
 40
1.125
309
GRIDFORMAT_END
309
TABLEFORMAT_END
  1
CELLSTYLE_BEGIN
 90
        2
 91
        1
300
_HEADER
309
CELLSTYLE_END
300
CELLSTYLE
  1
TABLEFORMAT_BEGIN
 90
        5
170
     1
 91
        0
 92
        0
 62
   257
 93
        1
300
CONTENTFORMAT
  1
CONTENTFORMAT_BEGIN
 90
        0
 91
        0
 92
      512
 93
        0
300

 40
0.0
140
1.0
 94
        2
 62
     0
340
11
144
4.5
309
CONTENTFORMAT_END
171
     1
301
MARGIN
  1
CELLMARGIN_BEGIN
 40
1.5
 40
1.5
 40
1.5
 40
1.5
 40
4.5
 40
4.5
309
CELLMARGIN_END
 94
        6
 95
        1
302
GRIDFORMAT
  1
GRIDFORMAT_BEGIN
 90
        0
 91
        1
 62
     0
 92
       -2
340
0
 93
        0
 40
1.125
309
GRIDFORMAT_END
 95
        2
302
GRIDFORMAT
  1
GRIDFORMAT_BEGIN
 90
        0
 91
        1
 62
     0
 92
       -2
340
0
 93
        0
 40
1.125
309
GRIDFORMAT_END
 95
        4
302
GRIDFORMAT
  1
GRIDFORMAT_BEGIN
 90
        0
 91
        1
 62
     0
 92
       -2
340
0
 93
        0
 40
1.125
309
GRIDFORMAT_END
 95
        8
302
GRIDFORMAT
  1
GRIDFORMAT_BEGIN
 90
        0
 91
        1
 62
     0
 92
       -2
340
0
 93
        0
 40
1.125
309
GRIDFORMAT_END
 95
       16
302
GRIDFORMAT
  1
GRIDFORMAT_BEGIN
 90
        0
 91
        1
 62
     0
 92
       -2
340
0
 93
        0
 40
1.125
309
GRIDFORMAT_END
 95
       32
302
GRIDFORMAT
  1
GRIDFORMAT_BEGIN
 90
        0
 91
        1
 62
     0
 92
       -2
340
0
 93
        0
 40
1.125
309
GRIDFORMAT_END
309
TABLEFORMAT_END
  1
CELLSTYLE_BEGIN
 90
        3
 91
        2
300
_DATA
309
CELLSTYLE_END
  0
XRECORD
  5
5A4
102
{ACAD_REACTORS
330
564
102
}
330
564
100
AcDbXrecord
280
     1
102
ACAD_ROUNDTRIP_PRE2007_TABLESTYLE
 90
      512
 91
        0
  1

 92
      512
 93
        0
  2

 94
      512
 95
        0
  3

  0
XRECORD
  5
57F
102
{ACAD_REACTORS
330
57E
102
}
330
57E
100
AcDbXrecord
280
     1
102
RTVSPost2010Prop28
280
     1
102
RTVSPost2010PropOp28
 70
     1
102
RTVSPost2010Prop29
280
     1
102
RTVSPost2010PropOp29
 70
     1
102
RTVSPost2010Prop30
280
     0
102
RTVSPost2010PropOp30
 70
     1
102
RTVSPost2010Prop31
280
     0
102
RTVSPost2010PropOp31
 70
     1
102
RTVSPost2010Prop32
280
     0
102
RTVSPost2010PropOp32
 70
     1
102
RTVSPost2010Prop33
280
     0
102
RTVSPost2010PropOp33
 70
     1
102
RTVSPost2010Prop34
280
     0
102
RTVSPost2010PropOp34
 70
     1
102
RTVSPost2010Prop35
280
     0
102
RTVSPost2010PropOp35
 70
     1
102
RTVSPost2010Prop36
280
     0
102
RTVSPost2010PropOp36
 70
     1
102
RTVSPost2010Prop37
 90
       50
102
RTVSPost2010PropOp37
 70
     1
102
RTVSPost2010Prop38
140
0.0
102
RTVSPost2010PropOp38
 70
     1
102
RTVSPost2010Prop39
140
1.0
102
RTVSPost2010PropOp39
 70
     1
102
RTVSPost2010Prop40
 90
        0
102
RTVSPost2010PropOp40
 70
     1
102
RTVSPost2010Prop41ColorIndex
 90
       18
102
RTVSPost2010Prop41ColorRGB
 90
        0
102
RTVSPost2010PropOp41
 70
     1
102
RTVSPost2010Prop42
 90
       50
102
RTVSPost2010PropOp42
 70
     1
102
RTVSPost2010Prop43
 90
        3
102
RTVSPost2010PropOp43
 70
     1
102
RTVSPost2010Prop44ColorIndex
 90
        5
102
RTVSPost2010Prop44ColorRGB
 90
      255
102
RTVSPost2010PropOp44
 70
     1
102
RTVSPost2010Prop45
280
     0
102
RTVSPost2010PropOp45
 70
     1
102
RTVSPost2010Prop46
 90
       50
102
RTVSPost2010PropOp46
 70
     1
102
RTVSPost2010Prop47
 90
       50
102
RTVSPost2010PropOp47
 70
     1
102
RTVSPost2010Prop48
 90
       50
102
RTVSPost2010PropOp48
 70
     1
102
RTVSPost2010Prop49
280
     0
102
RTVSPost2010PropOp49
 70
     1
102
RTVSPost2010Prop50
 90
       50
102
RTVSPost2010PropOp50
 70
     1
102
RTVSPost2010Prop51ColorIndex
 90
      256
102
RTVSPost2010Prop51ColorRGB
 90
-16777216
102
RTVSPost2010PropOp51
 70
     0
102
RTVSPost2010Prop52
140
1.0
102
RTVSPost2010PropOp52
 70
     0
102
RTVSPost2010Prop53
 90
        2
102
RTVSPost2010PropOp53
 70
     1
102
RTVSPost2010Prop54
  1
strokes_ogs.tif
102
RTVSPost2010PropOp54
 70
     1
102
RTVSPost2010Prop55
280
     0
102
RTVSPost2010PropOp55
 70
     1
102
RTVSPost2010Prop56
140
1.0
102
RTVSPost2010PropOp56
 70
     1
102
RTVSPost2010Prop57
140
1.0
102
RTVSPost2010PropOp57
 70
     1
102
RTVSPropertyOp0
 70
     1
102
RTVSPropertyOp1
 70
     1
102
RTVSPropertyOp2
 70
     1
102
RTVSPropertyOp3
 70
     1
102
RTVSPropertyOp4
 70
     1
102
RTVSPropertyOp5
 70
     1
102
RTVSPropertyOp6
 70
     1
102
RTVSPropertyOp7
 70
     1
102
RTVSPropertyOp8
 70
     1
102
RTVSPropertyOp9
 70
     1
102
RTVSPropertyOp10
 70
     1
102
RTVSPropertyOp11
 70
     1
102
RTVSPropertyOp12
 70
     1
102
RTVSPropertyOp13
 70
     1
102
RTVSPropertyOp14
 70
     1
102
RTVSPropertyOp15
 70
     1
102
RTVSPropertyOp16
 70
     1
102
RTVSPropertyOp17
 70
     1
102
RTVSPropertyOp18
 70
     1
102
RTVSPropertyOp19
 70
     1
102
RTVSPropertyOp20
 70
     1
102
RTVSPropertyOp21
 70
     1
102
RTVSPropertyOp22
 70
     1
102
RTVSPropertyOp23
 70
     1
102
RTVSPropertyOp24
 70
     1
102
RTVSPropertyOp25
 70
     1
102
RTVSPropertyOp26
 70
     1
102
RTVSPropertyOp27
 70
     1
102
RTVSPropertyOp28
 70
     1
102
RTVSPropertyOp29
 70
     1
102
RTVSPropertyOp30
 70
     1
102
RTVSPropertyOp31
 70
     1
102
RTVSPropertyOp32
 70
     1
102
RTVSPropertyOp33
 70
     1
102
RTVSPropertyOp34
 70
     1
102
RTVSPropertyOp35
 70
     1
102
RTVSPropertyOp36
 70
     1
102
RTVSPropertyOp37
 70
     1
102
RTVSPropertyOp38
 70
     1
102
RTVSPropertyOp39
 70
     1
102
RTVSPropertyOp40
 70
     1
102
RTVSPropertyOp41
 70
     1
102
RTVSPropertyOp42
 70
     1
102
RTVSPropertyOp43
 70
     1
102
RTVSPropertyOp44
 70
     1
102
RTVSPropertyOp45
 70
     1
102
RTVSPropertyOp46
 70
     1
102
RTVSPropertyOp47
 70
     1
102
RTVSPropertyOp48
 70
     1
102
RTVSPropertyOp49
 70
     1
102
RTVSPropertyOp50
 70
     1
102
RTVSPropertyOp51
 70
     0
102
RTVSPropertyOp52
 70
     0
102
RTVSPropertyOp53
 70
     1
102
RTVSPropertyOp54
 70
     1
102
RTVSPropertyOp55
 70
     1
102
RTVSPropertyOp56
 70
     1
102
RTVSPropertyOp57
 70
     1
102
RTVSPropertyOp58
 70
     1
102
RTVSPropertyOp59
 70
     1
102
RTVSPropertyOp60
 70
     1
102
RTVSPropertyOp61
 70
     1
102
RTVSPropertyOp62
 70
     1
  0
XRECORD
  5
57D
102
{ACAD_REACTORS
330
57C
102
}
330
57C
100
AcDbXrecord
280
     1
102
RTVSPost2010Prop28
280
     0
102
RTVSPost2010PropOp28
 70
     1
102
RTVSPost2010Prop29
280
     1
102
RTVSPost2010PropOp29
 70
     1
102
RTVSPost2010Prop30
280
     1
102
RTVSPost2010PropOp30
 70
     1
102
RTVSPost2010Prop31
280
     0
102
RTVSPost2010PropOp31
 70
     1
102
RTVSPost2010Prop32
280
     0
102
RTVSPost2010PropOp32
 70
     1
102
RTVSPost2010Prop33
280
     0
102
RTVSPost2010PropOp33
 70
     1
102
RTVSPost2010Prop34
280
     0
102
RTVSPost2010PropOp34
 70
     1
102
RTVSPost2010Prop35
280
     0
102
RTVSPost2010PropOp35
 70
     1
102
RTVSPost2010Prop36
280
     0
102
RTVSPost2010PropOp36
 70
     1
102
RTVSPost2010Prop37
 90
       50
102
RTVSPost2010PropOp37
 70
     1
102
RTVSPost2010Prop38
140
0.0
102
RTVSPost2010PropOp38
 70
     1
102
RTVSPost2010Prop39
140
1.0
102
RTVSPost2010PropOp39
 70
     1
102
RTVSPost2010Prop40
 90
        0
102
RTVSPost2010PropOp40
 70
     1
102
RTVSPost2010Prop41ColorIndex
 90
       18
102
RTVSPost2010Prop41ColorRGB
 90
        0
102
RTVSPost2010PropOp41
 70
     1
102
RTVSPost2010Prop42
 90
       50
102
RTVSPost2010PropOp42
 70
     1
102
RTVSPost2010Prop43
 90
        3
102
RTVSPost2010PropOp43
 70
     1
102
RTVSPost2010Prop44ColorIndex
 90
        5
102
RTVSPost2010Prop44ColorRGB
 90
      255
102
RTVSPost2010PropOp44
 70
     1
102
RTVSPost2010Prop45
280
     0
102
RTVSPost2010PropOp45
 70
     1
102
RTVSPost2010Prop46
 90
       50
102
RTVSPost2010PropOp46
 70
     1
102
RTVSPost2010Prop47
 90
       50
102
RTVSPost2010PropOp47
 70
     1
102
RTVSPost2010Prop48
 90
       50
102
RTVSPost2010PropOp48
 70
     1
102
RTVSPost2010Prop49
280
     0
102
RTVSPost2010PropOp49
 70
     1
102
RTVSPost2010Prop50
 90
       50
102
RTVSPost2010PropOp50
 70
     1
102
RTVSPost2010Prop51ColorIndex
 90
      256
102
RTVSPost2010Prop51ColorRGB
 90
-16777216
102
RTVSPost2010PropOp51
 70
     0
102
RTVSPost2010Prop52
140
1.0
102
RTVSPost2010PropOp52
 70
     0
102
RTVSPost2010Prop53
 90
        2
102
RTVSPost2010PropOp53
 70
     1
102
RTVSPost2010Prop54
  1
strokes_ogs.tif
102
RTVSPost2010PropOp54
 70
     1
102
RTVSPost2010Prop55
280
     0
102
RTVSPost2010PropOp55
 70
     1
102
RTVSPost2010Prop56
140
1.0
102
RTVSPost2010PropOp56
 70
     1
102
RTVSPost2010Prop57
140
1.0
102
RTVSPost2010PropOp57
 70
     1
102
RTVSPropertyOp0
 70
     1
102
RTVSPropertyOp1
 70
     1
102
RTVSPropertyOp2
 70
     1
102
RTVSPropertyOp3
 70
     1
102
RTVSPropertyOp4
 70
     1
102
RTVSPropertyOp5
 70
     1
102
RTVSPropertyOp6
 70
     1
102
RTVSPropertyOp7
 70
     1
102
RTVSPropertyOp8
 70
     1
102
RTVSPropertyOp9
 70
     1
102
RTVSPropertyOp10
 70
     1
102
RTVSPropertyOp11
 70
     1
102
RTVSPropertyOp12
 70
     1
102
RTVSPropertyOp13
 70
     1
102
RTVSPropertyOp14
 70
     1
102
RTVSPropertyOp15
 70
     1
102
RTVSPropertyOp16
 70
     1
102
RTVSPropertyOp17
 70
     1
102
RTVSPropertyOp18
 70
     1
102
RTVSPropertyOp19
 70
     1
102
RTVSPropertyOp20
 70
     1
102
RTVSPropertyOp21
 70
     1
102
RTVSPropertyOp22
 70
     1
102
RTVSPropertyOp23
 70
     1
102
RTVSPropertyOp24
 70
     1
102
RTVSPropertyOp25
 70
     1
102
RTVSPropertyOp26
 70
     1
102
RTVSPropertyOp27
 70
     1
102
RTVSPropertyOp28
 70
     1
102
RTVSPropertyOp29
 70
     1
102
RTVSPropertyOp30
 70
     1
102
RTVSPropertyOp31
 70
     1
102
RTVSPropertyOp32
 70
     1
102
RTVSPropertyOp33
 70
     1
102
RTVSPropertyOp34
 70
     1
102
RTVSPropertyOp35
 70
     1
102
RTVSPropertyOp36
 70
     1
102
RTVSPropertyOp37
 70
     1
102
RTVSPropertyOp38
 70
     1
102
RTVSPropertyOp39
 70
     1
102
RTVSPropertyOp40
 70
     1
102
RTVSPropertyOp41
 70
     1
102
RTVSPropertyOp42
 70
     1
102
RTVSPropertyOp43
 70
     1
102
RTVSPropertyOp44
 70
     1
102
RTVSPropertyOp45
 70
     1
102
RTVSPropertyOp46
 70
     1
102
RTVSPropertyOp47
 70
     1
102
RTVSPropertyOp48
 70
     1
102
RTVSPropertyOp49
 70
     1
102
RTVSPropertyOp50
 70
     1
102
RTVSPropertyOp51
 70
     0
102
RTVSPropertyOp52
 70
     0
102
RTVSPropertyOp53
 70
     1
102
RTVSPropertyOp54
 70
     1
102
RTVSPropertyOp55
 70
     1
102
RTVSPropertyOp56
 70
     1
102
RTVSPropertyOp57
 70
     1
102
RTVSPropertyOp58
 70
     1
102
RTVSPropertyOp59
 70
     1
102
RTVSPropertyOp60
 70
     1
102
RTVSPropertyOp61
 70
     1
102
RTVSPropertyOp62
 70
     1
  0
XRECORD
  5
58B
102
{ACAD_REACTORS
330
58A
102
}
330
58A
100
AcDbXrecord
280
     1
102
RTVSPost2010Prop28
280
     0
102
RTVSPost2010PropOp28
 70
     1
102
RTVSPost2010Prop29
280
     1
102
RTVSPost2010PropOp29
 70
     1
102
RTVSPost2010Prop30
280
     1
102
RTVSPost2010PropOp30
 70
     1
102
RTVSPost2010Prop31
280
     0
102
RTVSPost2010PropOp31
 70
     1
102
RTVSPost2010Prop32
280
     0
102
RTVSPost2010PropOp32
 70
     1
102
RTVSPost2010Prop33
280
     0
102
RTVSPost2010PropOp33
 70
     1
102
RTVSPost2010Prop34
280
     0
102
RTVSPost2010PropOp34
 70
     1
102
RTVSPost2010Prop35
280
     0
102
RTVSPost2010PropOp35
 70
     1
102
RTVSPost2010Prop36
280
     0
102
RTVSPost2010PropOp36
 70
     1
102
RTVSPost2010Prop37
 90
       50
102
RTVSPost2010PropOp37
 70
     1
102
RTVSPost2010Prop38
140
0.0
102
RTVSPost2010PropOp38
 70
     1
102
RTVSPost2010Prop39
140
1.0
102
RTVSPost2010PropOp39
 70
     1
102
RTVSPost2010Prop40
 90
        0
102
RTVSPost2010PropOp40
 70
     1
102
RTVSPost2010Prop41ColorIndex
 90
       18
102
RTVSPost2010Prop41ColorRGB
 90
        0
102
RTVSPost2010PropOp41
 70
     1
102
RTVSPost2010Prop42
 90
       50
102
RTVSPost2010PropOp42
 70
     1
102
RTVSPost2010Prop43
 90
        3
102
RTVSPost2010PropOp43
 70
     1
102
RTVSPost2010Prop44ColorIndex
 90
        5
102
RTVSPost2010Prop44ColorRGB
 90
      255
102
RTVSPost2010PropOp44
 70
     1
102
RTVSPost2010Prop45
280
     0
102
RTVSPost2010PropOp45
 70
     1
102
RTVSPost2010Prop46
 90
       50
102
RTVSPost2010PropOp46
 70
     1
102
RTVSPost2010Prop47
 90
       50
102
RTVSPost2010PropOp47
 70
     1
102
RTVSPost2010Prop48
 90
       50
102
RTVSPost2010PropOp48
 70
     1
102
RTVSPost2010Prop49
280
     0
102
RTVSPost2010PropOp49
 70
     1
102
RTVSPost2010Prop50
 90
       50
102
RTVSPost2010PropOp50
 70
     1
102
RTVSPost2010Prop51ColorIndex
 90
      256
102
RTVSPost2010Prop51ColorRGB
 90
-16777216
102
RTVSPost2010PropOp51
 70
     0
102
RTVSPost2010Prop52
140
1.0
102
RTVSPost2010PropOp52
 70
     0
102
RTVSPost2010Prop53
 90
        2
102
RTVSPost2010PropOp53
 70
     1
102
RTVSPost2010Prop54
  1
strokes_ogs.tif
102
RTVSPost2010PropOp54
 70
     1
102
RTVSPost2010Prop55
280
     0
102
RTVSPost2010PropOp55
 70
     1
102
RTVSPost2010Prop56
140
1.0
102
RTVSPost2010PropOp56
 70
     1
102
RTVSPost2010Prop57
140
1.0
102
RTVSPost2010PropOp57
 70
     1
102
RTVSPropertyOp0
 70
     1
102
RTVSPropertyOp1
 70
     1
102
RTVSPropertyOp2
 70
     1
102
RTVSPropertyOp3
 70
     1
102
RTVSPropertyOp4
 70
     1
102
RTVSPropertyOp5
 70
     1
102
RTVSPropertyOp6
 70
     1
102
RTVSPropertyOp7
 70
     1
102
RTVSPropertyOp8
 70
     1
102
RTVSPropertyOp9
 70
     1
102
RTVSPropertyOp10
 70
     1
102
RTVSPropertyOp11
 70
     1
102
RTVSPropertyOp12
 70
     1
102
RTVSPropertyOp13
 70
     1
102
RTVSPropertyOp14
 70
     1
102
RTVSPropertyOp15
 70
     1
102
RTVSPropertyOp16
 70
     1
102
RTVSPropertyOp17
 70
     1
102
RTVSPropertyOp18
 70
     1
102
RTVSPropertyOp19
 70
     1
102
RTVSPropertyOp20
 70
     1
102
RTVSPropertyOp21
 70
     1
102
RTVSPropertyOp22
 70
     1
102
RTVSPropertyOp23
 70
     1
102
RTVSPropertyOp24
 70
     1
102
RTVSPropertyOp25
 70
     1
102
RTVSPropertyOp26
 70
     1
102
RTVSPropertyOp27
 70
     1
102
RTVSPropertyOp28
 70
     1
102
RTVSPropertyOp29
 70
     1
102
RTVSPropertyOp30
 70
     1
102
RTVSPropertyOp31
 70
     1
102
RTVSPropertyOp32
 70
     1
102
RTVSPropertyOp33
 70
     1
102
RTVSPropertyOp34
 70
     1
102
RTVSPropertyOp35
 70
     1
102
RTVSPropertyOp36
 70
     1
102
RTVSPropertyOp37
 70
     1
102
RTVSPropertyOp38
 70
     1
102
RTVSPropertyOp39
 70
     1
102
RTVSPropertyOp40
 70
     1
102
RTVSPropertyOp41
 70
     1
102
RTVSPropertyOp42
 70
     1
102
RTVSPropertyOp43
 70
     1
102
RTVSPropertyOp44
 70
     1
102
RTVSPropertyOp45
 70
     1
102
RTVSPropertyOp46
 70
     1
102
RTVSPropertyOp47
 70
     1
102
RTVSPropertyOp48
 70
     1
102
RTVSPropertyOp49
 70
     1
102
RTVSPropertyOp50
 70
     1
102
RTVSPropertyOp51
 70
     0
102
RTVSPropertyOp52
 70
     0
102
RTVSPropertyOp53
 70
     1
102
RTVSPropertyOp54
 70
     1
102
RTVSPropertyOp55
 70
     1
102
RTVSPropertyOp56
 70
     1
102
RTVSPropertyOp57
 70
     1
102
RTVSPropertyOp58
 70
     1
102
RTVSPropertyOp59
 70
     1
102
RTVSPropertyOp60
 70
     1
102
RTVSPropertyOp61
 70
     1
102
RTVSPropertyOp62
 70
     1
  0
XRECORD
  5
593
102
{ACAD_REACTORS
330
592
102
}
330
592
100
AcDbXrecord
280
     1
102
RTVSPost2010Prop28
280
     0
102
RTVSPost2010PropOp28
 70
     1
102
RTVSPost2010Prop29
280
     1
102
RTVSPost2010PropOp29
 70
     1
102
RTVSPost2010Prop30
280
     1
102
RTVSPost2010PropOp30
 70
     1
102
RTVSPost2010Prop31
280
     0
102
RTVSPost2010PropOp31
 70
     1
102
RTVSPost2010Prop32
280
     0
102
RTVSPost2010PropOp32
 70
     1
102
RTVSPost2010Prop33
280
     0
102
RTVSPost2010PropOp33
 70
     1
102
RTVSPost2010Prop34
280
     0
102
RTVSPost2010PropOp34
 70
     1
102
RTVSPost2010Prop35
280
     0
102
RTVSPost2010PropOp35
 70
     1
102
RTVSPost2010Prop36
280
     0
102
RTVSPost2010PropOp36
 70
     1
102
RTVSPost2010Prop37
 90
       50
102
RTVSPost2010PropOp37
 70
     1
102
RTVSPost2010Prop38
140
0.0
102
RTVSPost2010PropOp38
 70
     1
102
RTVSPost2010Prop39
140
1.0
102
RTVSPost2010PropOp39
 70
     1
102
RTVSPost2010Prop40
 90
        0
102
RTVSPost2010PropOp40
 70
     1
102
RTVSPost2010Prop41ColorIndex
 90
       18
102
RTVSPost2010Prop41ColorRGB
 90
        0
102
RTVSPost2010PropOp41
 70
     1
102
RTVSPost2010Prop42
 90
       50
102
RTVSPost2010PropOp42
 70
     1
102
RTVSPost2010Prop43
 90
        3
102
RTVSPost2010PropOp43
 70
     1
102
RTVSPost2010Prop44ColorIndex
 90
        5
102
RTVSPost2010Prop44ColorRGB
 90
      255
102
RTVSPost2010PropOp44
 70
     1
102
RTVSPost2010Prop45
280
     0
102
RTVSPost2010PropOp45
 70
     1
102
RTVSPost2010Prop46
 90
       50
102
RTVSPost2010PropOp46
 70
     1
102
RTVSPost2010Prop47
 90
       50
102
RTVSPost2010PropOp47
 70
     1
102
RTVSPost2010Prop48
 90
       50
102
RTVSPost2010PropOp48
 70
     1
102
RTVSPost2010Prop49
280
     0
102
RTVSPost2010PropOp49
 70
     1
102
RTVSPost2010Prop50
 90
       50
102
RTVSPost2010PropOp50
 70
     1
102
RTVSPost2010Prop51ColorIndex
 90
      256
102
RTVSPost2010Prop51ColorRGB
 90
-16777216
102
RTVSPost2010PropOp51
 70
     0
102
RTVSPost2010Prop52
140
1.0
102
RTVSPost2010PropOp52
 70
     0
102
RTVSPost2010Prop53
 90
        2
102
RTVSPost2010PropOp53
 70
     1
102
RTVSPost2010Prop54
  1
strokes_ogs.tif
102
RTVSPost2010PropOp54
 70
     1
102
RTVSPost2010Prop55
280
     0
102
RTVSPost2010PropOp55
 70
     1
102
RTVSPost2010Prop56
140
1.0
102
RTVSPost2010PropOp56
 70
     1
102
RTVSPost2010Prop57
140
1.0
102
RTVSPost2010PropOp57
 70
     1
102
RTVSPropertyOp0
 70
     1
102
RTVSPropertyOp1
 70
     1
102
RTVSPropertyOp2
 70
     1
102
RTVSPropertyOp3
 70
     1
102
RTVSPropertyOp4
 70
     1
102
RTVSPropertyOp5
 70
     1
102
RTVSPropertyOp6
 70
     1
102
RTVSPropertyOp7
 70
     1
102
RTVSPropertyOp8
 70
     1
102
RTVSPropertyOp9
 70
     1
102
RTVSPropertyOp10
 70
     1
102
RTVSPropertyOp11
 70
     1
102
RTVSPropertyOp12
 70
     1
102
RTVSPropertyOp13
 70
     1
102
RTVSPropertyOp14
 70
     1
102
RTVSPropertyOp15
 70
     1
102
RTVSPropertyOp16
 70
     1
102
RTVSPropertyOp17
 70
     1
102
RTVSPropertyOp18
 70
     1
102
RTVSPropertyOp19
 70
     1
102
RTVSPropertyOp20
 70
     1
102
RTVSPropertyOp21
 70
     1
102
RTVSPropertyOp22
 70
     1
102
RTVSPropertyOp23
 70
     1
102
RTVSPropertyOp24
 70
     1
102
RTVSPropertyOp25
 70
     1
102
RTVSPropertyOp26
 70
     1
102
RTVSPropertyOp27
 70
     1
102
RTVSPropertyOp28
 70
     1
102
RTVSPropertyOp29
 70
     1
102
RTVSPropertyOp30
 70
     1
102
RTVSPropertyOp31
 70
     1
102
RTVSPropertyOp32
 70
     1
102
RTVSPropertyOp33
 70
     1
102
RTVSPropertyOp34
 70
     1
102
RTVSPropertyOp35
 70
     1
102
RTVSPropertyOp36
 70
     1
102
RTVSPropertyOp37
 70
     1
102
RTVSPropertyOp38
 70
     1
102
RTVSPropertyOp39
 70
     1
102
RTVSPropertyOp40
 70
     1
102
RTVSPropertyOp41
 70
     1
102
RTVSPropertyOp42
 70
     1
102
RTVSPropertyOp43
 70
     1
102
RTVSPropertyOp44
 70
     1
102
RTVSPropertyOp45
 70
     1
102
RTVSPropertyOp46
 70
     1
102
RTVSPropertyOp47
 70
     1
102
RTVSPropertyOp48
 70
     1
102
RTVSPropertyOp49
 70
     1
102
RTVSPropertyOp50
 70
     1
102
RTVSPropertyOp51
 70
     0
102
RTVSPropertyOp52
 70
     0
102
RTVSPropertyOp53
 70
     1
102
RTVSPropertyOp54
 70
     1
102
RTVSPropertyOp55
 70
     1
102
RTVSPropertyOp56
 70
     1
102
RTVSPropertyOp57
 70
     1
102
RTVSPropertyOp58
 70
     1
102
RTVSPropertyOp59
 70
     1
102
RTVSPropertyOp60
 70
     1
102
RTVSPropertyOp61
 70
     1
102
RTVSPropertyOp62
 70
     1
  0
XRECORD
  5
585
102
{ACAD_REACTORS
330
584
102
}
330
584
100
AcDbXrecord
280
     1
102
RTVSPost2010Prop28
280
     0
102
RTVSPost2010PropOp28
 70
     1
102
RTVSPost2010Prop29
280
     1
102
RTVSPost2010PropOp29
 70
     1
102
RTVSPost2010Prop30
280
     1
102
RTVSPost2010PropOp30
 70
     1
102
RTVSPost2010Prop31
280
     0
102
RTVSPost2010PropOp31
 70
     1
102
RTVSPost2010Prop32
280
     0
102
RTVSPost2010PropOp32
 70
     1
102
RTVSPost2010Prop33
280
     0
102
RTVSPost2010PropOp33
 70
     1
102
RTVSPost2010Prop34
280
     0
102
RTVSPost2010PropOp34
 70
     1
102
RTVSPost2010Prop35
280
     0
102
RTVSPost2010PropOp35
 70
     1
102
RTVSPost2010Prop36
280
     0
102
RTVSPost2010PropOp36
 70
     1
102
RTVSPost2010Prop37
 90
       50
102
RTVSPost2010PropOp37
 70
     1
102
RTVSPost2010Prop38
140
0.0
102
RTVSPost2010PropOp38
 70
     1
102
RTVSPost2010Prop39
140
1.0
102
RTVSPost2010PropOp39
 70
     1
102
RTVSPost2010Prop40
 90
        0
102
RTVSPost2010PropOp40
 70
     1
102
RTVSPost2010Prop41ColorIndex
 90
       18
102
RTVSPost2010Prop41ColorRGB
 90
        0
102
RTVSPost2010PropOp41
 70
     1
102
RTVSPost2010Prop42
 90
       50
102
RTVSPost2010PropOp42
 70
     1
102
RTVSPost2010Prop43
 90
        3
102
RTVSPost2010PropOp43
 70
     1
102
RTVSPost2010Prop44ColorIndex
 90
        5
102
RTVSPost2010Prop44ColorRGB
 90
      255
102
RTVSPost2010PropOp44
 70
     1
102
RTVSPost2010Prop45
280
     0
102
RTVSPost2010PropOp45
 70
     1
102
RTVSPost2010Prop46
 90
       50
102
RTVSPost2010PropOp46
 70
     1
102
RTVSPost2010Prop47
 90
       50
102
RTVSPost2010PropOp47
 70
     1
102
RTVSPost2010Prop48
 90
       50
102
RTVSPost2010PropOp48
 70
     1
102
RTVSPost2010Prop49
280
     0
102
RTVSPost2010PropOp49
 70
     1
102
RTVSPost2010Prop50
 90
       50
102
RTVSPost2010PropOp50
 70
     1
102
RTVSPost2010Prop51ColorIndex
 90
      256
102
RTVSPost2010Prop51ColorRGB
 90
-16777216
102
RTVSPost2010PropOp51
 70
     0
102
RTVSPost2010Prop52
140
1.0
102
RTVSPost2010PropOp52
 70
     0
102
RTVSPost2010Prop53
 90
        2
102
RTVSPost2010PropOp53
 70
     1
102
RTVSPost2010Prop54
  1
strokes_ogs.tif
102
RTVSPost2010PropOp54
 70
     1
102
RTVSPost2010Prop55
280
     0
102
RTVSPost2010PropOp55
 70
     1
102
RTVSPost2010Prop56
140
1.0
102
RTVSPost2010PropOp56
 70
     1
102
RTVSPost2010Prop57
140
1.0
102
RTVSPost2010PropOp57
 70
     1
102
RTVSPropertyOp0
 70
     1
102
RTVSPropertyOp1
 70
     1
102
RTVSPropertyOp2
 70
     1
102
RTVSPropertyOp3
 70
     1
102
RTVSPropertyOp4
 70
     1
102
RTVSPropertyOp5
 70
     1
102
RTVSPropertyOp6
 70
     1
102
RTVSPropertyOp7
 70
     1
102
RTVSPropertyOp8
 70
     1
102
RTVSPropertyOp9
 70
     1
102
RTVSPropertyOp10
 70
     1
102
RTVSPropertyOp11
 70
     1
102
RTVSPropertyOp12
 70
     1
102
RTVSPropertyOp13
 70
     1
102
RTVSPropertyOp14
 70
     1
102
RTVSPropertyOp15
 70
     1
102
RTVSPropertyOp16
 70
     1
102
RTVSPropertyOp17
 70
     1
102
RTVSPropertyOp18
 70
     1
102
RTVSPropertyOp19
 70
     1
102
RTVSPropertyOp20
 70
     1
102
RTVSPropertyOp21
 70
     1
102
RTVSPropertyOp22
 70
     1
102
RTVSPropertyOp23
 70
     1
102
RTVSPropertyOp24
 70
     1
102
RTVSPropertyOp25
 70
     1
102
RTVSPropertyOp26
 70
     1
102
RTVSPropertyOp27
 70
     1
102
RTVSPropertyOp28
 70
     1
102
RTVSPropertyOp29
 70
     1
102
RTVSPropertyOp30
 70
     1
102
RTVSPropertyOp31
 70
     1
102
RTVSPropertyOp32
 70
     1
102
RTVSPropertyOp33
 70
     1
102
RTVSPropertyOp34
 70
     1
102
RTVSPropertyOp35
 70
     1
102
RTVSPropertyOp36
 70
     1
102
RTVSPropertyOp37
 70
     1
102
RTVSPropertyOp38
 70
     1
102
RTVSPropertyOp39
 70
     1
102
RTVSPropertyOp40
 70
     1
102
RTVSPropertyOp41
 70
     1
102
RTVSPropertyOp42
 70
     1
102
RTVSPropertyOp43
 70
     1
102
RTVSPropertyOp44
 70
     1
102
RTVSPropertyOp45
 70
     1
102
RTVSPropertyOp46
 70
     1
102
RTVSPropertyOp47
 70
     1
102
RTVSPropertyOp48
 70
     1
102
RTVSPropertyOp49
 70
     1
102
RTVSPropertyOp50
 70
     1
102
RTVSPropertyOp51
 70
     0
102
RTVSPropertyOp52
 70
     0
102
RTVSPropertyOp53
 70
     1
102
RTVSPropertyOp54
 70
     1
102
RTVSPropertyOp55
 70
     1
102
RTVSPropertyOp56
 70
     1
102
RTVSPropertyOp57
 70
     1
102
RTVSPropertyOp58
 70
     1
102
RTVSPropertyOp59
 70
     1
102
RTVSPropertyOp60
 70
     1
102
RTVSPropertyOp61
 70
     1
102
RTVSPropertyOp62
 70
     1
  0
XRECORD
  5
589
102
{ACAD_REACTORS
330
588
102
}
330
588
100
AcDbXrecord
280
     1
102
RTVSPost2010Prop28
280
     0
102
RTVSPost2010PropOp28
 70
     1
102
RTVSPost2010Prop29
280
     1
102
RTVSPost2010PropOp29
 70
     1
102
RTVSPost2010Prop30
280
     1
102
RTVSPost2010PropOp30
 70
     1
102
RTVSPost2010Prop31
280
     0
102
RTVSPost2010PropOp31
 70
     1
102
RTVSPost2010Prop32
280
     0
102
RTVSPost2010PropOp32
 70
     1
102
RTVSPost2010Prop33
280
     0
102
RTVSPost2010PropOp33
 70
     1
102
RTVSPost2010Prop34
280
     0
102
RTVSPost2010PropOp34
 70
     1
102
RTVSPost2010Prop35
280
     0
102
RTVSPost2010PropOp35
 70
     1
102
RTVSPost2010Prop36
280
     0
102
RTVSPost2010PropOp36
 70
     1
102
RTVSPost2010Prop37
 90
       50
102
RTVSPost2010PropOp37
 70
     1
102
RTVSPost2010Prop38
140
0.0
102
RTVSPost2010PropOp38
 70
     1
102
RTVSPost2010Prop39
140
1.0
102
RTVSPost2010PropOp39
 70
     1
102
RTVSPost2010Prop40
 90
        0
102
RTVSPost2010PropOp40
 70
     1
102
RTVSPost2010Prop41ColorIndex
 90
       18
102
RTVSPost2010Prop41ColorRGB
 90
        0
102
RTVSPost2010PropOp41
 70
     1
102
RTVSPost2010Prop42
 90
       50
102
RTVSPost2010PropOp42
 70
     1
102
RTVSPost2010Prop43
 90
        3
102
RTVSPost2010PropOp43
 70
     1
102
RTVSPost2010Prop44ColorIndex
 90
        5
102
RTVSPost2010Prop44ColorRGB
 90
      255
102
RTVSPost2010PropOp44
 70
     1
102
RTVSPost2010Prop45
280
     0
102
RTVSPost2010PropOp45
 70
     1
102
RTVSPost2010Prop46
 90
       50
102
RTVSPost2010PropOp46
 70
     1
102
RTVSPost2010Prop47
 90
       50
102
RTVSPost2010PropOp47
 70
     1
102
RTVSPost2010Prop48
 90
       50
102
RTVSPost2010PropOp48
 70
     1
102
RTVSPost2010Prop49
280
     0
102
RTVSPost2010PropOp49
 70
     1
102
RTVSPost2010Prop50
 90
       50
102
RTVSPost2010PropOp50
 70
     1
102
RTVSPost2010Prop51ColorIndex
 90
      256
102
RTVSPost2010Prop51ColorRGB
 90
-16777216
102
RTVSPost2010PropOp51
 70
     0
102
RTVSPost2010Prop52
140
1.0
102
RTVSPost2010PropOp52
 70
     0
102
RTVSPost2010Prop53
 90
        2
102
RTVSPost2010PropOp53
 70
     1
102
RTVSPost2010Prop54
  1
strokes_ogs.tif
102
RTVSPost2010PropOp54
 70
     1
102
RTVSPost2010Prop55
280
     0
102
RTVSPost2010PropOp55
 70
     1
102
RTVSPost2010Prop56
140
1.0
102
RTVSPost2010PropOp56
 70
     1
102
RTVSPost2010Prop57
140
1.0
102
RTVSPost2010PropOp57
 70
     1
102
RTVSPropertyOp0
 70
     1
102
RTVSPropertyOp1
 70
     1
102
RTVSPropertyOp2
 70
     1
102
RTVSPropertyOp3
 70
     1
102
RTVSPropertyOp4
 70
     1
102
RTVSPropertyOp5
 70
     1
102
RTVSPropertyOp6
 70
     1
102
RTVSPropertyOp7
 70
     1
102
RTVSPropertyOp8
 70
     1
102
RTVSPropertyOp9
 70
     1
102
RTVSPropertyOp10
 70
     1
102
RTVSPropertyOp11
 70
     1
102
RTVSPropertyOp12
 70
     1
102
RTVSPropertyOp13
 70
     1
102
RTVSPropertyOp14
 70
     1
102
RTVSPropertyOp15
 70
     1
102
RTVSPropertyOp16
 70
     1
102
RTVSPropertyOp17
 70
     1
102
RTVSPropertyOp18
 70
     1
102
RTVSPropertyOp19
 70
     1
102
RTVSPropertyOp20
 70
     1
102
RTVSPropertyOp21
 70
     1
102
RTVSPropertyOp22
 70
     1
102
RTVSPropertyOp23
 70
     1
102
RTVSPropertyOp24
 70
     1
102
RTVSPropertyOp25
 70
     1
102
RTVSPropertyOp26
 70
     1
102
RTVSPropertyOp27
 70
     1
102
RTVSPropertyOp28
 70
     1
102
RTVSPropertyOp29
 70
     1
102
RTVSPropertyOp30
 70
     1
102
RTVSPropertyOp31
 70
     1
102
RTVSPropertyOp32
 70
     1
102
RTVSPropertyOp33
 70
     1
102
RTVSPropertyOp34
 70
     1
102
RTVSPropertyOp35
 70
     1
102
RTVSPropertyOp36
 70
     1
102
RTVSPropertyOp37
 70
     1
102
RTVSPropertyOp38
 70
     1
102
RTVSPropertyOp39
 70
     1
102
RTVSPropertyOp40
 70
     1
102
RTVSPropertyOp41
 70
     1
102
RTVSPropertyOp42
 70
     1
102
RTVSPropertyOp43
 70
     1
102
RTVSPropertyOp44
 70
     1
102
RTVSPropertyOp45
 70
     1
102
RTVSPropertyOp46
 70
     1
102
RTVSPropertyOp47
 70
     1
102
RTVSPropertyOp48
 70
     1
102
RTVSPropertyOp49
 70
     1
102
RTVSPropertyOp50
 70
     1
102
RTVSPropertyOp51
 70
     0
102
RTVSPropertyOp52
 70
     0
102
RTVSPropertyOp53
 70
     1
102
RTVSPropertyOp54
 70
     1
102
RTVSPropertyOp55
 70
     1
102
RTVSPropertyOp56
 70
     1
102
RTVSPropertyOp57
 70
     1
102
RTVSPropertyOp58
 70
     1
102
RTVSPropertyOp59
 70
     1
102
RTVSPropertyOp60
 70
     1
102
RTVSPropertyOp61
 70
     1
102
RTVSPropertyOp62
 70
     1
  0
XRECORD
  5
5A3
102
{ACAD_REACTORS
330
5A2
102
}
330
5A2
100
AcDbXrecord
280
     1
102
RTVSPost2010Prop28
280
     0
102
RTVSPost2010PropOp28
 70
     0
102
RTVSPost2010Prop29
280
     1
102
RTVSPost2010PropOp29
 70
     0
102
RTVSPost2010Prop30
280
     1
102
RTVSPost2010PropOp30
 70
     0
102
RTVSPost2010Prop31
280
     0
102
RTVSPost2010PropOp31
 70
     0
102
RTVSPost2010Prop32
280
     0
102
RTVSPost2010PropOp32
 70
     0
102
RTVSPost2010Prop33
280
     0
102
RTVSPost2010PropOp33
 70
     0
102
RTVSPost2010Prop34
280
     0
102
RTVSPost2010PropOp34
 70
     0
102
RTVSPost2010Prop35
280
     0
102
RTVSPost2010PropOp35
 70
     0
102
RTVSPost2010Prop36
280
     0
102
RTVSPost2010PropOp36
 70
     0
102
RTVSPost2010Prop37
 90
       50
102
RTVSPost2010PropOp37
 70
     0
102
RTVSPost2010Prop38
140
0.0
102
RTVSPost2010PropOp38
 70
     0
102
RTVSPost2010Prop39
140
1.0
102
RTVSPost2010PropOp39
 70
     0
102
RTVSPost2010Prop40
 90
        0
102
RTVSPost2010PropOp40
 70
     0
102
RTVSPost2010Prop41ColorIndex
 90
       18
102
RTVSPost2010Prop41ColorRGB
 90
        0
102
RTVSPost2010PropOp41
 70
     0
102
RTVSPost2010Prop42
 90
       50
102
RTVSPost2010PropOp42
 70
     0
102
RTVSPost2010Prop43
 90
        3
102
RTVSPost2010PropOp43
 70
     0
102
RTVSPost2010Prop44ColorIndex
 90
        5
102
RTVSPost2010Prop44ColorRGB
 90
      255
102
RTVSPost2010PropOp44
 70
     0
102
RTVSPost2010Prop45
280
     0
102
RTVSPost2010PropOp45
 70
     0
102
RTVSPost2010Prop46
 90
       50
102
RTVSPost2010PropOp46
 70
     0
102
RTVSPost2010Prop47
 90
       50
102
RTVSPost2010PropOp47
 70
     0
102
RTVSPost2010Prop48
 90
       50
102
RTVSPost2010PropOp48
 70
     0
102
RTVSPost2010Prop49
280
     0
102
RTVSPost2010PropOp49
 70
     0
102
RTVSPost2010Prop50
 90
       50
102
RTVSPost2010PropOp50
 70
     0
102
RTVSPost2010Prop51ColorIndex
 90
      256
102
RTVSPost2010Prop51ColorRGB
 90
-16777216
102
RTVSPost2010PropOp51
 70
     0
102
RTVSPost2010Prop52
140
1.0
102
RTVSPost2010PropOp52
 70
     0
102
RTVSPost2010Prop53
 90
        2
102
RTVSPost2010PropOp53
 70
     0
102
RTVSPost2010Prop54
  1
strokes_ogs.tif
102
RTVSPost2010PropOp54
 70
     0
102
RTVSPost2010Prop55
280
     0
102
RTVSPost2010PropOp55
 70
     0
102
RTVSPost2010Prop56
140
1.0
102
RTVSPost2010PropOp56
 70
     0
102
RTVSPost2010Prop57
140
1.0
102
RTVSPost2010PropOp57
 70
     0
102
RTVSPropertyOp0
 70
     0
102
RTVSPropertyOp1
 70
     0
102
RTVSPropertyOp2
 70
     0
102
RTVSPropertyOp3
 70
     0
102
RTVSPropertyOp4
 70
     0
102
RTVSPropertyOp5
 70
     0
102
RTVSPropertyOp6
 70
     0
102
RTVSPropertyOp7
 70
     0
102
RTVSPropertyOp8
 70
     0
102
RTVSPropertyOp9
 70
     0
102
RTVSPropertyOp10
 70
     0
102
RTVSPropertyOp11
 70
     0
102
RTVSPropertyOp12
 70
     0
102
RTVSPropertyOp13
 70
     0
102
RTVSPropertyOp14
 70
     2
102
RTVSPropertyOp15
 70
     0
102
RTVSPropertyOp16
 70
     0
102
RTVSPropertyOp17
 70
     0
102
RTVSPropertyOp18
 70
     0
102
RTVSPropertyOp19
 70
     0
102
RTVSPropertyOp20
 70
     0
102
RTVSPropertyOp21
 70
     0
102
RTVSPropertyOp22
 70
     0
102
RTVSPropertyOp23
 70
     0
102
RTVSPropertyOp24
 70
     0
102
RTVSPropertyOp25
 70
     0
102
RTVSPropertyOp26
 70
     0
102
RTVSPropertyOp27
 70
     0
102
RTVSPropertyOp28
 70
     0
102
RTVSPropertyOp29
 70
     0
102
RTVSPropertyOp30
 70
     0
102
RTVSPropertyOp31
 70
     0
102
RTVSPropertyOp32
 70
     0
102
RTVSPropertyOp33
 70
     0
102
RTVSPropertyOp34
 70
     0
102
RTVSPropertyOp35
 70
     0
102
RTVSPropertyOp36
 70
     0
102
RTVSPropertyOp37
 70
     0
102
RTVSPropertyOp38
 70
     0
102
RTVSPropertyOp39
 70
     0
102
RTVSPropertyOp40
 70
     0
102
RTVSPropertyOp41
 70
     0
102
RTVSPropertyOp42
 70
     0
102
RTVSPropertyOp43
 70
     0
102
RTVSPropertyOp44
 70
     0
102
RTVSPropertyOp45
 70
     0
102
RTVSPropertyOp46
 70
     0
102
RTVSPropertyOp47
 70
     0
102
RTVSPropertyOp48
 70
     0
102
RTVSPropertyOp49
 70
     0
102
RTVSPropertyOp50
 70
     0
102
RTVSPropertyOp51
 70
     0
102
RTVSPropertyOp52
 70
     0
102
RTVSPropertyOp53
 70
     0
102
RTVSPropertyOp54
 70
     0
102
RTVSPropertyOp55
 70
     0
102
RTVSPropertyOp56
 70
     0
102
RTVSPropertyOp57
 70
     0
102
RTVSPropertyOp58
 70
     0
102
RTVSPropertyOp59
 70
     0
102
RTVSPropertyOp60
 70
     0
102
RTVSPropertyOp61
 70
     0
102
RTVSPropertyOp62
 70
     0
  0
XRECORD
  5
591
102
{ACAD_REACTORS
330
590
102
}
330
590
100
AcDbXrecord
280
     1
102
RTVSPost2010Prop28
280
     0
102
RTVSPost2010PropOp28
 70
     1
102
RTVSPost2010Prop29
280
     1
102
RTVSPost2010PropOp29
 70
     1
102
RTVSPost2010Prop30
280
     1
102
RTVSPost2010PropOp30
 70
     1
102
RTVSPost2010Prop31
280
     0
102
RTVSPost2010PropOp31
 70
     1
102
RTVSPost2010Prop32
280
     0
102
RTVSPost2010PropOp32
 70
     1
102
RTVSPost2010Prop33
280
     0
102
RTVSPost2010PropOp33
 70
     1
102
RTVSPost2010Prop34
280
     0
102
RTVSPost2010PropOp34
 70
     1
102
RTVSPost2010Prop35
280
     0
102
RTVSPost2010PropOp35
 70
     1
102
RTVSPost2010Prop36
280
     0
102
RTVSPost2010PropOp36
 70
     1
102
RTVSPost2010Prop37
 90
       50
102
RTVSPost2010PropOp37
 70
     1
102
RTVSPost2010Prop38
140
0.0
102
RTVSPost2010PropOp38
 70
     1
102
RTVSPost2010Prop39
140
1.0
102
RTVSPost2010PropOp39
 70
     1
102
RTVSPost2010Prop40
 90
        0
102
RTVSPost2010PropOp40
 70
     1
102
RTVSPost2010Prop41ColorIndex
 90
       18
102
RTVSPost2010Prop41ColorRGB
 90
        0
102
RTVSPost2010PropOp41
 70
     1
102
RTVSPost2010Prop42
 90
       50
102
RTVSPost2010PropOp42
 70
     1
102
RTVSPost2010Prop43
 90
        3
102
RTVSPost2010PropOp43
 70
     1
102
RTVSPost2010Prop44ColorIndex
 90
        5
102
RTVSPost2010Prop44ColorRGB
 90
      255
102
RTVSPost2010PropOp44
 70
     1
102
RTVSPost2010Prop45
280
     0
102
RTVSPost2010PropOp45
 70
     1
102
RTVSPost2010Prop46
 90
       50
102
RTVSPost2010PropOp46
 70
     1
102
RTVSPost2010Prop47
 90
       50
102
RTVSPost2010PropOp47
 70
     1
102
RTVSPost2010Prop48
 90
       50
102
RTVSPost2010PropOp48
 70
     1
102
RTVSPost2010Prop49
280
     0
102
RTVSPost2010PropOp49
 70
     1
102
RTVSPost2010Prop50
 90
       50
102
RTVSPost2010PropOp50
 70
     1
102
RTVSPost2010Prop51ColorIndex
 90
      256
102
RTVSPost2010Prop51ColorRGB
 90
-16777216
102
RTVSPost2010PropOp51
 70
     0
102
RTVSPost2010Prop52
140
1.0
102
RTVSPost2010PropOp52
 70
     0
102
RTVSPost2010Prop53
 90
        2
102
RTVSPost2010PropOp53
 70
     1
102
RTVSPost2010Prop54
  1
strokes_ogs.tif
102
RTVSPost2010PropOp54
 70
     1
102
RTVSPost2010Prop55
280
     0
102
RTVSPost2010PropOp55
 70
     1
102
RTVSPost2010Prop56
140
1.0
102
RTVSPost2010PropOp56
 70
     1
102
RTVSPost2010Prop57
140
1.0
102
RTVSPost2010PropOp57
 70
     1
102
RTVSPropertyOp0
 70
     1
102
RTVSPropertyOp1
 70
     1
102
RTVSPropertyOp2
 70
     1
102
RTVSPropertyOp3
 70
     1
102
RTVSPropertyOp4
 70
     1
102
RTVSPropertyOp5
 70
     1
102
RTVSPropertyOp6
 70
     1
102
RTVSPropertyOp7
 70
     1
102
RTVSPropertyOp8
 70
     1
102
RTVSPropertyOp9
 70
     1
102
RTVSPropertyOp10
 70
     1
102
RTVSPropertyOp11
 70
     1
102
RTVSPropertyOp12
 70
     1
102
RTVSPropertyOp13
 70
     1
102
RTVSPropertyOp14
 70
     1
102
RTVSPropertyOp15
 70
     1
102
RTVSPropertyOp16
 70
     1
102
RTVSPropertyOp17
 70
     1
102
RTVSPropertyOp18
 70
     1
102
RTVSPropertyOp19
 70
     1
102
RTVSPropertyOp20
 70
     1
102
RTVSPropertyOp21
 70
     1
102
RTVSPropertyOp22
 70
     1
102
RTVSPropertyOp23
 70
     1
102
RTVSPropertyOp24
 70
     1
102
RTVSPropertyOp25
 70
     1
102
RTVSPropertyOp26
 70
     1
102
RTVSPropertyOp27
 70
     1
102
RTVSPropertyOp28
 70
     1
102
RTVSPropertyOp29
 70
     1
102
RTVSPropertyOp30
 70
     1
102
RTVSPropertyOp31
 70
     1
102
RTVSPropertyOp32
 70
     1
102
RTVSPropertyOp33
 70
     1
102
RTVSPropertyOp34
 70
     1
102
RTVSPropertyOp35
 70
     1
102
RTVSPropertyOp36
 70
     1
102
RTVSPropertyOp37
 70
     1
102
RTVSPropertyOp38
 70
     1
102
RTVSPropertyOp39
 70
     1
102
RTVSPropertyOp40
 70
     1
102
RTVSPropertyOp41
 70
     1
102
RTVSPropertyOp42
 70
     1
102
RTVSPropertyOp43
 70
     1
102
RTVSPropertyOp44
 70
     1
102
RTVSPropertyOp45
 70
     1
102
RTVSPropertyOp46
 70
     1
102
RTVSPropertyOp47
 70
     1
102
RTVSPropertyOp48
 70
     1
102
RTVSPropertyOp49
 70
     1
102
RTVSPropertyOp50
 70
     1
102
RTVSPropertyOp51
 70
     0
102
RTVSPropertyOp52
 70
     0
102
RTVSPropertyOp53
 70
     1
102
RTVSPropertyOp54
 70
     1
102
RTVSPropertyOp55
 70
     1
102
RTVSPropertyOp56
 70
     1
102
RTVSPropertyOp57
 70
     1
102
RTVSPropertyOp58
 70
     1
102
RTVSPropertyOp59
 70
     1
102
RTVSPropertyOp60
 70
     1
102
RTVSPropertyOp61
 70
     1
102
RTVSPropertyOp62
 70
     1
  0
XRECORD
  5
575
102
{ACAD_REACTORS
330
574
102
}
330
574
100
AcDbXrecord
280
     1
102
RTVSPost2010Prop28
280
     0
102
RTVSPost2010PropOp28
 70
     1
102
RTVSPost2010Prop29
280
     1
102
RTVSPost2010PropOp29
 70
     1
102
RTVSPost2010Prop30
280
     1
102
RTVSPost2010PropOp30
 70
     1
102
RTVSPost2010Prop31
280
     0
102
RTVSPost2010PropOp31
 70
     1
102
RTVSPost2010Prop32
280
     0
102
RTVSPost2010PropOp32
 70
     1
102
RTVSPost2010Prop33
280
     0
102
RTVSPost2010PropOp33
 70
     1
102
RTVSPost2010Prop34
280
     0
102
RTVSPost2010PropOp34
 70
     1
102
RTVSPost2010Prop35
280
     0
102
RTVSPost2010PropOp35
 70
     1
102
RTVSPost2010Prop36
280
     0
102
RTVSPost2010PropOp36
 70
     1
102
RTVSPost2010Prop37
 90
       50
102
RTVSPost2010PropOp37
 70
     1
102
RTVSPost2010Prop38
140
0.0
102
RTVSPost2010PropOp38
 70
     1
102
RTVSPost2010Prop39
140
1.0
102
RTVSPost2010PropOp39
 70
     1
102
RTVSPost2010Prop40
 90
        0
102
RTVSPost2010PropOp40
 70
     1
102
RTVSPost2010Prop41ColorIndex
 90
       18
102
RTVSPost2010Prop41ColorRGB
 90
        0
102
RTVSPost2010PropOp41
 70
     1
102
RTVSPost2010Prop42
 90
       50
102
RTVSPost2010PropOp42
 70
     1
102
RTVSPost2010Prop43
 90
        3
102
RTVSPost2010PropOp43
 70
     1
102
RTVSPost2010Prop44ColorIndex
 90
        5
102
RTVSPost2010Prop44ColorRGB
 90
      255
102
RTVSPost2010PropOp44
 70
     1
102
RTVSPost2010Prop45
280
     0
102
RTVSPost2010PropOp45
 70
     1
102
RTVSPost2010Prop46
 90
       50
102
RTVSPost2010PropOp46
 70
     1
102
RTVSPost2010Prop47
 90
       50
102
RTVSPost2010PropOp47
 70
     1
102
RTVSPost2010Prop48
 90
       50
102
RTVSPost2010PropOp48
 70
     1
102
RTVSPost2010Prop49
280
     0
102
RTVSPost2010PropOp49
 70
     1
102
RTVSPost2010Prop50
 90
       50
102
RTVSPost2010PropOp50
 70
     1
102
RTVSPost2010Prop51ColorIndex
 90
      256
102
RTVSPost2010Prop51ColorRGB
 90
-16777216
102
RTVSPost2010PropOp51
 70
     0
102
RTVSPost2010Prop52
140
1.0
102
RTVSPost2010PropOp52
 70
     0
102
RTVSPost2010Prop53
 90
        2
102
RTVSPost2010PropOp53
 70
     1
102
RTVSPost2010Prop54
  1
strokes_ogs.tif
102
RTVSPost2010PropOp54
 70
     1
102
RTVSPost2010Prop55
280
     0
102
RTVSPost2010PropOp55
 70
     1
102
RTVSPost2010Prop56
140
1.0
102
RTVSPost2010PropOp56
 70
     1
102
RTVSPost2010Prop57
140
1.0
102
RTVSPost2010PropOp57
 70
     1
102
RTVSPropertyOp0
 70
     1
102
RTVSPropertyOp1
 70
     1
102
RTVSPropertyOp2
 70
     1
102
RTVSPropertyOp3
 70
     1
102
RTVSPropertyOp4
 70
     1
102
RTVSPropertyOp5
 70
     1
102
RTVSPropertyOp6
 70
     1
102
RTVSPropertyOp7
 70
     1
102
RTVSPropertyOp8
 70
     1
102
RTVSPropertyOp9
 70
     1
102
RTVSPropertyOp10
 70
     1
102
RTVSPropertyOp11
 70
     1
102
RTVSPropertyOp12
 70
     1
102
RTVSPropertyOp13
 70
     1
102
RTVSPropertyOp14
 70
     1
102
RTVSPropertyOp15
 70
     1
102
RTVSPropertyOp16
 70
     1
102
RTVSPropertyOp17
 70
     1
102
RTVSPropertyOp18
 70
     1
102
RTVSPropertyOp19
 70
     1
102
RTVSPropertyOp20
 70
     1
102
RTVSPropertyOp21
 70
     1
102
RTVSPropertyOp22
 70
     1
102
RTVSPropertyOp23
 70
     1
102
RTVSPropertyOp24
 70
     1
102
RTVSPropertyOp25
 70
     1
102
RTVSPropertyOp26
 70
     1
102
RTVSPropertyOp27
 70
     1
102
RTVSPropertyOp28
 70
     1
102
RTVSPropertyOp29
 70
     1
102
RTVSPropertyOp30
 70
     1
102
RTVSPropertyOp31
 70
     1
102
RTVSPropertyOp32
 70
     1
102
RTVSPropertyOp33
 70
     1
102
RTVSPropertyOp34
 70
     1
102
RTVSPropertyOp35
 70
     1
102
RTVSPropertyOp36
 70
     1
102
RTVSPropertyOp37
 70
     1
102
RTVSPropertyOp38
 70
     1
102
RTVSPropertyOp39
 70
     1
102
RTVSPropertyOp40
 70
     1
102
RTVSPropertyOp41
 70
     1
102
RTVSPropertyOp42
 70
     1
102
RTVSPropertyOp43
 70
     1
102
RTVSPropertyOp44
 70
     1
102
RTVSPropertyOp45
 70
     1
102
RTVSPropertyOp46
 70
     1
102
RTVSPropertyOp47
 70
     1
102
RTVSPropertyOp48
 70
     1
102
RTVSPropertyOp49
 70
     1
102
RTVSPropertyOp50
 70
     1
102
RTVSPropertyOp51
 70
     0
102
RTVSPropertyOp52
 70
     0
102
RTVSPropertyOp53
 70
     1
102
RTVSPropertyOp54
 70
     1
102
RTVSPropertyOp55
 70
     1
102
RTVSPropertyOp56
 70
     1
102
RTVSPropertyOp57
 70
     1
102
RTVSPropertyOp58
 70
     1
102
RTVSPropertyOp59
 70
     1
102
RTVSPropertyOp60
 70
     1
102
RTVSPropertyOp61
 70
     1
102
RTVSPropertyOp62
 70
     1
  0
XRECORD
  5
577
102
{ACAD_REACTORS
330
576
102
}
330
576
100
AcDbXrecord
280
     1
102
RTVSPost2010Prop28
280
     0
102
RTVSPost2010PropOp28
 70
     1
102
RTVSPost2010Prop29
280
     1
102
RTVSPost2010PropOp29
 70
     1
102
RTVSPost2010Prop30
280
     1
102
RTVSPost2010PropOp30
 70
     1
102
RTVSPost2010Prop31
280
     0
102
RTVSPost2010PropOp31
 70
     1
102
RTVSPost2010Prop32
280
     0
102
RTVSPost2010PropOp32
 70
     1
102
RTVSPost2010Prop33
280
     0
102
RTVSPost2010PropOp33
 70
     1
102
RTVSPost2010Prop34
280
     0
102
RTVSPost2010PropOp34
 70
     1
102
RTVSPost2010Prop35
280
     0
102
RTVSPost2010PropOp35
 70
     1
102
RTVSPost2010Prop36
280
     0
102
RTVSPost2010PropOp36
 70
     1
102
RTVSPost2010Prop37
 90
       50
102
RTVSPost2010PropOp37
 70
     1
102
RTVSPost2010Prop38
140
0.0
102
RTVSPost2010PropOp38
 70
     1
102
RTVSPost2010Prop39
140
1.0
102
RTVSPost2010PropOp39
 70
     1
102
RTVSPost2010Prop40
 90
        0
102
RTVSPost2010PropOp40
 70
     1
102
RTVSPost2010Prop41ColorIndex
 90
       18
102
RTVSPost2010Prop41ColorRGB
 90
        0
102
RTVSPost2010PropOp41
 70
     1
102
RTVSPost2010Prop42
 90
       50
102
RTVSPost2010PropOp42
 70
     1
102
RTVSPost2010Prop43
 90
        3
102
RTVSPost2010PropOp43
 70
     1
102
RTVSPost2010Prop44ColorIndex
 90
        5
102
RTVSPost2010Prop44ColorRGB
 90
      255
102
RTVSPost2010PropOp44
 70
     1
102
RTVSPost2010Prop45
280
     0
102
RTVSPost2010PropOp45
 70
     1
102
RTVSPost2010Prop46
 90
       50
102
RTVSPost2010PropOp46
 70
     1
102
RTVSPost2010Prop47
 90
       50
102
RTVSPost2010PropOp47
 70
     1
102
RTVSPost2010Prop48
 90
       50
102
RTVSPost2010PropOp48
 70
     1
102
RTVSPost2010Prop49
280
     0
102
RTVSPost2010PropOp49
 70
     1
102
RTVSPost2010Prop50
 90
       50
102
RTVSPost2010PropOp50
 70
     1
102
RTVSPost2010Prop51ColorIndex
 90
      256
102
RTVSPost2010Prop51ColorRGB
 90
-16777216
102
RTVSPost2010PropOp51
 70
     0
102
RTVSPost2010Prop52
140
1.0
102
RTVSPost2010PropOp52
 70
     0
102
RTVSPost2010Prop53
 90
        2
102
RTVSPost2010PropOp53
 70
     1
102
RTVSPost2010Prop54
  1
strokes_ogs.tif
102
RTVSPost2010PropOp54
 70
     1
102
RTVSPost2010Prop55
280
     0
102
RTVSPost2010PropOp55
 70
     1
102
RTVSPost2010Prop56
140
1.0
102
RTVSPost2010PropOp56
 70
     1
102
RTVSPost2010Prop57
140
1.0
102
RTVSPost2010PropOp57
 70
     1
102
RTVSPropertyOp0
 70
     1
102
RTVSPropertyOp1
 70
     1
102
RTVSPropertyOp2
 70
     1
102
RTVSPropertyOp3
 70
     1
102
RTVSPropertyOp4
 70
     1
102
RTVSPropertyOp5
 70
     1
102
RTVSPropertyOp6
 70
     1
102
RTVSPropertyOp7
 70
     1
102
RTVSPropertyOp8
 70
     1
102
RTVSPropertyOp9
 70
     1
102
RTVSPropertyOp10
 70
     1
102
RTVSPropertyOp11
 70
     1
102
RTVSPropertyOp12
 70
     1
102
RTVSPropertyOp13
 70
     1
102
RTVSPropertyOp14
 70
     1
102
RTVSPropertyOp15
 70
     1
102
RTVSPropertyOp16
 70
     1
102
RTVSPropertyOp17
 70
     1
102
RTVSPropertyOp18
 70
     1
102
RTVSPropertyOp19
 70
     1
102
RTVSPropertyOp20
 70
     1
102
RTVSPropertyOp21
 70
     1
102
RTVSPropertyOp22
 70
     1
102
RTVSPropertyOp23
 70
     1
102
RTVSPropertyOp24
 70
     1
102
RTVSPropertyOp25
 70
     1
102
RTVSPropertyOp26
 70
     1
102
RTVSPropertyOp27
 70
     1
102
RTVSPropertyOp28
 70
     1
102
RTVSPropertyOp29
 70
     1
102
RTVSPropertyOp30
 70
     1
102
RTVSPropertyOp31
 70
     1
102
RTVSPropertyOp32
 70
     1
102
RTVSPropertyOp33
 70
     1
102
RTVSPropertyOp34
 70
     1
102
RTVSPropertyOp35
 70
     1
102
RTVSPropertyOp36
 70
     1
102
RTVSPropertyOp37
 70
     1
102
RTVSPropertyOp38
 70
     1
102
RTVSPropertyOp39
 70
     1
102
RTVSPropertyOp40
 70
     1
102
RTVSPropertyOp41
 70
     1
102
RTVSPropertyOp42
 70
     1
102
RTVSPropertyOp43
 70
     1
102
RTVSPropertyOp44
 70
     1
102
RTVSPropertyOp45
 70
     1
102
RTVSPropertyOp46
 70
     1
102
RTVSPropertyOp47
 70
     1
102
RTVSPropertyOp48
 70
     1
102
RTVSPropertyOp49
 70
     1
102
RTVSPropertyOp50
 70
     1
102
RTVSPropertyOp51
 70
     0
102
RTVSPropertyOp52
 70
     0
102
RTVSPropertyOp53
 70
     1
102
RTVSPropertyOp54
 70
     1
102
RTVSPropertyOp55
 70
     1
102
RTVSPropertyOp56
 70
     1
102
RTVSPropertyOp57
 70
     1
102
RTVSPropertyOp58
 70
     1
102
RTVSPropertyOp59
 70
     1
102
RTVSPropertyOp60
 70
     1
102
RTVSPropertyOp61
 70
     1
102
RTVSPropertyOp62
 70
     1
  0
XRECORD
  5
579
102
{ACAD_REACTORS
330
578
102
}
330
578
100
AcDbXrecord
280
     1
102
RTVSPost2010Prop28
280
     0
102
RTVSPost2010PropOp28
 70
     1
102
RTVSPost2010Prop29
280
     1
102
RTVSPost2010PropOp29
 70
     1
102
RTVSPost2010Prop30
280
     1
102
RTVSPost2010PropOp30
 70
     1
102
RTVSPost2010Prop31
280
     0
102
RTVSPost2010PropOp31
 70
     1
102
RTVSPost2010Prop32
280
     0
102
RTVSPost2010PropOp32
 70
     1
102
RTVSPost2010Prop33
280
     0
102
RTVSPost2010PropOp33
 70
     1
102
RTVSPost2010Prop34
280
     0
102
RTVSPost2010PropOp34
 70
     1
102
RTVSPost2010Prop35
280
     0
102
RTVSPost2010PropOp35
 70
     1
102
RTVSPost2010Prop36
280
     0
102
RTVSPost2010PropOp36
 70
     1
102
RTVSPost2010Prop37
 90
       50
102
RTVSPost2010PropOp37
 70
     1
102
RTVSPost2010Prop38
140
0.0
102
RTVSPost2010PropOp38
 70
     1
102
RTVSPost2010Prop39
140
1.0
102
RTVSPost2010PropOp39
 70
     1
102
RTVSPost2010Prop40
 90
        0
102
RTVSPost2010PropOp40
 70
     1
102
RTVSPost2010Prop41ColorIndex
 90
       18
102
RTVSPost2010Prop41ColorRGB
 90
        0
102
RTVSPost2010PropOp41
 70
     1
102
RTVSPost2010Prop42
 90
       50
102
RTVSPost2010PropOp42
 70
     1
102
RTVSPost2010Prop43
 90
        3
102
RTVSPost2010PropOp43
 70
     1
102
RTVSPost2010Prop44ColorIndex
 90
        5
102
RTVSPost2010Prop44ColorRGB
 90
      255
102
RTVSPost2010PropOp44
 70
     1
102
RTVSPost2010Prop45
280
     0
102
RTVSPost2010PropOp45
 70
     1
102
RTVSPost2010Prop46
 90
       50
102
RTVSPost2010PropOp46
 70
     1
102
RTVSPost2010Prop47
 90
       50
102
RTVSPost2010PropOp47
 70
     1
102
RTVSPost2010Prop48
 90
       50
102
RTVSPost2010PropOp48
 70
     1
102
RTVSPost2010Prop49
280
     0
102
RTVSPost2010PropOp49
 70
     1
102
RTVSPost2010Prop50
 90
       50
102
RTVSPost2010PropOp50
 70
     1
102
RTVSPost2010Prop51ColorIndex
 90
      256
102
RTVSPost2010Prop51ColorRGB
 90
-16777216
102
RTVSPost2010PropOp51
 70
     0
102
RTVSPost2010Prop52
140
1.0
102
RTVSPost2010PropOp52
 70
     0
102
RTVSPost2010Prop53
 90
        2
102
RTVSPost2010PropOp53
 70
     1
102
RTVSPost2010Prop54
  1
strokes_ogs.tif
102
RTVSPost2010PropOp54
 70
     1
102
RTVSPost2010Prop55
280
     0
102
RTVSPost2010PropOp55
 70
     1
102
RTVSPost2010Prop56
140
1.0
102
RTVSPost2010PropOp56
 70
     1
102
RTVSPost2010Prop57
140
1.0
102
RTVSPost2010PropOp57
 70
     1
102
RTVSPropertyOp0
 70
     1
102
RTVSPropertyOp1
 70
     1
102
RTVSPropertyOp2
 70
     1
102
RTVSPropertyOp3
 70
     1
102
RTVSPropertyOp4
 70
     1
102
RTVSPropertyOp5
 70
     1
102
RTVSPropertyOp6
 70
     1
102
RTVSPropertyOp7
 70
     1
102
RTVSPropertyOp8
 70
     1
102
RTVSPropertyOp9
 70
     1
102
RTVSPropertyOp10
 70
     1
102
RTVSPropertyOp11
 70
     1
102
RTVSPropertyOp12
 70
     1
102
RTVSPropertyOp13
 70
     1
102
RTVSPropertyOp14
 70
     1
102
RTVSPropertyOp15
 70
     1
102
RTVSPropertyOp16
 70
     1
102
RTVSPropertyOp17
 70
     1
102
RTVSPropertyOp18
 70
     1
102
RTVSPropertyOp19
 70
     1
102
RTVSPropertyOp20
 70
     1
102
RTVSPropertyOp21
 70
     1
102
RTVSPropertyOp22
 70
     1
102
RTVSPropertyOp23
 70
     1
102
RTVSPropertyOp24
 70
     1
102
RTVSPropertyOp25
 70
     1
102
RTVSPropertyOp26
 70
     1
102
RTVSPropertyOp27
 70
     1
102
RTVSPropertyOp28
 70
     1
102
RTVSPropertyOp29
 70
     1
102
RTVSPropertyOp30
 70
     1
102
RTVSPropertyOp31
 70
     1
102
RTVSPropertyOp32
 70
     1
102
RTVSPropertyOp33
 70
     1
102
RTVSPropertyOp34
 70
     1
102
RTVSPropertyOp35
 70
     1
102
RTVSPropertyOp36
 70
     1
102
RTVSPropertyOp37
 70
     1
102
RTVSPropertyOp38
 70
     1
102
RTVSPropertyOp39
 70
     1
102
RTVSPropertyOp40
 70
     1
102
RTVSPropertyOp41
 70
     1
102
RTVSPropertyOp42
 70
     1
102
RTVSPropertyOp43
 70
     1
102
RTVSPropertyOp44
 70
     1
102
RTVSPropertyOp45
 70
     1
102
RTVSPropertyOp46
 70
     1
102
RTVSPropertyOp47
 70
     1
102
RTVSPropertyOp48
 70
     1
102
RTVSPropertyOp49
 70
     1
102
RTVSPropertyOp50
 70
     1
102
RTVSPropertyOp51
 70
     0
102
RTVSPropertyOp52
 70
     0
102
RTVSPropertyOp53
 70
     1
102
RTVSPropertyOp54
 70
     1
102
RTVSPropertyOp55
 70
     1
102
RTVSPropertyOp56
 70
     1
102
RTVSPropertyOp57
 70
     1
102
RTVSPropertyOp58
 70
     1
102
RTVSPropertyOp59
 70
     1
102
RTVSPropertyOp60
 70
     1
102
RTVSPropertyOp61
 70
     1
102
RTVSPropertyOp62
 70
     1
  0
XRECORD
  5
57B
102
{ACAD_REACTORS
330
57A
102
}
330
57A
100
AcDbXrecord
280
     1
102
RTVSPost2010Prop28
280
     0
102
RTVSPost2010PropOp28
 70
     1
102
RTVSPost2010Prop29
280
     1
102
RTVSPost2010PropOp29
 70
     1
102
RTVSPost2010Prop30
280
     1
102
RTVSPost2010PropOp30
 70
     1
102
RTVSPost2010Prop31
280
     0
102
RTVSPost2010PropOp31
 70
     1
102
RTVSPost2010Prop32
280
     0
102
RTVSPost2010PropOp32
 70
     1
102
RTVSPost2010Prop33
280
     0
102
RTVSPost2010PropOp33
 70
     1
102
RTVSPost2010Prop34
280
     0
102
RTVSPost2010PropOp34
 70
     1
102
RTVSPost2010Prop35
280
     0
102
RTVSPost2010PropOp35
 70
     1
102
RTVSPost2010Prop36
280
     0
102
RTVSPost2010PropOp36
 70
     1
102
RTVSPost2010Prop37
 90
       50
102
RTVSPost2010PropOp37
 70
     1
102
RTVSPost2010Prop38
140
0.0
102
RTVSPost2010PropOp38
 70
     1
102
RTVSPost2010Prop39
140
1.0
102
RTVSPost2010PropOp39
 70
     1
102
RTVSPost2010Prop40
 90
        0
102
RTVSPost2010PropOp40
 70
     1
102
RTVSPost2010Prop41ColorIndex
 90
       18
102
RTVSPost2010Prop41ColorRGB
 90
        0
102
RTVSPost2010PropOp41
 70
     1
102
RTVSPost2010Prop42
 90
       50
102
RTVSPost2010PropOp42
 70
     1
102
RTVSPost2010Prop43
 90
        3
102
RTVSPost2010PropOp43
 70
     1
102
RTVSPost2010Prop44ColorIndex
 90
        5
102
RTVSPost2010Prop44ColorRGB
 90
      255
102
RTVSPost2010PropOp44
 70
     1
102
RTVSPost2010Prop45
280
     0
102
RTVSPost2010PropOp45
 70
     1
102
RTVSPost2010Prop46
 90
       50
102
RTVSPost2010PropOp46
 70
     1
102
RTVSPost2010Prop47
 90
       50
102
RTVSPost2010PropOp47
 70
     1
102
RTVSPost2010Prop48
 90
       50
102
RTVSPost2010PropOp48
 70
     1
102
RTVSPost2010Prop49
280
     0
102
RTVSPost2010PropOp49
 70
     1
102
RTVSPost2010Prop50
 90
       50
102
RTVSPost2010PropOp50
 70
     1
102
RTVSPost2010Prop51ColorIndex
 90
      256
102
RTVSPost2010Prop51ColorRGB
 90
-16777216
102
RTVSPost2010PropOp51
 70
     0
102
RTVSPost2010Prop52
140
1.0
102
RTVSPost2010PropOp52
 70
     0
102
RTVSPost2010Prop53
 90
        2
102
RTVSPost2010PropOp53
 70
     1
102
RTVSPost2010Prop54
  1
strokes_ogs.tif
102
RTVSPost2010PropOp54
 70
     1
102
RTVSPost2010Prop55
280
     0
102
RTVSPost2010PropOp55
 70
     1
102
RTVSPost2010Prop56
140
1.0
102
RTVSPost2010PropOp56
 70
     1
102
RTVSPost2010Prop57
140
1.0
102
RTVSPost2010PropOp57
 70
     1
102
RTVSPropertyOp0
 70
     1
102
RTVSPropertyOp1
 70
     1
102
RTVSPropertyOp2
 70
     1
102
RTVSPropertyOp3
 70
     1
102
RTVSPropertyOp4
 70
     1
102
RTVSPropertyOp5
 70
     1
102
RTVSPropertyOp6
 70
     1
102
RTVSPropertyOp7
 70
     1
102
RTVSPropertyOp8
 70
     1
102
RTVSPropertyOp9
 70
     1
102
RTVSPropertyOp10
 70
     1
102
RTVSPropertyOp11
 70
     1
102
RTVSPropertyOp12
 70
     1
102
RTVSPropertyOp13
 70
     1
102
RTVSPropertyOp14
 70
     1
102
RTVSPropertyOp15
 70
     1
102
RTVSPropertyOp16
 70
     1
102
RTVSPropertyOp17
 70
     1
102
RTVSPropertyOp18
 70
     1
102
RTVSPropertyOp19
 70
     1
102
RTVSPropertyOp20
 70
     1
102
RTVSPropertyOp21
 70
     1
102
RTVSPropertyOp22
 70
     1
102
RTVSPropertyOp23
 70
     1
102
RTVSPropertyOp24
 70
     1
102
RTVSPropertyOp25
 70
     1
102
RTVSPropertyOp26
 70
     1
102
RTVSPropertyOp27
 70
     1
102
RTVSPropertyOp28
 70
     1
102
RTVSPropertyOp29
 70
     1
102
RTVSPropertyOp30
 70
     1
102
RTVSPropertyOp31
 70
     1
102
RTVSPropertyOp32
 70
     1
102
RTVSPropertyOp33
 70
     1
102
RTVSPropertyOp34
 70
     1
102
RTVSPropertyOp35
 70
     1
102
RTVSPropertyOp36
 70
     1
102
RTVSPropertyOp37
 70
     1
102
RTVSPropertyOp38
 70
     1
102
RTVSPropertyOp39
 70
     1
102
RTVSPropertyOp40
 70
     1
102
RTVSPropertyOp41
 70
     1
102
RTVSPropertyOp42
 70
     1
102
RTVSPropertyOp43
 70
     1
102
RTVSPropertyOp44
 70
     1
102
RTVSPropertyOp45
 70
     1
102
RTVSPropertyOp46
 70
     1
102
RTVSPropertyOp47
 70
     1
102
RTVSPropertyOp48
 70
     1
102
RTVSPropertyOp49
 70
     1
102
RTVSPropertyOp50
 70
     1
102
RTVSPropertyOp51
 70
     0
102
RTVSPropertyOp52
 70
     0
102
RTVSPropertyOp53
 70
     1
102
RTVSPropertyOp54
 70
     1
102
RTVSPropertyOp55
 70
     1
102
RTVSPropertyOp56
 70
     1
102
RTVSPropertyOp57
 70
     1
102
RTVSPropertyOp58
 70
     1
102
RTVSPropertyOp59
 70
     1
102
RTVSPropertyOp60
 70
     1
102
RTVSPropertyOp61
 70
     1
102
RTVSPropertyOp62
 70
     1
  0
XRECORD
  5
583
102
{ACAD_REACTORS
330
582
102
}
330
582
100
AcDbXrecord
280
     1
102
RTVSPost2010Prop28
280
     0
102
RTVSPost2010PropOp28
 70
     1
102
RTVSPost2010Prop29
280
     1
102
RTVSPost2010PropOp29
 70
     1
102
RTVSPost2010Prop30
280
     1
102
RTVSPost2010PropOp30
 70
     1
102
RTVSPost2010Prop31
280
     0
102
RTVSPost2010PropOp31
 70
     1
102
RTVSPost2010Prop32
280
     0
102
RTVSPost2010PropOp32
 70
     1
102
RTVSPost2010Prop33
280
     0
102
RTVSPost2010PropOp33
 70
     1
102
RTVSPost2010Prop34
280
     0
102
RTVSPost2010PropOp34
 70
     1
102
RTVSPost2010Prop35
280
     0
102
RTVSPost2010PropOp35
 70
     1
102
RTVSPost2010Prop36
280
     0
102
RTVSPost2010PropOp36
 70
     1
102
RTVSPost2010Prop37
 90
       50
102
RTVSPost2010PropOp37
 70
     1
102
RTVSPost2010Prop38
140
0.0
102
RTVSPost2010PropOp38
 70
     1
102
RTVSPost2010Prop39
140
1.0
102
RTVSPost2010PropOp39
 70
     1
102
RTVSPost2010Prop40
 90
        0
102
RTVSPost2010PropOp40
 70
     1
102
RTVSPost2010Prop41ColorIndex
 90
       18
102
RTVSPost2010Prop41ColorRGB
 90
        0
102
RTVSPost2010PropOp41
 70
     1
102
RTVSPost2010Prop42
 90
       50
102
RTVSPost2010PropOp42
 70
     1
102
RTVSPost2010Prop43
 90
        3
102
RTVSPost2010PropOp43
 70
     1
102
RTVSPost2010Prop44ColorIndex
 90
        5
102
RTVSPost2010Prop44ColorRGB
 90
      255
102
RTVSPost2010PropOp44
 70
     1
102
RTVSPost2010Prop45
280
     0
102
RTVSPost2010PropOp45
 70
     1
102
RTVSPost2010Prop46
 90
       50
102
RTVSPost2010PropOp46
 70
     1
102
RTVSPost2010Prop47
 90
       50
102
RTVSPost2010PropOp47
 70
     1
102
RTVSPost2010Prop48
 90
       50
102
RTVSPost2010PropOp48
 70
     1
102
RTVSPost2010Prop49
280
     0
102
RTVSPost2010PropOp49
 70
     1
102
RTVSPost2010Prop50
 90
       50
102
RTVSPost2010PropOp50
 70
     1
102
RTVSPost2010Prop51ColorIndex
 90
      256
102
RTVSPost2010Prop51ColorRGB
 90
-16777216
102
RTVSPost2010PropOp51
 70
     0
102
RTVSPost2010Prop52
140
1.0
102
RTVSPost2010PropOp52
 70
     0
102
RTVSPost2010Prop53
 90
        2
102
RTVSPost2010PropOp53
 70
     1
102
RTVSPost2010Prop54
  1
strokes_ogs.tif
102
RTVSPost2010PropOp54
 70
     1
102
RTVSPost2010Prop55
280
     0
102
RTVSPost2010PropOp55
 70
     1
102
RTVSPost2010Prop56
140
1.0
102
RTVSPost2010PropOp56
 70
     1
102
RTVSPost2010Prop57
140
1.0
102
RTVSPost2010PropOp57
 70
     1
102
RTVSPropertyOp0
 70
     1
102
RTVSPropertyOp1
 70
     1
102
RTVSPropertyOp2
 70
     1
102
RTVSPropertyOp3
 70
     1
102
RTVSPropertyOp4
 70
     1
102
RTVSPropertyOp5
 70
     1
102
RTVSPropertyOp6
 70
     1
102
RTVSPropertyOp7
 70
     1
102
RTVSPropertyOp8
 70
     1
102
RTVSPropertyOp9
 70
     1
102
RTVSPropertyOp10
 70
     1
102
RTVSPropertyOp11
 70
     1
102
RTVSPropertyOp12
 70
     1
102
RTVSPropertyOp13
 70
     1
102
RTVSPropertyOp14
 70
     1
102
RTVSPropertyOp15
 70
     1
102
RTVSPropertyOp16
 70
     1
102
RTVSPropertyOp17
 70
     1
102
RTVSPropertyOp18
 70
     1
102
RTVSPropertyOp19
 70
     1
102
RTVSPropertyOp20
 70
     1
102
RTVSPropertyOp21
 70
     1
102
RTVSPropertyOp22
 70
     1
102
RTVSPropertyOp23
 70
     1
102
RTVSPropertyOp24
 70
     1
102
RTVSPropertyOp25
 70
     1
102
RTVSPropertyOp26
 70
     1
102
RTVSPropertyOp27
 70
     1
102
RTVSPropertyOp28
 70
     1
102
RTVSPropertyOp29
 70
     1
102
RTVSPropertyOp30
 70
     1
102
RTVSPropertyOp31
 70
     1
102
RTVSPropertyOp32
 70
     1
102
RTVSPropertyOp33
 70
     1
102
RTVSPropertyOp34
 70
     1
102
RTVSPropertyOp35
 70
     1
102
RTVSPropertyOp36
 70
     1
102
RTVSPropertyOp37
 70
     1
102
RTVSPropertyOp38
 70
     1
102
RTVSPropertyOp39
 70
     1
102
RTVSPropertyOp40
 70
     1
102
RTVSPropertyOp41
 70
     1
102
RTVSPropertyOp42
 70
     1
102
RTVSPropertyOp43
 70
     1
102
RTVSPropertyOp44
 70
     1
102
RTVSPropertyOp45
 70
     1
102
RTVSPropertyOp46
 70
     1
102
RTVSPropertyOp47
 70
     1
102
RTVSPropertyOp48
 70
     1
102
RTVSPropertyOp49
 70
     1
102
RTVSPropertyOp50
 70
     1
102
RTVSPropertyOp51
 70
     0
102
RTVSPropertyOp52
 70
     0
102
RTVSPropertyOp53
 70
     1
102
RTVSPropertyOp54
 70
     1
102
RTVSPropertyOp55
 70
     1
102
RTVSPropertyOp56
 70
     1
102
RTVSPropertyOp57
 70
     1
102
RTVSPropertyOp58
 70
     1
102
RTVSPropertyOp59
 70
     1
102
RTVSPropertyOp60
 70
     1
102
RTVSPropertyOp61
 70
     1
102
RTVSPropertyOp62
 70
     1
  0
XRECORD
  5
59F
102
{ACAD_REACTORS
330
59E
102
}
330
59E
100
AcDbXrecord
280
     1
102
RTVSPost2010Prop28
280
     0
102
RTVSPost2010PropOp28
 70
     0
102
RTVSPost2010Prop29
280
     1
102
RTVSPost2010PropOp29
 70
     0
102
RTVSPost2010Prop30
280
     1
102
RTVSPost2010PropOp30
 70
     0
102
RTVSPost2010Prop31
280
     0
102
RTVSPost2010PropOp31
 70
     0
102
RTVSPost2010Prop32
280
     0
102
RTVSPost2010PropOp32
 70
     0
102
RTVSPost2010Prop33
280
     0
102
RTVSPost2010PropOp33
 70
     0
102
RTVSPost2010Prop34
280
     0
102
RTVSPost2010PropOp34
 70
     0
102
RTVSPost2010Prop35
280
     0
102
RTVSPost2010PropOp35
 70
     0
102
RTVSPost2010Prop36
280
     0
102
RTVSPost2010PropOp36
 70
     0
102
RTVSPost2010Prop37
 90
       50
102
RTVSPost2010PropOp37
 70
     0
102
RTVSPost2010Prop38
140
0.0
102
RTVSPost2010PropOp38
 70
     0
102
RTVSPost2010Prop39
140
1.0
102
RTVSPost2010PropOp39
 70
     0
102
RTVSPost2010Prop40
 90
        0
102
RTVSPost2010PropOp40
 70
     0
102
RTVSPost2010Prop41ColorIndex
 90
       18
102
RTVSPost2010Prop41ColorRGB
 90
        0
102
RTVSPost2010PropOp41
 70
     0
102
RTVSPost2010Prop42
 90
       50
102
RTVSPost2010PropOp42
 70
     0
102
RTVSPost2010Prop43
 90
        3
102
RTVSPost2010PropOp43
 70
     0
102
RTVSPost2010Prop44ColorIndex
 90
        5
102
RTVSPost2010Prop44ColorRGB
 90
      255
102
RTVSPost2010PropOp44
 70
     0
102
RTVSPost2010Prop45
280
     0
102
RTVSPost2010PropOp45
 70
     0
102
RTVSPost2010Prop46
 90
       50
102
RTVSPost2010PropOp46
 70
     0
102
RTVSPost2010Prop47
 90
       50
102
RTVSPost2010PropOp47
 70
     0
102
RTVSPost2010Prop48
 90
       50
102
RTVSPost2010PropOp48
 70
     0
102
RTVSPost2010Prop49
280
     0
102
RTVSPost2010PropOp49
 70
     0
102
RTVSPost2010Prop50
 90
       50
102
RTVSPost2010PropOp50
 70
     0
102
RTVSPost2010Prop51ColorIndex
 90
      256
102
RTVSPost2010Prop51ColorRGB
 90
-16777216
102
RTVSPost2010PropOp51
 70
     0
102
RTVSPost2010Prop52
140
1.0
102
RTVSPost2010PropOp52
 70
     0
102
RTVSPost2010Prop53
 90
        2
102
RTVSPost2010PropOp53
 70
     0
102
RTVSPost2010Prop54
  1
strokes_ogs.tif
102
RTVSPost2010PropOp54
 70
     0
102
RTVSPost2010Prop55
280
     0
102
RTVSPost2010PropOp55
 70
     0
102
RTVSPost2010Prop56
140
1.0
102
RTVSPost2010PropOp56
 70
     0
102
RTVSPost2010Prop57
140
1.0
102
RTVSPost2010PropOp57
 70
     0
102
RTVSPropertyOp0
 70
     0
102
RTVSPropertyOp1
 70
     0
102
RTVSPropertyOp2
 70
     0
102
RTVSPropertyOp3
 70
     0
102
RTVSPropertyOp4
 70
     0
102
RTVSPropertyOp5
 70
     0
102
RTVSPropertyOp6
 70
     0
102
RTVSPropertyOp7
 70
     0
102
RTVSPropertyOp8
 70
     0
102
RTVSPropertyOp9
 70
     0
102
RTVSPropertyOp10
 70
     0
102
RTVSPropertyOp11
 70
     0
102
RTVSPropertyOp12
 70
     0
102
RTVSPropertyOp13
 70
     0
102
RTVSPropertyOp14
 70
     2
102
RTVSPropertyOp15
 70
     0
102
RTVSPropertyOp16
 70
     0
102
RTVSPropertyOp17
 70
     0
102
RTVSPropertyOp18
 70
     0
102
RTVSPropertyOp19
 70
     0
102
RTVSPropertyOp20
 70
     0
102
RTVSPropertyOp21
 70
     0
102
RTVSPropertyOp22
 70
     0
102
RTVSPropertyOp23
 70
     0
102
RTVSPropertyOp24
 70
     0
102
RTVSPropertyOp25
 70
     0
102
RTVSPropertyOp26
 70
     0
102
RTVSPropertyOp27
 70
     0
102
RTVSPropertyOp28
 70
     0
102
RTVSPropertyOp29
 70
     0
102
RTVSPropertyOp30
 70
     0
102
RTVSPropertyOp31
 70
     0
102
RTVSPropertyOp32
 70
     0
102
RTVSPropertyOp33
 70
     0
102
RTVSPropertyOp34
 70
     0
102
RTVSPropertyOp35
 70
     0
102
RTVSPropertyOp36
 70
     0
102
RTVSPropertyOp37
 70
     0
102
RTVSPropertyOp38
 70
     0
102
RTVSPropertyOp39
 70
     0
102
RTVSPropertyOp40
 70
     0
102
RTVSPropertyOp41
 70
     0
102
RTVSPropertyOp42
 70
     0
102
RTVSPropertyOp43
 70
     0
102
RTVSPropertyOp44
 70
     0
102
RTVSPropertyOp45
 70
     0
102
RTVSPropertyOp46
 70
     0
102
RTVSPropertyOp47
 70
     0
102
RTVSPropertyOp48
 70
     0
102
RTVSPropertyOp49
 70
     0
102
RTVSPropertyOp50
 70
     0
102
RTVSPropertyOp51
 70
     0
102
RTVSPropertyOp52
 70
     0
102
RTVSPropertyOp53
 70
     0
102
RTVSPropertyOp54
 70
     0
102
RTVSPropertyOp55
 70
     0
102
RTVSPropertyOp56
 70
     0
102
RTVSPropertyOp57
 70
     0
102
RTVSPropertyOp58
 70
     0
102
RTVSPropertyOp59
 70
     0
102
RTVSPropertyOp60
 70
     0
102
RTVSPropertyOp61
 70
     0
102
RTVSPropertyOp62
 70
     0
  0
XRECORD
  5
58F
102
{ACAD_REACTORS
330
58E
102
}
330
58E
100
AcDbXrecord
280
     1
102
RTVSPost2010Prop28
280
     0
102
RTVSPost2010PropOp28
 70
     1
102
RTVSPost2010Prop29
280
     1
102
RTVSPost2010PropOp29
 70
     1
102
RTVSPost2010Prop30
280
     1
102
RTVSPost2010PropOp30
 70
     1
102
RTVSPost2010Prop31
280
     0
102
RTVSPost2010PropOp31
 70
     1
102
RTVSPost2010Prop32
280
     0
102
RTVSPost2010PropOp32
 70
     1
102
RTVSPost2010Prop33
280
     0
102
RTVSPost2010PropOp33
 70
     1
102
RTVSPost2010Prop34
280
     0
102
RTVSPost2010PropOp34
 70
     1
102
RTVSPost2010Prop35
280
     0
102
RTVSPost2010PropOp35
 70
     1
102
RTVSPost2010Prop36
280
     0
102
RTVSPost2010PropOp36
 70
     1
102
RTVSPost2010Prop37
 90
       50
102
RTVSPost2010PropOp37
 70
     1
102
RTVSPost2010Prop38
140
0.0
102
RTVSPost2010PropOp38
 70
     1
102
RTVSPost2010Prop39
140
1.0
102
RTVSPost2010PropOp39
 70
     1
102
RTVSPost2010Prop40
 90
        0
102
RTVSPost2010PropOp40
 70
     1
102
RTVSPost2010Prop41ColorIndex
 90
       18
102
RTVSPost2010Prop41ColorRGB
 90
        0
102
RTVSPost2010PropOp41
 70
     1
102
RTVSPost2010Prop42
 90
       50
102
RTVSPost2010PropOp42
 70
     1
102
RTVSPost2010Prop43
 90
        3
102
RTVSPost2010PropOp43
 70
     1
102
RTVSPost2010Prop44ColorIndex
 90
        5
102
RTVSPost2010Prop44ColorRGB
 90
      255
102
RTVSPost2010PropOp44
 70
     1
102
RTVSPost2010Prop45
280
     0
102
RTVSPost2010PropOp45
 70
     1
102
RTVSPost2010Prop46
 90
       50
102
RTVSPost2010PropOp46
 70
     1
102
RTVSPost2010Prop47
 90
       50
102
RTVSPost2010PropOp47
 70
     1
102
RTVSPost2010Prop48
 90
       50
102
RTVSPost2010PropOp48
 70
     1
102
RTVSPost2010Prop49
280
     0
102
RTVSPost2010PropOp49
 70
     1
102
RTVSPost2010Prop50
 90
       50
102
RTVSPost2010PropOp50
 70
     1
102
RTVSPost2010Prop51ColorIndex
 90
      256
102
RTVSPost2010Prop51ColorRGB
 90
-16777216
102
RTVSPost2010PropOp51
 70
     0
102
RTVSPost2010Prop52
140
1.0
102
RTVSPost2010PropOp52
 70
     0
102
RTVSPost2010Prop53
 90
        2
102
RTVSPost2010PropOp53
 70
     1
102
RTVSPost2010Prop54
  1
strokes_ogs.tif
102
RTVSPost2010PropOp54
 70
     1
102
RTVSPost2010Prop55
280
     0
102
RTVSPost2010PropOp55
 70
     1
102
RTVSPost2010Prop56
140
1.0
102
RTVSPost2010PropOp56
 70
     1
102
RTVSPost2010Prop57
140
1.0
102
RTVSPost2010PropOp57
 70
     1
102
RTVSPropertyOp0
 70
     1
102
RTVSPropertyOp1
 70
     1
102
RTVSPropertyOp2
 70
     1
102
RTVSPropertyOp3
 70
     1
102
RTVSPropertyOp4
 70
     1
102
RTVSPropertyOp5
 70
     1
102
RTVSPropertyOp6
 70
     1
102
RTVSPropertyOp7
 70
     1
102
RTVSPropertyOp8
 70
     1
102
RTVSPropertyOp9
 70
     1
102
RTVSPropertyOp10
 70
     1
102
RTVSPropertyOp11
 70
     1
102
RTVSPropertyOp12
 70
     1
102
RTVSPropertyOp13
 70
     1
102
RTVSPropertyOp14
 70
     1
102
RTVSPropertyOp15
 70
     1
102
RTVSPropertyOp16
 70
     1
102
RTVSPropertyOp17
 70
     1
102
RTVSPropertyOp18
 70
     1
102
RTVSPropertyOp19
 70
     1
102
RTVSPropertyOp20
 70
     1
102
RTVSPropertyOp21
 70
     1
102
RTVSPropertyOp22
 70
     1
102
RTVSPropertyOp23
 70
     1
102
RTVSPropertyOp24
 70
     1
102
RTVSPropertyOp25
 70
     1
102
RTVSPropertyOp26
 70
     1
102
RTVSPropertyOp27
 70
     1
102
RTVSPropertyOp28
 70
     1
102
RTVSPropertyOp29
 70
     1
102
RTVSPropertyOp30
 70
     1
102
RTVSPropertyOp31
 70
     1
102
RTVSPropertyOp32
 70
     1
102
RTVSPropertyOp33
 70
     1
102
RTVSPropertyOp34
 70
     1
102
RTVSPropertyOp35
 70
     1
102
RTVSPropertyOp36
 70
     1
102
RTVSPropertyOp37
 70
     1
102
RTVSPropertyOp38
 70
     1
102
RTVSPropertyOp39
 70
     1
102
RTVSPropertyOp40
 70
     1
102
RTVSPropertyOp41
 70
     1
102
RTVSPropertyOp42
 70
     1
102
RTVSPropertyOp43
 70
     1
102
RTVSPropertyOp44
 70
     1
102
RTVSPropertyOp45
 70
     1
102
RTVSPropertyOp46
 70
     1
102
RTVSPropertyOp47
 70
     1
102
RTVSPropertyOp48
 70
     1
102
RTVSPropertyOp49
 70
     1
102
RTVSPropertyOp50
 70
     1
102
RTVSPropertyOp51
 70
     0
102
RTVSPropertyOp52
 70
     0
102
RTVSPropertyOp53
 70
     1
102
RTVSPropertyOp54
 70
     1
102
RTVSPropertyOp55
 70
     1
102
RTVSPropertyOp56
 70
     1
102
RTVSPropertyOp57
 70
     1
102
RTVSPropertyOp58
 70
     1
102
RTVSPropertyOp59
 70
     1
102
RTVSPropertyOp60
 70
     1
102
RTVSPropertyOp61
 70
     1
102
RTVSPropertyOp62
 70
     1
  0
XRECORD
  5
5A1
102
{ACAD_REACTORS
330
5A0
102
}
330
5A0
100
AcDbXrecord
280
     1
102
RTVSPost2010Prop28
280
     0
102
RTVSPost2010PropOp28
 70
     0
102
RTVSPost2010Prop29
280
     1
102
RTVSPost2010PropOp29
 70
     0
102
RTVSPost2010Prop30
280
     1
102
RTVSPost2010PropOp30
 70
     0
102
RTVSPost2010Prop31
280
     0
102
RTVSPost2010PropOp31
 70
     0
102
RTVSPost2010Prop32
280
     0
102
RTVSPost2010PropOp32
 70
     0
102
RTVSPost2010Prop33
280
     0
102
RTVSPost2010PropOp33
 70
     0
102
RTVSPost2010Prop34
280
     0
102
RTVSPost2010PropOp34
 70
     0
102
RTVSPost2010Prop35
280
     0
102
RTVSPost2010PropOp35
 70
     0
102
RTVSPost2010Prop36
280
     0
102
RTVSPost2010PropOp36
 70
     0
102
RTVSPost2010Prop37
 90
       50
102
RTVSPost2010PropOp37
 70
     0
102
RTVSPost2010Prop38
140
0.0
102
RTVSPost2010PropOp38
 70
     0
102
RTVSPost2010Prop39
140
1.0
102
RTVSPost2010PropOp39
 70
     0
102
RTVSPost2010Prop40
 90
        0
102
RTVSPost2010PropOp40
 70
     0
102
RTVSPost2010Prop41ColorIndex
 90
       18
102
RTVSPost2010Prop41ColorRGB
 90
        0
102
RTVSPost2010PropOp41
 70
     0
102
RTVSPost2010Prop42
 90
       50
102
RTVSPost2010PropOp42
 70
     0
102
RTVSPost2010Prop43
 90
        3
102
RTVSPost2010PropOp43
 70
     0
102
RTVSPost2010Prop44ColorIndex
 90
        5
102
RTVSPost2010Prop44ColorRGB
 90
      255
102
RTVSPost2010PropOp44
 70
     0
102
RTVSPost2010Prop45
280
     0
102
RTVSPost2010PropOp45
 70
     0
102
RTVSPost2010Prop46
 90
       50
102
RTVSPost2010PropOp46
 70
     0
102
RTVSPost2010Prop47
 90
       50
102
RTVSPost2010PropOp47
 70
     0
102
RTVSPost2010Prop48
 90
       50
102
RTVSPost2010PropOp48
 70
     0
102
RTVSPost2010Prop49
280
     0
102
RTVSPost2010PropOp49
 70
     0
102
RTVSPost2010Prop50
 90
       50
102
RTVSPost2010PropOp50
 70
     0
102
RTVSPost2010Prop51ColorIndex
 90
      256
102
RTVSPost2010Prop51ColorRGB
 90
-16777216
102
RTVSPost2010PropOp51
 70
     0
102
RTVSPost2010Prop52
140
1.0
102
RTVSPost2010PropOp52
 70
     0
102
RTVSPost2010Prop53
 90
        2
102
RTVSPost2010PropOp53
 70
     0
102
RTVSPost2010Prop54
  1
strokes_ogs.tif
102
RTVSPost2010PropOp54
 70
     0
102
RTVSPost2010Prop55
280
     0
102
RTVSPost2010PropOp55
 70
     0
102
RTVSPost2010Prop56
140
1.0
102
RTVSPost2010PropOp56
 70
     0
102
RTVSPost2010Prop57
140
1.0
102
RTVSPost2010PropOp57
 70
     0
102
RTVSPropertyOp0
 70
     0
102
RTVSPropertyOp1
 70
     0
102
RTVSPropertyOp2
 70
     0
102
RTVSPropertyOp3
 70
     0
102
RTVSPropertyOp4
 70
     0
102
RTVSPropertyOp5
 70
     0
102
RTVSPropertyOp6
 70
     0
102
RTVSPropertyOp7
 70
     0
102
RTVSPropertyOp8
 70
     0
102
RTVSPropertyOp9
 70
     0
102
RTVSPropertyOp10
 70
     0
102
RTVSPropertyOp11
 70
     0
102
RTVSPropertyOp12
 70
     0
102
RTVSPropertyOp13
 70
     0
102
RTVSPropertyOp14
 70
     2
102
RTVSPropertyOp15
 70
     0
102
RTVSPropertyOp16
 70
     0
102
RTVSPropertyOp17
 70
     0
102
RTVSPropertyOp18
 70
     0
102
RTVSPropertyOp19
 70
     0
102
RTVSPropertyOp20
 70
     0
102
RTVSPropertyOp21
 70
     0
102
RTVSPropertyOp22
 70
     0
102
RTVSPropertyOp23
 70
     0
102
RTVSPropertyOp24
 70
     0
102
RTVSPropertyOp25
 70
     0
102
RTVSPropertyOp26
 70
     0
102
RTVSPropertyOp27
 70
     0
102
RTVSPropertyOp28
 70
     0
102
RTVSPropertyOp29
 70
     0
102
RTVSPropertyOp30
 70
     0
102
RTVSPropertyOp31
 70
     0
102
RTVSPropertyOp32
 70
     0
102
RTVSPropertyOp33
 70
     0
102
RTVSPropertyOp34
 70
     0
102
RTVSPropertyOp35
 70
     0
102
RTVSPropertyOp36
 70
     0
102
RTVSPropertyOp37
 70
     0
102
RTVSPropertyOp38
 70
     0
102
RTVSPropertyOp39
 70
     0
102
RTVSPropertyOp40
 70
     0
102
RTVSPropertyOp41
 70
     0
102
RTVSPropertyOp42
 70
     0
102
RTVSPropertyOp43
 70
     0
102
RTVSPropertyOp44
 70
     0
102
RTVSPropertyOp45
 70
     0
102
RTVSPropertyOp46
 70
     0
102
RTVSPropertyOp47
 70
     0
102
RTVSPropertyOp48
 70
     0
102
RTVSPropertyOp49
 70
     0
102
RTVSPropertyOp50
 70
     0
102
RTVSPropertyOp51
 70
     0
102
RTVSPropertyOp52
 70
     0
102
RTVSPropertyOp53
 70
     0
102
RTVSPropertyOp54
 70
     0
102
RTVSPropertyOp55
 70
     0
102
RTVSPropertyOp56
 70
     0
102
RTVSPropertyOp57
 70
     0
102
RTVSPropertyOp58
 70
     0
102
RTVSPropertyOp59
 70
     0
102
RTVSPropertyOp60
 70
     0
102
RTVSPropertyOp61
 70
     0
102
RTVSPropertyOp62
 70
     0
  0
XRECORD
  5
587
102
{ACAD_REACTORS
330
586
102
}
330
586
100
AcDbXrecord
280
     1
102
RTVSPost2010Prop28
280
     0
102
RTVSPost2010PropOp28
 70
     1
102
RTVSPost2010Prop29
280
     1
102
RTVSPost2010PropOp29
 70
     1
102
RTVSPost2010Prop30
280
     1
102
RTVSPost2010PropOp30
 70
     1
102
RTVSPost2010Prop31
280
     0
102
RTVSPost2010PropOp31
 70
     1
102
RTVSPost2010Prop32
280
     0
102
RTVSPost2010PropOp32
 70
     1
102
RTVSPost2010Prop33
280
     0
102
RTVSPost2010PropOp33
 70
     1
102
RTVSPost2010Prop34
280
     0
102
RTVSPost2010PropOp34
 70
     1
102
RTVSPost2010Prop35
280
     0
102
RTVSPost2010PropOp35
 70
     1
102
RTVSPost2010Prop36
280
     0
102
RTVSPost2010PropOp36
 70
     1
102
RTVSPost2010Prop37
 90
       50
102
RTVSPost2010PropOp37
 70
     1
102
RTVSPost2010Prop38
140
0.0
102
RTVSPost2010PropOp38
 70
     1
102
RTVSPost2010Prop39
140
1.0
102
RTVSPost2010PropOp39
 70
     1
102
RTVSPost2010Prop40
 90
        0
102
RTVSPost2010PropOp40
 70
     1
102
RTVSPost2010Prop41ColorIndex
 90
       18
102
RTVSPost2010Prop41ColorRGB
 90
        0
102
RTVSPost2010PropOp41
 70
     1
102
RTVSPost2010Prop42
 90
       50
102
RTVSPost2010PropOp42
 70
     1
102
RTVSPost2010Prop43
 90
        3
102
RTVSPost2010PropOp43
 70
     1
102
RTVSPost2010Prop44ColorIndex
 90
        5
102
RTVSPost2010Prop44ColorRGB
 90
      255
102
RTVSPost2010PropOp44
 70
     1
102
RTVSPost2010Prop45
280
     0
102
RTVSPost2010PropOp45
 70
     1
102
RTVSPost2010Prop46
 90
       50
102
RTVSPost2010PropOp46
 70
     1
102
RTVSPost2010Prop47
 90
       50
102
RTVSPost2010PropOp47
 70
     1
102
RTVSPost2010Prop48
 90
       50
102
RTVSPost2010PropOp48
 70
     1
102
RTVSPost2010Prop49
280
     0
102
RTVSPost2010PropOp49
 70
     1
102
RTVSPost2010Prop50
 90
       50
102
RTVSPost2010PropOp50
 70
     1
102
RTVSPost2010Prop51ColorIndex
 90
      256
102
RTVSPost2010Prop51ColorRGB
 90
-16777216
102
RTVSPost2010PropOp51
 70
     0
102
RTVSPost2010Prop52
140
1.0
102
RTVSPost2010PropOp52
 70
     0
102
RTVSPost2010Prop53
 90
        2
102
RTVSPost2010PropOp53
 70
     1
102
RTVSPost2010Prop54
  1
strokes_ogs.tif
102
RTVSPost2010PropOp54
 70
     1
102
RTVSPost2010Prop55
280
     0
102
RTVSPost2010PropOp55
 70
     1
102
RTVSPost2010Prop56
140
1.0
102
RTVSPost2010PropOp56
 70
     1
102
RTVSPost2010Prop57
140
1.0
102
RTVSPost2010PropOp57
 70
     1
102
RTVSPropertyOp0
 70
     1
102
RTVSPropertyOp1
 70
     1
102
RTVSPropertyOp2
 70
     1
102
RTVSPropertyOp3
 70
     1
102
RTVSPropertyOp4
 70
     1
102
RTVSPropertyOp5
 70
     1
102
RTVSPropertyOp6
 70
     1
102
RTVSPropertyOp7
 70
     1
102
RTVSPropertyOp8
 70
     1
102
RTVSPropertyOp9
 70
     1
102
RTVSPropertyOp10
 70
     1
102
RTVSPropertyOp11
 70
     1
102
RTVSPropertyOp12
 70
     1
102
RTVSPropertyOp13
 70
     1
102
RTVSPropertyOp14
 70
     1
102
RTVSPropertyOp15
 70
     1
102
RTVSPropertyOp16
 70
     1
102
RTVSPropertyOp17
 70
     1
102
RTVSPropertyOp18
 70
     1
102
RTVSPropertyOp19
 70
     1
102
RTVSPropertyOp20
 70
     1
102
RTVSPropertyOp21
 70
     1
102
RTVSPropertyOp22
 70
     1
102
RTVSPropertyOp23
 70
     1
102
RTVSPropertyOp24
 70
     1
102
RTVSPropertyOp25
 70
     1
102
RTVSPropertyOp26
 70
     1
102
RTVSPropertyOp27
 70
     1
102
RTVSPropertyOp28
 70
     1
102
RTVSPropertyOp29
 70
     1
102
RTVSPropertyOp30
 70
     1
102
RTVSPropertyOp31
 70
     1
102
RTVSPropertyOp32
 70
     1
102
RTVSPropertyOp33
 70
     1
102
RTVSPropertyOp34
 70
     1
102
RTVSPropertyOp35
 70
     1
102
RTVSPropertyOp36
 70
     1
102
RTVSPropertyOp37
 70
     1
102
RTVSPropertyOp38
 70
     1
102
RTVSPropertyOp39
 70
     1
102
RTVSPropertyOp40
 70
     1
102
RTVSPropertyOp41
 70
     1
102
RTVSPropertyOp42
 70
     1
102
RTVSPropertyOp43
 70
     1
102
RTVSPropertyOp44
 70
     1
102
RTVSPropertyOp45
 70
     1
102
RTVSPropertyOp46
 70
     1
102
RTVSPropertyOp47
 70
     1
102
RTVSPropertyOp48
 70
     1
102
RTVSPropertyOp49
 70
     1
102
RTVSPropertyOp50
 70
     1
102
RTVSPropertyOp51
 70
     0
102
RTVSPropertyOp52
 70
     0
102
RTVSPropertyOp53
 70
     1
102
RTVSPropertyOp54
 70
     1
102
RTVSPropertyOp55
 70
     1
102
RTVSPropertyOp56
 70
     1
102
RTVSPropertyOp57
 70
     1
102
RTVSPropertyOp58
 70
     1
102
RTVSPropertyOp59
 70
     1
102
RTVSPropertyOp60
 70
     1
102
RTVSPropertyOp61
 70
     1
102
RTVSPropertyOp62
 70
     1
  0
XRECORD
  5
59D
102
{ACAD_REACTORS
330
59C
102
}
330
59C
100
AcDbXrecord
280
     1
102
RTVSPost2010Prop28
280
     0
102
RTVSPost2010PropOp28
 70
     1
102
RTVSPost2010Prop29
280
     1
102
RTVSPost2010PropOp29
 70
     1
102
RTVSPost2010Prop30
280
     1
102
RTVSPost2010PropOp30
 70
     1
102
RTVSPost2010Prop31
280
     0
102
RTVSPost2010PropOp31
 70
     1
102
RTVSPost2010Prop32
280
     0
102
RTVSPost2010PropOp32
 70
     1
102
RTVSPost2010Prop33
280
     0
102
RTVSPost2010PropOp33
 70
     1
102
RTVSPost2010Prop34
280
     0
102
RTVSPost2010PropOp34
 70
     1
102
RTVSPost2010Prop35
280
     0
102
RTVSPost2010PropOp35
 70
     1
102
RTVSPost2010Prop36
280
     0
102
RTVSPost2010PropOp36
 70
     1
102
RTVSPost2010Prop37
 90
       50
102
RTVSPost2010PropOp37
 70
     1
102
RTVSPost2010Prop38
140
0.0
102
RTVSPost2010PropOp38
 70
     1
102
RTVSPost2010Prop39
140
1.0
102
RTVSPost2010PropOp39
 70
     1
102
RTVSPost2010Prop40
 90
        0
102
RTVSPost2010PropOp40
 70
     1
102
RTVSPost2010Prop41ColorIndex
 90
       18
102
RTVSPost2010Prop41ColorRGB
 90
        0
102
RTVSPost2010PropOp41
 70
     1
102
RTVSPost2010Prop42
 90
       50
102
RTVSPost2010PropOp42
 70
     1
102
RTVSPost2010Prop43
 90
        3
102
RTVSPost2010PropOp43
 70
     1
102
RTVSPost2010Prop44ColorIndex
 90
        5
102
RTVSPost2010Prop44ColorRGB
 90
      255
102
RTVSPost2010PropOp44
 70
     1
102
RTVSPost2010Prop45
280
     0
102
RTVSPost2010PropOp45
 70
     1
102
RTVSPost2010Prop46
 90
       50
102
RTVSPost2010PropOp46
 70
     1
102
RTVSPost2010Prop47
 90
       50
102
RTVSPost2010PropOp47
 70
     1
102
RTVSPost2010Prop48
 90
       50
102
RTVSPost2010PropOp48
 70
     1
102
RTVSPost2010Prop49
280
     0
102
RTVSPost2010PropOp49
 70
     1
102
RTVSPost2010Prop50
 90
       50
102
RTVSPost2010PropOp50
 70
     1
102
RTVSPost2010Prop51ColorIndex
 90
      256
102
RTVSPost2010Prop51ColorRGB
 90
-16777216
102
RTVSPost2010PropOp51
 70
     0
102
RTVSPost2010Prop52
140
1.0
102
RTVSPost2010PropOp52
 70
     0
102
RTVSPost2010Prop53
 90
        2
102
RTVSPost2010PropOp53
 70
     1
102
RTVSPost2010Prop54
  1
strokes_ogs.tif
102
RTVSPost2010PropOp54
 70
     1
102
RTVSPost2010Prop55
280
     0
102
RTVSPost2010PropOp55
 70
     1
102
RTVSPost2010Prop56
140
1.0
102
RTVSPost2010PropOp56
 70
     1
102
RTVSPost2010Prop57
140
1.0
102
RTVSPost2010PropOp57
 70
     1
102
RTVSPropertyOp0
 70
     1
102
RTVSPropertyOp1
 70
     1
102
RTVSPropertyOp2
 70
     1
102
RTVSPropertyOp3
 70
     1
102
RTVSPropertyOp4
 70
     1
102
RTVSPropertyOp5
 70
     1
102
RTVSPropertyOp6
 70
     1
102
RTVSPropertyOp7
 70
     1
102
RTVSPropertyOp8
 70
     1
102
RTVSPropertyOp9
 70
     1
102
RTVSPropertyOp10
 70
     1
102
RTVSPropertyOp11
 70
     1
102
RTVSPropertyOp12
 70
     1
102
RTVSPropertyOp13
 70
     1
102
RTVSPropertyOp14
 70
     1
102
RTVSPropertyOp15
 70
     1
102
RTVSPropertyOp16
 70
     1
102
RTVSPropertyOp17
 70
     1
102
RTVSPropertyOp18
 70
     1
102
RTVSPropertyOp19
 70
     1
102
RTVSPropertyOp20
 70
     1
102
RTVSPropertyOp21
 70
     1
102
RTVSPropertyOp22
 70
     1
102
RTVSPropertyOp23
 70
     1
102
RTVSPropertyOp24
 70
     1
102
RTVSPropertyOp25
 70
     1
102
RTVSPropertyOp26
 70
     1
102
RTVSPropertyOp27
 70
     1
102
RTVSPropertyOp28
 70
     1
102
RTVSPropertyOp29
 70
     1
102
RTVSPropertyOp30
 70
     1
102
RTVSPropertyOp31
 70
     1
102
RTVSPropertyOp32
 70
     1
102
RTVSPropertyOp33
 70
     1
102
RTVSPropertyOp34
 70
     1
102
RTVSPropertyOp35
 70
     1
102
RTVSPropertyOp36
 70
     1
102
RTVSPropertyOp37
 70
     1
102
RTVSPropertyOp38
 70
     1
102
RTVSPropertyOp39
 70
     1
102
RTVSPropertyOp40
 70
     1
102
RTVSPropertyOp41
 70
     1
102
RTVSPropertyOp42
 70
     1
102
RTVSPropertyOp43
 70
     1
102
RTVSPropertyOp44
 70
     1
102
RTVSPropertyOp45
 70
     1
102
RTVSPropertyOp46
 70
     1
102
RTVSPropertyOp47
 70
     1
102
RTVSPropertyOp48
 70
     1
102
RTVSPropertyOp49
 70
     1
102
RTVSPropertyOp50
 70
     1
102
RTVSPropertyOp51
 70
     0
102
RTVSPropertyOp52
 70
     0
102
RTVSPropertyOp53
 70
     1
102
RTVSPropertyOp54
 70
     1
102
RTVSPropertyOp55
 70
     1
102
RTVSPropertyOp56
 70
     1
102
RTVSPropertyOp57
 70
     1
102
RTVSPropertyOp58
 70
     1
102
RTVSPropertyOp59
 70
     1
102
RTVSPropertyOp60
 70
     1
102
RTVSPropertyOp61
 70
     1
102
RTVSPropertyOp62
 70
     1
  0
XRECORD
  5
59B
102
{ACAD_REACTORS
330
59A
102
}
330
59A
100
AcDbXrecord
280
     1
102
RTVSPost2010Prop28
280
     0
102
RTVSPost2010PropOp28
 70
     1
102
RTVSPost2010Prop29
280
     1
102
RTVSPost2010PropOp29
 70
     1
102
RTVSPost2010Prop30
280
     1
102
RTVSPost2010PropOp30
 70
     1
102
RTVSPost2010Prop31
280
     0
102
RTVSPost2010PropOp31
 70
     1
102
RTVSPost2010Prop32
280
     0
102
RTVSPost2010PropOp32
 70
     1
102
RTVSPost2010Prop33
280
     0
102
RTVSPost2010PropOp33
 70
     1
102
RTVSPost2010Prop34
280
     0
102
RTVSPost2010PropOp34
 70
     1
102
RTVSPost2010Prop35
280
     0
102
RTVSPost2010PropOp35
 70
     1
102
RTVSPost2010Prop36
280
     0
102
RTVSPost2010PropOp36
 70
     1
102
RTVSPost2010Prop37
 90
       50
102
RTVSPost2010PropOp37
 70
     1
102
RTVSPost2010Prop38
140
0.0
102
RTVSPost2010PropOp38
 70
     1
102
RTVSPost2010Prop39
140
1.0
102
RTVSPost2010PropOp39
 70
     1
102
RTVSPost2010Prop40
 90
        0
102
RTVSPost2010PropOp40
 70
     1
102
RTVSPost2010Prop41ColorIndex
 90
       18
102
RTVSPost2010Prop41ColorRGB
 90
        0
102
RTVSPost2010PropOp41
 70
     1
102
RTVSPost2010Prop42
 90
       50
102
RTVSPost2010PropOp42
 70
     1
102
RTVSPost2010Prop43
 90
        3
102
RTVSPost2010PropOp43
 70
     1
102
RTVSPost2010Prop44ColorIndex
 90
        5
102
RTVSPost2010Prop44ColorRGB
 90
      255
102
RTVSPost2010PropOp44
 70
     1
102
RTVSPost2010Prop45
280
     0
102
RTVSPost2010PropOp45
 70
     1
102
RTVSPost2010Prop46
 90
       50
102
RTVSPost2010PropOp46
 70
     1
102
RTVSPost2010Prop47
 90
       50
102
RTVSPost2010PropOp47
 70
     1
102
RTVSPost2010Prop48
 90
       50
102
RTVSPost2010PropOp48
 70
     1
102
RTVSPost2010Prop49
280
     0
102
RTVSPost2010PropOp49
 70
     1
102
RTVSPost2010Prop50
 90
       50
102
RTVSPost2010PropOp50
 70
     1
102
RTVSPost2010Prop51ColorIndex
 90
      256
102
RTVSPost2010Prop51ColorRGB
 90
-16777216
102
RTVSPost2010PropOp51
 70
     0
102
RTVSPost2010Prop52
140
1.0
102
RTVSPost2010PropOp52
 70
     0
102
RTVSPost2010Prop53
 90
        2
102
RTVSPost2010PropOp53
 70
     1
102
RTVSPost2010Prop54
  1
strokes_ogs.tif
102
RTVSPost2010PropOp54
 70
     1
102
RTVSPost2010Prop55
280
     0
102
RTVSPost2010PropOp55
 70
     1
102
RTVSPost2010Prop56
140
1.0
102
RTVSPost2010PropOp56
 70
     1
102
RTVSPost2010Prop57
140
1.0
102
RTVSPost2010PropOp57
 70
     1
102
RTVSPropertyOp0
 70
     1
102
RTVSPropertyOp1
 70
     1
102
RTVSPropertyOp2
 70
     1
102
RTVSPropertyOp3
 70
     1
102
RTVSPropertyOp4
 70
     1
102
RTVSPropertyOp5
 70
     1
102
RTVSPropertyOp6
 70
     1
102
RTVSPropertyOp7
 70
     1
102
RTVSPropertyOp8
 70
     1
102
RTVSPropertyOp9
 70
     1
102
RTVSPropertyOp10
 70
     1
102
RTVSPropertyOp11
 70
     1
102
RTVSPropertyOp12
 70
     1
102
RTVSPropertyOp13
 70
     1
102
RTVSPropertyOp14
 70
     1
102
RTVSPropertyOp15
 70
     1
102
RTVSPropertyOp16
 70
     1
102
RTVSPropertyOp17
 70
     1
102
RTVSPropertyOp18
 70
     1
102
RTVSPropertyOp19
 70
     1
102
RTVSPropertyOp20
 70
     1
102
RTVSPropertyOp21
 70
     1
102
RTVSPropertyOp22
 70
     1
102
RTVSPropertyOp23
 70
     1
102
RTVSPropertyOp24
 70
     1
102
RTVSPropertyOp25
 70
     1
102
RTVSPropertyOp26
 70
     1
102
RTVSPropertyOp27
 70
     1
102
RTVSPropertyOp28
 70
     1
102
RTVSPropertyOp29
 70
     1
102
RTVSPropertyOp30
 70
     1
102
RTVSPropertyOp31
 70
     1
102
RTVSPropertyOp32
 70
     1
102
RTVSPropertyOp33
 70
     1
102
RTVSPropertyOp34
 70
     1
102
RTVSPropertyOp35
 70
     1
102
RTVSPropertyOp36
 70
     1
102
RTVSPropertyOp37
 70
     1
102
RTVSPropertyOp38
 70
     1
102
RTVSPropertyOp39
 70
     1
102
RTVSPropertyOp40
 70
     1
102
RTVSPropertyOp41
 70
     1
102
RTVSPropertyOp42
 70
     1
102
RTVSPropertyOp43
 70
     1
102
RTVSPropertyOp44
 70
     1
102
RTVSPropertyOp45
 70
     1
102
RTVSPropertyOp46
 70
     1
102
RTVSPropertyOp47
 70
     1
102
RTVSPropertyOp48
 70
     1
102
RTVSPropertyOp49
 70
     1
102
RTVSPropertyOp50
 70
     1
102
RTVSPropertyOp51
 70
     0
102
RTVSPropertyOp52
 70
     0
102
RTVSPropertyOp53
 70
     1
102
RTVSPropertyOp54
 70
     1
102
RTVSPropertyOp55
 70
     1
102
RTVSPropertyOp56
 70
     1
102
RTVSPropertyOp57
 70
     1
102
RTVSPropertyOp58
 70
     1
102
RTVSPropertyOp59
 70
     1
102
RTVSPropertyOp60
 70
     1
102
RTVSPropertyOp61
 70
     1
102
RTVSPropertyOp62
 70
     1
  0
XRECORD
  5
595
102
{ACAD_REACTORS
330
594
102
}
330
594
100
AcDbXrecord
280
     1
102
RTVSPost2010Prop28
280
     0
102
RTVSPost2010PropOp28
 70
     1
102
RTVSPost2010Prop29
280
     1
102
RTVSPost2010PropOp29
 70
     1
102
RTVSPost2010Prop30
280
     1
102
RTVSPost2010PropOp30
 70
     1
102
RTVSPost2010Prop31
280
     0
102
RTVSPost2010PropOp31
 70
     1
102
RTVSPost2010Prop32
280
     0
102
RTVSPost2010PropOp32
 70
     1
102
RTVSPost2010Prop33
280
     0
102
RTVSPost2010PropOp33
 70
     1
102
RTVSPost2010Prop34
280
     0
102
RTVSPost2010PropOp34
 70
     1
102
RTVSPost2010Prop35
280
     0
102
RTVSPost2010PropOp35
 70
     1
102
RTVSPost2010Prop36
280
     0
102
RTVSPost2010PropOp36
 70
     1
102
RTVSPost2010Prop37
 90
       50
102
RTVSPost2010PropOp37
 70
     1
102
RTVSPost2010Prop38
140
0.0
102
RTVSPost2010PropOp38
 70
     1
102
RTVSPost2010Prop39
140
1.0
102
RTVSPost2010PropOp39
 70
     1
102
RTVSPost2010Prop40
 90
        0
102
RTVSPost2010PropOp40
 70
     1
102
RTVSPost2010Prop41ColorIndex
 90
       18
102
RTVSPost2010Prop41ColorRGB
 90
        0
102
RTVSPost2010PropOp41
 70
     1
102
RTVSPost2010Prop42
 90
       50
102
RTVSPost2010PropOp42
 70
     1
102
RTVSPost2010Prop43
 90
        3
102
RTVSPost2010PropOp43
 70
     1
102
RTVSPost2010Prop44ColorIndex
 90
        5
102
RTVSPost2010Prop44ColorRGB
 90
      255
102
RTVSPost2010PropOp44
 70
     1
102
RTVSPost2010Prop45
280
     0
102
RTVSPost2010PropOp45
 70
     1
102
RTVSPost2010Prop46
 90
       50
102
RTVSPost2010PropOp46
 70
     1
102
RTVSPost2010Prop47
 90
       50
102
RTVSPost2010PropOp47
 70
     1
102
RTVSPost2010Prop48
 90
       50
102
RTVSPost2010PropOp48
 70
     1
102
RTVSPost2010Prop49
280
     0
102
RTVSPost2010PropOp49
 70
     1
102
RTVSPost2010Prop50
 90
       50
102
RTVSPost2010PropOp50
 70
     1
102
RTVSPost2010Prop51ColorIndex
 90
      256
102
RTVSPost2010Prop51ColorRGB
 90
-16777216
102
RTVSPost2010PropOp51
 70
     0
102
RTVSPost2010Prop52
140
1.0
102
RTVSPost2010PropOp52
 70
     0
102
RTVSPost2010Prop53
 90
        2
102
RTVSPost2010PropOp53
 70
     1
102
RTVSPost2010Prop54
  1
strokes_ogs.tif
102
RTVSPost2010PropOp54
 70
     1
102
RTVSPost2010Prop55
280
     0
102
RTVSPost2010PropOp55
 70
     1
102
RTVSPost2010Prop56
140
1.0
102
RTVSPost2010PropOp56
 70
     1
102
RTVSPost2010Prop57
140
1.0
102
RTVSPost2010PropOp57
 70
     1
102
RTVSPropertyOp0
 70
     1
102
RTVSPropertyOp1
 70
     1
102
RTVSPropertyOp2
 70
     1
102
RTVSPropertyOp3
 70
     1
102
RTVSPropertyOp4
 70
     1
102
RTVSPropertyOp5
 70
     1
102
RTVSPropertyOp6
 70
     1
102
RTVSPropertyOp7
 70
     1
102
RTVSPropertyOp8
 70
     1
102
RTVSPropertyOp9
 70
     1
102
RTVSPropertyOp10
 70
     1
102
RTVSPropertyOp11
 70
     1
102
RTVSPropertyOp12
 70
     1
102
RTVSPropertyOp13
 70
     1
102
RTVSPropertyOp14
 70
     1
102
RTVSPropertyOp15
 70
     1
102
RTVSPropertyOp16
 70
     1
102
RTVSPropertyOp17
 70
     1
102
RTVSPropertyOp18
 70
     1
102
RTVSPropertyOp19
 70
     1
102
RTVSPropertyOp20
 70
     1
102
RTVSPropertyOp21
 70
     1
102
RTVSPropertyOp22
 70
     1
102
RTVSPropertyOp23
 70
     1
102
RTVSPropertyOp24
 70
     1
102
RTVSPropertyOp25
 70
     1
102
RTVSPropertyOp26
 70
     1
102
RTVSPropertyOp27
 70
     1
102
RTVSPropertyOp28
 70
     1
102
RTVSPropertyOp29
 70
     1
102
RTVSPropertyOp30
 70
     1
102
RTVSPropertyOp31
 70
     1
102
RTVSPropertyOp32
 70
     1
102
RTVSPropertyOp33
 70
     1
102
RTVSPropertyOp34
 70
     1
102
RTVSPropertyOp35
 70
     1
102
RTVSPropertyOp36
 70
     1
102
RTVSPropertyOp37
 70
     1
102
RTVSPropertyOp38
 70
     1
102
RTVSPropertyOp39
 70
     1
102
RTVSPropertyOp40
 70
     1
102
RTVSPropertyOp41
 70
     1
102
RTVSPropertyOp42
 70
     1
102
RTVSPropertyOp43
 70
     1
102
RTVSPropertyOp44
 70
     1
102
RTVSPropertyOp45
 70
     1
102
RTVSPropertyOp46
 70
     1
102
RTVSPropertyOp47
 70
     1
102
RTVSPropertyOp48
 70
     1
102
RTVSPropertyOp49
 70
     1
102
RTVSPropertyOp50
 70
     1
102
RTVSPropertyOp51
 70
     0
102
RTVSPropertyOp52
 70
     0
102
RTVSPropertyOp53
 70
     1
102
RTVSPropertyOp54
 70
     1
102
RTVSPropertyOp55
 70
     1
102
RTVSPropertyOp56
 70
     1
102
RTVSPropertyOp57
 70
     1
102
RTVSPropertyOp58
 70
     1
102
RTVSPropertyOp59
 70
     1
102
RTVSPropertyOp60
 70
     1
102
RTVSPropertyOp61
 70
     1
102
RTVSPropertyOp62
 70
     1
  0
XRECORD
  5
597
102
{ACAD_REACTORS
330
596
102
}
330
596
100
AcDbXrecord
280
     1
102
RTVSPost2010Prop28
280
     0
102
RTVSPost2010PropOp28
 70
     1
102
RTVSPost2010Prop29
280
     1
102
RTVSPost2010PropOp29
 70
     1
102
RTVSPost2010Prop30
280
     1
102
RTVSPost2010PropOp30
 70
     1
102
RTVSPost2010Prop31
280
     0
102
RTVSPost2010PropOp31
 70
     1
102
RTVSPost2010Prop32
280
     0
102
RTVSPost2010PropOp32
 70
     1
102
RTVSPost2010Prop33
280
     0
102
RTVSPost2010PropOp33
 70
     1
102
RTVSPost2010Prop34
280
     0
102
RTVSPost2010PropOp34
 70
     1
102
RTVSPost2010Prop35
280
     0
102
RTVSPost2010PropOp35
 70
     1
102
RTVSPost2010Prop36
280
     0
102
RTVSPost2010PropOp36
 70
     1
102
RTVSPost2010Prop37
 90
       50
102
RTVSPost2010PropOp37
 70
     1
102
RTVSPost2010Prop38
140
0.0
102
RTVSPost2010PropOp38
 70
     1
102
RTVSPost2010Prop39
140
1.0
102
RTVSPost2010PropOp39
 70
     1
102
RTVSPost2010Prop40
 90
        0
102
RTVSPost2010PropOp40
 70
     1
102
RTVSPost2010Prop41ColorIndex
 90
       18
102
RTVSPost2010Prop41ColorRGB
 90
        0
102
RTVSPost2010PropOp41
 70
     1
102
RTVSPost2010Prop42
 90
       50
102
RTVSPost2010PropOp42
 70
     1
102
RTVSPost2010Prop43
 90
        3
102
RTVSPost2010PropOp43
 70
     1
102
RTVSPost2010Prop44ColorIndex
 90
        5
102
RTVSPost2010Prop44ColorRGB
 90
      255
102
RTVSPost2010PropOp44
 70
     1
102
RTVSPost2010Prop45
280
     0
102
RTVSPost2010PropOp45
 70
     1
102
RTVSPost2010Prop46
 90
       50
102
RTVSPost2010PropOp46
 70
     1
102
RTVSPost2010Prop47
 90
       50
102
RTVSPost2010PropOp47
 70
     1
102
RTVSPost2010Prop48
 90
       50
102
RTVSPost2010PropOp48
 70
     1
102
RTVSPost2010Prop49
280
     0
102
RTVSPost2010PropOp49
 70
     1
102
RTVSPost2010Prop50
 90
       50
102
RTVSPost2010PropOp50
 70
     1
102
RTVSPost2010Prop51ColorIndex
 90
      256
102
RTVSPost2010Prop51ColorRGB
 90
-16777216
102
RTVSPost2010PropOp51
 70
     0
102
RTVSPost2010Prop52
140
1.0
102
RTVSPost2010PropOp52
 70
     0
102
RTVSPost2010Prop53
 90
        2
102
RTVSPost2010PropOp53
 70
     1
102
RTVSPost2010Prop54
  1
strokes_ogs.tif
102
RTVSPost2010PropOp54
 70
     1
102
RTVSPost2010Prop55
280
     0
102
RTVSPost2010PropOp55
 70
     1
102
RTVSPost2010Prop56
140
1.0
102
RTVSPost2010PropOp56
 70
     1
102
RTVSPost2010Prop57
140
1.0
102
RTVSPost2010PropOp57
 70
     1
102
RTVSPropertyOp0
 70
     1
102
RTVSPropertyOp1
 70
     1
102
RTVSPropertyOp2
 70
     1
102
RTVSPropertyOp3
 70
     1
102
RTVSPropertyOp4
 70
     1
102
RTVSPropertyOp5
 70
     1
102
RTVSPropertyOp6
 70
     1
102
RTVSPropertyOp7
 70
     1
102
RTVSPropertyOp8
 70
     1
102
RTVSPropertyOp9
 70
     1
102
RTVSPropertyOp10
 70
     1
102
RTVSPropertyOp11
 70
     1
102
RTVSPropertyOp12
 70
     1
102
RTVSPropertyOp13
 70
     1
102
RTVSPropertyOp14
 70
     1
102
RTVSPropertyOp15
 70
     1
102
RTVSPropertyOp16
 70
     1
102
RTVSPropertyOp17
 70
     1
102
RTVSPropertyOp18
 70
     1
102
RTVSPropertyOp19
 70
     1
102
RTVSPropertyOp20
 70
     1
102
RTVSPropertyOp21
 70
     1
102
RTVSPropertyOp22
 70
     1
102
RTVSPropertyOp23
 70
     1
102
RTVSPropertyOp24
 70
     1
102
RTVSPropertyOp25
 70
     1
102
RTVSPropertyOp26
 70
     1
102
RTVSPropertyOp27
 70
     1
102
RTVSPropertyOp28
 70
     1
102
RTVSPropertyOp29
 70
     1
102
RTVSPropertyOp30
 70
     1
102
RTVSPropertyOp31
 70
     1
102
RTVSPropertyOp32
 70
     1
102
RTVSPropertyOp33
 70
     1
102
RTVSPropertyOp34
 70
     1
102
RTVSPropertyOp35
 70
     1
102
RTVSPropertyOp36
 70
     1
102
RTVSPropertyOp37
 70
     1
102
RTVSPropertyOp38
 70
     1
102
RTVSPropertyOp39
 70
     1
102
RTVSPropertyOp40
 70
     1
102
RTVSPropertyOp41
 70
     1
102
RTVSPropertyOp42
 70
     1
102
RTVSPropertyOp43
 70
     1
102
RTVSPropertyOp44
 70
     1
102
RTVSPropertyOp45
 70
     1
102
RTVSPropertyOp46
 70
     1
102
RTVSPropertyOp47
 70
     1
102
RTVSPropertyOp48
 70
     1
102
RTVSPropertyOp49
 70
     1
102
RTVSPropertyOp50
 70
     1
102
RTVSPropertyOp51
 70
     0
102
RTVSPropertyOp52
 70
     0
102
RTVSPropertyOp53
 70
     1
102
RTVSPropertyOp54
 70
     1
102
RTVSPropertyOp55
 70
     1
102
RTVSPropertyOp56
 70
     1
102
RTVSPropertyOp57
 70
     1
102
RTVSPropertyOp58
 70
     1
102
RTVSPropertyOp59
 70
     1
102
RTVSPropertyOp60
 70
     1
102
RTVSPropertyOp61
 70
     1
102
RTVSPropertyOp62
 70
     1
  0
XRECORD
  5
58D
102
{ACAD_REACTORS
330
58C
102
}
330
58C
100
AcDbXrecord
280
     1
102
RTVSPost2010Prop28
280
     0
102
RTVSPost2010PropOp28
 70
     1
102
RTVSPost2010Prop29
280
     1
102
RTVSPost2010PropOp29
 70
     1
102
RTVSPost2010Prop30
280
     1
102
RTVSPost2010PropOp30
 70
     1
102
RTVSPost2010Prop31
280
     0
102
RTVSPost2010PropOp31
 70
     1
102
RTVSPost2010Prop32
280
     0
102
RTVSPost2010PropOp32
 70
     1
102
RTVSPost2010Prop33
280
     0
102
RTVSPost2010PropOp33
 70
     1
102
RTVSPost2010Prop34
280
     0
102
RTVSPost2010PropOp34
 70
     1
102
RTVSPost2010Prop35
280
     0
102
RTVSPost2010PropOp35
 70
     1
102
RTVSPost2010Prop36
280
     0
102
RTVSPost2010PropOp36
 70
     1
102
RTVSPost2010Prop37
 90
       50
102
RTVSPost2010PropOp37
 70
     1
102
RTVSPost2010Prop38
140
0.0
102
RTVSPost2010PropOp38
 70
     1
102
RTVSPost2010Prop39
140
1.0
102
RTVSPost2010PropOp39
 70
     1
102
RTVSPost2010Prop40
 90
        0
102
RTVSPost2010PropOp40
 70
     1
102
RTVSPost2010Prop41ColorIndex
 90
       18
102
RTVSPost2010Prop41ColorRGB
 90
        0
102
RTVSPost2010PropOp41
 70
     1
102
RTVSPost2010Prop42
 90
       50
102
RTVSPost2010PropOp42
 70
     1
102
RTVSPost2010Prop43
 90
        3
102
RTVSPost2010PropOp43
 70
     1
102
RTVSPost2010Prop44ColorIndex
 90
        5
102
RTVSPost2010Prop44ColorRGB
 90
      255
102
RTVSPost2010PropOp44
 70
     1
102
RTVSPost2010Prop45
280
     0
102
RTVSPost2010PropOp45
 70
     1
102
RTVSPost2010Prop46
 90
       50
102
RTVSPost2010PropOp46
 70
     1
102
RTVSPost2010Prop47
 90
       50
102
RTVSPost2010PropOp47
 70
     1
102
RTVSPost2010Prop48
 90
       50
102
RTVSPost2010PropOp48
 70
     1
102
RTVSPost2010Prop49
280
     0
102
RTVSPost2010PropOp49
 70
     1
102
RTVSPost2010Prop50
 90
       50
102
RTVSPost2010PropOp50
 70
     1
102
RTVSPost2010Prop51ColorIndex
 90
      256
102
RTVSPost2010Prop51ColorRGB
 90
-16777216
102
RTVSPost2010PropOp51
 70
     0
102
RTVSPost2010Prop52
140
1.0
102
RTVSPost2010PropOp52
 70
     0
102
RTVSPost2010Prop53
 90
        2
102
RTVSPost2010PropOp53
 70
     1
102
RTVSPost2010Prop54
  1
strokes_ogs.tif
102
RTVSPost2010PropOp54
 70
     1
102
RTVSPost2010Prop55
280
     0
102
RTVSPost2010PropOp55
 70
     1
102
RTVSPost2010Prop56
140
1.0
102
RTVSPost2010PropOp56
 70
     1
102
RTVSPost2010Prop57
140
1.0
102
RTVSPost2010PropOp57
 70
     1
102
RTVSPropertyOp0
 70
     1
102
RTVSPropertyOp1
 70
     1
102
RTVSPropertyOp2
 70
     1
102
RTVSPropertyOp3
 70
     1
102
RTVSPropertyOp4
 70
     1
102
RTVSPropertyOp5
 70
     1
102
RTVSPropertyOp6
 70
     1
102
RTVSPropertyOp7
 70
     1
102
RTVSPropertyOp8
 70
     1
102
RTVSPropertyOp9
 70
     1
102
RTVSPropertyOp10
 70
     1
102
RTVSPropertyOp11
 70
     1
102
RTVSPropertyOp12
 70
     1
102
RTVSPropertyOp13
 70
     1
102
RTVSPropertyOp14
 70
     1
102
RTVSPropertyOp15
 70
     1
102
RTVSPropertyOp16
 70
     1
102
RTVSPropertyOp17
 70
     1
102
RTVSPropertyOp18
 70
     1
102
RTVSPropertyOp19
 70
     1
102
RTVSPropertyOp20
 70
     1
102
RTVSPropertyOp21
 70
     1
102
RTVSPropertyOp22
 70
     1
102
RTVSPropertyOp23
 70
     1
102
RTVSPropertyOp24
 70
     1
102
RTVSPropertyOp25
 70
     1
102
RTVSPropertyOp26
 70
     1
102
RTVSPropertyOp27
 70
     1
102
RTVSPropertyOp28
 70
     1
102
RTVSPropertyOp29
 70
     1
102
RTVSPropertyOp30
 70
     1
102
RTVSPropertyOp31
 70
     1
102
RTVSPropertyOp32
 70
     1
102
RTVSPropertyOp33
 70
     1
102
RTVSPropertyOp34
 70
     1
102
RTVSPropertyOp35
 70
     1
102
RTVSPropertyOp36
 70
     1
102
RTVSPropertyOp37
 70
     1
102
RTVSPropertyOp38
 70
     1
102
RTVSPropertyOp39
 70
     1
102
RTVSPropertyOp40
 70
     1
102
RTVSPropertyOp41
 70
     1
102
RTVSPropertyOp42
 70
     1
102
RTVSPropertyOp43
 70
     1
102
RTVSPropertyOp44
 70
     1
102
RTVSPropertyOp45
 70
     1
102
RTVSPropertyOp46
 70
     1
102
RTVSPropertyOp47
 70
     1
102
RTVSPropertyOp48
 70
     1
102
RTVSPropertyOp49
 70
     1
102
RTVSPropertyOp50
 70
     1
102
RTVSPropertyOp51
 70
     0
102
RTVSPropertyOp52
 70
     0
102
RTVSPropertyOp53
 70
     1
102
RTVSPropertyOp54
 70
     1
102
RTVSPropertyOp55
 70
     1
102
RTVSPropertyOp56
 70
     1
102
RTVSPropertyOp57
 70
     1
102
RTVSPropertyOp58
 70
     1
102
RTVSPropertyOp59
 70
     1
102
RTVSPropertyOp60
 70
     1
102
RTVSPropertyOp61
 70
     1
102
RTVSPropertyOp62
 70
     1
  0
XRECORD
  5
581
102
{ACAD_REACTORS
330
580
102
}
330
580
100
AcDbXrecord
280
     1
102
RTVSPost2010Prop28
280
     0
102
RTVSPost2010PropOp28
 70
     1
102
RTVSPost2010Prop29
280
     1
102
RTVSPost2010PropOp29
 70
     1
102
RTVSPost2010Prop30
280
     1
102
RTVSPost2010PropOp30
 70
     1
102
RTVSPost2010Prop31
280
     0
102
RTVSPost2010PropOp31
 70
     1
102
RTVSPost2010Prop32
280
     0
102
RTVSPost2010PropOp32
 70
     1
102
RTVSPost2010Prop33
280
     0
102
RTVSPost2010PropOp33
 70
     1
102
RTVSPost2010Prop34
280
     0
102
RTVSPost2010PropOp34
 70
     1
102
RTVSPost2010Prop35
280
     0
102
RTVSPost2010PropOp35
 70
     1
102
RTVSPost2010Prop36
280
     0
102
RTVSPost2010PropOp36
 70
     1
102
RTVSPost2010Prop37
 90
       50
102
RTVSPost2010PropOp37
 70
     1
102
RTVSPost2010Prop38
140
0.0
102
RTVSPost2010PropOp38
 70
     1
102
RTVSPost2010Prop39
140
1.0
102
RTVSPost2010PropOp39
 70
     1
102
RTVSPost2010Prop40
 90
        0
102
RTVSPost2010PropOp40
 70
     1
102
RTVSPost2010Prop41ColorIndex
 90
       18
102
RTVSPost2010Prop41ColorRGB
 90
        0
102
RTVSPost2010PropOp41
 70
     1
102
RTVSPost2010Prop42
 90
       50
102
RTVSPost2010PropOp42
 70
     1
102
RTVSPost2010Prop43
 90
        3
102
RTVSPost2010PropOp43
 70
     1
102
RTVSPost2010Prop44ColorIndex
 90
        5
102
RTVSPost2010Prop44ColorRGB
 90
      255
102
RTVSPost2010PropOp44
 70
     1
102
RTVSPost2010Prop45
280
     0
102
RTVSPost2010PropOp45
 70
     1
102
RTVSPost2010Prop46
 90
       50
102
RTVSPost2010PropOp46
 70
     1
102
RTVSPost2010Prop47
 90
       50
102
RTVSPost2010PropOp47
 70
     1
102
RTVSPost2010Prop48
 90
       50
102
RTVSPost2010PropOp48
 70
     1
102
RTVSPost2010Prop49
280
     0
102
RTVSPost2010PropOp49
 70
     1
102
RTVSPost2010Prop50
 90
       50
102
RTVSPost2010PropOp50
 70
     1
102
RTVSPost2010Prop51ColorIndex
 90
      256
102
RTVSPost2010Prop51ColorRGB
 90
-16777216
102
RTVSPost2010PropOp51
 70
     0
102
RTVSPost2010Prop52
140
1.0
102
RTVSPost2010PropOp52
 70
     0
102
RTVSPost2010Prop53
 90
        2
102
RTVSPost2010PropOp53
 70
     1
102
RTVSPost2010Prop54
  1
strokes_ogs.tif
102
RTVSPost2010PropOp54
 70
     1
102
RTVSPost2010Prop55
280
     0
102
RTVSPost2010PropOp55
 70
     1
102
RTVSPost2010Prop56
140
1.0
102
RTVSPost2010PropOp56
 70
     1
102
RTVSPost2010Prop57
140
1.0
102
RTVSPost2010PropOp57
 70
     1
102
RTVSPropertyOp0
 70
     1
102
RTVSPropertyOp1
 70
     1
102
RTVSPropertyOp2
 70
     1
102
RTVSPropertyOp3
 70
     1
102
RTVSPropertyOp4
 70
     1
102
RTVSPropertyOp5
 70
     1
102
RTVSPropertyOp6
 70
     1
102
RTVSPropertyOp7
 70
     1
102
RTVSPropertyOp8
 70
     1
102
RTVSPropertyOp9
 70
     1
102
RTVSPropertyOp10
 70
     1
102
RTVSPropertyOp11
 70
     1
102
RTVSPropertyOp12
 70
     1
102
RTVSPropertyOp13
 70
     1
102
RTVSPropertyOp14
 70
     1
102
RTVSPropertyOp15
 70
     1
102
RTVSPropertyOp16
 70
     1
102
RTVSPropertyOp17
 70
     1
102
RTVSPropertyOp18
 70
     1
102
RTVSPropertyOp19
 70
     1
102
RTVSPropertyOp20
 70
     1
102
RTVSPropertyOp21
 70
     1
102
RTVSPropertyOp22
 70
     1
102
RTVSPropertyOp23
 70
     1
102
RTVSPropertyOp24
 70
     1
102
RTVSPropertyOp25
 70
     1
102
RTVSPropertyOp26
 70
     1
102
RTVSPropertyOp27
 70
     1
102
RTVSPropertyOp28
 70
     1
102
RTVSPropertyOp29
 70
     1
102
RTVSPropertyOp30
 70
     1
102
RTVSPropertyOp31
 70
     1
102
RTVSPropertyOp32
 70
     1
102
RTVSPropertyOp33
 70
     1
102
RTVSPropertyOp34
 70
     1
102
RTVSPropertyOp35
 70
     1
102
RTVSPropertyOp36
 70
     1
102
RTVSPropertyOp37
 70
     1
102
RTVSPropertyOp38
 70
     1
102
RTVSPropertyOp39
 70
     1
102
RTVSPropertyOp40
 70
     1
102
RTVSPropertyOp41
 70
     1
102
RTVSPropertyOp42
 70
     1
102
RTVSPropertyOp43
 70
     1
102
RTVSPropertyOp44
 70
     1
102
RTVSPropertyOp45
 70
     1
102
RTVSPropertyOp46
 70
     1
102
RTVSPropertyOp47
 70
     1
102
RTVSPropertyOp48
 70
     1
102
RTVSPropertyOp49
 70
     1
102
RTVSPropertyOp50
 70
     1
102
RTVSPropertyOp51
 70
     0
102
RTVSPropertyOp52
 70
     0
102
RTVSPropertyOp53
 70
     1
102
RTVSPropertyOp54
 70
     1
102
RTVSPropertyOp55
 70
     1
102
RTVSPropertyOp56
 70
     1
102
RTVSPropertyOp57
 70
     1
102
RTVSPropertyOp58
 70
     1
102
RTVSPropertyOp59
 70
     1
102
RTVSPropertyOp60
 70
     1
102
RTVSPropertyOp61
 70
     1
102
RTVSPropertyOp62
 70
     1
  0
XRECORD
  5
599
102
{ACAD_REACTORS
330
598
102
}
330
598
100
AcDbXrecord
280
     1
102
RTVSPost2010Prop28
280
     0
102
RTVSPost2010PropOp28
 70
     1
102
RTVSPost2010Prop29
280
     1
102
RTVSPost2010PropOp29
 70
     1
102
RTVSPost2010Prop30
280
     1
102
RTVSPost2010PropOp30
 70
     1
102
RTVSPost2010Prop31
280
     0
102
RTVSPost2010PropOp31
 70
     1
102
RTVSPost2010Prop32
280
     0
102
RTVSPost2010PropOp32
 70
     1
102
RTVSPost2010Prop33
280
     0
102
RTVSPost2010PropOp33
 70
     1
102
RTVSPost2010Prop34
280
     0
102
RTVSPost2010PropOp34
 70
     1
102
RTVSPost2010Prop35
280
     0
102
RTVSPost2010PropOp35
 70
     1
102
RTVSPost2010Prop36
280
     0
102
RTVSPost2010PropOp36
 70
     1
102
RTVSPost2010Prop37
 90
       50
102
RTVSPost2010PropOp37
 70
     1
102
RTVSPost2010Prop38
140
0.0
102
RTVSPost2010PropOp38
 70
     1
102
RTVSPost2010Prop39
140
1.0
102
RTVSPost2010PropOp39
 70
     1
102
RTVSPost2010Prop40
 90
        0
102
RTVSPost2010PropOp40
 70
     1
102
RTVSPost2010Prop41ColorIndex
 90
       18
102
RTVSPost2010Prop41ColorRGB
 90
        0
102
RTVSPost2010PropOp41
 70
     1
102
RTVSPost2010Prop42
 90
       50
102
RTVSPost2010PropOp42
 70
     1
102
RTVSPost2010Prop43
 90
        3
102
RTVSPost2010PropOp43
 70
     1
102
RTVSPost2010Prop44ColorIndex
 90
        5
102
RTVSPost2010Prop44ColorRGB
 90
      255
102
RTVSPost2010PropOp44
 70
     1
102
RTVSPost2010Prop45
280
     0
102
RTVSPost2010PropOp45
 70
     1
102
RTVSPost2010Prop46
 90
       50
102
RTVSPost2010PropOp46
 70
     1
102
RTVSPost2010Prop47
 90
       50
102
RTVSPost2010PropOp47
 70
     1
102
RTVSPost2010Prop48
 90
       50
102
RTVSPost2010PropOp48
 70
     1
102
RTVSPost2010Prop49
280
     0
102
RTVSPost2010PropOp49
 70
     1
102
RTVSPost2010Prop50
 90
       50
102
RTVSPost2010PropOp50
 70
     1
102
RTVSPost2010Prop51ColorIndex
 90
      256
102
RTVSPost2010Prop51ColorRGB
 90
-16777216
102
RTVSPost2010PropOp51
 70
     0
102
RTVSPost2010Prop52
140
1.0
102
RTVSPost2010PropOp52
 70
     0
102
RTVSPost2010Prop53
 90
        2
102
RTVSPost2010PropOp53
 70
     1
102
RTVSPost2010Prop54
  1
strokes_ogs.tif
102
RTVSPost2010PropOp54
 70
     1
102
RTVSPost2010Prop55
280
     0
102
RTVSPost2010PropOp55
 70
     1
102
RTVSPost2010Prop56
140
1.0
102
RTVSPost2010PropOp56
 70
     1
102
RTVSPost2010Prop57
140
1.0
102
RTVSPost2010PropOp57
 70
     1
102
RTVSPropertyOp0
 70
     1
102
RTVSPropertyOp1
 70
     1
102
RTVSPropertyOp2
 70
     1
102
RTVSPropertyOp3
 70
     1
102
RTVSPropertyOp4
 70
     1
102
RTVSPropertyOp5
 70
     1
102
RTVSPropertyOp6
 70
     1
102
RTVSPropertyOp7
 70
     1
102
RTVSPropertyOp8
 70
     1
102
RTVSPropertyOp9
 70
     1
102
RTVSPropertyOp10
 70
     1
102
RTVSPropertyOp11
 70
     1
102
RTVSPropertyOp12
 70
     1
102
RTVSPropertyOp13
 70
     1
102
RTVSPropertyOp14
 70
     1
102
RTVSPropertyOp15
 70
     1
102
RTVSPropertyOp16
 70
     1
102
RTVSPropertyOp17
 70
     1
102
RTVSPropertyOp18
 70
     1
102
RTVSPropertyOp19
 70
     1
102
RTVSPropertyOp20
 70
     1
102
RTVSPropertyOp21
 70
     1
102
RTVSPropertyOp22
 70
     1
102
RTVSPropertyOp23
 70
     1
102
RTVSPropertyOp24
 70
     1
102
RTVSPropertyOp25
 70
     1
102
RTVSPropertyOp26
 70
     1
102
RTVSPropertyOp27
 70
     1
102
RTVSPropertyOp28
 70
     1
102
RTVSPropertyOp29
 70
     1
102
RTVSPropertyOp30
 70
     1
102
RTVSPropertyOp31
 70
     1
102
RTVSPropertyOp32
 70
     1
102
RTVSPropertyOp33
 70
     1
102
RTVSPropertyOp34
 70
     1
102
RTVSPropertyOp35
 70
     1
102
RTVSPropertyOp36
 70
     1
102
RTVSPropertyOp37
 70
     1
102
RTVSPropertyOp38
 70
     1
102
RTVSPropertyOp39
 70
     1
102
RTVSPropertyOp40
 70
     1
102
RTVSPropertyOp41
 70
     1
102
RTVSPropertyOp42
 70
     1
102
RTVSPropertyOp43
 70
     1
102
RTVSPropertyOp44
 70
     1
102
RTVSPropertyOp45
 70
     1
102
RTVSPropertyOp46
 70
     1
102
RTVSPropertyOp47
 70
     1
102
RTVSPropertyOp48
 70
     1
102
RTVSPropertyOp49
 70
     1
102
RTVSPropertyOp50
 70
     1
102
RTVSPropertyOp51
 70
     0
102
RTVSPropertyOp52
 70
     0
102
RTVSPropertyOp53
 70
     1
102
RTVSPropertyOp54
 70
     1
102
RTVSPropertyOp55
 70
     1
102
RTVSPropertyOp56
 70
     1
102
RTVSPropertyOp57
 70
     1
102
RTVSPropertyOp58
 70
     1
102
RTVSPropertyOp59
 70
     1
102
RTVSPropertyOp60
 70
     1
102
RTVSPropertyOp61
 70
     1
102
RTVSPropertyOp62
 70
     1
  0
ENDSEC
  0
EOF
