  0
SECTION
  2
HEADER
  9
$ACADVER
  1
AC1024
  9
$ACADMAINTVER
 70
   155
  9
$DWGCODEPAGE
  3
ANSI_936
  9
$LASTSAVEDBY
  1
Administrator
  9
$INSBASE
 10
0.0
 20
0.0
 30
0.0
  9
$EXTMIN
 10
113.68183989928
 20
95.55914814584264
 30
0.0
  9
$EXTMAX
 10
1434.230213928048
 20
738.4432008069357
 30
0.0
  9
$LIMMIN
 10
0.0
 20
0.0
  9
$LIMMAX
 10
420.0
 20
297.0
  9
$ORTHOMODE
 70
     0
  9
$REGENMODE
 70
     1
  9
$FILLMODE
 70
     1
  9
$QTEXTMODE
 70
     0
  9
$MIRRTEXT
 70
     0
  9
$LTSCALE
 40
1.0
  9
$ATTMODE
 70
     1
  9
$TEXTSIZE
 40
2.5
  9
$TRACEWID
 40
1.0
  9
$TEXTSTYLE
  7
Standard
  9
$CLAYER
  8
0
  9
$CELTYPE
  6
ByLayer
  9
$CECOLOR
 62
   256
  9
$CELTSCALE
 40
1.0
  9
$DISPSILH
 70
     0
  9
$DIMSCALE
 40
1.0
  9
$DIMASZ
 40
8.0
  9
$DIMEXO
 40
2.5
  9
$DIMDLI
 40
3.75
  9
$DIMRND
 40
0.0
  9
$DIMDLE
 40
0.0
  9
$DIMEXE
 40
5.0
  9
$DIMTP
 40
0.0
  9
$DIMTM
 40
0.0
  9
$DIMTXT
 40
9.0
  9
$DIMCEN
 40
-0.09
  9
$DIMTSZ
 40
0.0
  9
$DIMTOL
 70
     0
  9
$DIMLIM
 70
     0
  9
$DIMTIH
 70
     0
  9
$DIMTOH
 70
     0
  9
$DIMSE1
 70
     0
  9
$DIMSE2
 70
     0
  9
$DIMTAD
 70
     1
  9
$DIMZIN
 70
     8
  9
$DIMBLK
  1

  9
$DIMASO
 70
     1
  9
$DIMSHO
 70
     1
  9
$DIMPOST
  1
 mm\X
  9
$DIMAPOST
  1
 "
  9
$DIMALT
 70
     1
  9
$DIMALTD
 70
     5
  9
$DIMALTF
 40
0.03937007874016
  9
$DIMLFAC
 40
1.0
  9
$DIMTOFL
 70
     1
  9
$DIMTVP
 40
0.0
  9
$DIMTIX
 70
     0
  9
$DIMSOXD
 70
     0
  9
$DIMSAH
 70
     0
  9
$DIMBLK1
  1

  9
$DIMBLK2
  1

  9
$DIMSTYLE
  2
dimensions
  9
$DIMCLRD
 70
   256
  9
$DIMCLRE
 70
   256
  9
$DIMCLRT
 70
   256
  9
$DIMTFAC
 40
1.0
  9
$DIMGAP
 40
2.5
  9
$DIMJUST
 70
     0
  9
$DIMSD1
 70
     0
  9
$DIMSD2
 70
     0
  9
$DIMTOLJ
 70
     0
  9
$DIMTZIN
 70
     8
  9
$DIMALTZ
 70
     0
  9
$DIMALTTZ
 70
     0
  9
$DIMUPT
 70
     0
  9
$DIMDEC
 70
     2
  9
$DIMTDEC
 70
     2
  9
$DIMALTU
 70
     7
  9
$DIMALTTD
 70
     5
  9
$DIMTXSTY
  7
Standard
  9
$DIMAUNIT
 70
     0
  9
$DIMADEC
 70
     0
  9
$DIMALTRND
 40
0.0
  9
$DIMAZIN
 70
     0
  9
$DIMDSEP
 70
    44
  9
$DIMATFIT
 70
     3
  9
$DIMFRAC
 70
     0
  9
$DIMLDRBLK
  1

  9
$DIMLUNIT
 70
     2
  9
$DIMLWD
 70
    -2
  9
$DIMLWE
 70
    -2
  9
$DIMTMOVE
 70
     0
  9
$DIMFXL
 40
1.0
  9
$DIMFXLON
 70
     0
  9
$DIMJOGANG
 40
0.7853981633974483
  9
$DIMTFILL
 70
     0
  9
$DIMTFILLCLR
 70
     0
  9
$DIMARCSYM
 70
     0
  9
$DIMLTYPE
  6

  9
$DIMLTEX1
  6

  9
$DIMLTEX2
  6

  9
$DIMTXTDIRECTION
 70
     0
  9
$LUNITS
 70
     2
  9
$LUPREC
 70
     4
  9
$SKETCHINC
 40
1.0
  9
$FILLETRAD
 40
28.0
  9
$AUNITS
 70
     0
  9
$AUPREC
 70
     0
  9
$MENU
  1
.
  9
$ELEVATION
 40
0.0
  9
$PELEVATION
 40
0.0
  9
$THICKNESS
 40
0.0
  9
$LIMCHECK
 70
     0
  9
$CHAMFERA
 40
0.0
  9
$CHAMFERB
 40
0.0
  9
$CHAMFERC
 40
0.0
  9
$CHAMFERD
 40
0.0
  9
$SKPOLY
 70
     0
  9
$TDCREATE
 40
2457578.486263484
  9
$TDUCREATE
 40
2457578.152930150
  9
$TDUPDATE
 40
2457661.669756145
  9
$TDUUPDATE
 40
2457661.336422813
  9
$TDINDWG
 40
0.2003419560
  9
$TDUSRTIMER
 40
0.2003417940
  9
$USRTIMER
 70
     1
  9
$ANGBASE
 50
0.0
  9
$ANGDIR
 70
     0
  9
$PDMODE
 70
     0
  9
$PDSIZE
 40
0.0
  9
$PLINEWID
 40
0.0
  9
$SPLFRAME
 70
     0
  9
$SPLINETYPE
 70
     6
  9
$SPLINESEGS
 70
     8
  9
$HANDSEED
  5
1F88
  9
$SURFTAB1
 70
     6
  9
$SURFTAB2
 70
     6
  9
$SURFTYPE
 70
     6
  9
$SURFU
 70
     6
  9
$SURFV
 70
     6
  9
$UCSBASE
  2

  9
$UCSNAME
  2

  9
$UCSORG
 10
0.0
 20
0.0
 30
0.0
  9
$UCSXDIR
 10
1.0
 20
0.0
 30
0.0
  9
$UCSYDIR
 10
0.0
 20
1.0
 30
0.0
  9
$UCSORTHOREF
  2

  9
$UCSORTHOVIEW
 70
     0
  9
$UCSORGTOP
 10
0.0
 20
0.0
 30
0.0
  9
$UCSORGBOTTOM
 10
0.0
 20
0.0
 30
0.0
  9
$UCSORGLEFT
 10
0.0
 20
0.0
 30
0.0
  9
$UCSORGRIGHT
 10
0.0
 20
0.0
 30
0.0
  9
$UCSORGFRONT
 10
0.0
 20
0.0
 30
0.0
  9
$UCSORGBACK
 10
0.0
 20
0.0
 30
0.0
  9
$PUCSBASE
  2

  9
$PUCSNAME
  2

  9
$PUCSORG
 10
0.0
 20
0.0
 30
0.0
  9
$PUCSXDIR
 10
1.0
 20
0.0
 30
0.0
  9
$PUCSYDIR
 10
0.0
 20
1.0
 30
0.0
  9
$PUCSORTHOREF
  2

  9
$PUCSORTHOVIEW
 70
     0
  9
$PUCSORGTOP
 10
0.0
 20
0.0
 30
0.0
  9
$PUCSORGBOTTOM
 10
0.0
 20
0.0
 30
0.0
  9
$PUCSORGLEFT
 10
0.0
 20
0.0
 30
0.0
  9
$PUCSORGRIGHT
 10
0.0
 20
0.0
 30
0.0
  9
$PUCSORGFRONT
 10
0.0
 20
0.0
 30
0.0
  9
$PUCSORGBACK
 10
0.0
 20
0.0
 30
0.0
  9
$USERI1
 70
     0
  9
$USERI2
 70
     0
  9
$USERI3
 70
     0
  9
$USERI4
 70
     0
  9
$USERI5
 70
     0
  9
$USERR1
 40
0.0
  9
$USERR2
 40
0.0
  9
$USERR3
 40
0.0
  9
$USERR4
 40
0.0
  9
$USERR5
 40
0.0
  9
$WORLDVIEW
 70
     1
  9
$SHADEDGE
 70
     3
  9
$SHADEDIF
 70
    70
  9
$TILEMODE
 70
     1
  9
$MAXACTVP
 70
    64
  9
$PINSBASE
 10
0.0
 20
0.0
 30
0.0
  9
$PLIMCHECK
 70
     0
  9
$PEXTMIN
 10
0.0
 20
0.0
 30
0.0
  9
$PEXTMAX
 10
0.0
 20
0.0
 30
0.0
  9
$PLIMMIN
 10
0.0
 20
0.0
  9
$PLIMMAX
 10
12.0
 20
9.0
  9
$UNITMODE
 70
     0
  9
$VISRETAIN
 70
     1
  9
$PLINEGEN
 70
     0
  9
$PSLTSCALE
 70
     1
  9
$TREEDEPTH
 70
  3020
  9
$CMLSTYLE
  2
Standard
  9
$CMLJUST
 70
     0
  9
$CMLSCALE
 40
20.0
  9
$PROXYGRAPHICS
 70
     1
  9
$MEASUREMENT
 70
     1
  9
$CELWEIGHT
370
     5
  9
$ENDCAPS
280
     0
  9
$JOINSTYLE
280
     0
  9
$LWDISPLAY
290
     0
  9
$INSUNITS
 70
     4
  9
$HYPERLINKBASE
  1

  9
$STYLESHEET
  1

  9
$XEDIT
290
     1
  9
$CEPSNTYPE
380
     0
  9
$PSTYLEMODE
290
     1
  9
$FINGERPRINTGUID
  2
{99D701DE-15BE-41AC-AF27-FA7FFA4958C5}
  9
$VERSIONGUID
  2
{6651F923-2A6C-4561-A767-1AC090A652D0}
  9
$EXTNAMES
290
     1
  9
$PSVPSCALE
 40
0.0
  9
$OLESTARTUP
290
     0
  9
$SORTENTS
280
   127
  9
$INDEXCTL
280
     0
  9
$HIDETEXT
280
     1
  9
$XCLIPFRAME
280
     2
  9
$HALOGAP
280
     0
  9
$OBSCOLOR
 70
   257
  9
$OBSLTYPE
280
     0
  9
$INTERSECTIONDISPLAY
280
     0
  9
$INTERSECTIONCOLOR
 70
   257
  9
$DIMASSOC
280
     2
  9
$PROJECTNAME
  1

  9
$CAMERADISPLAY
290
     0
  9
$LENSLENGTH
 40
50.0
  9
$CAMERAHEIGHT
 40
0.0
  9
$STEPSPERSEC
 40
2.0
  9
$STEPSIZE
 40
6.0
  9
$3DDWFPREC
 40
2.0
  9
$PSOLWIDTH
 40
5.0
  9
$PSOLHEIGHT
 40
80.0
  9
$LOFTANG1
 40
1.570796326794896
  9
$LOFTANG2
 40
1.570796326794896
  9
$LOFTMAG1
 40
0.0
  9
$LOFTMAG2
 40
0.0
  9
$LOFTPARAM
 70
     7
  9
$LOFTNORMALS
280
     1
  9
$LATITUDE
 40
37.795
  9
$LONGITUDE
 40
-122.394
  9
$NORTHDIRECTION
 40
0.0
  9
$TIMEZONE
 70
 -8000
  9
$LIGHTGLYPHDISPLAY
280
     1
  9
$TILEMODELIGHTSYNCH
280
     1
  9
$CMATERIAL
347
EC
  9
$SOLIDHIST
280
     0
  9
$SHOWHIST
280
     1
  9
$DWFFRAME
280
     2
  9
$DGNFRAME
280
     0
  9
$REALWORLDSCALE
290
     1
  9
$INTERFERECOLOR
 62
     1
  9
$INTERFEREOBJVS
345
F9
  9
$INTERFEREVPVS
346
F6
  9
$CSHADOW
280
     0
  9
$SHADOWPLANELOCATION
 40
0.0
  0
ENDSEC
  0
SECTION
  2
CLASSES
  0
CLASS
  1
ACDBDICTIONARYWDFLT
  2
AcDbDictionaryWithDefault
  3
ObjectDBX Classes
 90
        0
 91
        1
280
     0
281
     0
  0
CLASS
  1
DICTIONARYVAR
  2
AcDbDictionaryVar
  3
ObjectDBX Classes
 90
        0
 91
        9
280
     0
281
     0
  0
CLASS
  1
TABLESTYLE
  2
AcDbTableStyle
  3
ObjectDBX Classes
 90
     4095
 91
        1
280
     0
281
     0
  0
CLASS
  1
MATERIAL
  2
AcDbMaterial
  3
ObjectDBX Classes
 90
     1153
 91
        3
280
     0
281
     0
  0
CLASS
  1
VISUALSTYLE
  2
AcDbVisualStyle
  3
ObjectDBX Classes
 90
     4095
 91
       24
280
     0
281
     0
  0
CLASS
  1
SCALE
  2
AcDbScale
  3
ObjectDBX Classes
 90
     1153
 91
       17
280
     0
281
     0
  0
CLASS
  1
MLEADERSTYLE
  2
AcDbMLeaderStyle
  3
ACDB_MLEADERSTYLE_CLASS
 90
     4095
 91
        3
280
     0
281
     0
  0
CLASS
  1
CELLSTYLEMAP
  2
AcDbCellStyleMap
  3
ObjectDBX Classes
 90
     1152
 91
        1
280
     0
281
     0
  0
CLASS
  1
EXACXREFPANELOBJECT
  2
ExAcXREFPanelObject
  3
EXAC_ESW
 90
     1025
 91
        0
280
     0
281
     0
  0
CLASS
  1
NPOCOLLECTION
  2
AcDbImpNonPersistentObjectsCollection
  3
ObjectDBX Classes
 90
     1153
 91
        0
280
     0
281
     0
  0
CLASS
  1
LAYER_INDEX
  2
AcDbLayerIndex
  3
ObjectDBX Classes
 90
        0
 91
        0
280
     0
281
     0
  0
CLASS
  1
SPATIAL_INDEX
  2
AcDbSpatialIndex
  3
ObjectDBX Classes
 90
        0
 91
        0
280
     0
281
     0
  0
CLASS
  1
IDBUFFER
  2
AcDbIdBuffer
  3
ObjectDBX Classes
 90
        0
 91
        0
280
     0
281
     0
  0
CLASS
  1
ACDBSECTIONVIEWSTYLE
  2
AcDbSectionViewStyle
  3
ObjectDBX Classes
 90
     1025
 91
        2
280
     0
281
     0
  0
CLASS
  1
ACDBDETAILVIEWSTYLE
  2
AcDbDetailViewStyle
  3
ObjectDBX Classes
 90
     1025
 91
        2
280
     0
281
     0
  0
CLASS
  1
MULTILEADER
  2
AcDbMLeader
  3
ACDB_MLEADER_CLASS
 90
     1025
 91
        0
280
     0
281
     1
  0
CLASS
  1
DIMASSOC
  2
AcDbDimAssoc
  3
"AcDbDimAssoc|Product Desc:     AcDim ARX App For Dimension|Company:          Autodesk, Inc.|WEB Address:      www.autodesk.com"
 90
        0
 91
        3
280
     0
281
     0
  0
CLASS
  1
SORTENTSTABLE
  2
AcDbSortentsTable
  3
ObjectDBX Classes
 90
        0
 91
        2
280
     0
281
     0
  0
CLASS
  1
ACDBASSOCPERSSUBENTMANAGER
  2
AcDbAssocPersSubentManager
  3
ObjectDBX Classes
 90
     1024
 91
        1
280
     0
281
     0
  0
ENDSEC
  0
SECTION
  2
TABLES
  0
TABLE
  2
VPORT
  5
8
330
0
100
AcDbSymbolTable
 70
     1
  0
VPORT
  5
EA
330
8
100
AcDbSymbolTableRecord
100
AcDbViewportTableRecord
  2
*Active
 70
     0
 10
0.0
 20
0.0
 11
1.0
 21
1.0
 12
849.0944041667653
 22
368.7829005135087
 13
0.0
 23
0.0
 14
10.0
 24
10.0
 15
10.0
 25
10.0
 16
0.0
 26
0.0
 36
1.0
 17
0.0
 27
0.0
 37
0.0
 40
1036.004112614419
 41
2.197368421052631
 42
50.0
 43
0.0
 44
0.0
 50
0.0
 51
0.0
 71
     0
 72
  1000
 73
     1
 74
     3
 75
     0
 76
     1
 77
     0
 78
     0
281
     0
 65
     1
110
0.0
120
0.0
130
0.0
111
1.0
121
0.0
131
0.0
112
0.0
122
1.0
132
0.0
 79
     0
146
0.0
348
F5
 60
     3
 61
     5
292
     1
282
     1
141
0.0
142
0.0
 63
   250
421
  3355443
1001
ACAD_NAV_VCDISPLAY
1070
     3
  0
ENDTAB
  0
TABLE
  2
LTYPE
  5
5
330
0
100
AcDbSymbolTable
 70
     7
  0
LTYPE
  5
14
330
5
100
AcDbSymbolTableRecord
100
AcDbLinetypeTableRecord
  2
ByBlock
 70
     0
  3

 72
    65
 73
     0
 40
0.0
  0
LTYPE
  5
15
330
5
100
AcDbSymbolTableRecord
100
AcDbLinetypeTableRecord
  2
ByLayer
 70
     0
  3

 72
    65
 73
     0
 40
0.0
  0
LTYPE
  5
16
330
5
100
AcDbSymbolTableRecord
100
AcDbLinetypeTableRecord
  2
Continuous
 70
     0
  3
Solid line
 72
    65
 73
     0
 40
0.0
  0
LTYPE
  5
2BB
330
5
100
AcDbSymbolTableRecord
100
AcDbLinetypeTableRecord
  2
ACAD_ISO08W100
 70
     0
  3
ISO long-dash short-dash ____ __ ____ __ ____ _
 72
    65
 73
     4
 40
36.0
 49
24.0
 74
     0
 49
-3.0
 74
     0
 49
6.0
 74
     0
 49
-3.0
 74
     0
  0
LTYPE
  5
2BC
330
5
100
AcDbSymbolTableRecord
100
AcDbLinetypeTableRecord
  2
New Line1
 70
     0
  3

 72
    65
 73
     2
 40
1.3
 49
0.6000000000000001
 74
     4
 75
     0
340
0
 46
1.0
 50
0.0
 44
0.0
 45
0.0
 49
-0.7000000000000001
 74
     4
 75
     0
340
0
 46
1.0
 50
0.0
 44
0.0
 45
0.0
  0
LTYPE
  5
6C4
330
5
100
AcDbSymbolTableRecord
100
AcDbLinetypeTableRecord
  2
HIDDENX2
 70
     0
  3
Hidden (2x) ____ ____ ____ ____ ____ ____ ____
 72
    65
 73
     2
 40
19.05
 49
12.7
 74
     0
 49
-6.349999999999997
 74
     0
  0
LTYPE
  5
6C5
330
5
100
AcDbSymbolTableRecord
100
AcDbLinetypeTableRecord
  2
HIDDEN
 70
     0
  3
Hidden __ __ __ __ __ __ __ __ __ __ __ __ __ __
 72
    65
 73
     2
 40
9.524999999999996
 49
6.349999999999997
 74
     0
 49
-3.174999999999998
 74
     0
  0
LTYPE
  5
6C6
330
5
100
AcDbSymbolTableRecord
100
AcDbLinetypeTableRecord
  2
HIDDEN2
 70
     0
  3
Hidden (.5x) _ _ _ _ _ _ _ _ _ _ _ _ _ _ _ _ _
 72
    65
 73
     2
 40
4.762499999999998
 49
3.174999999999998
 74
     0
 49
-1.587499999999999
 74
     0
  0
LTYPE
  5
8F1
330
5
100
AcDbSymbolTableRecord
100
AcDbLinetypeTableRecord
  2
ACAD_ISO04W100
 70
     0
  3
ISO long-dash dot ____ . ____ . ____ . ____ . _
 72
    65
 73
     4
 40
30.5
 49
24.0
 74
     0
 49
-3.0
 74
     0
 49
0.5
 74
     0
 49
-3.0
 74
     0
  0
ENDTAB
  0
TABLE
  2
LAYER
  5
2
102
{ACAD_XDICTIONARY
360
1FF
102
}
330
0
100
AcDbSymbolTable
 70
     5
  0
LAYER
  5
10
102
{ACAD_XDICTIONARY
360
13C
102
}
330
2
100
AcDbSymbolTableRecord
100
AcDbLayerTableRecord
  2
0
 70
     0
 62
     7
  6
Continuous
370
    -3
390
F
347
EE
  0
LAYER
  5
2BD
330
2
100
AcDbSymbolTableRecord
100
AcDbLayerTableRecord
  2
centerline
 70
     0
 62
    10
  6
Continuous
370
    -3
390
F
347
EE
1001
AcAecLayerStandard
1000

1000

1001
AcCmTransparency
1071
        0
  0
LAYER
  5
2BE
330
2
100
AcDbSymbolTableRecord
100
AcDbLayerTableRecord
  2
dimensions
 70
     0
 62
   210
  6
Continuous
370
    -3
390
F
347
EE
1001
AcAecLayerStandard
1000

1000

1001
AcCmTransparency
1071
        0
  0
LAYER
  5
2BF
330
2
100
AcDbSymbolTableRecord
100
AcDbLayerTableRecord
  2
note
 70
     0
 62
     2
  6
Continuous
370
    -3
390
F
347
EE
1001
AcAecLayerStandard
1000

1000

1001
AcCmTransparency
1071
        0
  0
LAYER
  5
2C0
330
2
100
AcDbSymbolTableRecord
100
AcDbLayerTableRecord
  2
Defpoints
 70
     0
 62
     7
  6
Continuous
290
     0
370
    -3
390
F
347
EE
  0
ENDTAB
  0
TABLE
  2
STYLE
  5
3
330
0
100
AcDbSymbolTable
 70
     2
  0
STYLE
  5
11
330
3
100
AcDbSymbolTableRecord
100
AcDbTextStyleTableRecord
  2
Standard
 70
     0
 40
0.0
 41
1.0
 50
0.0
 71
     0
 42
2.5
  3
arial.ttf
  4

1001
ACAD
1000
Arial
1071
       34
  0
STYLE
  5
132
330
3
100
AcDbSymbolTableRecord
100
AcDbTextStyleTableRecord
  2
Annotative
 70
     0
 40
0.0
 41
1.0
 50
0.0
 71
     0
 42
2.5
  3
arial.ttf
  4

1001
AcadAnnotative
1000
AnnotativeData
1002
{
1070
     1
1070
     1
1002
}
1001
ACAD
1000
Arial
1071
       34
  0
ENDTAB
  0
TABLE
  2
VIEW
  5
6
330
0
100
AcDbSymbolTable
 70
     0
  0
ENDTAB
  0
TABLE
  2
UCS
  5
7
330
0
100
AcDbSymbolTable
 70
     0
  0
ENDTAB
  0
TABLE
  2
APPID
  5
9
330
0
100
AcDbSymbolTable
 70
    19
  0
APPID
  5
12
330
9
100
AcDbSymbolTableRecord
100
AcDbRegAppTableRecord
  2
ACAD
 70
     0
  0
APPID
  5
9E
330
9
100
AcDbSymbolTableRecord
100
AcDbRegAppTableRecord
  2
ACAD_PSEXT
 70
     0
  0
APPID
  5
133
330
9
100
AcDbSymbolTableRecord
100
AcDbRegAppTableRecord
  2
AcadAnnoPO
 70
     0
  0
APPID
  5
134
330
9
100
AcDbSymbolTableRecord
100
AcDbRegAppTableRecord
  2
AcadAnnotative
 70
     0
  0
APPID
  5
135
330
9
100
AcDbSymbolTableRecord
100
AcDbRegAppTableRecord
  2
ACAD_DSTYLE_DIMJAG
 70
     0
  0
APPID
  5
136
330
9
100
AcDbSymbolTableRecord
100
AcDbRegAppTableRecord
  2
ACAD_DSTYLE_DIMTALN
 70
     0
  0
APPID
  5
165
330
9
100
AcDbSymbolTableRecord
100
AcDbRegAppTableRecord
  2
ACAD_MLEADERVER
 70
     0
  0
APPID
  5
217
330
9
100
AcDbSymbolTableRecord
100
AcDbRegAppTableRecord
  2
ACAD_NAV_VCDISPLAY
 70
     0
  0
APPID
  5
2C2
330
9
100
AcDbSymbolTableRecord
100
AcDbRegAppTableRecord
  2
AcAecLayerStandard
 70
     0
  0
APPID
  5
2C3
330
9
100
AcDbSymbolTableRecord
100
AcDbRegAppTableRecord
  2
AcCmTransparency
 70
     0
  0
APPID
  5
2C4
330
9
100
AcDbSymbolTableRecord
100
AcDbRegAppTableRecord
  2
ACAD_DSTYLE_DIMBREAK
 70
     0
  0
APPID
  5
2C5
330
9
100
AcDbSymbolTableRecord
100
AcDbRegAppTableRecord
  2
GradientColor1ACI
 70
     0
  0
APPID
  5
2C6
330
9
100
AcDbSymbolTableRecord
100
AcDbRegAppTableRecord
  2
GradientColor2ACI
 70
     0
  0
APPID
  5
69D
330
9
100
AcDbSymbolTableRecord
100
AcDbRegAppTableRecord
  2
ACAD_EXEMPT_FROM_CAD_STANDARDS
 70
     0
  0
APPID
  5
D16
330
9
100
AcDbSymbolTableRecord
100
AcDbRegAppTableRecord
  2
ACAD_DSTYLE_DIMRADIAL_EXTENSION
 70
     0
  0
APPID
  5
1673
330
9
100
AcDbSymbolTableRecord
100
AcDbRegAppTableRecord
  2
ACAD_STEPID
 70
     0
  0
APPID
  5
18AC
330
9
100
AcDbSymbolTableRecord
100
AcDbRegAppTableRecord
  2
GENIUS_GENODEF_13
 70
     0
  0
APPID
  5
18AD
330
9
100
AcDbSymbolTableRecord
100
AcDbRegAppTableRecord
  2
GENIUS_GENFIL_13
 70
     0
  0
APPID
  5
18AE
330
9
100
AcDbSymbolTableRecord
100
AcDbRegAppTableRecord
  2
GENIUS_GENOBJ-N-CHA_13
 70
     0
  0
ENDTAB
  0
TABLE
  2
DIMSTYLE
  5
A
330
0
100
AcDbSymbolTable
 70
     4
100
AcDbDimStyleTable
 71
     3
340
2C1
340
1B0
340
27
  0
DIMSTYLE
105
1B0
330
A
100
AcDbSymbolTableRecord
100
AcDbDimStyleTableRecord
  2
Standard
 70
     0
340
11
  0
DIMSTYLE
105
137
330
A
100
AcDbSymbolTableRecord
100
AcDbDimStyleTableRecord
  2
Annotative
 70
     0
 40
0.0
 41
2.5
 42
0.625
 43
3.75
 44
1.25
 73
     0
 74
     0
 77
     1
 78
     8
140
2.5
141
2.5
143
0.03937007874016
147
0.625
171
     3
172
     1
271
     2
272
     2
274
     3
278
    44
283
     0
284
     8
340
11
1001
AcadAnnotative
1000
AnnotativeData
1002
{
1070
     1
1070
     1
1002
}
1001
ACAD_DSTYLE_DIMJAG
1070
   388
1040
1.5
1001
ACAD_DSTYLE_DIMTALN
1070
   392
1070
     0
  0
DIMSTYLE
105
27
330
A
100
AcDbSymbolTableRecord
100
AcDbDimStyleTableRecord
  2
ISO-25
 70
     0
 41
2.5
 42
0.625
 43
3.75
 44
1.25
 73
     0
 74
     0
 77
     1
 78
     8
140
2.5
141
2.5
143
0.03937007874016
147
0.625
171
     3
172
     1
271
     2
272
     2
274
     3
278
    44
283
     0
284
     8
340
11
  0
DIMSTYLE
105
2C1
102
{ACAD_REACTORS
330
1E72
330
1E8C
330
1EB9
102
}
330
A
100
AcDbSymbolTableRecord
100
AcDbDimStyleTableRecord
  2
dimensions
 70
     0
  3
 mm\X
  4
 "
 41
8.0
 42
2.5
 43
3.75
 44
5.0
 73
     0
 74
     0
 77
     1
 78
     8
140
9.0
141
-0.09
143
0.03937007874016
147
2.5
170
     1
171
     5
172
     1
176
   256
177
   256
178
   256
271
     2
272
     2
273
     7
274
     5
278
    44
283
     0
284
     8
340
11
1001
ACAD_DSTYLE_DIMBREAK
1070
   391
1040
3.75
1001
ACAD_DSTYLE_DIMJAG
1070
   388
1040
2.5
1001
ACAD_DSTYLE_DIMTALN
1070
   392
1070
     0
  0
ENDTAB
  0
TABLE
  2
BLOCK_RECORD
  5
1
330
0
100
AcDbSymbolTable
 70
     5
  0
BLOCK_RECORD
  5
1F
102
{ACAD_XDICTIONARY
360
1CE
102
}
330
1
100
AcDbSymbolTableRecord
100
AcDbBlockTableRecord
  2
*Model_Space
340
22
 70
     0
280
     1
281
     0
  0
BLOCK_RECORD
  5
D2
330
1
100
AcDbSymbolTableRecord
100
AcDbBlockTableRecord
  2
*Paper_Space
340
D3
 70
     0
280
     1
281
     0
  0
BLOCK_RECORD
  5
D6
330
1
100
AcDbSymbolTableRecord
100
AcDbBlockTableRecord
  2
*Paper_Space0
340
D7
 70
     0
280
     1
281
     0
  0
BLOCK_RECORD
  5
18AF
102
{ACAD_XDICTIONARY
360
18D0
102
}
330
1
100
AcDbSymbolTableRecord
100
AcDbBlockTableRecord
  2
A$C725603B4
340
0
 70
     1
280
     1
281
     0
  0
BLOCK_RECORD
  5
1E73
330
1
100
AcDbSymbolTableRecord
100
AcDbBlockTableRecord
  2
*D2
340
0
 70
     0
280
     1
281
     0
  0
BLOCK_RECORD
  5
1E8D
330
1
100
AcDbSymbolTableRecord
100
AcDbBlockTableRecord
  2
*D3
340
0
 70
     0
280
     1
281
     0
  0
BLOCK_RECORD
  5
1EBA
330
1
100
AcDbSymbolTableRecord
100
AcDbBlockTableRecord
  2
*D4
340
0
 70
     0
280
     1
281
     0
  0
ENDTAB
  0
ENDSEC
  0
SECTION
  2
BLOCKS
  0
BLOCK
  5
20
330
1F
100
AcDbEntity
  8
0
100
AcDbBlockBegin
  2
*Model_Space
 70
     0
 10
0.0
 20
0.0
 30
0.0
  3
*Model_Space
  1

  0
ENDBLK
  5
21
330
1F
100
AcDbEntity
  8
0
100
AcDbBlockEnd
  0
BLOCK
  5
D4
330
D2
100
AcDbEntity
 67
     1
  8
0
100
AcDbBlockBegin
  2
*Paper_Space
 70
     0
 10
0.0
 20
0.0
 30
0.0
  3
*Paper_Space
  1

  0
ENDBLK
  5
D5
330
D2
100
AcDbEntity
 67
     1
  8
0
100
AcDbBlockEnd
  0
BLOCK
  5
D8
330
D6
100
AcDbEntity
 67
     1
  8
0
100
AcDbBlockBegin
  2
*Paper_Space0
 70
     0
 10
0.0
 20
0.0
 30
0.0
  3
*Paper_Space0
  1

  0
ENDBLK
  5
D9
330
D6
100
AcDbEntity
 67
     1
  8
0
100
AcDbBlockEnd
  0
BLOCK
  5
18D2
330
18AF
100
AcDbEntity
  8
0
100
AcDbBlockBegin
  2
A$C725603B4
 70
     0
 10
0.0
 20
0.0
 30
0.0
  3
A$C725603B4
  1

  0
LINE
  5
18B0
330
18AF
100
AcDbEntity
  8
0
  6
ByBlock
370
    25
100
AcDbLine
 10
59.99987988437351
 20
455.9998483248055
 30
0.0
 11
735.9998798843735
 21
455.9998483248055
 31
0.0
  0
LINE
  5
18B1
330
18AF
100
AcDbEntity
  8
0
  6
ByBlock
370
    25
100
AcDbLine
 10
-0.0001201156264869
 20
395.9998483248055
 30
0.0
 11
59.99987988437351
 21
455.9998483248055
 31
0.0
1001
GENIUS_GENFIL_13
1070
     0
1040
60.0
1040
60.0
1040
0.0
1040
0.0
1002
{
1002
}
1001
GENIUS_GENODEF_13
1002
{
1000
HIER
1070
     0
1002
}
1002
{
1000
MANEDIT
1070
     0
1002
}
1002
{
1000
NOSEL
1070
     0
1002
}
1002
{
1000
BEHIND
1070
     0
1002
}
1002
{
1000
OTHER
1070
     0
1002
}
1002
{
1000
REACTOR
1002
}
1001
GENIUS_GENOBJ-N-CHA_13
1002
{
1000
OWNER
1000
GEN
1002
}
  0
LINE
  5
18B2
330
18AF
100
AcDbEntity
  8
0
  6
ByBlock
370
    25
100
AcDbLine
 10
102.9998798843735
 20
427.9998483248054
 30
0.0
 11
307.9998798843735
 21
427.9998483248054
 31
0.0
  0
ARC
  5
18B3
330
18AF
100
AcDbEntity
  8
0
  6
ByBlock
370
    25
100
AcDbCircle
 10
307.9998798843735
 20
352.9998483248055
 30
0.0
 40
75.0
100
AcDbArc
 50
0.0
 51
90.0
  0
LINE
  5
18B4
330
18AF
100
AcDbEntity
  8
0
  6
ByBlock
370
    25
100
AcDbLine
 10
487.9998798843735
 20
427.9998483248054
 30
0.0
 11
692.9998798843735
 21
427.9998483248054
 31
0.0
  0
LINE
  5
18B5
330
18AF
100
AcDbEntity
  8
0
  6
ByBlock
370
    25
100
AcDbLine
 10
59.99987988437351
 20
-0.0001516751945019
 30
0.0
 11
735.9998798843735
 21
-0.0001516751945019
 31
0.0
  0
LINE
  5
18B6
330
18AF
100
AcDbEntity
  8
0
  6
ByBlock
370
    25
100
AcDbLine
 10
102.9998798843735
 20
27.9998483248055
 30
0.0
 11
307.9998798843735
 21
27.9998483248055
 31
0.0
  0
ARC
  5
18B7
330
18AF
100
AcDbEntity
  8
0
  6
ByBlock
370
    25
100
AcDbCircle
 10
102.9998798843735
 20
102.9998483248055
 30
0.0
 40
75.0
100
AcDbArc
 50
180.0
 51
270.0
  0
LINE
  5
18B8
330
18AF
100
AcDbEntity
  8
0
  6
ByBlock
370
    25
100
AcDbLine
 10
487.9998798843735
 20
27.9998483248055
 30
0.0
 11
692.9998798843735
 21
27.9998483248055
 31
0.0
  0
ARC
  5
18B9
330
18AF
100
AcDbEntity
  8
0
  6
ByBlock
370
    25
100
AcDbCircle
 10
487.9998798843735
 20
102.9998483248055
 30
0.0
 40
75.0
100
AcDbArc
 50
180.0
 51
270.0
  0
LINE
  5
18BA
330
18AF
100
AcDbEntity
  8
0
  6
ByBlock
370
    25
100
AcDbLine
 10
-0.0001201156264869
 20
395.9998483248055
 30
0.0
 11
-0.0001201156264869
 21
59.99984832480549
 31
0.0
  0
LINE
  5
18BB
330
18AF
100
AcDbEntity
  8
0
  6
ByBlock
370
    25
100
AcDbLine
 10
59.99987988437351
 20
-0.0001516751945019
 30
0.0
 11
-0.0001201156264869
 21
59.99984832480549
 31
0.0
1001
GENIUS_GENFIL_13
1070
     0
1040
60.0
1040
60.0
1040
0.0
1040
0.0
1002
{
1002
}
1001
GENIUS_GENODEF_13
1002
{
1000
HIER
1070
     0
1002
}
1002
{
1000
MANEDIT
1070
     0
1002
}
1002
{
1000
NOSEL
1070
     0
1002
}
1002
{
1000
BEHIND
1070
     0
1002
}
1002
{
1000
OTHER
1070
     0
1002
}
1002
{
1000
REACTOR
1002
}
1001
GENIUS_GENOBJ-N-CHA_13
1002
{
1000
OWNER
1000
GEN
1002
}
  0
LINE
  5
18BC
330
18AF
100
AcDbEntity
  8
0
  6
ByBlock
370
    25
100
AcDbLine
 10
27.99987988437351
 20
352.9998483248055
 30
0.0
 11
27.99987988437351
 21
102.9998483248055
 31
0.0
  0
ARC
  5
18BD
330
18AF
100
AcDbEntity
  8
0
  6
ByBlock
370
    25
100
AcDbCircle
 10
102.9998798843735
 20
352.9998483248055
 30
0.0
 40
75.0
100
AcDbArc
 50
90.0
 51
180.0
  0
LINE
  5
18BE
330
18AF
100
AcDbEntity
  8
0
  6
ByBlock
370
    25
100
AcDbLine
 10
795.9998798843735
 20
395.9998483248055
 30
0.0
 11
795.9998798843735
 21
59.99984832480549
 31
0.0
  0
LINE
  5
18BF
330
18AF
100
AcDbEntity
  8
0
  6
ByBlock
370
    25
100
AcDbLine
 10
735.9998798843735
 20
455.9998483248055
 30
0.0
 11
795.9998798843735
 21
395.9998483248055
 31
0.0
1001
GENIUS_GENFIL_13
1070
     0
1040
60.0
1040
60.0
1040
0.0
1040
0.0
1002
{
1002
}
1001
GENIUS_GENODEF_13
1002
{
1000
HIER
1070
     0
1002
}
1002
{
1000
MANEDIT
1070
     0
1002
}
1002
{
1000
NOSEL
1070
     0
1002
}
1002
{
1000
BEHIND
1070
     0
1002
}
1002
{
1000
OTHER
1070
     0
1002
}
1002
{
1000
REACTOR
1002
}
1001
GENIUS_GENOBJ-N-CHA_13
1002
{
1000
OWNER
1000
GEN
1002
}
  0
LINE
  5
18C0
330
18AF
100
AcDbEntity
  8
0
  6
ByBlock
370
    25
100
AcDbLine
 10
735.9998798843735
 20
-0.0001516751945019
 30
0.0
 11
795.9998798843735
 21
59.99984832480549
 31
0.0
1001
GENIUS_GENFIL_13
1070
     0
1040
60.0
1040
60.0
1040
0.0
1040
0.0
1002
{
1002
}
1001
GENIUS_GENODEF_13
1002
{
1000
HIER
1070
     0
1002
}
1002
{
1000
MANEDIT
1070
     0
1002
}
1002
{
1000
NOSEL
1070
     0
1002
}
1002
{
1000
BEHIND
1070
     0
1002
}
1002
{
1000
OTHER
1070
     0
1002
}
1002
{
1000
REACTOR
1002
}
1001
GENIUS_GENOBJ-N-CHA_13
1002
{
1000
OWNER
1000
GEN
1002
}
  0
LINE
  5
18C1
330
18AF
100
AcDbEntity
  8
0
  6
ByBlock
370
    25
100
AcDbLine
 10
767.9998798843735
 20
352.9998483248055
 30
0.0
 11
767.9998798843735
 21
102.9998483248055
 31
0.0
  0
ARC
  5
18C2
330
18AF
100
AcDbEntity
  8
0
  6
ByBlock
370
    25
100
AcDbCircle
 10
692.9998798843735
 20
102.9998483248055
 30
0.0
 40
75.0
100
AcDbArc
 50
270.0
 51
0.0
  0
ARC
  5
18C3
330
18AF
100
AcDbEntity
  8
0
  6
ByBlock
370
    25
100
AcDbCircle
 10
692.9998798843735
 20
352.9998483248055
 30
0.0
 40
75.0
100
AcDbArc
 50
0.0
 51
90.0
  0
LINE
  5
18C4
330
18AF
100
AcDbEntity
  8
0
  6
ByBlock
370
    25
100
AcDbLine
 10
412.9998798843734
 20
352.9998483248055
 30
0.0
 11
412.999879884359
 21
102.9998483248055
 31
0.0
  0
ARC
  5
18C5
330
18AF
100
AcDbEntity
  8
0
  6
ByBlock
370
    25
100
AcDbCircle
 10
487.9998798843735
 20
352.9998483248055
 30
0.0
 40
75.0
100
AcDbArc
 50
90.0
 51
180.0
  0
LINE
  5
18C6
330
18AF
100
AcDbEntity
  8
0
  6
ByBlock
370
    25
100
AcDbLine
 10
382.9998798843735
 20
352.9998483248055
 30
0.0
 11
382.9998798843735
 21
102.9998483248055
 31
0.0
  0
ARC
  5
18C7
330
18AF
100
AcDbEntity
  8
0
  6
ByBlock
370
    25
100
AcDbCircle
 10
307.9998798843735
 20
102.9998483248055
 30
0.0
 40
75.0
100
AcDbArc
 50
270.0
 51
0.0
  0
ARC
  5
18C8
330
18AF
100
AcDbEntity
  8
0
  6
ByBlock
370
    25
100
AcDbCircle
 10
397.9998798843735
 20
97.85278950125212
 30
0.0
 40
15.14705882352845
100
AcDbArc
 50
3.273154083686361
 51
176.7268459163136
  0
ARC
  5
18C9
330
18AF
100
AcDbEntity
  8
0
  6
ByBlock
370
    25
100
AcDbCircle
 10
397.9998798843735
 20
360.1469071483298
 30
0.0
 40
15.14705882352845
100
AcDbArc
 50
183.2731540836863
 51
356.7268459163137
  0
CIRCLE
  5
18CA
330
18AF
100
AcDbEntity
  8
0
  6
ByBlock
370
    25
100
AcDbCircle
 10
590.4998798843735
 20
272.9998483248055
 30
0.0
 40
45.0
  0
CIRCLE
  5
18CB
330
18AF
100
AcDbEntity
  8
0
  6
ByBlock
370
    25
100
AcDbCircle
 10
590.4998798843735
 20
272.9998483248055
 30
0.0
 40
58.0
  0
CIRCLE
  5
18CC
330
18AF
100
AcDbEntity
  8
0
  6
ByBlock
370
    25
100
AcDbCircle
 10
590.4998798843735
 20
272.9998483248055
 30
0.0
 40
55.0
  0
CIRCLE
  5
18CD
330
18AF
100
AcDbEntity
  8
0
  6
ByBlock
370
    25
100
AcDbCircle
 10
205.4998798843735
 20
272.9998483248055
 30
0.0
 40
45.0
  0
CIRCLE
  5
18CE
330
18AF
100
AcDbEntity
  8
0
  6
ByBlock
370
    25
100
AcDbCircle
 10
205.4998798843735
 20
272.9998483248055
 30
0.0
 40
58.0
  0
CIRCLE
  5
18CF
330
18AF
100
AcDbEntity
  8
0
  6
ByBlock
370
    25
100
AcDbCircle
 10
205.4998798843735
 20
272.9998483248055
 30
0.0
 40
55.0
  0
ENDBLK
  5
18D3
330
18AF
100
AcDbEntity
  8
0
100
AcDbBlockEnd
  0
BLOCK
  5
1E74
330
1E73
100
AcDbEntity
  8
0
370
     5
100
AcDbBlockBegin
  2
*D2
 70
     1
 10
0.0
 20
0.0
 30
0.0
  3
*D2
  1

  0
LINE
  5
1E81
330
1E73
100
AcDbEntity
  8
dimensions
440
 16777216
370
    -2
100
AcDbLine
 10
224.8741143057323
 20
718.4432008069357
 30
0.0
 11
122.7173105677658
 21
718.4432008069357
 31
0.0
  0
LINE
  5
1E82
330
1E73
100
AcDbEntity
  8
dimensions
440
 16777216
370
    -2
100
AcDbLine
 10
224.8741143057323
 20
172.4432008069358
 30
0.0
 11
122.7173105677657
 21
172.4432008069358
 31
0.0
  0
LINE
  5
1E83
330
1E73
100
AcDbEntity
  8
dimensions
440
 16777216
370
    -2
100
AcDbLine
 10
127.7173105677658
 20
710.4432008069358
 30
0.0
 11
127.7173105677656
 21
180.4432008069358
 31
0.0
  0
SOLID
  5
1E84
330
1E73
100
AcDbEntity
  8
dimensions
440
 16777216
370
     5
100
AcDbTrace
 10
126.3839772344324
 20
710.4432008069358
 30
0.0
 11
129.0506439010991
 21
710.4432008069358
 31
0.0
 12
127.7173105677658
 22
718.4432008069357
 32
0.0
 13
127.7173105677658
 23
718.4432008069357
 33
0.0
  0
SOLID
  5
1E85
330
1E73
100
AcDbEntity
  8
dimensions
440
 16777216
370
     5
100
AcDbTrace
 10
126.3839772344323
 20
180.4432008069358
 30
0.0
 11
129.050643901099
 21
180.4432008069358
 31
0.0
 12
127.7173105677656
 22
172.4432008069358
 32
0.0
 13
127.7173105677656
 23
172.4432008069358
 33
0.0
  0
MTEXT
  5
1E86
330
1E73
100
AcDbEntity
  8
dimensions
440
 16777216
370
     5
100
AcDbMText
 10
120.6221536782704
 20
445.4432008069358
 30
0.0
 40
9.0
 41
0.0
 46
0.0
 71
     5
 72
     1
  1
546 mm
 11
0.0000000000000001
 21
1.0
 31
0.0
 73
     1
 44
1.0
  0
MTEXT
  5
1E87
330
1E73
100
AcDbEntity
  8
dimensions
440
 16777216
370
     5
100
AcDbMText
 10
136.0433678665378
 20
445.4432008069358
 30
0.0
 40
9.0
 41
0.0
 46
0.0
 71
     5
 72
     1
  1
[21 1/2 "]
 11
0.0000000000000001
 21
1.0
 31
0.0
 73
     1
 44
1.0
  0
POINT
  5
1E88
330
1E73
100
AcDbEntity
  8
Defpoints
 62
     0
440
 16777216
370
     5
100
AcDbPoint
 10
227.3741143057323
 20
718.4432008069357
 30
0.0
  0
POINT
  5
1E89
330
1E73
100
AcDbEntity
  8
Defpoints
 62
     0
440
 16777216
370
     5
100
AcDbPoint
 10
227.3741143057323
 20
172.4432008069358
 30
0.0
  0
POINT
  5
1E8A
330
1E73
100
AcDbEntity
  8
Defpoints
 62
     0
440
 16777216
370
     5
100
AcDbPoint
 10
127.7173105677656
 20
172.4432008069358
 30
0.0
  0
ENDBLK
  5
1E75
330
1E73
100
AcDbEntity
  8
0
370
     5
100
AcDbBlockEnd
  0
BLOCK
  5
1E8E
330
1E8D
100
AcDbEntity
  8
0
370
     5
100
AcDbBlockBegin
  2
*D3
 70
     1
 10
0.0
 20
0.0
 30
0.0
  3
*D3
  1

  0
LINE
  5
1E9B
330
1E8D
100
AcDbEntity
  8
dimensions
440
 16777216
370
    -2
100
AcDbLine
 10
199.3741143057323
 20
197.9432008069358
 30
0.0
 11
199.3741143057323
 21
104.8770199057335
 31
0.0
  0
LINE
  5
1E9C
330
1E8D
100
AcDbEntity
  8
dimensions
440
 16777216
370
    -2
100
AcDbLine
 10
1027.374114305732
 20
197.9432008069358
 30
0.0
 11
1027.374114305732
 21
104.8770199057335
 31
0.0
  0
LINE
  5
1E9D
330
1E8D
100
AcDbEntity
  8
dimensions
440
 16777216
370
    -2
100
AcDbLine
 10
207.3741143057323
 20
109.8770199057335
 30
0.0
 11
1019.374114305732
 21
109.8770199057335
 31
0.0
  0
SOLID
  5
1E9E
330
1E8D
100
AcDbEntity
  8
dimensions
440
 16777216
370
     5
100
AcDbTrace
 10
207.3741143057323
 20
111.2103532390668
 30
0.0
 11
207.3741143057323
 21
108.5436865724002
 31
0.0
 12
199.3741143057323
 22
109.8770199057335
 32
0.0
 13
199.3741143057323
 23
109.8770199057335
 33
0.0
  0
SOLID
  5
1E9F
330
1E8D
100
AcDbEntity
  8
dimensions
440
 16777216
370
     5
100
AcDbTrace
 10
1019.374114305732
 20
111.2103532390668
 30
0.0
 11
1019.374114305732
 21
108.5436865724002
 31
0.0
 12
1027.374114305732
 22
109.8770199057335
 32
0.0
 13
1027.374114305732
 23
109.8770199057335
 33
0.0
  0
MTEXT
  5
1EA0
330
1E8D
100
AcDbEntity
  8
dimensions
440
 16777216
370
     5
100
AcDbMText
 10
613.3741143057322
 20
116.9721767952287
 30
0.0
 40
9.0
 41
0.0
 46
0.0
 71
     5
 72
     1
  1
828 mm
 73
     1
 44
1.0
  0
MTEXT
  5
1EA1
330
1E8D
100
AcDbEntity
  8
dimensions
440
 16777216
370
     5
100
AcDbMText
 10
613.3741143057322
 20
101.5509626069613
 30
0.0
 40
9.0
 41
0.0
 46
0.0
 71
     5
 72
     1
  1
[32 19/32 "]
 73
     1
 44
1.0
  0
POINT
  5
1EA2
330
1E8D
100
AcDbEntity
  8
Defpoints
 62
     0
440
 16777216
370
     5
100
AcDbPoint
 10
199.3741143057323
 20
200.4432008069358
 30
0.0
  0
POINT
  5
1EA3
330
1E8D
100
AcDbEntity
  8
Defpoints
 62
     0
440
 16777216
370
     5
100
AcDbPoint
 10
1027.374114305732
 20
200.4432008069358
 30
0.0
  0
POINT
  5
1EA4
330
1E8D
100
AcDbEntity
  8
Defpoints
 62
     0
440
 16777216
370
     5
100
AcDbPoint
 10
1027.374114305732
 20
109.8770199057335
 30
0.0
  0
ENDBLK
  5
1E8F
330
1E8D
100
AcDbEntity
  8
0
370
     5
100
AcDbBlockEnd
  0
BLOCK
  5
1EBB
330
1EBA
100
AcDbEntity
  8
0
370
     5
100
AcDbBlockBegin
  2
*D4
 70
     1
 10
0.0
 20
0.0
 30
0.0
  3
*D4
  1

  0
LINE
  5
1EC3
330
1EBA
100
AcDbEntity
  8
dimensions
440
 16777216
370
    -2
100
AcDbLine
 10
962.2168077661534
 20
650.3612720877875
 30
0.0
 11
1012.971021984239
 21
705.1103103238833
 31
0.0
  0
MTEXT
  5
1EC4
330
1EBA
100
AcDbEntity
  8
dimensions
440
 16777216
370
     5
100
AcDbMText
 10
984.8745333394948
 20
674.8023693024459
 30
0.0
 40
9.0
 41
0.0
 46
0.0
 71
     5
 72
     1
  1
R28 mm\P [R1 3/32 "]
 11
0.6798453839253876
 21
0.7333554758473836
 31
0.0
 73
     1
 44
1.0
  0
SOLID
  5
1EC5
330
1EBA
100
AcDbEntity
  8
dimensions
440
 16777216
370
     5
100
AcDbTrace
 10
1011.993214683109
 20
706.0167708357839
 30
0.0
 11
1013.948829285369
 21
704.2038498119828
 31
0.0
 12
1018.409785055642
 22
710.9771541306624
 32
0.0
 13
1018.409785055642
 23
710.9771541306624
 33
0.0
  0
POINT
  5
1EC6
330
1EBA
100
AcDbEntity
  8
Defpoints
 62
     0
440
 16777216
370
     5
100
AcDbPoint
 10
1018.409785055642
 20
710.9771541306624
 30
0.0
  0
POINT
  5
1EC7
330
1EBA
100
AcDbEntity
  8
Defpoints
 62
     0
440
 16777216
370
     5
100
AcDbPoint
 10
999.3741143057313
 20
690.4432008069356
 30
0.0
  0
ENDBLK
  5
1EBC
330
1EBA
100
AcDbEntity
  8
0
370
     5
100
AcDbBlockEnd
  0
ENDSEC
  0
SECTION
  2
ENTITIES
  0
LINE
  5
40A
330
1F
100
AcDbEntity
  8
0
  6
ByBlock
370
    40
100
AcDbLine
 10
1165.734066283805
 20
284.7227169846494
 30
0.0
 11
1155.232809776215
 21
284.7227169846494
 31
0.0
  0
LINE
  5
40B
330
1F
100
AcDbEntity
  8
0
  6
ByBlock
370
    40
100
AcDbLine
 10
1155.232809776215
 20
284.7227169846494
 30
0.0
 11
1155.232809776215
 21
283.0425290707044
 31
0.0
  0
LINE
  5
40C
330
1F
100
AcDbEntity
  8
0
  6
ByBlock
370
    40
100
AcDbLine
 10
1155.232809776215
 20
283.0425290707044
 30
0.0
 11
1156.123101224072
 21
283.0346576150919
 31
0.0
  0
SPLINE
  5
40D
330
1F
100
AcDbEntity
  8
0
  6
ByBlock
370
    40
100
AcDbSpline
210
0.0
220
0.0
230
1.0
 70
  1064
 71
     3
 72
    16
 73
    12
 74
    10
 42
0.000000001
 43
0.0000000001
 44
0.00001
 40
0.0
 40
0.0
 40
0.0
 40
0.0
 40
0.6984490405482556
 40
1.101524395308146
 40
1.435308117826892
 40
1.757414530803954
 40
2.12615898618431
 40
2.560650883203094
 40
2.953942983776479
 40
3.387252736814879
 40
3.558366943523666
 40
3.558366943523666
 40
3.558366943523666
 40
3.558366943523666
 10
1156.123101224072
 20
283.0346576150973
 30
0.0
 10
1156.356303061775
 20
283.0218360976696
 30
0.0
 10
1156.724085818066
 20
283.0016152749445
 30
0.0
 10
1157.188873296264
 20
282.8801687588997
 30
0.0
 10
1157.518453343113
 20
282.751201684916
 30
0.0
 10
1157.811161140514
 20
282.5699180558088
 30
0.0
 10
1158.063380506592
 20
282.2802012428456
 30
0.0
 10
1158.196240121034
 20
281.899897593633
 30
0.0
 10
1158.321599501396
 20
281.4973105447108
 30
0.0
 10
1158.335205837696
 20
281.1625136871242
 30
0.0
 10
1158.346882208402
 20
280.9615329173866
 30
0.0
 10
1158.350187823406
 20
280.9046346683633
 30
0.0
 11
1156.123101224072
 21
283.0346576150973
 31
0.0
 11
1156.818250998585
 21
282.9668501432584
 31
0.0
 11
1157.208534345327
 21
282.8661096306987
 31
0.0
 11
1157.517746307911
 21
282.7404134270453
 31
0.0
 11
1157.788595345879
 21
282.5660765694595
 31
0.0
 11
1158.029500932909
 21
282.2869046304834
 31
0.0
 11
1158.198162003394
 21
281.8864840367601
 31
0.0
 11
1158.301572152514
 21
281.5070304593194
 31
0.0
 11
1158.340546168003
 21
281.0754770232366
 31
0.0
 11
1158.350187823406
 21
280.9046346683633
 31
0.0
  0
LINE
  5
40E
330
1F
100
AcDbEntity
  8
0
  6
ByBlock
370
    40
100
AcDbLine
 10
1158.350187823395
 20
280.9046346683619
 30
0.0
 11
1158.350187823395
 21
265.6557190661201
 31
0.0
  0
LINE
  5
40F
330
1F
100
AcDbEntity
  8
0
  6
ByBlock
370
    40
100
AcDbLine
 10
1158.350187823395
 20
265.6557190661201
 30
0.0
 11
1162.386442789728
 21
265.057559036038
 31
0.0
  0
LINE
  5
410
330
1F
100
AcDbEntity
  8
0
  6
ByBlock
370
    40
100
AcDbLine
 10
1162.386442789728
 20
265.057559036038
 30
0.0
 11
1162.386442789728
 21
266.2692690273447
 31
0.0
  0
LINE
  5
411
330
1F
100
AcDbEntity
  8
0
  6
ByBlock
370
    40
100
AcDbLine
 10
1162.386442789728
 20
266.2692690273447
 30
0.0
 11
1165.560176991718
 21
270.2897473459036
 31
0.0
  0
LINE
  5
412
330
1F
100
AcDbEntity
  8
0
  6
ByBlock
370
    40
100
AcDbLine
 10
1165.560176991718
 20
270.2897473459036
 30
0.0
 11
1169.434968179608
 21
264.2783555270051
 31
0.0
  0
LINE
  5
413
330
1F
100
AcDbEntity
  8
0
  6
ByBlock
370
    40
100
AcDbLine
 10
1170.590281384726
 20
262.4859904645596
 30
0.0
 11
1171.725927260495
 21
260.7241375037717
 31
0.0
  0
LINE
  5
414
330
1F
100
AcDbEntity
  8
0
  6
ByBlock
370
    40
100
AcDbLine
 10
1169.434968179608
 20
264.2783555270051
 30
0.0
 11
1174.274128604408
 21
264.0028545807754
 31
0.0
  0
LINE
  5
415
330
1F
100
AcDbEntity
  8
0
  6
ByBlock
370
    40
100
AcDbLine
 10
1176.48872368302
 20
260.5234238318983
 30
0.0
 11
1175.388581313747
 21
262.251897458867
 31
0.0
  0
LINE
  5
416
330
1F
100
AcDbEntity
  8
0
  6
ByBlock
370
    40
100
AcDbLine
 10
1174.274128604408
 20
264.0028545807754
 30
0.0
 11
1168.313955991966
 21
273.3670982099818
 31
0.0
  0
LINE
  5
417
330
1F
100
AcDbEntity
  8
0
  6
ByBlock
370
    40
100
AcDbLine
 10
1168.313955991966
 20
273.3670982099818
 30
0.0
 11
1168.313955991966
 21
273.4691800468184
 31
0.0
  0
LINE
  5
418
330
1F
100
AcDbEntity
  8
0
  6
ByBlock
370
    40
100
AcDbLine
 10
1168.313955991966
 20
273.4691800468184
 30
0.0
 11
1174.210982551424
 21
280.8891035452002
 31
0.0
  0
SPLINE
  5
419
330
1F
100
AcDbEntity
  8
0
  6
ByBlock
370
    40
100
AcDbSpline
210
0.0
220
0.0
230
1.0
 70
  1064
 71
     3
 72
    13
 73
     9
 74
     7
 42
0.000000001
 43
0.0000000001
 44
0.00001
 40
0.0
 40
0.0
 40
0.0
 40
0.0
 40
0.5320116973352328
 40
1.739439817880094
 40
2.602657132305813
 40
3.35779930198543
 40
4.169179111383408
 40
5.071984388788778
 40
5.071984388788778
 40
5.071984388788778
 40
5.071984388788778
 10
1174.210982551435
 20
280.8891035452029
 30
0.0
 10
1174.32619529253
 20
281.0243539507142
 30
0.0
 10
1174.702889320861
 20
281.4665621613778
 30
0.0
 10
1175.402845311257
 20
281.9881927365983
 30
0.0
 10
1176.181383033875
 20
282.5265131109233
 30
0.0
 10
1176.953954209918
 20
282.7927878710221
 30
0.0
 10
1177.762844568392
 20
282.9515371233086
 30
0.0
 10
1178.332885498073
 20
282.9971968736883
 30
0.0
 10
1178.633107430708
 20
283.0212443723658
 30
0.0
 11
1174.210982551435
 21
280.8891035452029
 31
0.0
 11
1174.565143639915
 21
281.2861002322268
 31
0.0
 11
1175.500044718754
 21
282.050196194177
 31
0.0
 11
1176.230705660677
 21
282.509846843988
 31
0.0
 11
1176.939571029491
 21
282.7701343491144
 31
0.0
 11
1177.734803902986
 21
282.9311991559839
 31
0.0
 11
1178.633107430708
 21
283.0212443723658
 31
0.0
  0
LINE
  5
41A
330
1F
100
AcDbEntity
  8
0
  6
ByBlock
370
    40
100
AcDbLine
 10
1178.633107430708
 20
283.0212443723617
 30
0.0
 11
1179.867443018777
 21
283.0212443723617
 31
0.0
  0
LINE
  5
41B
330
1F
100
AcDbEntity
  8
0
  6
ByBlock
370
    40
100
AcDbLine
 10
1179.867443018777
 20
283.0212443723617
 30
0.0
 11
1179.867443018777
 21
284.7227169846494
 31
0.0
  0
LINE
  5
41C
330
1F
100
AcDbEntity
  8
0
  6
ByBlock
370
    40
100
AcDbLine
 10
1179.867443018777
 20
284.7227169846494
 30
0.0
 11
1168.643333952123
 21
284.7227169846494
 31
0.0
  0
LINE
  5
41D
330
1F
100
AcDbEntity
  8
0
  6
ByBlock
370
    40
100
AcDbLine
 10
1168.643333952123
 20
284.7227169846494
 30
0.0
 11
1168.643333952123
 21
283.0287275498855
 31
0.0
  0
LINE
  5
41E
330
1F
100
AcDbEntity
  8
0
  6
ByBlock
370
    40
100
AcDbLine
 10
1168.643333952123
 20
283.0287275498855
 30
0.0
 11
1170.095557372432
 21
283.0287275498855
 31
0.0
  0
LINE
  5
41F
330
1F
100
AcDbEntity
  8
0
  6
ByBlock
370
    40
100
AcDbLine
 10
1165.734066283805
 20
284.7227169846494
 30
0.0
 11
1165.734066283805
 21
283.0226562926491
 31
0.0
  0
LINE
  5
420
330
1F
100
AcDbEntity
  8
0
  6
ByBlock
370
    40
100
AcDbLine
 10
1165.734066283805
 20
283.0226562926491
 30
0.0
 11
1164.5610434762
 21
283.0226562926491
 31
0.0
  0
SPLINE
  5
421
330
1F
100
AcDbEntity
  8
0
  6
ByBlock
370
    40
100
AcDbSpline
210
0.0
220
0.0
230
1.0
 70
  1064
 71
     3
 72
    16
 73
    12
 74
    10
 42
0.000000001
 43
0.0000000001
 44
0.00001
 40
0.0
 40
0.0
 40
0.0
 40
0.0
 40
0.3055958489131552
 40
0.7341859163720239
 40
1.179343254133831
 40
1.603799947093641
 40
1.994382051114304
 40
2.34098059265225
 40
2.764850919114847
 40
3.093231178723985
 40
3.262616870212135
 40
3.262616870212135
 40
3.262616870212135
 40
3.262616870212135
 10
1164.561043476222
 20
283.0226562926505
 30
0.0
 10
1164.459094652965
 20
283.0206785946648
 30
0.0
 10
1164.214165310854
 20
283.0159272277432
 30
0.0
 10
1163.825408293667
 20
282.947778752031
 30
0.0
 10
1163.407041571344
 20
282.8370530764622
 30
0.0
 10
1163.02161883307
 20
282.6540639739905
 30
0.0
 10
1162.749072329243
 20
282.368088415513
 30
0.0
 10
1162.561714405722
 20
282.0279561274922
 30
0.0
 10
1162.434158794546
 20
281.6811089620362
 30
0.0
 10
1162.396738471637
 20
281.3749730255601
 30
0.0
 10
1162.382369699937
 20
281.2097462430405
 30
0.0
 10
1162.377480124174
 20
281.1535209171664
 30
0.0
 11
1164.561043476222
 21
283.0226562926505
 31
0.0
 11
1164.255701755563
 21
283.010196096106
 31
0.0
 11
1163.832419503726
 21
282.9429533923815
 31
0.0
 11
1163.40411272727
 21
282.8216341416223
 31
0.0
 11
1163.027001782986
 21
282.6268244398618
 31
0.0
 11
1162.753912078619
 21
282.3475819048675
 31
0.0
 11
1162.581244968201
 21
282.0470546715321
 31
0.0
 11
1162.44110146998
 21
281.6470223558852
 31
0.0
 11
1162.392825294023
 21
281.3222100935922
 31
0.0
 11
1162.377480124174
 21
281.1535209171664
 31
0.0
  0
LINE
  5
422
330
1F
100
AcDbEntity
  8
0
  6
ByBlock
370
    40
100
AcDbLine
 10
1162.377480124152
 20
281.1535209171624
 30
0.0
 11
1162.377480124152
 21
269.2528683842843
 31
0.0
  0
LINE
  5
423
330
1F
100
AcDbEntity
  8
0
  6
ByBlock
370
    40
100
AcDbLine
 10
1162.377480124152
 20
269.2528683842843
 30
0.0
 11
1171.483140962192
 21
280.6348167013
 31
0.0
  0
SPLINE
  5
424
330
1F
100
AcDbEntity
  8
0
  6
ByBlock
370
    40
100
AcDbSpline
210
0.0
220
0.0
230
1.0
 70
  1064
 71
     3
 72
    19
 73
    15
 74
    13
 42
0.000000001
 43
0.0000000001
 44
0.00001
 40
0.0
 40
0.0
 40
0.0
 40
0.0
 40
0.6428212795953919
 40
1.135483650371397
 40
1.47112712578159
 40
1.671954051368867
 40
1.80956704747025
 40
1.968352242573049
 40
2.090654401779231
 40
2.277007358319625
 40
2.633446982954614
 40
3.193794753237739
 40
3.931899967402543
 40
4.445783206326557
 40
4.445783206326557
 40
4.445783206326557
 40
4.445783206326557
 10
1171.483140962192
 20
280.6348167013027
 30
0.0
 10
1171.621116615035
 20
280.7987390431868
 30
0.0
 10
1171.864837697278
 20
281.0882925241437
 30
0.0
 10
1172.141565417261
 20
281.495847231603
 30
0.0
 10
1172.289814182744
 20
281.8049372493547
 30
0.0
 10
1172.369587136741
 20
282.0174898945215
 30
0.0
 10
1172.381813809332
 20
282.1832416671904
 30
0.0
 10
1172.381532072852
 20
282.3248394402883
 30
0.0
 10
1172.321089567442
 20
282.4714715264812
 30
0.0
 10
1172.168848758869
 20
282.6410589143844
 30
0.0
 10
1171.812920804524
 20
282.7679893475185
 30
0.0
 10
1171.283128328445
 20
282.9050664466414
 30
0.0
 10
1170.683915238889
 20
283.0071636251911
 30
0.0
 10
1170.266774368232
 20
283.0224522697999
 30
0.0
 10
1170.095557372442
 20
283.0287275498881
 30
0.0
 11
1171.483140962192
 21
280.6348167013027
 31
0.0
 11
1171.887411499151
 21
281.1346011853036
 31
0.0
 11
1172.15819263811
 21
281.5461759493049
 31
0.0
 11
1172.303835953838
 21
281.8485739770253
 31
0.0
 11
1172.365895623094
 21
282.0395714940057
 31
0.0
 11
1172.37967911637
 21
282.1764924639449
 31
0.0
 11
1172.369969562013
 21
282.3349805162959
 31
0.0
 11
1172.32454514323
 21
282.4485342054686
 31
0.0
 11
1172.201783784362
 21
282.5887378900853
 31
0.0
 11
1171.879059924404
 21
282.7400604469765
 31
0.0
 11
1171.337497646475
 21
282.8839351243381
 31
0.0
 11
1170.608669977072
 21
283.0005950381453
 31
0.0
 11
1170.095557372442
 21
283.0287275498881
 31
0.0
  0
LINE
  5
425
330
1F
100
AcDbEntity
  8
0
  6
ByBlock
370
    40
100
AcDbLine
 10
1158.350187823395
 20
263.9190218136598
 30
0.0
 11
1158.350187823395
 21
262.2751230221498
 31
0.0
  0
LINE
  5
426
330
1F
100
AcDbEntity
  8
0
  6
ByBlock
370
    40
100
AcDbLine
 10
1158.350187823395
 20
263.9190218136598
 30
0.0
 11
1162.386442789728
 21
263.3257197655214
 31
0.0
  0
LINE
  5
427
330
1F
100
AcDbEntity
  8
0
  6
ByBlock
370
    40
100
AcDbLine
 10
1162.386442789728
 20
263.3257197655214
 30
0.0
 11
1162.386442789728
 21
261.657573069063
 31
0.0
  0
LINE
  5
428
330
1F
100
AcDbEntity
  8
0
  6
ByBlock
370
    40
100
AcDbLine
 10
1162.386442789728
 20
259.9415717658793
 30
0.0
 11
1162.386442789728
 21
259.1200106482046
 31
0.0
  0
LINE
  5
429
330
1F
100
AcDbEntity
  8
0
  6
ByBlock
370
    40
100
AcDbLine
 10
1158.350187823395
 20
260.5433321926987
 30
0.0
 11
1158.350187823395
 21
259.2690388346152
 31
0.0
  0
SPLINE
  5
42A
330
1F
100
AcDbEntity
  8
0
  6
ByBlock
370
    40
100
AcDbSpline
210
0.0
220
0.0
230
1.0
 70
  1064
 71
     3
 72
     9
 73
     5
 74
     3
 42
0.000000001
 43
0.0000000001
 44
0.00001
 40
0.0
 40
0.0
 40
0.0
 40
0.0
 40
1.939160541358475
 40
4.083491386926663
 40
4.083491386926663
 40
4.083491386926663
 40
4.083491386926663
 10
1158.350187823406
 20
262.2751230221526
 30
0.0
 10
1158.987384235163
 20
262.1662146077279
 30
0.0
 10
1160.329194778279
 20
261.9368748688142
 30
0.0
 10
1161.678102024168
 20
261.753740789027
 30
0.0
 10
1162.386442789728
 20
261.6575730690656
 30
0.0
 11
1158.350187823406
 21
262.2751230221526
 31
0.0
 11
1160.263377430364
 21
261.9588175795939
 31
0.0
 11
1162.386442789728
 21
261.6575730690656
 31
0.0
  0
SPLINE
  5
42B
330
1F
100
AcDbEntity
  8
0
  6
ByBlock
370
    40
100
AcDbSpline
210
0.0
220
0.0
230
1.0
 70
  1064
 71
     3
 72
    12
 73
     8
 74
     6
 42
0.000000001
 43
0.0000000001
 44
0.00001
 40
0.0
 40
0.0
 40
0.0
 40
0.0
 40
0.7378387909215448
 40
1.739329685161376
 40
2.918036203794888
 40
3.722408190218116
 40
4.081526235798975
 40
4.081526235798975
 40
4.081526235798975
 40
4.081526235798975
 10
1158.350187823406
 20
260.5433321927028
 30
0.0
 10
1158.591922625243
 20
260.4978116754238
 30
0.0
 10
1159.161771380749
 20
260.3905047840521
 30
0.0
 10
1160.126253130025
 20
260.2620836466569
 30
0.0
 10
1161.109289275605
 20
260.1100967649288
 30
0.0
 10
1161.881595000743
 20
259.994091135573
 30
0.0
 10
1162.267370814499
 20
259.9539588362492
 30
0.0
 10
1162.386442789728
 20
259.9415717658821
 30
0.0
 11
1158.350187823406
 21
260.5433321927028
 31
0.0
 11
1159.076299533533
 21
260.412305989961
 31
0.0
 11
1160.067149373303
 21
260.2667017102362
 31
0.0
 11
1161.232839090891
 21
260.0920118725897
 31
0.0
 11
1162.02942994403
 21
259.9803995738081
 31
0.0
 11
1162.386442789728
 21
259.9415717658821
 31
0.0
  0
SPLINE
  5
42C
330
1F
100
AcDbEntity
  8
0
  6
ByBlock
370
    40
100
AcDbSpline
210
0.0
220
0.0
230
1.0
 70
  1064
 71
     3
 72
    15
 73
    11
 74
     9
 42
0.000000001
 43
0.0000000001
 44
0.00001
 40
0.0
 40
0.0
 40
0.0
 40
0.0
 40
0.4291264613674477
 40
0.8302336984715788
 40
1.238147453305266
 40
1.678472873763376
 40
2.148185575521095
 40
2.611488568079307
 40
3.091262070967115
 40
3.392695926230827
 40
3.392695926230827
 40
3.392695926230827
 40
3.392695926230827
 10
1158.350187823406
 20
259.269038834618
 30
0.0
 10
1158.337577961505
 20
259.1258913404151
 30
0.0
 10
1158.313181581355
 20
258.8489429714883
 30
0.0
 10
1158.149122972829
 20
258.4617740017514
 30
0.0
 10
1157.889289349526
 20
258.1348985220227
 30
0.0
 10
1157.566706154226
 20
257.826640551706
 30
0.0
 10
1157.13515064252
 20
257.656672399327
 30
0.0
 10
1156.688538685299
 20
257.5063178612128
 30
0.0
 10
1156.273846013846
 20
257.4598743740203
 30
0.0
 10
1156.014267996534
 20
257.4418163069404
 30
0.0
 10
1155.914108158453
 20
257.4348484862694
 30
0.0
 11
1158.350187823406
 21
259.269038834618
 31
0.0
 11
1158.289486133772
 21
258.8442273179175
 31
0.0
 11
1158.135015950421
 21
258.4740571163712
 31
0.0
 11
1157.888814242846
 21
258.148821277987
 31
0.0
 11
1157.559096787775
 21
257.8569773544195
 31
0.0
 11
1157.132691182772
 21
257.6599791762186
 31
0.0
 11
1156.689854024203
 21
257.5237994644262
 31
0.0
 11
1156.214696950376
 21
257.457403912876
 31
0.0
 11
1155.914108158453
 21
257.4348484862694
 31
0.0
  0
LINE
  5
42D
330
1F
100
AcDbEntity
  8
0
  6
ByBlock
370
    40
100
AcDbLine
 10
1155.914108158431
 20
257.4348484862666
 30
0.0
 11
1155.232809776215
 21
257.4348484862666
 31
0.0
  0
LINE
  5
42E
330
1F
100
AcDbEntity
  8
0
  6
ByBlock
370
    40
100
AcDbLine
 10
1155.232809776215
 20
257.4348484862666
 30
0.0
 11
1155.232809776215
 21
255.7862197617865
 31
0.0
  0
LINE
  5
42F
330
1F
100
AcDbEntity
  8
0
  6
ByBlock
370
    40
100
AcDbLine
 10
1155.232809776215
 20
255.7862197617865
 30
0.0
 11
1165.729245456115
 21
255.7862197617865
 31
0.0
  0
LINE
  5
430
330
1F
100
AcDbEntity
  8
0
  6
ByBlock
370
    40
100
AcDbLine
 10
1165.729245456115
 20
255.7862197617865
 30
0.0
 11
1165.729245456115
 21
257.4421904717617
 31
0.0
  0
LINE
  5
431
330
1F
100
AcDbEntity
  8
0
  6
ByBlock
370
    40
100
AcDbLine
 10
1165.729245456115
 20
257.4421904717617
 30
0.0
 11
1164.960968478334
 21
257.4421904717617
 31
0.0
  0
SPLINE
  5
432
330
1F
100
AcDbEntity
  8
0
  6
ByBlock
370
    40
100
AcDbSpline
210
0.0
220
0.0
230
1.0
 70
  1064
 71
     3
 72
    15
 73
    11
 74
     9
 42
0.000000001
 43
0.0000000001
 44
0.00001
 40
0.0
 40
0.0
 40
0.0
 40
0.0
 40
0.3223229615336594
 40
0.6664017522729255
 40
1.039422504497021
 40
1.397825398546898
 40
1.935597208069821
 40
2.285784443559146
 40
2.994511258241781
 40
3.424656378651935
 40
3.424656378651935
 40
3.424656378651935
 40
3.424656378651935
 10
1162.386442789728
 20
259.1200106482085
 30
0.0
 10
1162.395000645429
 20
259.0123415844721
 30
0.0
 10
1162.412693986319
 20
258.7897361194499
 30
0.0
 10
1162.541191309907
 20
258.4643805954886
 30
0.0
 10
1162.730587186757
 20
258.1538271837804
 30
0.0
 10
1163.066259369776
 20
257.8897287260168
 30
0.0
 10
1163.429836443883
 20
257.6772683044829
 30
0.0
 10
1163.951275867961
 20
257.5601577865665
 30
0.0
 10
1164.436687041283
 20
257.4463794741916
 30
0.0
 10
1164.817237024888
 20
257.4433388843636
 30
0.0
 10
1164.960968478334
 20
257.4421904717657
 30
0.0
 11
1162.386442789728
 21
259.1200106482085
 31
0.0
 11
1162.427250077738
 21
258.8002812989503
 31
0.0
 11
1162.546276992622
 21
258.4774457250589
 31
0.0
 11
1162.749973937695
 21
258.1649524672791
 31
0.0
 11
1163.022724147127
 21
257.9324444938281
 31
0.0
 11
1163.495912150491
 21
257.6769222196731
 31
0.0
 11
1163.834116978272
 21
257.5861004471419
 31
0.0
 11
1164.531100025294
 21
257.4576157009146
 31
0.0
 11
1164.960968478334
 21
257.4421904717657
 31
0.0
  0
SPLINE
  5
433
330
1F
100
AcDbEntity
  8
0
  6
ByBlock
370
    40
100
AcDbSpline
210
0.0
220
0.0
230
1.0
 70
  1064
 71
     3
 72
    13
 73
     9
 74
     7
 42
0.000000001
 43
0.0000000001
 44
0.00001
 40
0.0
 40
0.0
 40
0.0
 40
0.0
 40
0.5442119540311808
 40
1.367513339153556
 40
2.191597675678792
 40
3.327297788281143
 40
4.266612873492285
 40
4.804215764154205
 40
4.804215764154205
 40
4.804215764154205
 40
4.804215764154205
 10
1175.388581313757
 20
262.2518974588682
 30
0.0
 10
1175.20729156424
 20
262.2582594363369
 30
0.0
 10
1174.751740838314
 20
262.2742460183796
 30
0.0
 10
1174.021381757461
 20
262.2938928345417
 30
0.0
 10
1173.095538311117
 20
262.3542845149263
 30
0.0
 10
1172.130106388097
 20
262.3970844316519
 30
0.0
 10
1171.260595081161
 20
262.4459913897705
 30
0.0
 10
1170.769163910488
 20
262.4753161555863
 30
0.0
 10
1170.590281384694
 20
262.4859904646055
 30
0.0
 11
1175.388581313757
 21
262.2518974588682
 31
0.0
 11
1174.84468374751
 21
262.2703930891879
 31
0.0
 11
1174.021883887451
 21
262.2991256670516
 31
0.0
 11
1173.19908402737
 21
262.3451189704401
 31
0.0
 11
1172.064831538304
 21
262.4024429341377
 31
0.0
 11
1171.126942904263
 21
262.4541898127016
 31
0.0
 11
1170.590281384694
 21
262.4859904646055
 31
0.0
  0
LINE
  5
434
330
1F
100
AcDbEntity
  8
0
  6
ByBlock
370
    40
100
AcDbLine
 10
1171.725927260495
 20
260.7241375037731
 30
0.0
 11
1176.48872368302
 21
260.5234238318983
 31
0.0
  0
LINE
  5
435
330
1F
100
AcDbEntity
  8
0
  6
ByBlock
370
    40
100
AcDbLine
 10
1169.593240705919
 20
255.7862197617852
 30
0.0
 11
1189.964768484334
 21
255.7862197617852
 31
0.0
  0
LINE
  5
436
330
1F
100
AcDbEntity
  8
0
  6
ByBlock
370
    40
100
AcDbLine
 10
1169.593240705919
 20
255.7862197617865
 30
0.0
 11
1169.593240705919
 21
257.4388724590924
 31
0.0
  0
LINE
  5
437
330
1F
100
AcDbEntity
  8
0
  6
ByBlock
370
    40
100
AcDbLine
 10
1169.593240705919
 20
257.4388724590924
 30
0.0
 11
1170.705222328998
 21
257.4388724590924
 31
0.0
  0
LINE
  5
438
330
1F
100
AcDbEntity
  8
0
  6
ByBlock
370
    40
100
AcDbLine
 10
1189.964768484334
 20
255.7862197617865
 30
0.0
 11
1189.964768484334
 21
257.4417315976707
 31
0.0
  0
LINE
  5
439
330
1F
100
AcDbEntity
  8
0
  6
ByBlock
370
    40
100
AcDbLine
 10
1189.964768484334
 20
257.4417315976707
 30
0.0
 11
1189.197306294332
 21
257.4417315976707
 31
0.0
  0
SPLINE
  5
43A
330
1F
100
AcDbEntity
  8
0
  6
ByBlock
370
    40
100
AcDbSpline
210
0.0
220
0.0
230
1.0
 70
  1064
 71
     3
 72
    18
 73
    14
 74
    12
 42
0.000000001
 43
0.0000000001
 44
0.00001
 40
0.0
 40
0.0
 40
0.0
 40
0.0
 40
0.2416534064703982
 40
0.8010458337659445
 40
1.524549840071488
 40
2.166445646889078
 40
2.45931257865648
 40
2.579942411499601
 40
2.705795519325079
 40
2.91144414978096
 40
3.152107913421419
 40
3.468008850715571
 40
3.707597477296163
 40
3.707597477296163
 40
3.707597477296163
 40
3.707597477296163
 10
1170.705222328998
 20
257.4388724590952
 30
0.0
 10
1170.7857870091
 20
257.4384511767992
 30
0.0
 10
1171.052847185436
 20
257.4370546873684
 30
0.0
 10
1171.56024668443
 20
257.474852979813
 30
0.0
 10
1172.198083438331
 20
257.5387119472904
 30
0.0
 10
1172.743842962915
 20
257.6463757836764
 30
0.0
 10
1173.069548932048
 20
257.7844877379641
 30
0.0
 10
1173.208265700446
 20
257.9102380280346
 30
0.0
 10
1173.23436111332
 20
258.0666412632606
 30
0.0
 10
1173.199308944089
 20
258.2540764762717
 30
0.0
 10
1173.129180544716
 20
258.500663620925
 30
0.0
 10
1172.980385035866
 20
258.7233402661883
 30
0.0
 10
1172.897982134337
 20
258.8890829475976
 30
0.0
 10
1172.862440876162
 20
258.9605695496638
 30
0.0
 11
1170.705222328998
 21
257.4388724590952
 31
0.0
 11
1170.94687480482
 21
257.4395431212234
 31
0.0
 11
1171.505276030226
 21
257.4728291420196
 31
0.0
 11
1172.224258347298
 21
257.553590982503
 31
0.0
 11
1172.849675867615
 21
257.6981010239933
 31
0.0
 11
1173.112037532862
 21
257.8282447765573
 31
0.0
 11
1173.195145886424
 21
257.915677940402
 31
0.0
 11
1173.224070852643
 21
258.0381620254032
 31
0.0
 11
1173.198540835517
 21
258.2422198050488
 31
0.0
 11
1173.126228420018
 21
258.4717627458992
 31
0.0
 11
1172.973048317334
 21
258.7480402482862
 31
0.0
 11
1172.862440876162
 21
258.9605695496638
 31
0.0
  0
SPLINE
  5
43B
330
1F
100
AcDbEntity
  8
0
  6
ByBlock
370
    40
100
AcDbSpline
210
0.0
220
0.0
230
1.0
 70
  1064
 71
     3
 72
    10
 73
     6
 74
     4
 42
0.000000001
 43
0.0000000001
 44
0.00001
 40
0.0
 40
0.0
 40
0.0
 40
0.0
 40
1.618794802624384
 40
3.511499568663567
 40
4.815974762758411
 40
4.815974762758411
 40
4.815974762758411
 40
4.815974762758411
 10
1172.862440876172
 20
258.9605695496638
 30
0.0
 10
1173.401283126999
 20
258.931667714509
 30
0.0
 10
1174.570143027149
 20
258.8689736772443
 30
0.0
 10
1176.175050261038
 20
258.8254472019435
 30
0.0
 10
1177.240627991195
 20
258.8082005302088
 30
0.0
 10
1177.675392294019
 20
258.801163749127
 30
0.0
 11
1172.862440876172
 21
258.9605695496638
 31
0.0
 11
1174.47925142809
 21
258.8804430733116
 31
0.0
 11
1176.371120754803
 21
258.8242133478351
 31
0.0
 11
1177.675392294019
 21
258.801163749127
 31
0.0
  0
SPLINE
  5
43C
330
1F
100
AcDbEntity
  8
0
  6
ByBlock
370
    40
100
AcDbSpline
210
0.0
220
0.0
230
1.0
 70
  1064
 71
     3
 72
    21
 73
    17
 74
    15
 42
0.000000001
 43
0.0000000001
 44
0.00001
 40
0.0
 40
0.0
 40
0.0
 40
0.0
 40
0.2015019024187326
 40
0.6237132230094371
 40
1.02926085664139
 40
1.605095088509488
 40
2.362257678295243
 40
3.282229649415175
 40
3.991867954186524
 40
4.645735147801794
 40
5.448967314990074
 40
6.026472635782148
 40
6.384100231882549
 40
6.781085432734853
 40
7.150730792332362
 40
7.422570167285127
 40
7.422570167285127
 40
7.422570167285127
 40
7.422570167285127
 10
1177.675392294019
 20
258.801163749127
 30
0.0
 10
1177.712393036123
 20
258.7448086279309
 30
0.0
 10
1177.826922238252
 20
258.570371395069
 30
0.0
 10
1178.095560824391
 20
258.3509660694106
 30
0.0
 10
1178.42773845229
 20
258.0206680516013
 30
0.0
 10
1178.947772950222
 20
257.7424009285065
 30
0.0
 10
1179.682257421282
 20
257.5665008779281
 30
0.0
 10
1180.474621645131
 20
257.4869083395758
 30
0.0
 10
1181.233954917898
 20
257.4361883287815
 30
0.0
 10
1181.957336735275
 20
257.4257782793684
 30
0.0
 10
1182.632352461278
 20
257.5192013114213
 30
0.0
 10
1183.187394415164
 20
257.7090170358968
 30
0.0
 10
1183.551755480379
 20
257.9709655225617
 30
0.0
 10
1183.79209603853
 20
258.263909373667
 30
0.0
 10
1183.932314944966
 20
258.5884766493822
 30
0.0
 10
1183.949413433821
 20
258.8025176628414
 30
0.0
 10
1183.956659190848
 20
258.8932209519131
 30
0.0
 11
1177.675392294019
 21
258.801163749127
 31
0.0
 11
1177.791431653722
 21
258.6364279495019
 31
0.0
 11
1178.094668505934
 21
258.3426426355473
 31
0.0
 11
1178.397905358157
 21
258.0733541385812
 31
0.0
 11
1178.90022202467
 21
257.7918172331229
 31
0.0
 11
1179.631222461507
 21
257.5945013728514
 31
0.0
 11
1180.544735361104
 21
257.4856776166407
 31
0.0
 11
1181.252989639089
 21
257.441378617606
 31
0.0
 11
1181.906856832704
 21
257.441378617606
 31
0.0
 11
1182.701410716393
 21
257.559132769637
 31
0.0
 11
1183.241275519797
 21
257.764214191488
 31
0.0
 11
1183.530864676685
 21
257.9740608443221
 31
0.0
 11
1183.781751414031
 21
258.2817182751112
 31
0.0
 11
1183.922438104072
 21
258.6235441768756
 31
0.0
 11
1183.956659190848
 21
258.8932209519131
 31
0.0
  0
LINE
  5
43D
330
1F
100
AcDbEntity
  8
0
  6
ByBlock
370
    40
100
AcDbLine
 10
1183.956659190837
 20
258.8932209519116
 30
0.0
 11
1187.176021508507
 21
259.1443309751617
 31
0.0
  0
SPLINE
  5
43E
330
1F
100
AcDbEntity
  8
0
  6
ByBlock
370
    40
100
AcDbSpline
210
0.0
220
0.0
230
1.0
 70
  1064
 71
     3
 72
    14
 73
    10
 74
     8
 42
0.000000001
 43
0.0000000001
 44
0.00001
 40
0.0
 40
0.0
 40
0.0
 40
0.0
 40
0.419112385617564
 40
0.89835840572625
 40
1.275631401451528
 40
1.687158347677083
 40
2.186221466583589
 40
2.730326684864806
 40
3.102283187204232
 40
3.102283187204232
 40
3.102283187204232
 40
3.102283187204232
 10
1187.176021508518
 20
259.1443309751645
 30
0.0
 10
1187.172820481534
 20
259.0046511114499
 30
0.0
 10
1187.165959148878
 20
258.705250320672
 30
0.0
 10
1187.245002226141
 20
258.2797637051488
 30
0.0
 10
1187.468065814142
 20
257.9097156547267
 30
0.0
 10
1187.82719654311
 20
257.6519676282024
 30
0.0
 10
1188.303035605267
 20
257.5363254777646
 30
0.0
 10
1188.767378595725
 20
257.4509627937838
 30
0.0
 10
1189.073150905711
 20
257.4443974011187
 30
0.0
 10
1189.197306294343
 20
257.4417315976721
 30
0.0
 11
1187.176021508518
 21
259.1443309751645
 31
0.0
 11
1187.180027548439
 21
258.7252377356316
 31
0.0
 11
1187.281876020976
 21
258.2569390740575
 31
0.0
 11
1187.480616340362
 21
257.9362566786044
 31
0.0
 11
1187.811759674053
 21
257.691923872739
 31
0.0
 11
1188.288546323482
 21
257.5444840966303
 31
0.0
 11
1188.825695167567
 21
257.457756892946
 31
0.0
 11
1189.197306294343
 21
257.4417315976721
 31
0.0
  0
LINE
  5
43F
330
1F
100
AcDbEntity
  8
0
  6
ByBlock
370
    40
100
AcDbLine
 10
1183.990065489833
 20
260.5789125839548
 30
0.0
 11
1183.990065489833
 21
262.2849711661613
 31
0.0
  0
LINE
  5
440
330
1F
100
AcDbEntity
  8
0
  6
ByBlock
370
    40
100
AcDbLine
 10
1183.990065489833
 20
264.0029604747935
 30
0.0
 11
1183.990065489833
 21
271.4402505927222
 31
0.0
  0
LINE
  5
441
330
1F
100
AcDbEntity
  8
0
  6
ByBlock
370
    40
100
AcDbLine
 10
1187.134671028665
 20
260.8587198870675
 30
0.0
 11
1187.134671028665
 21
262.5570129076838
 31
0.0
  0
LINE
  5
442
330
1F
100
AcDbEntity
  8
0
  6
ByBlock
370
    40
100
AcDbLine
 10
1187.134671028665
 20
264.2852033403989
 30
0.0
 11
1187.134671028665
 21
269.1604229034176
 31
0.0
  0
LINE
  5
443
330
1F
100
AcDbEntity
  8
0
  6
ByBlock
370
    40
100
AcDbLine
 10
1187.134671028665
 20
271.7392953097508
 30
0.0
 11
1187.134671028665
 21
275.8281458682739
 31
0.0
  0
LINE
  5
444
330
1F
100
AcDbEntity
  8
0
  6
ByBlock
370
    40
100
AcDbLine
 10
1187.134671028665
 20
275.8281458682739
 30
0.0
 11
1181.072649943708
 21
273.6412225339268
 31
0.0
  0
LINE
  5
445
330
1F
100
AcDbEntity
  8
0
  6
ByBlock
370
    40
100
AcDbLine
 10
1181.072649943708
 20
273.6412225339268
 30
0.0
 11
1181.550998269688
 21
272.5255937182305
 31
0.0
  0
LINE
  5
446
330
1F
100
AcDbEntity
  8
0
  6
ByBlock
370
    40
100
AcDbLine
 10
1183.990065489833
 20
260.5789125839548
 30
0.0
 11
1187.134671028665
 21
260.8587198870675
 31
0.0
  0
LINE
  5
447
330
1F
100
AcDbEntity
  8
0
  6
ByBlock
370
    40
100
AcDbLine
 10
1183.990065489822
 20
262.2849711661613
 30
0.0
 11
1187.134671028665
 21
262.5570129076838
 31
0.0
  0
LINE
  5
448
330
1F
100
AcDbEntity
  8
0
  6
ByBlock
370
    40
100
AcDbLine
 10
1183.990065489833
 20
264.0029604747935
 30
0.0
 11
1187.134671028665
 21
264.2852033403989
 31
0.0
  0
SPLINE
  5
449
330
1F
100
AcDbEntity
  8
0
  6
ByBlock
370
    40
100
AcDbSpline
210
0.0
220
0.0
230
1.0
 70
  1064
 71
     3
 72
    15
 73
    11
 74
     9
 42
0.000000001
 43
0.0000000001
 44
0.00001
 40
0.0
 40
0.0
 40
0.0
 40
0.0
 40
0.4817385404315875
 40
0.9802059982371893
 40
1.524002765012007
 40
1.941119099666051
 40
2.239717894154953
 40
2.498821086733828
 40
2.752472685216324
 40
3.026521163674575
 40
3.026521163674575
 40
3.026521163674575
 40
3.026521163674575
 10
1181.55099826971
 20
272.5255937182346
 30
0.0
 10
1181.711629137987
 20
272.5236738696297
 30
0.0
 10
1182.038468963686
 20
272.5197675034988
 30
0.0
 10
1182.545234057517
 20
272.5005541307313
 30
0.0
 10
1183.034303399495
 20
272.4681503563273
 30
0.0
 10
1183.435271035397
 20
272.3445584633338
 30
0.0
 10
1183.733952028631
 20
272.1920348883344
 30
0.0
 10
1183.878397323449
 20
271.9547142170573
 30
0.0
 10
1183.975762507233
 20
271.7091559468562
 30
0.0
 10
1183.985176537315
 20
271.5321660725248
 30
0.0
 10
1183.990065489833
 20
271.4402505927237
 30
0.0
 11
1181.55099826971
 21
272.5255937182346
 31
0.0
 11
1182.032673645795
 21
272.5177928586419
 31
0.0
 11
1182.530780575413
 21
272.4988378287739
 31
0.0
 11
1183.071595964561
 21
272.4419727391661
 31
0.0
 11
1183.470095088074
 21
272.3187473960181
 31
0.0
 11
1183.725531057184
 21
272.1641068264539
 31
0.0
 11
1183.872260756607
 21
271.9505538828737
 31
0.0
 11
1183.960325735856
 21
271.7126806123226
 31
0.0
 11
1183.990065489833
 21
271.4402505927237
 31
0.0
  0
SPLINE
  5
44A
330
1F
100
AcDbEntity
  8
0
  6
ByBlock
370
    40
100
AcDbSpline
210
0.0
220
0.0
230
1.0
 70
  1064
 71
     3
 72
    47
 73
    43
 74
    41
 42
0.000000001
 43
0.0000000001
 44
0.00001
 40
0.0
 40
0.0
 40
0.0
 40
0.0
 40
0.9432489188914244
 40
2.005656407232386
 40
3.104829731299241
 40
3.978692795636294
 40
4.686313682601186
 40
5.307615966896705
 40
5.552632395149129
 40
5.790420684777393
 40
5.957793021580748
 40
6.335796823727711
 40
6.841427643314489
 40
7.496037429658501
 40
7.937203671324962
 40
8.40827156943552
 40
8.755167466865223
 40
9.050737336652854
 40
9.548852177541593
 40
9.986874413028306
 40
10.54226943830796
 40
11.08226741727616
 40
11.58011307609212
 40
12.14318714363237
 40
12.72123038001529
 40
13.38841928999658
 40
13.98437585101436
 40
14.46513550781686
 40
15.14069138334761
 40
15.67156687379382
 40
16.08797630967207
 40
16.57053510560314
 40
17.06114523961436
 40
17.7237836775192
 40
18.62946876336079
 40
19.29102756780024
 40
20.07320851944805
 40
20.82902679416205
 40
21.95700160300103
 40
22.98290468878482
 40
23.85414445296939
 40
24.07975993204286
 40
24.07975993204286
 40
24.07975993204286
 40
24.07975993204286
 10
1187.134671028676
 20
269.1604229034217
 30
0.0
 10
1187.340983610796
 20
269.3977546639649
 30
0.0
 10
1187.779671791545
 20
269.9023997864133
 30
0.0
 10
1188.479417706518
 20
270.6640974433226
 30
0.0
 10
1189.158760458518
 20
271.4174137641521
 30
0.0
 10
1189.87790691013
 20
271.9576504381493
 30
0.0
 10
1190.528773639536
 20
272.3001022985609
 30
0.0
 10
1190.994920388651
 20
272.5383109114769
 30
0.0
 10
1191.353189837307
 20
272.6468406284916
 30
0.0
 10
1191.570242203102
 20
272.6241723700469
 30
0.0
 10
1191.835407609505
 20
272.6156454332813
 30
0.0
 10
1192.124571400079
 20
272.3852507067103
 30
0.0
 10
1192.530407241412
 20
272.0864393741284
 30
0.0
 10
1192.979436397553
 20
271.7900991128562
 30
0.0
 10
1193.462642158824
 20
271.5821394916977
 30
0.0
 10
1193.883393900494
 20
271.5260168554343
 30
0.0
 10
1194.254187377789
 20
271.5305736204011
 30
0.0
 10
1194.635124428413
 20
271.552905098588
 30
0.0
 10
1195.030845500415
 20
271.6721426009462
 30
0.0
 10
1195.491964007095
 20
271.8696971422014
 30
0.0
 10
1195.868026876775
 20
272.2286512062643
 30
0.0
 10
1196.193303002554
 20
272.6496061171554
 30
0.0
 10
1196.41448336475
 20
273.1446296543524
 30
0.0
 10
1196.464129073319
 20
273.6947497986502
 30
0.0
 10
1196.409596045344
 20
274.3019179625973
 30
0.0
 10
1196.134411456181
 20
274.8649876449128
 30
0.0
 10
1195.758440356716
 20
275.3134714218433
 30
0.0
 10
1195.293416536397
 20
275.6732048752003
 30
0.0
 10
1194.753151503457
 20
275.8787864244421
 30
0.0
 10
1194.209653281199
 20
275.8894993312706
 30
0.0
 10
1193.732403800356
 20
275.8949408064812
 30
0.0
 10
1193.274458757763
 20
275.8144854071121
 30
0.0
 10
1192.740284367107
 20
275.7054874980449
 30
0.0
 10
1192.085029837105
 20
275.4966329754387
 30
0.0
 10
1191.398685616535
 20
275.2072867588221
 30
0.0
 10
1190.711288117098
 20
274.8312051696816
 30
0.0
 10
1190.082355281467
 20
274.4528685466016
 30
0.0
 10
1189.369761778613
 20
273.9203467751865
 30
0.0
 10
1188.629210918908
 20
273.2925249066745
 30
0.0
 10
1187.906704803357
 20
272.589477122216
 30
0.0
 10
1187.408210373581
 20
272.0851302449872
 30
0.0
 10
1187.181337249186
 20
271.7982952658778
 30
0.0
 10
1187.134671028676
 20
271.7392953097535
 30
0.0
 11
1187.134671028676
 21
269.1604229034217
 31
0.0
 11
1187.756557801947
 21
269.8696304641682
 31
0.0
 11
1188.470311897428
 21
270.6565642367741
 31
0.0
 11
1189.236416107796
 21
271.4447687376468
 31
0.0
 11
1189.935639821197
 21
271.9689088466167
 31
0.0
 11
1190.554539039276
 21
272.3119701786402
 31
0.0
 11
1191.118983274032
 21
272.5716223196325
 31
0.0
 11
1191.356697608919
 21
272.6309935677474
 31
0.0
 11
1191.594411943806
 21
272.6250635025396
 31
0.0
 11
1191.760832347914
 21
272.6072380088949
 31
0.0
 11
1192.08763014678
 21
272.4172641341281
 31
0.0
 11
1192.494752440967
 21
272.1174075629277
 31
0.0
 11
1193.050234010146
 21
271.7710635162359
 31
0.0
 11
1193.458917980906
 21
271.6049157963277
 31
0.0
 11
1193.924569197314
 21
271.5336844177959
 31
0.0
 11
1194.271465094744
 21
271.5336844177959
 31
0.0
 11
1194.566078776283
 21
271.5574399766442
 31
0.0
 11
1195.046939364589
 21
271.687407239169
 31
0.0
 11
1195.443333619677
 21
271.8737807172
 31
0.0
 11
1195.860233367219
 21
272.240738800099
 31
0.0
 11
1196.183364621066
 21
272.6733864743986
 31
0.0
 11
1196.380271667965
 21
273.1306368597277
 31
0.0
 11
1196.446880568996
 21
273.6897572938381
 31
0.0
 11
1196.380271667965
 21
274.2639499770303
 31
0.0
 11
1196.100459964422
 21
274.8696284826439
 31
0.0
 11
1195.717180608489
 21
275.3259848761957
 31
0.0
 11
1195.334152057114
 21
275.6165343150876
 31
0.0
 11
1194.701265648828
 21
275.8528191753135
 31
0.0
 11
1194.171653591667
 21
275.8894232087775
 31
0.0
 11
1193.755297035989
 21
275.8827871834321
 31
0.0
 11
1193.277831396765
 21
275.8128618311548
 31
0.0
 11
1192.798192990118
 21
275.7096857561001
 31
0.0
 11
1192.165306581812
 21
275.5133582400218
 31
0.0
 11
1191.331507086717
 21
275.1597428038549
 31
0.0
 11
1190.748594328925
 21
274.8468965660088
 31
0.0
 11
1190.082233722657
 21
274.4372984904093
 31
0.0
 11
1189.473111957943
 21
273.989825653084
 31
0.0
 11
1188.612492365076
 21
273.260674718264
 31
0.0
 11
1187.8719860708
 21
272.5506553033482
 31
0.0
 11
1187.275968809568
 21
271.9151852796565
 31
0.0
 11
1187.134671028676
 21
271.7392953097535
 31
0.0
  0
SPLINE
  5
44B
330
1F
100
AcDbEntity
  8
0
  6
ByBlock
370
    40
100
AcDbSpline
210
0.0
220
0.0
230
1.0
 70
  1065
 71
     3
 72
    35
 73
    31
 74
    29
 42
0.000000001
 43
0.0000000001
 44
0.00001
 40
0.0
 40
0.0
 40
0.0
 40
0.0
 40
0.407079356183124
 40
1.200483649927678
 40
1.892492057609512
 40
2.567391222077054
 40
3.233462460669795
 40
3.932061473792461
 40
4.500545153576578
 40
4.860905005923178
 40
5.286694420650752
 40
5.87907810576502
 40
6.323658664944928
 40
6.984974265307075
 40
7.620468838301873
 40
8.150507299286251
 40
8.745394967928554
 40
9.359873692744553
 40
10.00390077657792
 40
10.6418732062949
 40
11.23813421424812
 40
11.9640111180757
 40
12.772419790566
 40
13.68677696130029
 40
14.21874411099152
 40
15.03260976281305
 40
15.52313565916878
 40
15.71199386150547
 40
15.96703528132268
 40
16.14617776483378
 40
16.14617776483378
 40
16.14617776483378
 40
16.14617776483378
 10
1202.665069311817
 20
283.7407942492214
 30
0.0
 10
1202.602399205126
 20
283.6203771057796
 30
0.0
 10
1202.417584040025
 20
283.2652649889965
 30
0.0
 10
1202.070353877572
 20
282.7375503030498
 30
0.0
 10
1201.67634555681
 20
282.1349963042499
 30
0.0
 10
1201.290842459555
 20
281.5777469505998
 30
0.0
 10
1200.937904176385
 20
280.9949824642681
 30
0.0
 10
1200.685898325258
 20
280.399831151084
 30
0.0
 10
1200.554811338472
 20
279.8679313831313
 30
0.0
 10
1200.549398305308
 20
279.415998417323
 30
0.0
 10
1200.56556238843
 20
278.9525481126373
 30
0.0
 10
1200.78006167632
 20
278.4979926939631
 30
0.0
 10
1201.139409508644
 20
278.0591517255652
 30
0.0
 10
1201.599817161019
 20
277.6939469821209
 30
0.0
 10
1202.16639876797
 20
277.4494234424487
 30
0.0
 10
1202.757779715885
 20
277.3807088352312
 30
0.0
 10
1203.335208705864
 20
277.5072409749636
 30
0.0
 10
1203.876566089596
 20
277.8216457937138
 30
0.0
 10
1204.328993878548
 20
278.2702550602189
 30
0.0
 10
1204.679650381315
 20
278.7954895012252
 30
0.0
 10
1204.859147633206
 20
279.4432885747332
 30
0.0
 10
1204.720146441311
 20
280.1537979403356
 30
0.0
 10
1204.482935877589
 20
280.9361850784473
 30
0.0
 10
1204.084812549483
 20
281.5815513444237
 30
0.0
 10
1203.659647239829
 20
282.2024017523807
 30
0.0
 10
1203.305971980547
 20
282.7018120580027
 30
0.0
 10
1203.017797895749
 20
283.1088854858529
 30
0.0
 10
1202.870521261402
 20
283.3835766444392
 30
0.0
 10
1202.763014721077
 20
283.5613177971151
 30
0.0
 10
1202.693677544301
 20
283.6883721489303
 30
0.0
 10
1202.665069311817
 20
283.7407942492214
 30
0.0
 11
1202.665069311817
 21
283.7407942492214
 31
0.0
 11
1202.47298309262
 21
283.3818841119656
 31
0.0
 11
1202.05221310313
 21
282.7092452866834
 31
0.0
 11
1201.670688725035
 21
282.1319110808531
 31
0.0
 11
1201.294799962411
 21
281.5713787264511
 31
0.0
 11
1200.95740992241
 21
280.9970801492382
 31
0.0
 11
1200.688122561047
 21
280.35246794167
 31
0.0
 11
1200.564682212351
 21
279.7975479704176
 31
0.0
 11
1200.552256698696
 21
279.4374024029123
 31
0.0
 11
1200.587632068154
 21
279.0130850583107
 31
0.0
 11
1200.823716827482
 21
278.4697781314245
 31
0.0
 11
1201.102985339161
 21
278.1238576608172
 31
0.0
 11
1201.622073054153
 21
277.714118393201
 31
0.0
 11
1202.208041266114
 21
277.4681618790002
 31
0.0
 11
1202.735005262965
 21
277.4111555973661
 31
0.0
 11
1203.317035333979
 21
277.5341691524617
 31
0.0
 11
1203.851875612721
 21
277.8367083722121
 31
0.0
 11
1204.313656587171
 21
278.2856284278417
 31
0.0
 11
1204.656071151813
 21
278.823923037698
 31
0.0
 11
1204.805109416612
 21
279.4012572435365
 31
0.0
 11
1204.714667973011
 21
280.1214777825312
 31
0.0
 11
1204.462966447907
 21
280.8897036113198
 31
0.0
 11
1204.010623431909
 21
281.6843323495058
 31
0.0
 11
1203.711732114532
 21
282.1243926053202
 31
0.0
 11
1203.243500736822
 21
282.7900777231813
 31
0.0
 11
1202.972108507012
 21
283.1986874545809
 31
0.0
 11
1202.879752172534
 21
283.3634227819147
 31
0.0
 11
1202.751844210431
 21
283.5840710972332
 31
0.0
 11
1202.665069311817
 21
283.7407942492214
 31
0.0
  0
SPLINE
  5
44C
330
1F
100
AcDbEntity
  8
0
  6
ByBlock
370
    40
100
AcDbSpline
210
0.0
220
0.0
230
1.0
 70
  1065
 71
     3
 72
    35
 73
    31
 74
    29
 42
0.000000001
 43
0.0000000001
 44
0.00001
 40
0.0
 40
0.0
 40
0.0
 40
0.0
 40
0.4070793561832313
 40
1.20048364993912
 40
1.892492057615062
 40
2.567391222082477
 40
3.233462460669921
 40
3.932061473800825
 40
4.500545153584992
 40
4.860905005931216
 40
5.286694420659678
 40
5.879078105769597
 40
6.323658664949791
 40
6.984974265303371
 40
7.620468838288107
 40
8.150507299293959
 40
8.745394967946715
 40
9.359873692753611
 40
10.00390077658682
 40
10.64187320630966
 40
11.23813421426008
 40
11.96401111808767
 40
12.77241979058122
 40
13.68677696131011
 40
14.21874411099535
 40
15.0326097628293
 40
15.52313565917912
 40
15.71199386151581
 40
15.96703528133291
 40
16.14617776483883
 40
16.14617776483883
 40
16.14617776483883
 40
16.14617776483883
 10
1209.349452462922
 20
283.7407942492214
 30
0.0
 10
1209.286782356231
 20
283.6203771057791
 30
0.0
 10
1209.101967191131
 20
283.2652649889914
 30
0.0
 10
1208.75473702865
 20
282.7375503030602
 30
0.0
 10
1208.360728707908
 20
282.1349963042451
 30
0.0
 10
1207.975225610645
 20
281.5777469506043
 30
0.0
 10
1207.622287327496
 20
280.9949824642593
 30
0.0
 10
1207.370281476338
 20
280.3998311510891
 30
0.0
 10
1207.239194489551
 20
279.8679313831315
 30
0.0
 10
1207.233781456403
 20
279.4159984173221
 30
0.0
 10
1207.249945539541
 20
278.9525481126406
 30
0.0
 10
1207.46444482741
 20
278.4979926939602
 30
0.0
 10
1207.823792659738
 20
278.059151725569
 30
0.0
 10
1208.284200312101
 20
277.693946982121
 30
0.0
 10
1208.850781919052
 20
277.4494234424438
 30
0.0
 10
1209.442162866975
 20
277.3807088352328
 30
0.0
 10
1210.019591856962
 20
277.5072409749583
 30
0.0
 10
1210.560949240693
 20
277.821645793717
 30
0.0
 10
1211.013377029639
 20
278.2702550602221
 30
0.0
 10
1211.364033532426
 20
278.79548950122
 30
0.0
 10
1211.543530784294
 20
279.4432885747355
 30
0.0
 10
1211.404529592409
 20
280.1537979403372
 30
0.0
 10
1211.167319028668
 20
280.9361850784432
 30
0.0
 10
1210.769195700574
 20
281.5815513444202
 30
0.0
 10
1210.344030390938
 20
282.2024017523912
 30
0.0
 10
1209.990355131626
 20
282.7018120579916
 30
0.0
 10
1209.702181046843
 20
283.1088854858551
 30
0.0
 10
1209.554904412497
 20
283.3835766444394
 30
0.0
 10
1209.447397872169
 20
283.5613177971119
 30
0.0
 10
1209.378060695402
 20
283.68837214893
 30
0.0
 10
1209.349452462922
 20
283.7407942492214
 30
0.0
 11
1209.349452462922
 21
283.7407942492214
 31
0.0
 11
1209.157366243724
 21
283.3818841119656
 31
0.0
 11
1208.736596254213
 21
282.7092452866834
 31
0.0
 11
1208.355071876129
 21
282.1319110808531
 31
0.0
 11
1207.979183113505
 21
281.5713787264511
 31
0.0
 11
1207.641793073515
 21
280.9970801492382
 31
0.0
 11
1207.37250571213
 21
280.35246794167
 31
0.0
 11
1207.249065363434
 21
279.7975479704176
 31
0.0
 11
1207.23663984979
 21
279.4374024029123
 31
0.0
 11
1207.272015219259
 21
279.0130850583107
 31
0.0
 11
1207.508099978576
 21
278.4697781314245
 31
0.0
 11
1207.787368490256
 21
278.1238576608172
 31
0.0
 11
1208.306456205237
 21
277.714118393201
 31
0.0
 11
1208.892424417186
 21
277.4681618790002
 31
0.0
 11
1209.419388414058
 21
277.4111555973661
 31
0.0
 11
1210.001418485084
 21
277.5341691524617
 31
0.0
 11
1210.536258763815
 21
277.8367083722121
 31
0.0
 11
1210.998039738265
 21
278.2856284278417
 31
0.0
 11
1211.340454302918
 21
278.823923037698
 31
0.0
 11
1211.489492567705
 21
279.4012572435365
 31
0.0
 11
1211.399051124105
 21
280.1214777825312
 31
0.0
 11
1211.14734959899
 21
280.8897036113198
 31
0.0
 11
1210.695006583003
 21
281.6843323495058
 31
0.0
 11
1210.396115265637
 21
282.1243926053202
 31
0.0
 11
1209.927883887905
 21
282.7900777231813
 31
0.0
 11
1209.656491658106
 21
283.1986874545809
 31
0.0
 11
1209.564135323628
 21
283.3634227819147
 31
0.0
 11
1209.436227361525
 21
283.5840710972332
 31
0.0
 11
1209.349452462922
 21
283.7407942492214
 31
0.0
  0
LINE
  5
44D
330
1F
100
AcDbEntity
  8
0
  6
ByBlock
370
    40
100
AcDbLine
 10
1209.55382839779
 20
270.8043569929381
 30
0.0
 11
1209.55382839779
 21
267.8212518080918
 31
0.0
  0
LINE
  5
44E
330
1F
100
AcDbEntity
  8
0
  6
ByBlock
370
    40
100
AcDbLine
 10
1209.55382839779
 20
266.0904140248331
 30
0.0
 11
1209.55382839779
 21
264.4313370902221
 31
0.0
  0
LINE
  5
44F
330
1F
100
AcDbEntity
  8
0
  6
ByBlock
370
    40
100
AcDbLine
 10
1209.55382839779
 20
262.6891686466503
 30
0.0
 11
1209.55382839779
 21
259.4994995236542
 31
0.0
  0
LINE
  5
450
330
1F
100
AcDbEntity
  8
0
  6
ByBlock
370
    40
100
AcDbLine
 10
1212.75098774846
 20
258.3732107097883
 30
0.0
 11
1212.75098774846
 21
263.2115438552656
 31
0.0
  0
LINE
  5
451
330
1F
100
AcDbEntity
  8
0
  6
ByBlock
370
    40
100
AcDbLine
 10
1212.75098774846
 20
264.9320040244077
 30
0.0
 11
1212.75098774846
 21
266.6086240686047
 31
0.0
  0
LINE
  5
452
330
1F
100
AcDbEntity
  8
0
  6
ByBlock
370
    40
100
AcDbLine
 10
1212.75098774846
 20
268.3330023165449
 30
0.0
 11
1212.75098774846
 21
270.238847619514
 31
0.0
  0
LINE
  5
453
330
1F
100
AcDbEntity
  8
0
  6
ByBlock
370
    40
100
AcDbLine
 10
1209.55382839779
 20
267.8212518080918
 30
0.0
 11
1212.75098774846
 21
268.3330023165449
 31
0.0
  0
LINE
  5
454
330
1F
100
AcDbEntity
  8
0
  6
ByBlock
370
    40
100
AcDbLine
 10
1212.75098774846
 20
266.6086240686047
 30
0.0
 11
1209.55382839779
 21
266.0904140248358
 31
0.0
  0
LINE
  5
455
330
1F
100
AcDbEntity
  8
0
  6
ByBlock
370
    40
100
AcDbLine
 10
1209.55382839779
 20
264.4313370902221
 30
0.0
 11
1212.75098774846
 21
264.9320040244104
 31
0.0
  0
LINE
  5
456
330
1F
100
AcDbEntity
  8
0
  6
ByBlock
370
    40
100
AcDbLine
 10
1209.55382839779
 20
262.6891686466517
 30
0.0
 11
1212.75098774846
 21
263.2115438552656
 31
0.0
  0
SPLINE
  5
457
330
1F
100
AcDbEntity
  8
0
  6
ByBlock
370
    40
100
AcDbSpline
210
0.0
220
0.0
230
1.0
 70
  1064
 71
     3
 72
    57
 73
    53
 74
    51
 42
0.000000001
 43
0.0000000001
 44
0.00001
 40
0.0
 40
0.0
 40
0.0
 40
0.0
 40
0.4158613599356711
 40
0.9648764066778428
 40
1.727440831984258
 40
2.265192598256954
 40
2.957789622548814
 40
3.551445308299468
 40
4.10822529113444
 40
4.80482120272651
 40
5.480584965702264
 40
6.128272094691931
 40
6.942075428248223
 40
7.508108285389165
 40
8.035419862081045
 40
8.637057169829915
 40
9.18573531861881
 40
9.645623278110745
 40
10.31246722860559
 40
10.81720149872893
 40
11.3262221309953
 40
11.91619409685745
 40
12.37640011870661
 40
12.90701294412296
 40
13.48682432048562
 40
14.03218895335434
 40
14.45959129392545
 40
14.88775501605355
 40
15.42954146556529
 40
15.97442138135015
 40
16.19132815635304
 40
16.48586544286682
 40
16.87425067840484
 40
17.45230193826754
 40
17.99476474495978
 40
18.79715965726343
 40
19.59166378634778
 40
20.35753744607375
 40
21.19810189269013
 40
22.07138079224599
 40
23.06408843530182
 40
24.07863157015749
 40
25.2436598394619
 40
26.45867350580665
 40
27.65214272407437
 40
29.15241335185198
 40
30.70888670242592
 40
32.1615089589524
 40
32.82316149163762
 40
33.68883608584213
 40
34.80183087766889
 40
35.53703937954023
 40
35.53703937954023
 40
35.53703937954023
 40
35.53703937954023
 10
1209.5538283978
 20
270.8043569929407
 30
0.0
 10
1209.541780850919
 20
270.9427283857459
 30
0.0
 10
1209.513828280989
 20
271.2637759875177
 30
0.0
 10
1209.359277136268
 20
271.8200918446809
 30
0.0
 10
1209.12766220279
 20
272.3992908126541
 30
0.0
 10
1208.705939303804
 20
272.91923986222
 30
0.0
 10
1208.252998943015
 20
273.3286742523909
 30
0.0
 10
1207.715188825699
 20
273.6400463848967
 30
0.0
 10
1207.11665642262
 20
273.7983987427166
 30
0.0
 10
1206.477116899768
 20
273.8899392904194
 30
0.0
 10
1205.803089969964
 20
273.8526575795507
 30
0.0
 10
1205.090776630588
 20
273.8155478837701
 30
0.0
 10
1204.432001201436
 20
273.6296491647142
 30
0.0
 10
1203.868105318516
 20
273.3293232701976
 30
0.0
 10
1203.423334608916
 20
272.9766404282319
 30
0.0
 10
1203.052587007302
 20
272.5519819227801
 30
0.0
 10
1202.789196478875
 20
272.0821107076666
 30
0.0
 10
1202.554695323478
 20
271.5747851330209
 30
0.0
 10
1202.382375636737
 20
271.0581307116699
 30
0.0
 10
1202.126585250893
 20
270.5563824287858
 30
0.0
 10
1201.808422991081
 20
270.1268983038444
 30
0.0
 10
1201.457314068029
 20
269.7341712188513
 30
0.0
 10
1200.985372853811
 20
269.4834109470213
 30
0.0
 10
1200.472857032508
 20
269.3531227105456
 30
0.0
 10
1199.915232836955
 20
269.3633317353035
 30
0.0
 10
1199.407111105643
 20
269.4836054426195
 30
0.0
 10
1198.98782445069
 20
269.6977896862853
 30
0.0
 10
1198.634144649189
 20
270.012283180444
 30
0.0
 10
1198.390015208653
 20
270.4613122827347
 30
0.0
 10
1198.264678934739
 20
270.8874965737045
 30
0.0
 10
1198.281875421068
 20
271.2403949024925
 30
0.0
 10
1198.265472250137
 20
271.5405609028985
 30
0.0
 10
1198.319335111866
 20
271.9580760595426
 30
0.0
 10
1198.440406544248
 20
272.4552975980509
 30
0.0
 10
1198.825771152892
 20
272.9786153323737
 30
0.0
 10
1199.317893721088
 20
273.4952291010669
 30
0.0
 10
1199.952000703449
 20
273.9691980804551
 30
0.0
 10
1200.65206877254
 20
274.3598361164593
 30
0.0
 10
1201.410491735087
 20
274.6908488445081
 30
0.0
 10
1202.261686460226
 20
274.9927198140739
 30
0.0
 10
1203.195877576989
 20
275.2222340400339
 30
0.0
 10
1204.240777946983
 20
275.3867056010117
 30
0.0
 10
1205.367374254198
 20
275.5089462680334
 30
0.0
 10
1206.559912982169
 20
275.5011555849785
 30
0.0
 10
1207.862501661969
 20
275.4460467086449
 30
0.0
 10
1209.260457512918
 20
275.1376978419176
 30
0.0
 10
1210.605998260648
 20
274.4365871151707
 30
0.0
 10
1211.540482825656
 20
273.6136087618257
 30
0.0
 10
1212.079223893711
 20
272.7740556812812
 30
0.0
 10
1212.458874837172
 20
271.9793345757297
 30
0.0
 10
1212.72304947444
 20
271.101689400665
 30
0.0
 10
1212.743036845471
 20
270.4844022052618
 30
0.0
 10
1212.750987748471
 20
270.2388476195167
 30
0.0
 11
1209.5538283978
 21
270.8043569929407
 31
0.0
 11
1209.506842302478
 21
271.2175554652684
 31
0.0
 11
1209.370161652336
 21
271.7492846457975
 31
0.0
 11
1209.060881790753
 21
272.4463143940595
 31
0.0
 11
1208.730077951987
 21
272.8702787585843
 31
0.0
 11
1208.212212418665
 21
273.3301764944501
 31
0.0
 11
1207.694550582292
 21
273.6207849877667
 31
0.0
 11
1207.160117697419
 21
273.7769433716323
 31
0.0
 11
1206.469449255715
 21
273.8676239521402
 31
0.0
 11
1205.793854387934
 21
273.8525164050589
 31
0.0
 11
1205.148542465994
 21
273.7970985337447
 31
0.0
 11
1204.365531409171
 21
273.5753564524857
 31
0.0
 11
1203.866405994812
 21
273.3083976240049
 31
0.0
 11
1203.453036994304
 21
272.9810086071879
 31
0.0
 11
1203.058951304591
 21
272.5264055723999
 31
0.0
 11
1202.781719762371
 21
272.0529181037622
 31
0.0
 11
1202.590108836072
 21
271.6348485064359
 31
0.0
 11
1202.347573673473
 21
271.0136741756604
 31
0.0
 11
1202.11563075203
 21
270.5653894841647
 31
0.0
 11
1201.818165313262
 21
270.1523322038617
 31
0.0
 11
1201.403777828035
 21
269.7323918121506
 31
0.0
 11
1201.000457876809
 21
269.5107556249218
 31
0.0
 11
1200.486258888516
 21
269.3798000181887
 31
0.0
 11
1199.906469483868
 21
269.3848476332225
 31
0.0
 11
1199.377061123668
 21
269.5158032399529
 31
0.0
 11
1198.997913209946
 21
269.7130838022151
 31
0.0
 11
1198.680281773606
 21
270.0001977928098
 31
0.0
 11
1198.408074756017
 21
270.4686376464191
 31
0.0
 11
1198.276961822402
 21
270.9975076883619
 31
0.0
 11
1198.277437115268
 21
271.2144139426259
 31
0.0
 11
1198.274924852931
 21
271.5089405147461
 31
0.0
 11
1198.317090120585
 21
271.8950301175427
 31
0.0
 11
1198.47909709087
 21
272.4499147907927
 31
0.0
 11
1198.780161175659
 21
272.9011645148862
 31
0.0
 11
1199.335167451984
 21
273.4806518991588
 31
0.0
 11
1199.969072344988
 21
273.9596105589173
 31
0.0
 11
1200.635500850265
 21
274.3370168519446
 31
0.0
 11
1201.404049423961
 21
274.6774308334203
 31
0.0
 11
1202.228139364677
 21
274.9663803203908
 31
0.0
 11
1203.191286419919
 21
275.2068303454711
 31
0.0
 11
1204.192389005888
 21
275.371424953065
 31
0.0
 11
1205.351832017155
 21
275.4853669203197
 31
0.0
 11
1206.566816395464
 21
275.4938031440358
 31
0.0
 11
1207.75796823117
 21
275.4194655408655
 31
0.0
 11
1209.21949381199
 21
275.0807105657236
 31
0.0
 11
1210.601713382163
 21
274.3651140656797
 31
0.0
 11
1211.668202687526
 21
273.3788524463808
 31
0.0
 11
1212.031733835462
 21
272.8260150575494
 31
0.0
 11
1212.405721426611
 21
272.0452937342098
 31
0.0
 11
1212.701828885725
 21
270.9724108052325
 31
0.0
 11
1212.750987748471
 21
270.2388476195167
 31
0.0
  0
SPLINE
  5
458
330
1F
100
AcDbEntity
  8
0
  6
ByBlock
370
    40
100
AcDbSpline
210
0.0
220
0.0
230
1.0
 70
  1064
 71
     3
 72
    27
 73
    23
 74
    21
 42
0.000000001
 43
0.0000000001
 44
0.00001
 40
0.0
 40
0.0
 40
0.0
 40
0.0
 40
0.7709315809339924
 40
1.559921413662377
 40
2.485371691795974
 40
3.237136492126585
 40
4.010498217306488
 40
4.888638810540937
 40
5.508127233969378
 40
6.046733363462895
 40
6.69184547827198
 40
7.306000008813192
 40
7.743627398819449
 40
8.178751819824938
 40
8.672999071917192
 40
9.16642222100085
 40
9.620069927728872
 40
10.07433262646395
 40
10.4869991506474
 40
10.98370492636596
 40
11.47378743817541
 40
11.71975971082323
 40
11.71975971082323
 40
11.71975971082323
 40
11.71975971082323
 10
1209.5538283978
 20
259.4994995236555
 30
0.0
 10
1209.361351472875
 20
259.3290661234794
 30
0.0
 10
1208.971889055906
 20
258.9842071021173
 30
0.0
 10
1208.29612263635
 20
258.5015848885221
 30
0.0
 10
1207.571029398265
 20
258.1093354985496
 30
0.0
 10
1206.815102308659
 20
257.7977056881599
 30
0.0
 10
1206.050072274603
 20
257.5549030150549
 30
0.0
 10
1205.301709677548
 20
257.4248350802518
 30
0.0
 10
1204.624932212153
 20
257.3727538903574
 30
0.0
 10
1204.023214310302
 20
257.353285573649
 30
0.0
 10
1203.425834135428
 20
257.4131438817441
 30
0.0
 10
1202.869373232824
 20
257.5370061169983
 30
0.0
 10
1202.423052566029
 20
257.7593758939489
 30
0.0
 10
1202.047589850961
 20
258.0199868823967
 30
0.0
 10
1201.704189222736
 20
258.3499634170187
 30
0.0
 10
1201.410345153678
 20
258.7332306821368
 30
0.0
 10
1201.205231472296
 20
259.1568383374245
 30
0.0
 10
1201.098893253515
 20
259.5866610652747
 30
0.0
 10
1201.050779707743
 20
260.038817391984
 30
0.0
 10
1201.045649924587
 20
260.5082471700463
 30
0.0
 10
1201.136136753664
 20
260.911323265782
 30
0.0
 10
1201.199179478241
 20
261.1482895764023
 30
0.0
 10
1201.220246880512
 20
261.2274781683318
 30
0.0
 11
1209.5538283978
 21
259.4994995236555
 31
0.0
 11
1208.967928084827
 21
258.9984443113892
 31
0.0
 11
1208.325196324189
 21
258.5408409459997
 31
0.0
 11
1207.512581311364
 21
258.0979921476171
 31
0.0
 11
1206.818110526678
 21
257.8101368988663
 31
0.0
 11
1206.079369605945
 21
257.5813352161613
 31
0.0
 11
1205.215015569072
 21
257.4263416665294
 31
0.0
 11
1204.597610128578
 21
257.3755831321725
 31
0.0
 11
1204.059103304828
 21
257.3652408160624
 31
0.0
 11
1203.41698263503
 21
257.4272947127272
 31
0.0
 11
1202.821440666643
 21
257.5773465413555
 31
0.0
 11
1202.427898168794
 21
257.7687676344202
 31
0.0
 11
1202.070613727158
 21
258.0171244131087
 31
0.0
 11
1201.713261386557
 21
258.3585620367939
 31
0.0
 11
1201.417018129459
 21
258.7531584593262
 31
0.0
 11
1201.220246880512
 21
259.1619093827596
 31
0.0
 11
1201.106312389256
 21
259.6016519565051
 31
0.0
 11
1201.059665788836
 21
260.0116736081905
 31
0.0
 11
1201.064894010438
 21
260.5083518675608
 31
0.0
 11
1201.158051413304
 21
260.9894990037601
 31
0.0
 11
1201.220246880512
 21
261.2274781683318
 31
0.0
  0
LINE
  5
459
330
1F
100
AcDbEntity
  8
0
  6
ByBlock
370
    40
100
AcDbLine
 10
1201.220246880512
 20
261.2274781683278
 30
0.0
 11
1197.607070469056
 21
260.6308359525619
 31
0.0
  0
SPLINE
  5
45A
330
1F
100
AcDbEntity
  8
0
  6
ByBlock
370
    40
100
AcDbSpline
210
0.0
220
0.0
230
1.0
 70
  1064
 71
     3
 72
    22
 73
    18
 74
    16
 42
0.000000001
 43
0.0000000001
 44
0.00001
 40
0.0
 40
0.0
 40
0.0
 40
0.0
 40
0.7415927503134538
 40
1.630531022340317
 40
2.574561889116447
 40
3.794108731983187
 40
5.136087092173223
 40
6.528627018037234
 40
7.770604261651678
 40
8.771152889308115
 40
9.654488375826753
 40
10.73859388174417
 40
11.77640103882585
 40
12.79305053595593
 40
13.56523829052059
 40
14.85260810947621
 40
15.94334062038525
 40
15.94334062038525
 40
15.94334062038525
 40
15.94334062038525
 10
1197.607070469078
 20
260.6308359525633
 30
0.0
 10
1197.591450906856
 20
260.383632394977
 30
0.0
 10
1197.557108364071
 20
259.8401089189088
 30
0.0
 10
1197.673460729824
 20
258.985130584052
 30
0.0
 10
1197.938282147492
 20
257.9973888936777
 30
0.0
 10
1198.550995768598
 20
256.9782294689131
 30
0.0
 10
1199.535836278976
 20
256.0826901218936
 30
0.0
 10
1200.713239122679
 20
255.4343095939611
 30
0.0
 10
1201.911109510041
 20
255.1869618548394
 30
0.0
 10
1202.95149360176
 20
255.1166281624484
 30
0.0
 10
1203.940868649282
 20
255.1299649842894
 30
0.0
 10
1204.943696795731
 20
255.1997443750736
 30
0.0
 10
1205.960378191466
 20
255.463738022009
 30
0.0
 10
1206.847660746057
 20
255.7824877467078
 30
0.0
 10
1207.78422919066
 20
256.2022491592675
 30
0.0
 10
1208.688151355612
 20
256.7459542841469
 30
0.0
 10
1209.3087649401
 20
257.2397470608483
 30
0.0
 10
1209.593413504131
 20
257.4662284146725
 30
0.0
 11
1197.607070469078
 21
260.6308359525633
 31
0.0
 11
1197.582558936703
 21
259.8896483972859
 31
0.0
 11
1197.688888741994
 21
259.0070923231576
 31
0.0
 11
1197.950639316402
 21
258.1000747300408
 31
0.0
 11
1198.572729786602
 21
257.051123849955
 31
0.0
 11
1199.554209566895
 21
256.1359171191593
 31
0.0
 11
1200.782434246606
 21
255.4796918672263
 31
0.0
 11
1201.992937292116
 21
255.2018612525206
 31
0.0
 11
1202.990780726999
 21
255.1283355035196
 31
0.0
 11
1203.874078579731
 21
255.1364893431796
 31
0.0
 11
1204.953740287521
 21
255.2345472071892
 31
0.0
 11
1205.961972266588
 21
255.4805390194019
 31
0.0
 11
1206.918940514495
 21
255.8237415434487
 31
0.0
 11
1207.622306065759
 21
256.1424119524842
 31
0.0
 11
1208.726479305955
 21
256.8043201835798
 31
0.0
 11
1209.593413504131
 21
257.4662284146725
 31
0.0
  0
SPLINE
  5
45B
330
1F
100
AcDbEntity
  8
0
  6
ByBlock
370
    40
100
AcDbSpline
210
0.0
220
0.0
230
1.0
 70
  1064
 71
     3
 72
    19
 73
    15
 74
    13
 42
0.000000001
 43
0.0000000001
 44
0.00001
 40
0.0
 40
0.0
 40
0.0
 40
0.0
 40
0.2507975855838411
 40
0.9721625802888031
 40
1.712096925994303
 40
2.364657031529359
 40
3.216852629282175
 40
4.040399051868289
 40
4.984539056630963
 40
5.748796678911714
 40
6.582734838258075
 40
7.319767182483968
 40
8.032721551872754
 40
8.510794747148915
 40
8.510794747148915
 40
8.510794747148915
 40
8.510794747148915
 10
1209.593413504131
 20
257.4662284146725
 30
0.0
 10
1209.609437954268
 20
257.3841706706585
 30
0.0
 10
1209.671553268322
 20
257.0660915792362
 30
0.0
 10
1209.797093464108
 20
256.5097821446018
 30
0.0
 10
1210.123112345366
 20
255.8613547226989
 30
0.0
 10
1210.732614633699
 20
255.402670386076
 30
0.0
 10
1211.472339289959
 20
255.1137327297607
 30
0.0
 10
1212.353372547641
 20
255.1331013957414
 30
0.0
 10
1213.202706338039
 20
255.1851851769162
 30
0.0
 10
1213.993166025847
 20
255.5201640312331
 30
0.0
 10
1214.644857197378
 20
255.9538243816499
 30
0.0
 10
1215.185635826818
 20
256.4930328147225
 30
0.0
 10
1215.619132886306
 20
256.9674440547159
 30
0.0
 10
1215.869461767015
 20
257.2757085717041
 30
0.0
 10
1215.969942672261
 20
257.3994445850416
 30
0.0
 11
1209.593413504131
 21
257.4662284146725
 31
0.0
 11
1209.642097074
 21
257.22020130446
 31
0.0
 11
1209.824541637783
 21
256.52228910602
 31
0.0
 11
1210.182708766196
 21
255.8748177598748
 31
0.0
 11
1210.691475835958
 21
255.4661727304647
 31
0.0
 11
1211.489492567716
 21
255.1671633114427
 31
0.0
 11
1212.312496124758
 21
255.137265899345
 31
0.0
 11
1213.250248960815
 21
255.2469015097156
 31
0.0
 11
1213.959861218411
 21
255.5306974876369
 31
0.0
 11
1214.653177720414
 21
255.9941250242202
 31
0.0
 11
1215.186863716473
 21
256.5024516259685
 31
0.0
 11
1215.665687335341
 21
257.0306863037828
 31
0.0
 11
1215.969942672261
 21
257.3994445850416
 31
0.0
  0
LINE
  5
45C
330
1F
100
AcDbEntity
  8
0
  6
ByBlock
370
    40
100
AcDbLine
 10
1215.96994267225
 20
257.3994445850402
 30
0.0
 11
1215.192635129896
 21
258.2741292035587
 31
0.0
  0
SPLINE
  5
45D
330
1F
100
AcDbEntity
  8
0
  6
ByBlock
370
    40
100
AcDbSpline
210
0.0
220
0.0
230
1.0
 70
  1064
 71
     3
 72
    19
 73
    15
 74
    13
 42
0.000000001
 43
0.0000000001
 44
0.00001
 40
0.0
 40
0.0
 40
0.0
 40
0.0
 40
0.2928331051949081
 40
0.6780737066830988
 40
1.138524496099356
 40
1.56145950154802
 40
1.886577211200273
 40
2.109996625491175
 40
2.352487566739074
 40
2.509535280380619
 40
2.76000628502315
 40
3.006794218657308
 40
3.325797116056624
 40
3.582023480671725
 40
3.582023480671725
 40
3.582023480671725
 40
3.582023480671725
 10
1215.192635129907
 20
258.2741292035613
 30
0.0
 10
1215.116534621023
 20
258.2129616008381
 30
0.0
 10
1214.940319045584
 20
258.0713241207459
 30
0.0
 10
1214.642835600753
 20
257.8365807036813
 30
0.0
 10
1214.311796213393
 20
257.5692776014602
 30
0.0
 10
1213.948225239068
 20
257.3952534748831
 30
0.0
 10
1213.642385297859
 20
257.2735434098393
 30
0.0
 10
1213.379484858357
 20
257.2652583951405
 30
0.0
 10
1213.165452139004
 20
257.2344870759295
 30
0.0
 10
1212.968879962297
 20
257.354355569406
 30
0.0
 10
1212.88246649803
 20
257.5644881168615
 30
0.0
 10
1212.811466637265
 20
257.824754011628
 30
0.0
 10
1212.764216947514
 20
258.0963486219123
 30
0.0
 10
1212.755064537981
 20
258.2878912242948
 30
0.0
 10
1212.750987748471
 20
258.373210709791
 30
0.0
 11
1215.192635129907
 21
258.2741292035613
 31
0.0
 11
1214.964155056532
 21
258.0909678441843
 31
0.0
 11
1214.66254777988
 21
257.8512943752626
 31
0.0
 11
1214.29243043072
 21
257.5773818393579
 31
0.0
 11
1213.9154552844
 21
257.3856430642215
 31
0.0
 11
1213.606990210597
 21
257.2829258632615
 31
0.0
 11
1213.38462104557
 21
257.2612881848488
 31
0.0
 11
1213.142153781968
 21
257.2646767935367
 31
0.0
 11
1213.007442202289
 21
257.3454033360135
 31
0.0
 11
1212.887668398601
 21
257.5653805169138
 31
0.0
 11
1212.820923699607
 21
257.8029714034049
 31
0.0
 11
1212.76796249389
 21
258.1175472436058
 31
0.0
 11
1212.750987748471
 21
258.373210709791
 31
0.0
  0
LINE
  5
45E
330
1F
100
AcDbEntity
  8
0
  6
ByBlock
370
    40
100
AcDbLine
 10
1208.385015327056
 20
265.8794025377581
 30
0.0
 11
1200.154300767024
 21
264.4670233755083
 31
0.0
  0
LINE
  5
45F
330
1F
100
AcDbEntity
  8
0
  6
ByBlock
370
    40
100
AcDbLine
 10
1198.297331516881
 20
262.4825694104927
 30
0.0
 11
1202.608645258042
 21
263.2157796161315
 31
0.0
  0
SPLINE
  5
460
330
1F
100
AcDbEntity
  8
0
  6
ByBlock
370
    40
100
AcDbSpline
210
0.0
220
0.0
230
1.0
 70
  1064
 71
     3
 72
    13
 73
     9
 74
     7
 42
0.000000001
 43
0.0000000001
 44
0.00001
 40
0.0
 40
0.0
 40
0.0
 40
0.0
 40
0.4304221307413548
 40
1.045523300501489
 40
1.659212858176629
 40
2.034877512697141
 40
2.404028123269798
 40
2.736819120380786
 40
2.736819120380786
 40
2.736819120380786
 40
2.736819120380786
 10
1200.154300767024
 20
264.4670233755123
 30
0.0
 10
1200.043435011745
 20
264.3759442901422
 30
0.0
 10
1199.774134894269
 20
264.1547072785162
 30
0.0
 10
1199.354656107638
 20
263.7943132648604
 30
0.0
 10
1198.971039506917
 20
263.419824184868
 30
0.0
 10
1198.682806464788
 20
263.0706566867016
 30
0.0
 10
1198.460030312984
 20
262.7874223296908
 30
0.0
 10
1198.349658750353
 20
262.5806162937975
 30
0.0
 10
1198.297331516892
 20
262.4825694104953
 30
0.0
 11
1200.154300767024
 21
264.4670233755123
 31
0.0
 11
1199.822546342515
 21
264.1927931575373
 31
0.0
 11
1199.358524701676
 21
263.7890192531381
 31
0.0
 11
1198.924378612767
 21
263.3552773406094
 31
0.0
 11
1198.682454541018
 21
263.0678809659548
 31
0.0
 11
1198.462122345451
 21
262.7716953875035
 31
0.0
 11
1198.297331516892
 21
262.4825694104953
 31
0.0
  0
SPLINE
  5
461
330
1F
100
AcDbEntity
  8
0
  6
ByBlock
370
    40
100
AcDbSpline
210
0.0
220
0.0
230
1.0
 70
  1064
 71
     3
 72
    19
 73
    15
 74
    13
 42
0.000000001
 43
0.0000000001
 44
0.00001
 40
0.0
 40
0.0
 40
0.0
 40
0.0
 40
0.4257228058920481
 40
0.9925510402265828
 40
1.544728258319529
 40
2.001720156147013
 40
2.693625302301002
 40
3.319755655018188
 40
3.882313963642332
 40
4.527959660943946
 40
5.23667166781662
 40
5.706516843056161
 40
6.103390364956417
 40
6.425809953106689
 40
6.425809953106689
 40
6.425809953106689
 40
6.425809953106689
 10
1202.608645258053
 20
263.2157796161329
 30
0.0
 10
1202.714008925357
 20
263.3108803832892
 30
0.0
 10
1202.959658949593
 20
263.5326029785107
 30
0.0
 10
1203.373381592856
 20
263.8413416047588
 30
0.0
 10
1203.824680971826
 20
264.1105550203264
 30
0.0
 10
1204.303417504619
 20
264.4148837674371
 30
0.0
 10
1204.8331224679
 20
264.6806567559316
 30
0.0
 10
1205.405701899641
 20
264.9360493016268
 30
0.0
 10
1205.976867630878
 20
265.1548891984153
 30
0.0
 10
1206.581027542269
 20
265.363545707123
 30
0.0
 10
1207.166607714919
 20
265.5285988605509
 30
0.0
 10
1207.67487206473
 20
265.659928467793
 30
0.0
 10
1208.059176293602
 20
265.758794985261
 30
0.0
 10
1208.284165172169
 20
265.8420733994379
 30
0.0
 10
1208.385015327067
 20
265.8794025377622
 30
0.0
 11
1202.608645258053
 21
263.2157796161329
 31
0.0
 11
1202.928449461794
 21
263.4967870514899
 31
0.0
 11
1203.382625750291
 21
263.8359303047125
 31
0.0
 11
1203.850449734134
 21
264.1292567445747
 31
0.0
 11
1204.24039358594
 21
264.3675535912141
 31
0.0
 11
1204.854947269173
 21
264.6854474440941
 31
0.0
 11
1205.427335684796
 21
264.9392401158847
 31
0.0
 11
1205.951991116282
 21
265.1422389553253
 31
0.0
 11
1206.562946153505
 21
265.3510266679329
 31
0.0
 11
1207.243972939817
 21
265.5471776939596
 31
0.0
 11
1207.698556622203
 21
265.6659554881973
 31
0.0
 11
1208.080963687076
 21
265.7721318938686
 31
0.0
 11
1208.385015327067
 21
265.8794025377622
 31
0.0
  0
LINE
  5
462
330
1F
100
AcDbEntity
  8
0
  6
ByBlock
370
    40
100
AcDbLine
 10
1222.18575495072
 20
275.6069685551306
 30
0.0
 11
1222.18575495072
 21
269.5059197979268
 31
0.0
  0
LINE
  5
463
330
1F
100
AcDbEntity
  8
0
  6
ByBlock
370
    40
100
AcDbLine
 10
1222.18575495072
 20
267.7985198914555
 30
0.0
 11
1222.18575495072
 21
266.1086277965543
 31
0.0
  0
LINE
  5
464
330
1F
100
AcDbEntity
  8
0
  6
ByBlock
370
    40
100
AcDbLine
 10
1222.18575495072
 20
264.3962508710662
 30
0.0
 11
1222.18575495072
 21
259.6962859138164
 31
0.0
  0
LINE
  5
465
330
1F
100
AcDbEntity
  8
0
  6
ByBlock
370
    40
100
AcDbLine
 10
1219.067833711697
 20
259.8082511926695
 30
0.0
 11
1219.067833711697
 21
264.0801925145567
 31
0.0
  0
LINE
  5
466
330
1F
100
AcDbEntity
  8
0
  6
ByBlock
370
    40
100
AcDbLine
 10
1219.067833711697
 20
265.8062650668389
 30
0.0
 11
1219.067833711697
 21
267.4913566327625
 31
0.0
  0
LINE
  5
467
330
1F
100
AcDbEntity
  8
0
  6
ByBlock
370
    40
100
AcDbLine
 10
1219.067833711697
 20
269.2243122964502
 30
0.0
 11
1219.067833711697
 21
271.3500288863066
 31
0.0
  0
LINE
  5
468
330
1F
100
AcDbEntity
  8
0
  6
ByBlock
370
    40
100
AcDbLine
 10
1222.18575495072
 20
275.6069685551306
 30
0.0
 11
1216.255254193301
 21
273.9527627455102
 31
0.0
  0
LINE
  5
469
330
1F
100
AcDbEntity
  8
0
  6
ByBlock
370
    40
100
AcDbLine
 10
1216.255254193301
 20
273.9527627455102
 30
0.0
 11
1216.559441631245
 21
272.7552072551007
 31
0.0
  0
LINE
  5
46A
330
1F
100
AcDbEntity
  8
0
  6
ByBlock
370
    40
100
AcDbLine
 10
1216.559441631245
 20
272.7552072551007
 30
0.0
 11
1217.306602025721
 21
272.7552072551007
 31
0.0
  0
SPLINE
  5
46B
330
1F
100
AcDbEntity
  8
0
  6
ByBlock
370
    40
100
AcDbSpline
210
0.0
220
0.0
230
1.0
 70
  1064
 71
     3
 72
    14
 73
    10
 74
     8
 42
0.000000001
 43
0.0000000001
 44
0.00001
 40
0.0
 40
0.0
 40
0.0
 40
0.0
 40
0.4629777543076265
 40
1.027737148533352
 40
1.338313018635846
 40
1.631473578941807
 40
1.983877615712374
 40
2.287899203934012
 40
2.579465889906574
 40
2.579465889906574
 40
2.579465889906574
 40
2.579465889906574
 10
1217.306602025732
 20
272.7552072551034
 30
0.0
 10
1217.460739888405
 20
272.7432835197251
 30
0.0
 10
1217.802901484705
 20
272.7168147192621
 30
0.0
 10
1218.237431731896
 20
272.6172069053875
 30
0.0
 10
1218.609092069188
 20
272.4783431014831
 30
0.0
 10
1218.830987590433
 20
272.2369665593069
 30
0.0
 10
1218.972759655278
 20
271.9527215073033
 30
0.0
 10
1219.066608190105
 20
271.6471781020257
 30
0.0
 10
1219.067430939594
 20
271.447688050667
 30
0.0
 10
1219.067833711697
 20
271.3500288863092
 30
0.0
 11
1217.306602025732
 21
272.7552072551034
 31
0.0
 11
1217.767296616466
 21
272.7092845477265
 31
0.0
 11
1218.317549964076
 21
272.5821058277698
 31
0.0
 11
1218.600892414621
 21
272.454927107816
 31
0.0
 11
1218.806218935242
 21
272.2456805211093
 31
0.0
 11
1218.970466571959
 21
271.9338932234765
 31
0.0
 11
1219.052692238776
 21
271.6412021477307
 31
0.0
 11
1219.067833711697
 21
271.3500288863092
 31
0.0
  0
LINE
  5
46C
330
1F
100
AcDbEntity
  8
0
  6
ByBlock
370
    40
100
AcDbLine
 10
1219.067833711697
 20
269.2243122964502
 30
0.0
 11
1222.18575495072
 21
269.5059197979282
 31
0.0
  0
LINE
  5
46D
330
1F
100
AcDbEntity
  8
0
  6
ByBlock
370
    40
100
AcDbLine
 10
1219.067833711697
 20
267.4913566327625
 30
0.0
 11
1222.18575495072
 21
267.7985198914555
 31
0.0
  0
LINE
  5
46E
330
1F
100
AcDbEntity
  8
0
  6
ByBlock
370
    40
100
AcDbLine
 10
1219.067833711697
 20
265.8062650668389
 30
0.0
 11
1222.18575495072
 21
266.1086277965543
 31
0.0
  0
LINE
  5
46F
330
1F
100
AcDbEntity
  8
0
  6
ByBlock
370
    40
100
AcDbLine
 10
1219.067833711697
 20
264.0801925145567
 30
0.0
 11
1222.18575495072
 21
264.3962508710635
 31
0.0
  0
SPLINE
  5
470
330
1F
100
AcDbEntity
  8
0
  6
ByBlock
370
    40
100
AcDbSpline
210
0.0
220
0.0
230
1.0
 70
  1064
 71
     3
 72
    23
 73
    19
 74
    17
 42
0.000000001
 43
0.0000000001
 44
0.00001
 40
0.0
 40
0.0
 40
0.0
 40
0.0
 40
0.882110409665011
 40
2.029022230914201
 40
2.932365424399191
 40
3.553800141344212
 40
4.372999959483187
 40
5.591310824403378
 40
6.724312867622643
 40
7.369283655830601
 40
8.130234472927817
 40
9.025775199609494
 40
10.39628732718396
 40
11.67945963984327
 40
12.55984994108374
 40
13.34987313314647
 40
14.0786269579632
 40
14.65345992908233
 40
14.65345992908233
 40
14.65345992908233
 40
14.65345992908233
 10
1219.067833711697
 20
259.8082511926723
 30
0.0
 10
1219.106992294613
 20
259.5164560682555
 30
0.0
 10
1219.197064505978
 20
258.8452716135354
 30
0.0
 10
1219.508872299711
 20
257.9108559122648
 30
0.0
 10
1219.948203045015
 20
257.1274805545322
 30
0.0
 10
1220.47264187842
 20
256.5449436831507
 30
0.0
 10
1221.129506564696
 20
255.9456721824217
 30
0.0
 10
1222.069139551571
 20
255.4303304605912
 30
0.0
 10
1223.047417674472
 20
255.183105361223
 30
0.0
 10
1223.892104693032
 20
255.127925069814
 30
0.0
 10
1224.661789178814
 20
255.1043227139902
 30
0.0
 10
1225.658522166558
 20
255.2888265068944
 30
0.0
 10
1226.800872394125
 20
255.613280679979
 30
0.0
 10
1227.85753730969
 20
256.1422368913091
 30
0.0
 10
1228.723956752242
 20
256.6103455838797
 30
0.0
 10
1229.391407709414
 20
257.0516515871434
 30
0.0
 10
1229.971371325504
 20
257.440847415939
 30
0.0
 10
1230.307355141504
 20
257.716773033755
 30
0.0
 10
1230.455511425229
 20
257.8384459006415
 30
0.0
 11
1219.067833711697
 21
259.8082511926723
 31
0.0
 11
1219.209063593602
 21
258.9375199509585
 31
0.0
 11
1219.572051549706
 21
257.8495647729089
 31
0.0
 11
1220.026295737168
 21
257.0687375555473
 31
0.0
 11
1220.434640213045
 21
256.6002977019432
 31
0.0
 11
1221.047156926841
 21
256.0563201129191
 31
0.0
 11
1222.113442535243
 21
255.4669845846352
 31
0.0
 11
1223.211233271155
 21
255.1867184074315
 31
0.0
 11
1223.854032930769
 21
255.1338419926401
 31
0.0
 11
1224.614976818533
 21
255.1305945759798
 31
0.0
 11
1225.499496852968
 21
255.2706570685666
 31
0.0
 11
1226.812798956714
 21
255.6625002465414
 31
0.0
 11
1227.973667846634
 21
256.2092310801257
 31
0.0
 11
1228.743438602011
 21
256.6364781593256
 31
0.0
 11
1229.407965935769
 21
257.0637252385254
 31
0.0
 11
1230.006155964434
 21
257.4799593394717
 31
0.0
 11
1230.455511425229
 21
257.8384459006415
 31
0.0
  0
LINE
  5
471
330
1F
100
AcDbEntity
  8
0
  6
ByBlock
370
    40
100
AcDbLine
 10
1230.455511425208
 20
257.8384459006388
 30
0.0
 11
1230.455511425208
 21
255.5355686126314
 31
0.0
  0
LINE
  5
472
330
1F
100
AcDbEntity
  8
0
  6
ByBlock
370
    40
100
AcDbLine
 10
1230.455511425208
 20
259.7662112660884
 30
0.0
 11
1230.455511425208
 21
264.5679050801018
 31
0.0
  0
LINE
  5
473
330
1F
100
AcDbEntity
  8
0
  6
ByBlock
370
    40
100
AcDbLine
 10
1230.455511425208
 20
266.2772463769685
 30
0.0
 11
1230.455511425208
 21
267.9780808541047
 31
0.0
  0
LINE
  5
474
330
1F
100
AcDbEntity
  8
0
  6
ByBlock
370
    40
100
AcDbLine
 10
1230.455511425208
 20
269.6736206301591
 30
0.0
 11
1230.455511425208
 21
271.7064681630551
 31
0.0
  0
SPLINE
  5
475
330
1F
100
AcDbEntity
  8
0
  6
ByBlock
370
    40
100
AcDbSpline
210
0.0
220
0.0
230
1.0
 70
  1064
 71
     3
 72
    20
 73
    16
 74
    14
 42
0.000000001
 43
0.0000000001
 44
0.00001
 40
0.0
 40
0.0
 40
0.0
 40
0.0
 40
0.3432688877368689
 40
0.933504526466849
 40
2.144482440061454
 40
2.976099304380486
 40
3.820613861021539
 40
4.420728418695478
 40
5.29358306582241
 40
6.153606626126159
 40
6.942477745641356
 40
7.979326296877188
 40
8.767272788138562
 40
9.497887286764001
 40
10.12875246034872
 40
10.12875246034872
 40
10.12875246034872
 40
10.12875246034872
 10
1222.185754950731
 20
259.6962859138191
 30
0.0
 10
1222.186760971062
 20
259.5814436318561
 30
0.0
 10
1222.189496798766
 20
259.2691351358864
 30
0.0
 10
1222.393672553555
 20
258.5783848530717
 30
0.0
 10
1222.946822412421
 20
257.8100475188051
 30
0.0
 10
1223.895614988549
 20
257.5220777110283
 30
0.0
 10
1224.648908554269
 20
257.4460171367004
 30
0.0
 10
1225.423519792163
 20
257.4500924194897
 30
0.0
 10
1226.195275241353
 20
257.558177135513
 30
0.0
 10
1227.016319619405
 20
257.7505708444073
 30
0.0
 10
1227.845392621992
 20
258.0942709740504
 30
0.0
 10
1228.621292442371
 20
258.4938292985364
 30
0.0
 10
1229.333868118542
 20
258.9616285078946
 30
0.0
 10
1229.925682710319
 20
259.365622803623
 30
0.0
 10
1230.287744040528
 20
259.6393671053303
 30
0.0
 10
1230.455511425229
 20
259.7662112660911
 30
0.0
 11
1222.185754950731
 21
259.6962859138191
 31
0.0
 11
1222.200421130774
 21
259.3533304758231
 31
0.0
 11
1222.356792485611
 21
258.7841854076607
 31
0.0
 11
1223.111625465018
 21
257.8372457683944
 31
0.0
 11
1223.892327956432
 21
257.5507318439167
 31
0.0
 11
1224.731423572127
 21
257.4552154364231
 31
0.0
 11
1225.331514772256
 21
257.4605101375037
 31
0.0
 11
1226.197226788772
 21
257.5719459462462
 31
0.0
 11
1227.031908970634
 21
257.7791805465433
 31
0.0
 11
1227.764810578956
 21
258.0710244701107
 31
0.0
 11
1228.684570184875
 21
258.5496654477976
 31
0.0
 11
1229.348418528828
 21
258.974123984432
 31
0.0
 11
1229.949460314722
 21
259.3895109332054
 31
0.0
 11
1230.455511425229
 21
259.7662112660911
 31
0.0
  0
LINE
  5
476
330
1F
100
AcDbEntity
  8
0
  6
ByBlock
370
    40
100
AcDbLine
 10
1233.581852137986
 20
275.6095100116521
 30
0.0
 11
1227.658888167511
 21
273.946550296244
 31
0.0
  0
LINE
  5
477
330
1F
100
AcDbEntity
  8
0
  6
ByBlock
370
    40
100
AcDbLine
 10
1227.658888167511
 20
273.946550296244
 30
0.0
 11
1227.983920592844
 21
272.7653730811718
 31
0.0
  0
LINE
  5
478
330
1F
100
AcDbEntity
  8
0
  6
ByBlock
370
    40
100
AcDbLine
 10
1227.983920592844
 20
272.7653730811718
 30
0.0
 11
1228.761975024002
 21
272.7536894407872
 31
0.0
  0
LINE
  5
479
330
1F
100
AcDbEntity
  8
0
  6
ByBlock
370
    40
100
AcDbLine
 10
1233.581852137986
 20
275.6095100116521
 30
0.0
 11
1233.581852137986
 21
269.4802228486846
 31
0.0
  0
LINE
  5
47A
330
1F
100
AcDbEntity
  8
0
  6
ByBlock
370
    40
100
AcDbLine
 10
1233.581852137986
 20
267.7649867846114
 30
0.0
 11
1233.581852137986
 21
266.0720590610925
 31
0.0
  0
LINE
  5
47B
330
1F
100
AcDbEntity
  8
0
  6
ByBlock
370
    40
100
AcDbLine
 10
1233.581852137986
 20
264.3555169707447
 30
0.0
 11
1233.581852137986
 21
259.5871797735471
 31
0.0
  0
LINE
  5
47C
330
1F
100
AcDbEntity
  8
0
  6
ByBlock
370
    40
100
AcDbLine
 10
1236.341402551678
 20
255.9858652905378
 30
0.0
 11
1236.341402551678
 21
257.483312650157
 31
0.0
  0
LINE
  5
47D
330
1F
100
AcDbEntity
  8
0
  6
ByBlock
370
    40
100
AcDbLine
 10
1230.455511425208
 20
269.6736206301591
 30
0.0
 11
1233.581852137986
 21
269.4802228486846
 31
0.0
  0
LINE
  5
47E
330
1F
100
AcDbEntity
  8
0
  6
ByBlock
370
    40
100
AcDbLine
 10
1230.455511425208
 20
267.9780808541047
 30
0.0
 11
1233.581852137986
 21
267.7649867846114
 31
0.0
  0
LINE
  5
47F
330
1F
100
AcDbEntity
  8
0
  6
ByBlock
370
    40
100
AcDbLine
 10
1230.455511425208
 20
266.2772463769685
 30
0.0
 11
1233.581852137986
 21
266.0720590610925
 31
0.0
  0
LINE
  5
480
330
1F
100
AcDbEntity
  8
0
  6
ByBlock
370
    40
100
AcDbLine
 10
1230.455511425208
 20
264.5679050801018
 30
0.0
 11
1233.581852137986
 21
264.3555169707447
 31
0.0
  0
SPLINE
  5
481
330
1F
100
AcDbEntity
  8
0
  6
ByBlock
370
    40
100
AcDbSpline
210
0.0
220
0.0
230
1.0
 70
  1064
 71
     3
 72
    14
 73
    10
 74
     8
 42
0.000000001
 43
0.0000000001
 44
0.00001
 40
0.0
 40
0.0
 40
0.0
 40
0.0
 40
0.4082138058049772
 40
0.9179974623349075
 40
1.273330157853917
 40
1.540851995615694
 40
1.816770951621096
 40
2.0620312436016
 40
2.211171338319441
 40
2.211171338319441
 40
2.211171338319441
 40
2.211171338319441
 10
1228.761975024012
 20
272.75368944079
 30
0.0
 10
1228.898068401567
 20
272.7440482052749
 30
0.0
 10
1229.204117274632
 20
272.7223668470974
 30
0.0
 10
1229.614316017119
 20
272.6139054836103
 30
0.0
 10
1229.983833669086
 20
272.5166059304872
 30
0.0
 10
1230.225225965376
 20
272.3258289759337
 30
0.0
 10
1230.365000481456
 20
272.1002574915532
 30
0.0
 10
1230.445160090329
 20
271.8880175262012
 30
0.0
 10
1230.452671160115
 20
271.7562828321401
 30
0.0
 10
1230.455511425229
 20
271.7064681630564
 30
0.0
 11
1228.761975024012
 21
272.75368944079
 31
0.0
 11
1229.168214631443
 21
272.7135909046081
 31
0.0
 11
1229.665303076354
 21
272.6005313875312
 31
0.0
 11
1230.000791944869
 21
272.4834478976301
 31
0.0
 11
1230.210939293192
 21
272.3179002438493
 31
0.0
 11
1230.362014527428
 21
272.0870159787219
 31
0.0
 11
1230.441320538062
 21
271.8549315813582
 31
0.0
 11
1230.455511425229
 21
271.7064681630564
 31
0.0
  0
SPLINE
  5
482
330
1F
100
AcDbEntity
  8
0
  6
ByBlock
370
    40
100
AcDbSpline
210
0.0
220
0.0
230
1.0
 70
  1064
 71
     3
 72
    15
 73
    11
 74
     9
 42
0.000000001
 43
0.0000000001
 44
0.00001
 40
0.0
 40
0.0
 40
0.0
 40
0.0
 40
0.5324050919056981
 40
0.9890382617381314
 40
1.448031486114172
 40
1.865225342889685
 40
2.379432988156373
 40
2.903009404741652
 40
3.509658382574105
 40
4.010206164669749
 40
4.010206164669749
 40
4.010206164669749
 40
4.010206164669749
 10
1233.581852137996
 20
259.5871797735471
 30
0.0
 10
1233.589570472919
 20
259.4089076154387
 30
0.0
 10
1233.603908668912
 20
259.0777350026062
 30
0.0
 10
1233.757657785508
 20
258.616674045998
 30
0.0
 10
1233.952609980447
 20
258.2128201214064
 30
0.0
 10
1234.288897892662
 20
257.8802522283977
 30
0.0
 10
1234.729820061435
 20
257.6661416634824
 30
0.0
 10
1235.259628191552
 20
257.511716529228
 30
0.0
 10
1235.806170773082
 20
257.4948723597779
 30
0.0
 10
1236.174765954464
 20
257.48691159692
 30
0.0
 10
1236.341402551689
 20
257.4833126501596
 30
0.0
 11
1233.581852137996
 21
259.5871797735471
 31
0.0
 11
1233.631282596669
 21
259.0570743013601
 31
0.0
 11
1233.76653736818
 21
258.6209321243412
 31
0.0
 11
1233.981709241132
 21
258.2154992135987
 31
0.0
 11
1234.276866114525
 21
257.920654959423
 31
0.0
 11
1234.731857190823
 21
257.6810873845301
 31
0.0
 11
1235.236007129834
 21
257.5397894616883
 31
0.0
 11
1235.840987056673
 21
257.4948198005063
 31
0.0
 11
1236.341402551689
 21
257.4833126501596
 31
0.0
  0
SPLINE
  5
483
330
1F
100
AcDbEntity
  8
0
  6
ByBlock
370
    40
100
AcDbSpline
210
0.0
220
0.0
230
1.0
 70
  1064
 71
     3
 72
    12
 73
     8
 74
     6
 42
0.000000001
 43
0.0000000001
 44
0.00001
 40
0.0
 40
0.0
 40
0.0
 40
0.0
 40
1.042803564623597
 40
2.317864565557651
 40
3.699689860231365
 40
4.854214726723167
 40
5.904039174046934
 40
5.904039174046934
 40
5.904039174046934
 40
5.904039174046934
 10
1230.455511425229
 20
255.5355686126328
 30
0.0
 10
1230.800981244836
 20
255.5741553504069
 30
0.0
 10
1231.568865322433
 20
255.6599230205809
 30
0.0
 10
1232.798286342053
 20
255.75882365005
 30
0.0
 10
1234.065545081901
 20
255.8481772763825
 30
0.0
 10
1235.257666067749
 20
255.9380961685794
 30
0.0
 10
1235.991779839809
 20
255.9704545608913
 30
0.0
 10
1236.341402551689
 20
255.9858652905393
 30
0.0
 11
1230.455511425229
 21
255.5355686126328
 31
0.0
 11
1231.492396774557
 21
255.646510249278
 31
0.0
 11
1232.762922519874
 21
255.753957383208
 31
0.0
 11
1234.14106815115
 21
255.8547331937684
 31
0.0
 11
1235.292838577509
 21
255.934436094043
 31
0.0
 11
1236.341402551689
 21
255.9858652905393
 31
0.0
  0
LINE
  5
484
330
1F
100
AcDbEntity
  8
0
  6
ByBlock
370
    40
100
AcDbLine
 10
1252.983850356896
 20
268.8315160722884
 30
0.0
 11
1254.256548869614
 21
269.400519948421
 31
0.0
  0
LINE
  5
485
330
1F
100
AcDbEntity
  8
0
  6
ByBlock
370
    40
100
AcDbLine
 10
1254.256548869614
 20
269.400519948421
 30
0.0
 11
1251.656017871037
 21
275.6682105976318
 31
0.0
  0
LINE
  5
486
330
1F
100
AcDbEntity
  8
0
  6
ByBlock
370
    40
100
AcDbLine
 10
1251.656017871037
 20
275.6682105976318
 30
0.0
 11
1249.751519333718
 21
274.7996325343603
 31
0.0
  0
LINE
  5
487
330
1F
100
AcDbEntity
  8
0
  6
ByBlock
370
    40
100
AcDbLine
 10
1240.04271184137
 20
268.742035624025
 30
0.0
 11
1245.050465437679
 21
267.954078209203
 31
0.0
  0
SPLINE
  5
488
330
1F
100
AcDbEntity
  8
0
  6
ByBlock
370
    40
100
AcDbSpline
210
0.0
220
0.0
230
1.0
 70
  1064
 71
     3
 72
    28
 73
    24
 74
    22
 42
0.000000001
 43
0.0000000001
 44
0.00001
 40
0.0
 40
0.0
 40
0.0
 40
0.0
 40
0.1561663907071719
 40
0.4175774702010543
 40
0.9320939524683991
 40
1.730761577069706
 40
2.454750174367884
 40
3.242736449176509
 40
3.900859347883752
 40
4.595380092829615
 40
5.272344600930719
 40
6.166667836593092
 40
7.180336228139732
 40
8.155083280954444
 40
9.081379991783521
 40
9.950244626299024
 40
10.68291538461707
 40
11.36107872245577
 40
12.17178846780759
 40
12.74747950017098
 40
13.53440732179194
 40
14.23890033027832
 40
14.72038487083632
 40
14.72038487083632
 40
14.72038487083632
 40
14.72038487083632
 10
1249.751519333729
 20
274.7996325343615
 30
0.0
 10
1249.69985163367
 20
274.7937559988125
 30
0.0
 10
1249.561695994778
 20
274.7780425739393
 30
0.0
 10
1249.24773023096
 20
274.7702620816796
 30
0.0
 10
1248.748978764586
 20
274.959835336491
 30
0.0
 10
1248.097950984784
 20
275.1407542054927
 30
0.0
 10
1247.359096866202
 20
275.364077952823
 30
0.0
 10
1246.642078056618
 20
275.4769001844264
 30
0.0
 10
1245.9290571043
 20
275.5120966332438
 30
0.0
 10
1245.251620242766
 20
275.5093784793017
 30
0.0
 10
1244.50004431524
 20
275.429803600486
 30
0.0
 10
1243.648395360852
 20
275.2820386067841
 30
0.0
 10
1242.74265097861
 20
274.9495320281285
 30
0.0
 10
1241.871303500259
 20
274.5111019646888
 30
0.0
 10
1241.137040915889
 20
273.9443306493003
 30
0.0
 10
1240.544947092171
 20
273.3385694598526
 30
0.0
 10
1240.136093322724
 20
272.6918650686124
 30
0.0
 10
1239.848542834438
 20
272.0079827038487
 30
0.0
 10
1239.683419652823
 20
271.3316261460837
 30
0.0
 10
1239.693998872597
 20
270.6045198336564
 30
0.0
 10
1239.739784202805
 20
269.9172393651287
 30
0.0
 10
1239.859479114386
 20
269.2672703327833
 30
0.0
 10
1239.989802857177
 20
268.893698677722
 30
0.0
 10
1240.042711841391
 20
268.7420356240262
 30
0.0
 11
1249.751519333729
 21
274.7996325343615
 31
0.0
 11
1249.596166463622
 21
274.7837131331112
 31
0.0
 11
1249.334755384128
 21
274.7837131331112
 31
0.0
 11
1248.838413828
 21
274.9192574807789
 31
0.0
 11
1248.074007092199
 21
275.1506712159994
 31
0.0
 11
1247.375869762494
 21
275.3424099911346
 31
0.0
 11
1246.598019028276
 21
275.4683885788509
 31
0.0
 11
1245.940960582508
 21
275.5058044664827
 31
0.0
 11
1245.246489797833
 21
275.4974741367832
 31
0.0
 11
1244.572796101516
 21
275.4310079892227
 31
0.0
 11
1243.694115379513
 21
275.264471991235
 31
0.0
 11
1242.73830141432
 21
274.9269171483377
 31
0.0
 11
1241.873743680518
 21
274.4767263644533
 31
0.0
 11
1241.136564436326
 21
273.9158410299826
 31
0.0
 11
1240.538917599524
 21
273.2851715352603
 31
0.0
 11
1240.145307202699
 21
272.6672093231429
 31
0.0
 11
1239.880976467
 21
272.042681681678
 31
0.0
 11
1239.704846508492
 21
271.2513356581685
 31
0.0
 11
1239.697173923584
 21
270.6756957566811
 31
0.0
 11
1239.757604017259
 21
269.8910916525499
 31
0.0
 11
1239.893605677606
 21
269.1998507774642
 31
0.0
 11
1240.042711841391
 21
268.7420356240262
 31
0.0
  0
SPLINE
  5
489
330
1F
100
AcDbEntity
  8
0
  6
ByBlock
370
    40
100
AcDbSpline
210
0.0
220
0.0
230
1.0
 70
  1064
 71
     3
 72
    33
 73
    29
 74
    27
 42
0.000000001
 43
0.0000000001
 44
0.00001
 40
0.0
 40
0.0
 40
0.0
 40
0.0
 40
0.6923164701735736
 40
1.749854631714609
 40
2.870346305408454
 40
3.997883207374254
 40
5.019550517876762
 40
6.059657901341257
 40
7.071486751588832
 40
8.062988069710225
 40
8.641894605564726
 40
9.449427388450551
 40
10.03688031917102
 40
10.73847529151738
 40
11.0826320326005
 40
11.65834940378702
 40
12.18428536483964
 40
12.61016769403753
 40
13.06659813989799
 40
13.52265107048925
 40
13.99747125392243
 40
14.53041563412652
 40
15.09569545166402
 40
15.53168123306122
 40
16.1239013452496
 40
16.7678178176205
 40
17.75452896229547
 40
18.25747659994025
 40
18.25747659994025
 40
18.25747659994025
 40
18.25747659994025
 10
1252.983850356907
 20
268.8315160722912
 30
0.0
 10
1252.862695936916
 20
269.0278947009599
 30
0.0
 10
1252.556473808585
 20
269.5242487063175
 30
0.0
 10
1251.996533779986
 20
270.3035378295528
 30
0.0
 10
1251.229782202848
 20
271.0977164873339
 30
0.0
 10
1250.428192450719
 20
271.8382300553138
 30
0.0
 10
1249.56847146523
 20
272.4659312955215
 30
0.0
 10
1248.707242299947
 20
273.0230852129054
 30
0.0
 10
1247.788053497127
 20
273.4610186998706
 30
0.0
 10
1246.959740886406
 20
273.7086932140574
 30
0.0
 10
1246.175000678519
 20
273.8326436110209
 30
0.0
 10
1245.515241227531
 20
273.8382847167108
 30
0.0
 10
1244.816078602744
 20
273.7781607312454
 30
0.0
 10
1244.29604536279
 20
273.596478155153
 30
0.0
 10
1243.813694134958
 20
273.3549508438646
 30
0.0
 10
1243.393785697441
 20
273.1078664155581
 30
0.0
 10
1243.050499471886
 20
272.725508395009
 30
0.0
 10
1242.771588771684
 20
272.3475041480732
 30
0.0
 10
1242.580628257777
 20
271.9386223092635
 30
0.0
 10
1242.49283059617
 20
271.4826792709022
 30
0.0
 10
1242.434329599997
 20
270.9970217271176
 30
0.0
 10
1242.476789509327
 20
270.4710163047413
 30
0.0
 10
1242.605339856001
 20
269.9720867348599
 30
0.0
 10
1242.846217638991
 20
269.4955781541293
 30
0.0
 10
1243.187087706372
 20
269.0496398463109
 30
0.0
 10
1243.755974324793
 20
268.5652111048208
 30
0.0
 10
1244.401732202082
 20
268.252783098022
 30
0.0
 10
1244.862964624831
 20
268.0699270296617
 30
0.0
 10
1245.018688714253
 20
268.0081900542534
 30
0.0
 11
1252.983850356907
 21
268.8315160722912
 31
0.0
 11
1252.614887290419
 21
269.4173217998509
 31
0.0
 11
1251.989877163993
 21
270.2704040379617
 31
0.0
 11
1251.224044549562
 21
271.0883294609011
 31
0.0
 11
1250.387800691117
 21
271.844659861261
 31
0.0
 11
1249.568056285204
 21
272.4544329357105
 31
0.0
 11
1248.687813886607
 21
273.0085057547967
 31
0.0
 11
1247.77233191657
 21
273.4394238267427
 31
0.0
 11
1246.821610374984
 21
273.7208548381829
 31
0.0
 11
1246.249425656311
 21
273.8088174721397
 31
0.0
 11
1245.442038865066
 21
273.8241721052718
 31
0.0
 11
1244.858175521564
 21
273.7593296660359
 31
0.0
 11
1244.192086511211
 21
273.5389642070604
 31
0.0
 11
1243.883485639445
 21
273.3866180079683
 31
0.0
 11
1243.399094304094
 21
273.0754660744642
 31
0.0
 11
1243.035766853099
 21
272.695200642849
 31
0.0
 11
1242.789021953649
 21
272.3480800400056
 31
0.0
 11
1242.598701107963
 21
271.9332225613387
 31
0.0
 11
1242.499229099822
 21
271.4881499884956
 31
0.0
 11
1242.451631913626
 21
271.015721460079
 31
0.0
 11
1242.490605929127
 21
270.4842040676008
 31
0.0
 11
1242.637675123464
 21
269.9383909822021
 31
0.0
 11
1242.832341503963
 21
269.5482774065811
 31
0.0
 11
1243.191323420134
 21
269.0772607984424
 31
0.0
 11
1243.680128189296
 21
268.6580969628899
 31
0.0
 11
1244.552698002952
 21
268.1974226708762
 31
0.0
 11
1245.018688714253
 21
268.0081900542534
 31
0.0
  0
LINE
  5
48A
330
1F
100
AcDbEntity
  8
0
  6
ByBlock
370
    40
100
AcDbLine
 10
1245.050465437679
 20
267.954078209203
 30
0.0
 11
1245.018688714242
 21
268.008190054252
 31
0.0
  0
LINE
  5
48B
330
1F
100
AcDbEntity
  8
0
  6
ByBlock
370
    40
100
AcDbLine
 10
1241.619190398164
 20
266.773606954271
 30
0.0
 11
1252.761752787795
 21
264.9680432897641
 31
0.0
  0
SPLINE
  5
48C
330
1F
100
AcDbEntity
  8
0
  6
ByBlock
370
    40
100
AcDbSpline
210
0.0
220
0.0
230
1.0
 70
  1064
 71
     3
 72
    22
 73
    18
 74
    16
 42
0.000000001
 43
0.0000000001
 44
0.00001
 40
0.0
 40
0.0
 40
0.0
 40
0.0
 40
0.273914967295293
 40
0.6563766362521149
 40
1.155216012125026
 40
2.130544510322509
 40
2.805485755697954
 40
3.871296429016452
 40
4.927485615285318
 40
6.078167966861004
 40
6.996009304597974
 40
8.013652382699431
 40
8.897862699230628
 40
10.60279468744079
 40
12.22589346499662
 40
13.00177706402456
 40
13.3813116063797
 40
13.3813116063797
 40
13.3813116063797
 40
13.3813116063797
 10
1241.619190398175
 20
266.773606954271
 30
0.0
 10
1241.681494694304
 20
266.7065568530526
 30
0.0
 10
1241.830793159888
 20
266.5458861152222
 30
0.0
 10
1242.151328805872
 20
266.3278996832449
 30
0.0
 10
1242.684992423411
 20
266.0161913488526
 30
0.0
 10
1243.317631949428
 20
265.6775789559142
 30
0.0
 10
1244.146108159162
 20
265.3120950465224
 30
0.0
 10
1245.013097210481
 20
264.9669934262034
 30
0.0
 10
1246.058449374254
 20
264.6519645632594
 30
0.0
 10
1247.065846172757
 20
264.3878122523954
 30
0.0
 10
1248.062250471675
 20
264.1312934925286
 30
0.0
 10
1248.980850496493
 20
263.9322043801559
 30
0.0
 10
1250.15452641765
 20
263.6699288865345
 30
0.0
 10
1251.546002139458
 20
263.4739660850371
 30
0.0
 10
1252.901422546389
 20
263.2887445035956
 30
0.0
 10
1253.806031004297
 20
263.0794047592945
 30
0.0
 10
1254.190130156207
 20
263.0471094716426
 30
0.0
 10
1254.316299973538
 20
263.0365010375353
 30
0.0
 11
1241.619190398175
 21
266.773606954271
 31
0.0
 11
1241.811819809226
 21
266.578867848525
 31
0.0
 11
1242.120692276908
 21
266.3533135824843
 31
0.0
 11
1242.549202750314
 21
266.0979325003698
 31
0.0
 11
1243.412198807566
 21
265.6435059556289
 31
0.0
 11
1244.028178369419
 21
265.3676167313226
 31
0.0
 11
1245.021133077592
 21
264.9803269962708
 31
0.0
 11
1246.029772450549
 21
264.6669865863152
 31
0.0
 11
1247.141210881775
 21
264.3690361075065
 31
0.0
 11
1248.031298632725
 21
264.1450349537872
 31
0.0
 11
1249.024117542935
 21
263.9216338661942
 31
0.0
 11
1249.888946872641
 21
263.7375194606208
 31
0.0
 11
1251.572977416451
 21
263.4713724863037
 31
0.0
 11
1253.176072374067
 21
263.2173327284542
 31
0.0
 11
1253.93864583738
 21
263.0742346072525
 31
0.0
 11
1254.316299973538
 21
263.0365010375353
 31
0.0
  0
SPLINE
  5
48D
330
1F
100
AcDbEntity
  8
0
  6
ByBlock
370
    40
100
AcDbSpline
210
0.0
220
0.0
230
1.0
 70
  1064
 71
     3
 72
    12
 73
     8
 74
     6
 42
0.000000001
 43
0.0000000001
 44
0.00001
 40
0.0
 40
0.0
 40
0.0
 40
0.0
 40
0.2919701653829579
 40
0.8905553409634476
 40
1.455731027119888
 40
2.069474288087134
 40
2.504802581621714
 40
2.504802581621714
 40
2.504802581621714
 40
2.504802581621714
 10
1254.316299973538
 20
263.0365010375353
 30
0.0
 10
1254.279538145671
 20
263.1268501087604
 30
0.0
 10
1254.167408736462
 20
263.402429114667
 30
0.0
 10
1253.879060734508
 20
263.7977028997129
 30
0.0
 10
1253.526591980343
 20
264.2728051360113
 30
0.0
 10
1253.150991700957
 20
264.6622135130816
 30
0.0
 10
1252.875904451238
 20
264.8783529310857
 30
0.0
 10
1252.761752787817
 20
264.9680432897667
 30
0.0
 11
1254.316299973538
 21
263.0365010375353
 31
0.0
 11
1254.199106331131
 21
263.3039187401152
 31
0.0
 11
1253.872376431263
 21
263.8054681244803
 31
0.0
 11
1253.526906412432
 21
264.2527644717838
 31
0.0
 11
1253.098871231891
 21
264.6926129395567
 31
0.0
 11
1252.761752787817
 21
264.9680432897667
 31
0.0
  0
LINE
  5
48E
330
1F
100
AcDbEntity
  8
0
  6
ByBlock
370
    40
100
AcDbLine
 10
1243.673066695185
 20
255.896067160204
 30
0.0
 11
1241.606085894693
 21
255.1009442499287
 31
0.0
  0
LINE
  5
48F
330
1F
100
AcDbEntity
  8
0
  6
ByBlock
370
    40
100
AcDbLine
 10
1241.606085894693
 20
255.1009442499287
 30
0.0
 11
1238.934193066349
 21
261.7601250970362
 31
0.0
  0
LINE
  5
490
330
1F
100
AcDbEntity
  8
0
  6
ByBlock
370
    40
100
AcDbLine
 10
1238.934193066349
 20
261.7601250970362
 30
0.0
 11
1240.004213118746
 21
262.2153987939622
 31
0.0
  0
LINE
  5
491
330
1F
100
AcDbEntity
  8
0
  6
ByBlock
370
    40
100
AcDbLine
 10
1254.782019088902
 20
261.2829313376498
 30
0.0
 11
1251.871665036877
 21
261.7419466233323
 31
0.0
  0
SPLINE
  5
492
330
1F
100
AcDbEntity
  8
0
  6
ByBlock
370
    40
100
AcDbSpline
210
0.0
220
0.0
230
1.0
 70
  1064
 71
     3
 72
    26
 73
    22
 74
    20
 42
0.000000001
 43
0.0000000001
 44
0.00001
 40
0.0
 40
0.0
 40
0.0
 40
0.0
 40
0.9874626877244169
 40
2.088659848864133
 40
3.911774260538614
 40
5.601371579600173
 40
6.869741714805924
 40
8.21249820096998
 40
9.204481735016466
 40
10.01626362023994
 40
10.6773169725124
 40
11.78046788397282
 40
12.46393654348609
 40
13.34180755213985
 40
14.10099056817393
 40
14.84406358881941
 40
15.47771409141521
 40
16.06537788536055
 40
16.72067455371915
 40
17.16495887556593
 40
17.28213625102779
 40
17.28213625102779
 40
17.28213625102779
 40
17.28213625102779
 10
1240.004213118757
 20
262.2153987939622
 30
0.0
 10
1240.206138590214
 20
261.9553947217808
 30
0.0
 10
1240.633247006501
 20
261.4054396978011
 30
0.0
 10
1241.482813428581
 20
260.4159429147781
 30
0.0
 10
1242.555624859558
 20
259.3091426757536
 30
0.0
 10
1243.812499056538
 20
258.3220887206699
 30
0.0
 10
1245.042521979722
 20
257.5757646846345
 30
0.0
 10
1246.17162704075
 20
257.1491050968044
 30
0.0
 10
1247.199122008124
 20
256.9149994248543
 30
0.0
 10
1248.021017036429
 20
256.8775797816526
 30
0.0
 10
1248.882795546074
 20
256.8694368110267
 30
0.0
 10
1249.679239897674
 20
257.1165484801808
 30
0.0
 10
1250.45786542327
 20
257.5467080791369
 30
0.0
 10
1251.060019357502
 20
258.0426547602622
 30
0.0
 10
1251.562682228746
 20
258.6627179865883
 30
0.0
 10
1251.88544176445
 20
259.3048943127689
 30
0.0
 10
1252.042465441931
 20
259.9449786810822
 30
0.0
 10
1252.091450502616
 20
260.5697533130157
 30
0.0
 10
1252.055110712297
 20
261.1360678557884
 30
0.0
 10
1251.939246057454
 20
261.5261198868244
 30
0.0
 10
1251.883333929725
 20
261.7046808490039
 30
0.0
 10
1251.871665036877
 20
261.7419466233362
 30
0.0
 11
1240.004213118757
 21
262.2153987939622
 31
0.0
 11
1240.615915044772
 21
261.4402192577536
 31
0.0
 11
1241.332385099529
 21
260.603974169075
 31
0.0
 11
1242.615404257477
 21
259.3087490927299
 31
0.0
 11
1243.945545308712
 21
258.266893112087
 31
0.0
 11
1245.038107823022
 21
257.622633884597
 31
0.0
 11
1246.291726721896
 21
257.1415573444067
 31
0.0
 11
1247.261731574255
 21
256.9338991680238
 31
0.0
 11
1248.071766425789
 21
256.8806697731636
 31
0.0
 11
1248.73262721455
 21
256.8966244724233
 31
0.0
 11
1249.793209308484
 21
257.2001167383593
 31
0.0
 11
1250.391263539175
 21
257.5309649598889
 31
0.0
 11
1251.068080588626
 21
258.090050095989
 31
0.0
 11
1251.543033965513
 21
258.6823153588723
 31
0.0
 11
1251.873430410411
 21
259.3478945827142
 31
0.0
 11
1252.028443785604
 21
259.9622916961116
 31
0.0
 11
1252.076448365646
 21
260.547991529652
 31
0.0
 11
1252.021789685393
 21
261.201004662931
 31
0.0
 11
1251.906565113459
 21
261.6300872385052
 31
0.0
 11
1251.871665036877
 21
261.7419466233362
 31
0.0
  0
SPLINE
  5
493
330
1F
100
AcDbEntity
  8
0
  6
ByBlock
370
    40
100
AcDbSpline
210
0.0
220
0.0
230
1.0
 70
  1064
 71
     3
 72
    27
 73
    23
 74
    21
 42
0.000000001
 43
0.0000000001
 44
0.00001
 40
0.0
 40
0.0
 40
0.0
 40
0.0
 40
0.4523147796017258
 40
1.286818317762137
 40
2.171759511929289
 40
3.117710362729721
 40
3.831204931935171
 40
4.79428803662895
 40
5.855224867943674
 40
6.929306556558918
 40
7.889027143283787
 40
9.043253523511197
 40
9.658049831900264
 40
10.40724775795657
 40
10.94791933060402
 40
12.38736094022821
 40
13.29997558915136
 40
13.89271654149961
 40
14.16234344060982
 40
14.47842161737979
 40
14.68047310260708
 40
14.86152451601693
 40
14.86152451601693
 40
14.86152451601693
 40
14.86152451601693
 10
1254.782019088912
 20
261.2829313376526
 30
0.0
 10
1254.786966570359
 20
261.1322584122786
 30
0.0
 10
1254.801041966609
 20
260.7035996792327
 30
0.0
 10
1254.77972453876
 20
259.9781224147545
 30
0.0
 10
1254.606327266708
 20
259.1012618907936
 30
0.0
 10
1254.278065690384
 20
258.3130389400534
 30
0.0
 10
1253.806904021011
 20
257.5718184176063
 30
0.0
 10
1253.167466267307
 20
256.9139761297497
 30
0.0
 10
1252.365359685555
 20
256.2587895729058
 30
0.0
 10
1251.456851609284
 20
255.7574877652342
 30
0.0
 10
1250.460174238799
 20
255.3842669829102
 30
0.0
 10
1249.567760213305
 20
255.1785094568587
 30
0.0
 10
1248.729115433919
 20
255.1294244146601
 30
0.0
 10
1248.093173573511
 20
255.1167866523667
 30
0.0
 10
1247.187484526626
 20
255.2196395421143
 30
0.0
 10
1246.248850011486
 20
255.450984425113
 30
0.0
 10
1245.304922551478
 20
255.7196097565072
 30
0.0
 10
1244.734114884549
 20
255.8738723130893
 30
0.0
 10
1244.351310065314
 20
255.9658992526026
 30
0.0
 10
1244.086695872782
 20
255.9739663887764
 30
0.0
 10
1243.854611906284
 20
255.9459303089758
 30
0.0
 10
1243.731329153469
 20
255.9120695080909
 30
0.0
 10
1243.673066695195
 20
255.8960671602067
 30
0.0
 11
1254.782019088912
 21
261.2829313376526
 31
0.0
 11
1254.793561915801
 21
260.8307638653665
 31
0.0
 11
1254.75784705144
 21
259.9970249352056
 31
0.0
 11
1254.58293927459
 21
259.1295411101508
 31
0.0
 11
1254.220766106267
 21
258.2556683457988
 31
0.0
 11
1253.835371486246
 21
257.6552139452448
 31
0.0
 11
1253.178720434356
 21
256.9507010194591
 31
0.0
 11
1252.350488655723
 21
256.2876632521321
 31
0.0
 11
1251.41246422374
 21
255.7644408913508
 31
0.0
 11
1250.51470388786
 21
255.4251917441088
 31
0.0
 11
1249.38683390309
 21
255.1799411900481
 31
0.0
 11
1248.773638199489
 21
255.1356068930031
 31
0.0
 11
1248.024440835542
 21
255.1346891448144
 31
0.0
 11
1247.48681669857
 21
255.1920131085093
 31
0.0
 11
1246.081375676612
 21
255.5030238499888
 31
0.0
 11
1245.201812267864
 21
255.7464036096671
 31
0.0
 11
1244.628880660399
 21
255.8983615306788
 31
0.0
 11
1244.365025217556
 21
255.9538499980007
 31
0.0
 11
1244.04915915477
 21
255.9654277443656
 31
0.0
 11
1243.848721360827
 21
255.9399425831637
 31
0.0
 11
1243.673066695195
 21
255.8960671602067
 31
0.0
  0
CIRCLE
  5
494
330
1F
100
AcDbEntity
  8
0
  6
ByBlock
370
    40
100
AcDbCircle
 10
1258.505327648653
 20
276.9789138501444
 30
0.0
 40
3.624641230862821
  0
CIRCLE
  5
495
330
1F
100
AcDbEntity
  8
0
  6
ByBlock
370
    40
100
AcDbCircle
 10
1258.505327648653
 20
276.9789138501444
 30
0.0
 40
3.198743230862822
  0
LINE
  5
496
330
1F
100
AcDbEntity
  8
0
  6
ByBlock
370
    40
100
AcDbLine
 10
1258.708063823112
 20
278.7854596816978
 30
0.0
 11
1257.062823967564
 21
278.7854596816978
 31
0.0
  0
LINE
  5
497
330
1F
100
AcDbEntity
  8
0
  6
ByBlock
370
    40
100
AcDbLine
 10
1257.062823967564
 20
278.7854596816978
 30
0.0
 11
1257.062823967564
 21
275.2694798960033
 31
0.0
  0
LINE
  5
498
330
1F
100
AcDbEntity
  8
0
  6
ByBlock
370
    40
100
AcDbLine
 10
1257.062823967564
 20
275.2694798960033
 30
0.0
 11
1257.822874983722
 21
275.2694798960033
 31
0.0
  0
LINE
  5
499
330
1F
100
AcDbEntity
  8
0
  6
ByBlock
370
    40
100
AcDbLine
 10
1257.822874983722
 20
275.2694798960033
 30
0.0
 11
1257.822874983722
 21
276.7298802321658
 31
0.0
  0
LINE
  5
49A
330
1F
100
AcDbEntity
  8
0
  6
ByBlock
370
    40
100
AcDbLine
 10
1258.777341154132
 20
277.3295527818527
 30
0.0
 11
1257.823455520001
 21
277.3295527818527
 31
0.0
  0
LINE
  5
49B
330
1F
100
AcDbEntity
  8
0
  6
ByBlock
370
    40
100
AcDbLine
 10
1257.823455520001
 20
277.3295527818527
 30
0.0
 11
1257.823455520001
 21
278.1522540251667
 31
0.0
  0
LINE
  5
49C
330
1F
100
AcDbEntity
  8
0
  6
ByBlock
370
    40
100
AcDbLine
 10
1257.823455520001
 20
278.1522540251667
 30
0.0
 11
1258.674328214063
 21
278.1522540251667
 31
0.0
  0
SPLINE
  5
49D
330
1F
100
AcDbEntity
  8
0
  6
ByBlock
370
    40
100
AcDbSpline
210
0.0
220
0.0
230
1.0
 70
  1064
 71
     3
 72
    16
 73
    12
 74
    10
 42
0.000000001
 43
0.0000000001
 44
0.00001
 40
0.0
 40
0.0
 40
0.0
 40
0.0
 40
0.1189330089558827
 40
0.242467302786044
 40
0.4605089660779227
 40
0.6047855347913291
 40
0.7949664150607437
 40
0.9861609447596805
 40
1.194326385949184
 40
1.276490729124274
 40
1.372104706727767
 40
1.372104706727767
 40
1.372104706727767
 40
1.372104706727767
 10
1258.674328214074
 20
278.1522540251667
 30
0.0
 10
1258.713956110502
 20
278.1514222135829
 30
0.0
 10
1258.794745028954
 20
278.1497264092564
 30
0.0
 10
1258.947653415275
 20
278.1246456067691
 30
0.0
 10
1259.087338810169
 20
278.0219055738693
 30
0.0
 10
1259.169418121973
 20
277.853723838599
 30
0.0
 10
1259.189973135233
 20
277.6755452532656
 30
0.0
 10
1259.125059810888
 20
277.4790075436476
 30
0.0
 10
1258.989034043661
 20
277.3806352548092
 30
0.0
 10
1258.869660133891
 20
277.3289551083153
 30
0.0
 10
1258.809628036086
 20
277.3293437564182
 30
0.0
 10
1258.777341154143
 20
277.3295527818542
 30
0.0
 11
1258.674328214074
 21
278.1522540251667
 31
0.0
 11
1258.793144642133
 21
278.1469893273938
 31
0.0
 11
1258.91428321535
 21
278.1227784242493
 31
0.0
 11
1259.09031472032
 21
277.9941118932908
 31
0.0
 11
1259.155786313416
 21
277.8655459616554
 31
0.0
 11
1259.175782563509
 21
277.6764192390532
 31
0.0
 11
1259.111149522848
 21
277.4964805877255
 31
0.0
 11
1258.949437913122
 21
277.3653996730758
 31
0.0
 11
1258.872742618351
 21
277.3359240721584
 31
0.0
 11
1258.777341154143
 21
277.3295527818542
 31
0.0
  0
SPLINE
  5
49E
330
1F
100
AcDbEntity
  8
0
  6
ByBlock
370
    40
100
AcDbSpline
210
0.0
220
0.0
230
1.0
 70
  1064
 71
     3
 72
    16
 73
    12
 74
    10
 42
0.000000001
 43
0.0000000001
 44
0.00001
 40
0.0
 40
0.0
 40
0.0
 40
0.0
 40
0.4376892164896191
 40
0.8878744374961788
 40
1.370854652090117
 40
1.931455130618802
 40
2.249673326229556
 40
2.635452128204154
 40
2.978975618876934
 40
3.178135192653097
 40
3.255364721921533
 40
3.255364721921533
 40
3.255364721921533
 40
3.255364721921533
 10
1258.708063823123
 20
278.7854596817005
 30
0.0
 10
1258.853782998878
 20
278.7797955309308
 30
0.0
 10
1259.149381625328
 20
278.7683055181794
 30
0.0
 10
1259.599953509774
 20
278.6324784655028
 30
0.0
 10
1259.943729614673
 20
278.2188218353049
 30
0.0
 10
1259.950819264488
 20
277.7479109472226
 30
0.0
 10
1259.89994725422
 20
277.3228884828866
 30
0.0
 10
1259.66436711763
 20
277.0393475800871
 30
0.0
 10
1259.390656575648
 20
276.8860399387298
 30
0.0
 10
1259.185951803438
 20
276.8414176876795
 30
0.0
 10
1259.093757541336
 20
276.8412554733429
 30
0.0
 10
1259.067996325047
 20
276.8412101468929
 30
0.0
 11
1258.708063823123
 21
278.7854596817005
 31
0.0
 11
1259.144304595607
 21
278.7498810553418
 31
0.0
 11
1259.567773569637
 21
278.5971042205566
 31
0.0
 11
1259.875586813221
 21
278.2249202677008
 31
0.0
 11
1259.935833579657
 21
277.6675664988425
 31
0.0
 11
1259.876102845477
 21
277.3550044099512
 31
0.0
 11
1259.640598622438
 21
277.0494507403873
 31
0.0
 11
1259.340396854715
 21
276.8824558683102
 31
0.0
 11
1259.145207652052
 21
276.8428868022295
 31
0.0
 11
1259.067996325047
 21
276.8412101468929
 31
0.0
  0
SPLINE
  5
49F
330
1F
100
AcDbEntity
  8
0
  6
ByBlock
370
    40
100
AcDbSpline
210
0.0
220
0.0
230
1.0
 70
  1064
 71
     3
 72
    12
 73
     8
 74
     6
 42
0.000000001
 43
0.0000000001
 44
0.00001
 40
0.0
 40
0.0
 40
0.0
 40
0.0
 40
0.1414049231023855
 40
0.4506136632434274
 40
0.8891168658363932
 40
1.609399080722154
 40
1.970390304003602
 40
1.970390304003602
 40
1.970390304003602
 40
1.970390304003602
 10
1259.067996325047
 20
276.8412101468929
 30
0.0
 10
1259.106661410871
 20
276.8142598003359
 30
0.0
 10
1259.229875055634
 20
276.7283773987813
 30
0.0
 10
1259.451970605641
 20
276.5287394794619
 30
0.0
 10
1259.732008089655
 20
276.1246420593967
 30
0.0
 10
1260.003734266717
 20
275.6976486729743
 30
0.0
 10
1260.179535820957
 20
275.3828829852309
 30
0.0
 10
1260.238228484514
 20
275.2777961065056
 30
0.0
 11
1259.067996325047
 21
276.8412101468929
 31
0.0
 11
1259.182942511148
 21
276.7588528364797
 31
0.0
 11
1259.412125338982
 21
276.5512829051177
 31
0.0
 11
1259.676269352487
 21
276.2012643358769
 31
0.0
 11
1260.06019735452
 21
275.5918336520941
 31
0.0
 11
1260.238228484514
 21
275.2777961065056
 31
0.0
  0
SPLINE
  5
4A0
330
1F
100
AcDbEntity
  8
0
  6
ByBlock
370
    40
100
AcDbSpline
210
0.0
220
0.0
230
1.0
 70
  1064
 71
     3
 72
    16
 73
    12
 74
    10
 42
0.000000001
 43
0.0000000001
 44
0.00001
 40
0.0
 40
0.0
 40
0.0
 40
0.0
 40
0.4059450214885715
 40
0.894348620890179
 40
1.17241583274618
 40
1.430392670549852
 40
1.624684621736175
 40
1.832533808369141
 40
1.982692175727117
 40
2.13066271930745
 40
2.229290844513466
 40
2.229290844513466
 40
2.229290844513466
 40
2.229290844513466
 10
1259.331237282086
 20
275.2777961065056
 30
0.0
 10
1259.258682360022
 20
275.3920575053983
 30
0.0
 10
1259.098834619438
 20
275.6437899300157
 30
0.0
 10
1258.870176561919
 20
275.9607187072488
 30
0.0
 10
1258.694316310947
 20
276.254624134874
 30
0.0
 10
1258.54398994963
 20
276.4447722426535
 30
0.0
 10
1258.413857616369
 20
276.6271419632329
 30
0.0
 10
1258.237660804831
 20
276.704847202176
 30
0.0
 10
1258.070275499851
 20
276.72534223078
 30
0.0
 10
1257.937937098791
 20
276.7297475767397
 30
0.0
 10
1257.855747173517
 20
276.7298423337285
 30
0.0
 10
1257.822874983733
 20
276.7298802321658
 30
0.0
 11
1259.331237282086
 21
275.2777961065056
 31
0.0
 11
1259.110568986569
 21
275.6185260051424
 31
0.0
 11
1258.836426848
 21
276.0227340750388
 31
0.0
 11
1258.685938939939
 21
276.2565604290637
 31
0.0
 11
1258.532161326208
 21
276.4636944300353
 31
0.0
 11
1258.405088381987
 21
276.6106700373405
 31
0.0
 11
1258.217833175352
 21
276.7008740947441
 31
0.0
 11
1258.069344892303
 21
276.7232071439031
 31
0.0
 11
1257.921501649587
 21
276.7293437024532
 31
0.0
 11
1257.822874983733
 21
276.7298802321658
 31
0.0
  0
LINE
  5
4A1
330
1F
100
AcDbEntity
  8
0
  6
ByBlock
370
    40
100
AcDbLine
 10
1259.331237282086
 20
275.2777961065015
 30
0.0
 11
1260.238228484493
 21
275.2777961065015
 31
0.0
  0
LINE
  5
4A2
330
1F
100
AcDbEntity
  8
0
  6
ByBlock
370
    -3
100
AcDbLine
 10
1136.060067962558
 20
300.3443255398267
 30
0.0
 11
1434.230213928047
 21
300.3443255398267
 31
0.0
  0
LINE
  5
4A3
330
1F
100
AcDbEntity
  8
0
  6
ByBlock
370
    -3
100
AcDbLine
 10
1283.448447828995
 20
300.3443255398267
 30
0.0
 11
1283.448447828995
 21
242.8648840866052
 31
0.0
  0
MTEXT
  5
4A4
330
1F
100
AcDbEntity
  8
0
  6
ByBlock
370
    -3
100
AcDbMText
 10
1301.049305848547
 20
277.1677623051463
 30
0.0
 40
14.85
 41
143.2278001120339
 46
0.0
 71
     1
 72
     5
  1
KTM33
 73
     1
 44
1.0
1001
ACAD
1000
ACAD_MTEXT_COLUMN_INFO_BEGIN
1070
    75
1070
     2
1070
    79
1070
     0
1070
    76
1070
     1
1070
    78
1070
     0
1070
    48
1040
143.2278001120339
1070
    49
1040
12.5
1070
    50
1070
     1
1040
0.0
1000
ACAD_MTEXT_COLUMN_INFO_END
  0
LINE
  5
4A5
330
1F
100
AcDbEntity
  8
0
  6
ByBlock
370
    -3
100
AcDbLine
 10
1136.060067962558
 20
242.8648840866056
 30
0.0
 11
1434.230213928048
 21
242.8648840866056
 31
0.0
  0
LINE
  5
4A6
330
1F
100
AcDbEntity
  8
0
  6
ByBlock
370
    -3
100
AcDbLine
 10
1136.060067962558
 20
155.0968349472247
 30
0.0
 11
1434.230213928047
 21
155.0968349472247
 31
0.0
  0
MTEXT
  5
4A7
330
1F
100
AcDbEntity
  8
0
  6
ByBlock
370
    -3
100
AcDbMText
 10
1152.280784235415
 20
222.7194170349868
 30
0.0
 40
11.88
 41
256.0623730560901
 46
0.0
 71
     1
 72
     5
  1
33 inch Topmount 50/50 Double Bowl 18 gauge Stainless Steel Kitchen Sink
 73
     1
 44
1.0
1001
ACAD
1000
ACAD_MTEXT_COLUMN_INFO_BEGIN
1070
    75
1070
     2
1070
    79
1070
     0
1070
    76
1070
     1
1070
    78
1070
     0
1070
    48
1040
256.0623730560901
1070
    49
1040
12.5
1070
    50
1070
     1
1040
0.0
1000
ACAD_MTEXT_COLUMN_INFO_END
  0
MTEXT
  5
4A8
330
1F
100
AcDbEntity
  8
0
  6
ByBlock
370
    -3
100
AcDbMText
 10
1155.737435926827
 20
140.2276707377641
 30
0.0
 40
12.87
 41
266.9781062566162
 46
0.0
 71
     1
 72
     5
  1
www.kraususa.com
 73
     1
 44
1.0
1001
ACAD
1000
ACAD_MTEXT_COLUMN_INFO_BEGIN
1070
    75
1070
     2
1070
    79
1070
     0
1070
    76
1070
     1
1070
    78
1070
     0
1070
    48
1040
266.9781062566162
1070
    49
1040
12.5
1070
    50
1070
     1
1040
0.0
1000
ACAD_MTEXT_COLUMN_INFO_END
  0
LINE
  5
4A9
330
1F
100
AcDbEntity
  8
0
  6
ByBlock
370
    -3
100
AcDbLine
 10
1136.060067962558
 20
114.6298740359013
 30
0.0
 11
1434.230213928047
 21
114.6298740359013
 31
0.0
  0
LINE
  5
4AA
330
1F
100
AcDbEntity
  8
0
  6
ByBlock
370
    -3
100
AcDbLine
 10
1136.060067962558
 20
300.3443255398267
 30
0.0
 11
1136.060067962558
 21
114.6298740359013
 31
0.0
  0
LINE
  5
4AB
330
1F
100
AcDbEntity
  8
0
  6
ByBlock
370
    -3
100
AcDbLine
 10
1434.230213928047
 20
300.3443255398267
 30
0.0
 11
1434.230213928047
 21
114.6298740359013
 31
0.0
  0
LINE
  5
1AFD
330
1F
100
AcDbEntity
  8
centerline
  6
ACAD_ISO08W100
370
    -3
100
AcDbLine
 10
613.3741143057322
 20
152.4432008069358
 30
0.0
 11
613.3741143057322
 21
738.4432008069357
 31
0.0
  0
LINE
  5
1AFE
330
1F
100
AcDbEntity
  8
centerline
  6
ACAD_ISO08W100
370
    -3
100
AcDbLine
 10
179.3741143057323
 20
445.4432008069358
 30
0.0
 11
1047.374114305732
 21
445.4432008069358
 31
0.0
  0
LWPOLYLINE
  5
1E65
102
{ACAD_REACTORS
330
1E8B
330
1EA5
330
1EC8
102
}
330
1F
100
AcDbEntity
  8
0
370
     5
100
AcDbPolyline
 90
        8
 70
     1
 43
0.0
 10
227.3741143057323
 20
172.4432008069358
 10
999.3741143057322
 20
172.4432008069358
 42
0.4142135623730951
 10
1027.374114305732
 20
200.4432008069358
 10
1027.374114305732
 20
690.4432008069358
 42
0.4142135623730951
 10
999.3741143057322
 20
718.4432008069357
 10
227.3741143057323
 20
718.4432008069357
 42
0.4142135623730951
 10
199.3741143057323
 20
690.4432008069358
 10
199.3741143057323
 20
200.4432008069358
 42
0.4142135623730951
  0
DIMENSION
  5
1E72
102
{ACAD_XDICTIONARY
360
1E80
102
}
102
{ACAD_REACTORS
330
1E8B
102
}
330
1F
100
AcDbEntity
  8
dimensions
370
     5
100
AcDbDimension
280
     0
  2
*D2
 10
127.7173105677656
 20
172.4432008069358
 30
0.0
 11
127.7173105677656
 21
445.4432008069358
 31
0.0
 70
    32
 71
     5
 42
546.0
 73
     0
 74
     0
 75
     0
  3
dimensions
100
AcDbAlignedDimension
 13
227.3741143057323
 23
718.4432008069357
 33
0.0
 14
227.3741143057323
 24
172.4432008069358
 34
0.0
 50
90.0
100
AcDbRotatedDimension
  0
DIMENSION
  5
1E8C
102
{ACAD_XDICTIONARY
360
1E9A
102
}
102
{ACAD_REACTORS
330
1EA5
102
}
330
1F
100
AcDbEntity
  8
dimensions
370
     5
100
AcDbDimension
280
     0
  2
*D3
 10
1027.374114305732
 20
109.8770199057335
 30
0.0
 11
613.3741143057322
 21
109.8770199057335
 31
0.0
 70
    32
 71
     5
 42
828.0
 73
     0
 74
     0
 75
     0
  3
dimensions
100
AcDbAlignedDimension
 13
199.3741143057323
 23
200.4432008069358
 33
0.0
 14
1027.374114305732
 24
200.4432008069358
 34
0.0
100
AcDbRotatedDimension
  0
DIMENSION
  5
1EB9
102
{ACAD_XDICTIONARY
360
1EC2
102
}
102
{ACAD_REACTORS
330
1EC8
102
}
330
1F
100
AcDbEntity
  8
dimensions
370
     5
100
AcDbDimension
280
     0
  2
*D4
 10
999.3741143057313
 20
690.4432008069356
 30
0.0
 11
984.8745333394948
 21
674.8023693024459
 31
0.0
 70
   164
 71
     5
 42
28.00000000000023
 73
     0
 74
     0
 75
     0
  3
dimensions
100
AcDbRadialDimension
 15
1018.409785055642
 25
710.9771541306624
 35
0.0
 40
0.0
1001
ACAD
1000
DSTYLE
1002
{
1070
   288
1070
     1
1002
}
1001
ACAD_DSTYLE_DIMRADIAL_EXTENSION
1070
   387
1070
     1
1070
   388
1040
0.0
1070
   390
1040
1.570796326794896
  0
ENDSEC
  0
SECTION
  2
OBJECTS
  0
DICTIONARY
  5
C
330
0
100
AcDbDictionary
281
     1
  3
ACAD_ASSOCPERSSUBENTMANAGER
350
169E
  3
ACAD_CIP_PREVIOUS_PRODUCT_INFO
350
216
  3
ACAD_COLOR
350
6B
  3
ACAD_DETAILVIEWSTYLE
350
21B
  3
ACAD_GROUP
350
D
  3
ACAD_LAYOUT
350
1A
  3
ACAD_MATERIAL
350
6A
  3
ACAD_MLEADERSTYLE
350
12D
  3
ACAD_MLINESTYLE
350
17
  3
ACAD_PLOTSETTINGS
350
19
  3
ACAD_PLOTSTYLENAME
350
E
  3
ACAD_SCALELIST
350
10C
  3
ACAD_SECTIONVIEWSTYLE
350
219
  3
ACAD_TABLESTYLE
350
7E
  3
ACAD_VISUALSTYLE
350
EF
  3
ACDB_RECOMPOSE_DATA
350
1F4B
  3
AcDbVariableDictionary
350
5E
  3
AcDsDecomposeData
350
1F51
  3
AEC_PROPERTY_SET_DEFS
350
1338
  0
DICTIONARY
  5
1FF
330
2
100
AcDbDictionary
280
     1
281
     1
  3
ACAD_LAYERSTATES
360
200
  0
DICTIONARY
  5
13C
330
10
100
AcDbDictionary
280
     1
281
     1
  0
DICTIONARY
  5
1CE
330
1F
100
AcDbDictionary
280
     1
281
     1
  3
ACAD_SORTENTS
360
715
  0
DICTIONARY
  5
18D0
330
18AF
100
AcDbDictionary
280
     1
281
     1
  3
ACAD_SORTENTS
360
18D1
  0
DICTIONARY
  5
1E80
330
1E72
100
AcDbDictionary
280
     1
281
     1
  3
ACAD_DIMASSOC
360
1E8B
  0
DICTIONARY
  5
1E9A
330
1E8C
100
AcDbDictionary
280
     1
281
     1
  3
ACAD_DIMASSOC
360
1EA5
  0
DICTIONARY
  5
1EC2
330
1EB9
100
AcDbDictionary
280
     1
281
     1
  3
ACAD_DIMASSOC
360
1EC8
  0
ACDBASSOCPERSSUBENTMANAGER
  5
169E
102
{ACAD_REACTORS
330
C
102
}
330
C
100
AcDbAssocPersSubentManager
 90
        1
 90
        3
 90
        0
 90
        2
 90
        2
 90
        0
 90
        2
 90
        1
 90
        2
 90
        0
290
     0
  0
XRECORD
  5
216
102
{ACAD_REACTORS
330
C
102
}
330
C
100
AcDbXrecord
280
     1
300
ACD
300
2014
300
ACD_F_S
  0
DICTIONARY
  5
6B
102
{ACAD_REACTORS
330
C
102
}
330
C
100
AcDbDictionary
281
     1
  0
DICTIONARY
  5
21B
102
{ACAD_REACTORS
330
C
102
}
330
C
100
AcDbDictionary
281
     1
  3
Imperial24
350
130E
  3
Metric50
350
21C
  0
DICTIONARY
  5
D
102
{ACAD_REACTORS
330
C
102
}
330
C
100
AcDbDictionary
281
     1
  0
DICTIONARY
  5
1A
102
{ACAD_REACTORS
330
C
102
}
330
C
100
AcDbDictionary
281
     1
  3
Model
350
22
  3
布局1
350
D3
  3
布局2
350
D7
  0
DICTIONARY
  5
6A
102
{ACAD_REACTORS
330
C
102
}
330
C
100
AcDbDictionary
281
     1
  3
ByBlock
350
ED
  3
ByLayer
350
EC
  3
Global
350
EE
  0
DICTIONARY
  5
12D
102
{ACAD_REACTORS
330
C
102
}
330
C
100
AcDbDictionary
281
     1
  3
Annotative
350
13B
  3
leader
350
2C7
  3
Standard
350
12E
  0
DICTIONARY
  5
17
102
{ACAD_REACTORS
330
C
102
}
330
C
100
AcDbDictionary
281
     1
  3
Standard
350
18
  0
DICTIONARY
  5
19
102
{ACAD_REACTORS
330
C
102
}
330
C
100
AcDbDictionary
281
     1
  0
ACDBDICTIONARYWDFLT
  5
E
102
{ACAD_REACTORS
330
C
102
}
330
C
100
AcDbDictionary
281
     1
  3
Normal
350
F
100
AcDbDictionaryWithDefault
340
F
  0
DICTIONARY
  5
10C
102
{ACAD_REACTORS
330
C
102
}
330
C
100
AcDbDictionary
281
     1
  3
A0
350
10D
  3
A1
350
1BE
  3
A2
350
1BF
  3
A3
350
1C0
  3
A4
350
1C1
  3
A5
350
1C2
  3
A6
350
1C3
  3
A7
350
1C4
  3
A8
350
1C5
  3
A9
350
1C6
  3
B0
350
1C7
  3
B1
350
1C8
  3
B2
350
1C9
  3
B3
350
1CA
  3
B4
350
1CB
  3
B5
350
1CC
  3
B6
350
1CD
  0
DICTIONARY
  5
219
102
{ACAD_REACTORS
330
C
102
}
330
C
100
AcDbDictionary
281
     1
  3
Imperial24
350
130D
  3
Metric50
350
21A
  0
DICTIONARY
  5
7E
102
{ACAD_REACTORS
330
C
102
}
330
C
100
AcDbDictionary
281
     1
  3
Standard
350
7F
  0
DICTIONARY
  5
EF
102
{ACAD_REACTORS
330
C
102
}
330
C
100
AcDbDictionary
281
     1
  3
2dWireframe
350
F5
  3
Basic
350
F4
  3
Brighten
350
FB
  3
ColorChange
350
FF
  3
Conceptual
350
F8
  3
Dim
350
FA
  3
EdgeColorOff
350
1E6
  3
Facepattern
350
FE
  3
Flat
350
F0
  3
FlatWithEdges
350
F1
  3
Gouraud
350
F2
  3
GouraudWithEdges
350
F3
  3
Hidden
350
F7
  3
JitterOff
350
1E4
  3
Linepattern
350
FD
  3
OverhangOff
350
1E5
  3
Realistic
350
F9
  3
Shaded
350
1F3
  3
Shaded with edges
350
1F2
  3
Shades of Gray
350
1EF
  3
Sketchy
350
1F0
  3
Thicken
350
FC
  3
Wireframe
350
F6
  3
X-Ray
350
1F1
  0
XRECORD
  5
1F4B
102
{ACAD_REACTORS
330
C
102
}
330
C
100
AcDbXrecord
280
     1
 90
        1
330
7F
330
4A4
330
4A7
330
4A8
  0
DICTIONARY
  5
5E
102
{ACAD_REACTORS
330
C
102
}
330
C
100
AcDbDictionary
281
     1
  3
CANNOSCALE
350
146
  3
CMLEADERSTYLE
350
145
  3
CTABLESTYLE
350
84
  3
CVIEWDETAILSTYLE
350
227
  3
CVIEWSECTIONSTYLE
350
228
  3
DIMASSOC
350
5F
  3
HIDETEXT
350
63
  3
LAYEREVAL
350
1AE
  3
LAYERNOTIFY
350
1AF
  0
DICTIONARY
  5
1F51
102
{ACAD_REACTORS
330
C
102
}
330
C
100
AcDbDictionary
281
     1
  3
AcDsRecords
350
1F53
  3
AcDsSchemas
350
1F52
1001
ACAD
1070
     2
  0
DICTIONARY
  5
1338
102
{ACAD_REACTORS
330
C
102
}
330
C
100
AcDbDictionary
281
     1
  0
DICTIONARY
  5
200
102
{ACAD_REACTORS
330
1FF
102
}
330
1FF
100
AcDbDictionary
281
     1
  0
SORTENTSTABLE
  5
715
102
{ACAD_REACTORS
330
1CE
102
}
330
1CE
100
AcDbSortentsTable
330
1F
331
485
  5
485
331
446
  5
446
331
481
  5
481
331
442
  5
442
331
47D
  5
47D
331
43E
  5
43E
331
43A
  5
43A
331
479
  5
479
331
40C
  5
40C
331
475
  5
475
331
471
  5
471
331
46D
  5
46D
331
4A8
  5
4A8
331
469
  5
469
331
437
  5
437
331
433
  5
433
331
4A4
  5
4A4
331
465
  5
465
331
4A0
  5
4A0
331
461
  5
461
331
49C
  5
49C
331
45D
  5
45D
331
498
  5
498
331
459
  5
459
331
42F
  5
42F
331
42B
  5
42B
331
427
  5
427
331
423
  5
423
331
494
  5
494
331
455
  5
455
331
490
  5
490
331
451
  5
451
331
48C
  5
48C
331
44D
  5
44D
331
488
  5
488
331
449
  5
449
331
1AFE
  5
1B05
331
41F
  5
41F
331
41B
  5
41B
331
417
  5
417
331
413
  5
413
331
484
  5
484
331
445
  5
445
331
480
  5
480
331
441
  5
441
331
43D
  5
43D
331
47C
  5
47C
331
439
  5
439
331
478
  5
478
331
40F
  5
40F
331
40B
  5
40B
331
474
  5
474
331
470
  5
470
331
4AB
  5
4AB
331
46C
  5
46C
331
468
  5
468
331
436
  5
436
331
432
  5
432
331
4A7
  5
4A7
331
4A3
  5
4A3
331
464
  5
464
331
49F
  5
49F
331
460
  5
460
331
45C
  5
45C
331
49B
  5
49B
331
458
  5
458
331
42E
  5
42E
331
42A
  5
42A
331
426
  5
426
331
422
  5
422
331
497
  5
497
331
454
  5
454
331
493
  5
493
331
450
  5
450
331
48F
  5
48F
331
44C
  5
44C
331
48B
  5
48B
331
448
  5
448
331
1AFD
  5
1AFE
331
41E
  5
41E
331
41A
  5
41A
331
416
  5
416
331
412
  5
412
331
487
  5
487
331
483
  5
483
331
444
  5
444
331
440
  5
440
331
47F
  5
47F
331
43C
  5
43C
331
47B
  5
47B
331
438
  5
438
331
40E
  5
40E
331
40A
  5
40A
331
477
  5
477
331
473
  5
473
331
46F
  5
46F
331
46B
  5
46B
331
4AA
  5
4AA
331
435
  5
435
331
431
  5
431
331
467
  5
467
331
4A6
  5
4A6
331
463
  5
463
331
4A2
  5
4A2
331
49E
  5
49E
331
45F
  5
45F
331
45B
  5
45B
331
49A
  5
49A
331
42D
  5
42D
331
429
  5
429
331
425
  5
425
331
421
  5
421
331
457
  5
457
331
496
  5
496
331
453
  5
453
331
492
  5
492
331
48E
  5
48E
331
44F
  5
44F
331
48A
  5
48A
331
44B
  5
44B
331
41D
  5
41D
331
419
  5
419
331
415
  5
415
331
411
  5
411
331
486
  5
486
331
447
  5
447
331
482
  5
482
331
443
  5
443
331
47E
  5
47E
331
43F
  5
43F
331
43B
  5
43B
331
47A
  5
47A
331
40D
  5
40D
331
476
  5
476
331
472
  5
472
331
46E
  5
46E
331
4A9
  5
4A9
331
46A
  5
46A
331
434
  5
434
331
430
  5
430
331
466
  5
466
331
4A5
  5
4A5
331
462
  5
462
331
4A1
  5
4A1
331
49D
  5
49D
331
45E
  5
45E
331
499
  5
499
331
45A
  5
45A
331
42C
  5
42C
331
428
  5
428
331
424
  5
424
331
420
  5
420
331
456
  5
456
331
495
  5
495
331
452
  5
452
331
491
  5
491
331
48D
  5
48D
331
44E
  5
44E
331
489
  5
489
331
44A
  5
44A
331
41C
  5
41C
331
418
  5
418
331
414
  5
414
331
410
  5
410
  0
SORTENTSTABLE
  5
18D1
102
{ACAD_REACTORS
330
18D0
102
}
330
18D0
100
AcDbSortentsTable
330
18AF
  0
DIMASSOC
  5
1E8B
102
{ACAD_REACTORS
330
1E80
102
}
330
1E80
100
AcDbDimAssoc
330
1E72
 90
        3
 70
     0
 71
     0
  1
AcDbOsnapPointRef
 72
     1
331
1E65
 73
     2
 91
        5
 40
1.0
 10
0.0
 20
0.0
 30
2.000000000000000E+50
 75
     0
  1
AcDbOsnapPointRef
 72
    13
331
1E65
 73
     2
 91
        1
 40
0.0
 10
0.0
 20
0.0
 30
2.000000000000000E+50
 75
     0
  0
DIMASSOC
  5
1EA5
102
{ACAD_REACTORS
330
1E9A
102
}
330
1E9A
100
AcDbDimAssoc
330
1E8C
 90
        3
 70
     0
 71
     0
  1
AcDbOsnapPointRef
 72
     1
331
1E65
 73
     2
 91
        7
 40
1.0
 10
0.0
 20
0.0
 30
2.000000000000000E+50
 75
     0
  1
AcDbOsnapPointRef
 72
     1
331
1E65
 73
     2
 91
        2
 40
6.283185307179586
 10
0.0
 20
0.0
 30
2.000000000000000E+50
 75
     0
  0
DIMASSOC
  5
1EC8
102
{ACAD_REACTORS
330
1EC2
102
}
330
1EC2
100
AcDbDimAssoc
330
1EB9
 90
        2
 70
     0
 71
     0
  1
AcDbOsnapPointRef
 72
     3
331
1E65
 73
     2
 91
        4
 40
0.0
 10
0.0
 20
0.0
 30
0.0
 75
     0
  0
ACDBDETAILVIEWSTYLE
  5
130E
102
{ACAD_XDICTIONARY
360
1364
102
}
102
{ACAD_REACTORS
330
21B
102
}
330
21B
100
AcDbModelDocViewStyle
 70
     0
  3
Imperial24
290
     0
100
AcDbDetailViewStyle
 70
     0
 71
     0
 90
        3
 71
     1
340
11
 62
   256
 40
0.24
340
0
 62
   256
 40
0.24
300

 40
0.36
280
     3
 71
     2
340
16
 90
       25
 62
   256
 71
     3
340
11
 62
   256
 40
0.24
 90
        1
 40
0.75
 90
        1
300
%<\AcVar ViewType \f "%tc1">% %<\AcVar ViewDetailId>%\PSCALE %<\AcVar ViewScale \f "%sn">%
 71
     4
340
16
 90
       25
 62
   256
340
16
 90
       25
 62
   256
280
     0
  0
ACDBDETAILVIEWSTYLE
  5
21C
102
{ACAD_XDICTIONARY
360
1360
102
}
102
{ACAD_REACTORS
330
21B
102
}
330
21B
100
AcDbModelDocViewStyle
 70
     0
  3
Metric50
290
     0
100
AcDbDetailViewStyle
 70
     0
 71
     0
 90
        3
 71
     1
340
11
 62
   256
 40
5.0
340
0
 62
   256
 40
5.0
300

 40
0.0
280
     1
 71
     2
340
16
 90
       25
 62
   256
 71
     3
340
11
 62
   256
 40
5.0
 90
        0
 40
15.0
 90
        1
300
%<\AcVar ViewDetailId>% (%<\AcVar ViewScale \f "%sn">%)
 71
     4
340
16
 90
       25
 62
   256
340
16
 90
       25
 62
   256
280
     0
  0
LAYOUT
  5
22
102
{ACAD_XDICTIONARY
360
205
102
}
102
{ACAD_REACTORS
330
1A
102
}
330
1A
100
AcDbPlotSettings
  1

  2
none_device
  4
ISO_A4_(210.00_x_297.00_MM)
  6

 40
7.5
 41
20.0
 42
7.5
 43
20.0
 44
210.0
 45
297.0
 46
11.54999923706054
 47
-13.65000009536743
 48
0.0
 49
0.0
140
0.0
141
0.0
142
1.0
143
8.704084754739808
 70
 11952
 72
     1
 73
     0
 74
     0
  7

 75
     0
147
0.1148885871608098
 76
     0
 77
     2
 78
   300
148
0.0
149
0.0
100
AcDbLayout
  1
Model
 70
     1
 71
     0
 10
0.0
 20
0.0
 11
12.0
 21
9.0
 12
0.0
 22
0.0
 32
0.0
 14
0.0
 24
0.0
 34
0.0
 15
0.0
 25
0.0
 35
0.0
146
0.0
 13
0.0
 23
0.0
 33
0.0
 16
1.0
 26
0.0
 36
0.0
 17
0.0
 27
1.0
 37
0.0
 76
     0
330
1F
331
EA
1001
ACAD_PSEXT
1000
None
1000
None
1000
Not applicable
1000
The layout will not be plotted unless a new plotter configuration name is selected.
1070
     0
  0
LAYOUT
  5
D3
102
{ACAD_REACTORS
330
1A
102
}
330
1A
100
AcDbPlotSettings
  1

  2
C:\Documents and Settings\basas\Application Data\Autodesk\AutoCAD 2005\R16.1\enu\plotters\Default Windows System Printer.pc3
  4

  6

 40
0.0
 41
0.0
 42
0.0
 43
0.0
 44
0.0
 45
0.0
 46
0.0
 47
0.0
 48
0.0
 49
0.0
140
0.0
141
0.0
142
1.0
143
1.0
 70
   688
 72
     0
 73
     0
 74
     5
  7

 75
    16
147
1.0
 76
     0
 77
     2
 78
   300
148
0.0
149
0.0
100
AcDbLayout
  1
布局1
 70
     1
 71
     1
 10
0.0
 20
0.0
 11
12.0
 21
9.0
 12
0.0
 22
0.0
 32
0.0
 14
0.0
 24
0.0
 34
0.0
 15
0.0
 25
0.0
 35
0.0
146
0.0
 13
0.0
 23
0.0
 33
0.0
 16
1.0
 26
0.0
 36
0.0
 17
0.0
 27
1.0
 37
0.0
 76
     0
330
D2
  0
LAYOUT
  5
D7
102
{ACAD_REACTORS
330
1A
102
}
330
1A
100
AcDbPlotSettings
  1

  2
C:\Documents and Settings\basas\Application Data\Autodesk\AutoCAD 2005\R16.1\enu\plotters\Default Windows System Printer.pc3
  4

  6

 40
0.0
 41
0.0
 42
0.0
 43
0.0
 44
0.0
 45
0.0
 46
0.0
 47
0.0
 48
0.0
 49
0.0
140
0.0
141
0.0
142
1.0
143
1.0
 70
   688
 72
     0
 73
     0
 74
     5
  7

 75
    16
147
1.0
 76
     0
 77
     2
 78
   300
148
0.0
149
0.0
100
AcDbLayout
  1
布局2
 70
     1
 71
     2
 10
0.0
 20
0.0
 11
12.0
 21
9.0
 12
0.0
 22
0.0
 32
0.0
 14
0.0
 24
0.0
 34
0.0
 15
0.0
 25
0.0
 35
0.0
146
0.0
 13
0.0
 23
0.0
 33
0.0
 16
1.0
 26
0.0
 36
0.0
 17
0.0
 27
1.0
 37
0.0
 76
     0
330
D6
  0
MATERIAL
  5
ED
102
{ACAD_XDICTIONARY
360
1F9
102
}
102
{ACAD_REACTORS
330
6A
102
}
330
6A
100
AcDbMaterial
  1
ByBlock
 94
       63
  0
MATERIAL
  5
EC
102
{ACAD_XDICTIONARY
360
1F7
102
}
102
{ACAD_REACTORS
330
6A
102
}
330
6A
100
AcDbMaterial
  1
ByLayer
 94
       63
  0
MATERIAL
  5
EE
102
{ACAD_XDICTIONARY
360
173
102
}
102
{ACAD_REACTORS
330
6A
102
}
330
6A
100
AcDbMaterial
  1
Global
 43
0.0007999999797903
 43
0.0
 43
0.0
 43
0.0
 43
0.0
 43
0.0007999999797903
 43
0.0
 43
0.0
 43
0.0
 43
0.0
 43
1.0
 43
0.0
 43
0.0
 43
0.0
 43
0.0
 43
1.0
 49
0.0007999999797903
 49
0.0
 49
0.0
 49
0.0
 49
0.0
 49
0.0007999999797903
 49
0.0
 49
0.0
 49
0.0
 49
0.0
 49
1.0
 49
0.0
 49
0.0
 49
0.0
 49
0.0
 49
1.0
142
0.0007999999797903
142
0.0
142
0.0
142
0.0
142
0.0
142
0.0007999999797903
142
0.0
142
0.0
142
0.0
142
0.0
142
1.0
142
0.0
142
0.0
142
0.0
142
0.0
142
1.0
144
0.0007999999797903
144
0.0
144
0.0
144
0.0
144
0.0
144
0.0007999999797903
144
0.0
144
0.0
144
0.0
144
0.0
144
1.0
144
0.0
144
0.0
144
0.0
144
0.0
144
1.0
 94
       63
1001
ACAD
1070
    -1
1070
     3
1070
     0
1000

1071
        0
1070
     0
  0
MLEADERSTYLE
  5
13B
102
{ACAD_REACTORS
330
12D
102
}
330
12D
100
AcDbMLeaderStyle
179
     2
170
     2
171
     1
172
     0
 90
        2
 40
0.0
 41
0.0
173
     1
 91
-1056964608
340
14
 92
       -2
290
     1
 42
2.0
291
     1
 43
8.0
  3
Standard
 44
4.0
300

342
11
174
     1
178
     1
175
     1
176
     0
 93
-1056964608
 45
4.0
292
     0
297
     0
 46
4.0
 94
-1056964608
 47
1.0
 49
1.0
140
1.0
293
     1
141
0.0
294
     1
177
     0
142
1.0
295
     0
296
     1
143
3.75
271
     0
272
     9
273
     9
  0
MLEADERSTYLE
  5
2C7
102
{ACAD_REACTORS
330
12D
102
}
330
12D
100
AcDbMLeaderStyle
179
     2
170
     2
171
     1
172
     0
 90
        2
 40
0.0
 41
0.0
173
     1
 91
-1023410174
340
14
 92
        5
290
     1
 42
2.0
291
     1
 43
8.0
  3
Standard
 44
10.0
300

342
11
174
     1
178
     1
175
     1
176
     0
 93
-1056964608
 45
4.0
292
     0
297
     0
 46
4.0
 94
-1056964608
 47
1.0
 49
1.0
140
1.0
293
     1
141
0.0
294
     1
177
     0
142
1.0
295
     0
296
     0
143
3.75
271
     0
272
     9
273
     9
  0
MLEADERSTYLE
  5
12E
102
{ACAD_REACTORS
330
12D
102
}
330
12D
100
AcDbMLeaderStyle
179
     2
170
     2
171
     1
172
     0
 90
        2
 40
0.0
 41
0.0
173
     1
 91
-1056964608
340
14
 92
       -2
290
     1
 42
2.0
291
     1
 43
8.0
  3
Standard
 44
4.0
300

342
11
174
     1
178
     1
175
     1
176
     0
 93
-1056964608
 45
4.0
292
     0
297
     0
 46
4.0
 94
-1056964608
 47
1.0
 49
1.0
140
1.0
293
     1
141
0.0
294
     1
177
     0
142
1.0
295
     0
296
     0
143
3.75
271
     0
272
     9
273
     9
  0
MLINESTYLE
  5
18
102
{ACAD_REACTORS
330
17
102
}
330
17
100
AcDbMlineStyle
  2
STANDARD
 70
     0
  3

 62
   256
 51
90.0
 52
90.0
 71
     2
 49
0.5
 62
   256
  6
BYLAYER
 49
-0.5
 62
   256
  6
BYLAYER
  0
ACDBPLACEHOLDER
  5
F
102
{ACAD_REACTORS
330
E
102
}
330
E
  0
SCALE
  5
10D
102
{ACAD_REACTORS
330
10C
102
}
330
10C
100
AcDbScale
 70
     0
300
1:1
140
1.0
141
1.0
290
     1
  0
SCALE
  5
1BE
102
{ACAD_REACTORS
330
10C
102
}
330
10C
100
AcDbScale
 70
     0
300
1:2
140
1.0
141
2.0
290
     0
  0
SCALE
  5
1BF
102
{ACAD_REACTORS
330
10C
102
}
330
10C
100
AcDbScale
 70
     0
300
1:4
140
1.0
141
4.0
290
     0
  0
SCALE
  5
1C0
102
{ACAD_REACTORS
330
10C
102
}
330
10C
100
AcDbScale
 70
     0
300
1:5
140
1.0
141
5.0
290
     0
  0
SCALE
  5
1C1
102
{ACAD_REACTORS
330
10C
102
}
330
10C
100
AcDbScale
 70
     0
300
1:8
140
1.0
141
8.0
290
     0
  0
SCALE
  5
1C2
102
{ACAD_REACTORS
330
10C
102
}
330
10C
100
AcDbScale
 70
     0
300
1:10
140
1.0
141
10.0
290
     0
  0
SCALE
  5
1C3
102
{ACAD_REACTORS
330
10C
102
}
330
10C
100
AcDbScale
 70
     0
300
1:16
140
1.0
141
16.0
290
     0
  0
SCALE
  5
1C4
102
{ACAD_REACTORS
330
10C
102
}
330
10C
100
AcDbScale
 70
     0
300
1:20
140
1.0
141
20.0
290
     0
  0
SCALE
  5
1C5
102
{ACAD_REACTORS
330
10C
102
}
330
10C
100
AcDbScale
 70
     0
300
1:30
140
1.0
141
30.0
290
     0
  0
SCALE
  5
1C6
102
{ACAD_REACTORS
330
10C
102
}
330
10C
100
AcDbScale
 70
     0
300
1:40
140
1.0
141
40.0
290
     0
  0
SCALE
  5
1C7
102
{ACAD_REACTORS
330
10C
102
}
330
10C
100
AcDbScale
 70
     0
300
1:50
140
1.0
141
50.0
290
     0
  0
SCALE
  5
1C8
102
{ACAD_REACTORS
330
10C
102
}
330
10C
100
AcDbScale
 70
     0
300
1:100
140
1.0
141
100.0
290
     0
  0
SCALE
  5
1C9
102
{ACAD_REACTORS
330
10C
102
}
330
10C
100
AcDbScale
 70
     0
300
2:1
140
2.0
141
1.0
290
     0
  0
SCALE
  5
1CA
102
{ACAD_REACTORS
330
10C
102
}
330
10C
100
AcDbScale
 70
     0
300
4:1
140
4.0
141
1.0
290
     0
  0
SCALE
  5
1CB
102
{ACAD_REACTORS
330
10C
102
}
330
10C
100
AcDbScale
 70
     0
300
8:1
140
8.0
141
1.0
290
     0
  0
SCALE
  5
1CC
102
{ACAD_REACTORS
330
10C
102
}
330
10C
100
AcDbScale
 70
     0
300
10:1
140
10.0
141
1.0
290
     0
  0
SCALE
  5
1CD
102
{ACAD_REACTORS
330
10C
102
}
330
10C
100
AcDbScale
 70
     0
300
100:1
140
100.0
141
1.0
290
     0
  0
ACDBSECTIONVIEWSTYLE
  5
130D
102
{ACAD_XDICTIONARY
360
1362
102
}
102
{ACAD_REACTORS
330
219
102
}
330
219
100
AcDbModelDocViewStyle
 70
     0
  3
Imperial24
290
     0
100
AcDbSectionViewStyle
 70
     0
 71
     0
 90
       78
 71
     1
340
11
 62
   256
 40
0.24
340
0
340
0
 62
   256
 40
0.24
300
I, O, Q, S, X, Z
 40
0.48
 90
        3
 40
0.18
 90
        1
 71
     2
340
16
 90
       25
 62
   256
340
16
 90
       50
 62
   256
 40
0.24
 40
0.0
 40
0.24
 71
     3
340
11
 62
   256
 40
0.24
 90
        1
 40
0.75
 90
        1
300
%<\AcVar ViewType \f "%tc1">% %<\AcVar ViewSectionStartId>%-%<\AcVar ViewSectionEndId>%\PSCALE %<\AcVar ViewScale \f "%sn">%
 71
     4
 62
   256
 62
   257
300
ANSI31
 40
1.0
 90
        0
290
     0
290
     0
 90
        6
 40
0.0
 40
1.570796326794896
 40
0.2617993877991494
 40
1.308996938995747
 40
-0.2617993877991494
 40
1.832595714594046
  0
ACDBSECTIONVIEWSTYLE
  5
21A
102
{ACAD_XDICTIONARY
360
135E
102
}
102
{ACAD_REACTORS
330
219
102
}
330
219
100
AcDbModelDocViewStyle
 70
     0
  3
Metric50
290
     0
100
AcDbSectionViewStyle
 70
     0
 71
     0
 90
      102
 71
     1
340
11
 62
   256
 40
5.0
340
0
340
0
 62
   256
 40
5.0
300
I, O, Q, S, X, Z
 40
10.0
 90
        0
 40
2.5
 90
        0
 71
     2
340
16
 90
       25
 62
   256
340
16
 90
       50
 62
   256
 40
5.0
 40
2.5
 40
5.0
 71
     3
340
11
 62
   256
 40
5.0
 90
        0
 40
15.0
 90
        1
300
%<\AcVar ViewSectionStartId>%-%<\AcVar ViewSectionEndId>% (%<\AcVar ViewScale \f "%sn">%)
 71
     4
 62
   256
 62
   257
300
ANSI31
 40
1.0
 90
        0
290
     0
290
     0
 90
        6
 40
0.0
 40
1.570796326794896
 40
0.2617993877991494
 40
1.308996938995747
 40
-0.2617993877991494
 40
1.832595714594045
  0
TABLESTYLE
  5
7F
102
{ACAD_XDICTIONARY
360
162
102
}
102
{ACAD_REACTORS
330
7E
102
}
330
7E
100
AcDbTableStyle
280
     0
  3
Standard
 70
     0
 71
     0
 40
1.5
 41
1.5
280
     0
281
     0
  7
Standard
140
4.5
170
     2
 62
     0
 63
     7
283
     0
 90
      512
 91
        0
  1

274
    -2
284
     1
 64
     0
275
    -2
285
     1
 65
     0
276
    -2
286
     1
 66
     0
277
    -2
287
     1
 67
     0
278
    -2
288
     1
 68
     0
279
    -2
289
     1
 69
     0
  7
Standard
140
6.0
170
     5
 62
     0
 63
     7
283
     0
 90
      512
 91
        0
  1

274
    -2
284
     1
 64
     0
275
    -2
285
     1
 65
     0
276
    -2
286
     1
 66
     0
277
    -2
287
     1
 67
     0
278
    -2
288
     1
 68
     0
279
    -2
289
     1
 69
     0
  7
Standard
140
4.5
170
     5
 62
     0
 63
     7
283
     0
 90
      512
 91
        0
  1

274
    -2
284
     1
 64
     0
275
    -2
285
     1
 65
     0
276
    -2
286
     1
 66
     0
277
    -2
287
     1
 67
     0
278
    -2
288
     1
 68
     0
279
    -2
289
     1
 69
     0
  0
VISUALSTYLE
  5
F5
102
{ACAD_XDICTIONARY
360
1F5E
102
}
102
{ACAD_REACTORS
330
EF
102
}
330
EF
100
AcDbVisualStyle
  2
2dWireframe
 70
     4
177
     2
291
     0
 71
     0
176
     1
 72
     2
176
     1
 73
     1
176
     1
 90
        0
176
     1
 40
0.6
176
     1
 41
30.0
176
     1
 63
     7
421
 16777215
176
     1
 74
     1
176
     1
 91
        4
176
     1
 64
     7
176
     1
 65
   257
176
     1
 75
     1
176
     1
175
     1
176
     1
 42
1.0
176
     1
 92
        0
176
     1
 66
   257
176
     1
 43
1.0
176
     1
 76
     1
176
     1
 77
     6
176
     1
 78
     2
176
     1
 67
     7
176
     1
 79
     5
176
     1
170
     0
176
     1
171
     0
176
     1
290
     0
176
     1
 93
        1
176
     1
 44
0.0
176
     1
173
     0
176
     1
1001
ACAD
1000
AcDbSavedByObjectVersion
1070
     0
  0
VISUALSTYLE
  5
F4
102
{ACAD_XDICTIONARY
360
1F5C
102
}
102
{ACAD_REACTORS
330
EF
102
}
330
EF
100
AcDbVisualStyle
  2
Basic
 70
     7
177
     2
291
     1
 71
     1
176
     1
 72
     0
176
     1
 73
     1
176
     1
 90
        0
176
     1
 40
0.6
176
     1
 41
30.0
176
     1
 63
     7
421
 16777215
176
     1
 74
     0
176
     1
 91
        4
176
     1
 64
     7
176
     1
 65
   257
176
     1
 75
     1
176
     1
175
     1
176
     1
 42
1.0
176
     1
 92
        8
176
     1
 66
     7
176
     1
 43
1.0
176
     1
 76
     1
176
     1
 77
     6
176
     1
 78
     2
176
     1
 67
     7
176
     1
 79
     5
176
     1
170
     0
176
     1
171
     0
176
     1
290
     0
176
     1
 93
        1
176
     1
 44
0.0
176
     1
173
     0
176
     1
1001
ACAD
1000
AcDbSavedByObjectVersion
1070
     0
  0
VISUALSTYLE
  5
FB
102
{ACAD_XDICTIONARY
360
1F6A
102
}
102
{ACAD_REACTORS
330
EF
102
}
330
EF
100
AcDbVisualStyle
  2
Brighten
 70
    12
177
     2
291
     1
 71
     2
176
     1
 72
     2
176
     1
 73
     1
176
     1
 90
        0
176
     1
 40
0.6
176
     1
 41
30.0
176
     1
 63
     7
421
 16777215
176
     1
 74
     1
176
     1
 91
        4
176
     1
 64
     7
176
     1
 65
   257
176
     1
 75
     1
176
     1
175
     1
176
     1
 42
1.0
176
     1
 92
        8
176
     1
 66
     7
176
     1
 43
1.0
176
     1
 76
     1
176
     1
 77
     6
176
     1
 78
     2
176
     1
 67
     7
176
     1
 79
     5
176
     1
170
     0
176
     1
171
     0
176
     1
290
     0
176
     1
 93
        1
176
     1
 44
50.0
176
     1
173
     0
176
     1
1001
ACAD
1000
AcDbSavedByObjectVersion
1070
     0
  0
VISUALSTYLE
  5
FF
102
{ACAD_XDICTIONARY
360
1F72
102
}
102
{ACAD_REACTORS
330
EF
102
}
330
EF
100
AcDbVisualStyle
  2
ColorChange
 70
    16
177
     2
291
     1
 71
     2
176
     1
 72
     2
176
     1
 73
     3
176
     1
 90
        0
176
     1
 40
0.6
176
     1
 41
30.0
176
     1
 63
     8
421
  8421504
176
     1
 74
     1
176
     1
 91
        4
176
     1
 64
     7
176
     1
 65
   257
176
     1
 75
     1
176
     1
175
     1
176
     1
 42
1.0
176
     1
 92
        8
176
     1
 66
     8
424
  8421504
176
     1
 43
1.0
176
     1
 76
     1
176
     1
 77
     6
176
     1
 78
     2
176
     1
 67
     7
176
     1
 79
     5
176
     1
170
     0
176
     1
171
     0
176
     1
290
     0
176
     1
 93
        1
176
     1
 44
0.0
176
     1
173
     0
176
     1
1001
ACAD
1000
AcDbSavedByObjectVersion
1070
     0
  0
VISUALSTYLE
  5
F8
102
{ACAD_XDICTIONARY
360
1F64
102
}
102
{ACAD_REACTORS
330
EF
102
}
330
EF
100
AcDbVisualStyle
  2
Conceptual
 70
     9
177
     2
291
     0
 71
     3
176
     1
 72
     2
176
     1
 73
     1
176
     1
 90
        0
176
     1
 40
0.6
176
     1
 41
30.0
176
     1
 63
     7
421
 16777215
176
     1
 74
     2
176
     1
 91
        2
176
     1
 64
     7
176
     1
 65
   257
176
     1
 75
     1
176
     1
175
     1
176
     1
 42
40.0
176
     1
 92
        8
176
     1
 66
     7
176
     1
 43
1.0
176
     1
 76
     1
176
     1
 77
     6
176
     1
 78
     2
176
     1
 67
     7
176
     1
 79
     3
176
     1
170
     0
176
     1
171
     0
176
     1
290
     0
176
     1
 93
        1
176
     1
 44
0.0
176
     1
173
     0
176
     1
1001
ACAD
1000
AcDbSavedByObjectVersion
1070
     0
  0
VISUALSTYLE
  5
FA
102
{ACAD_XDICTIONARY
360
1F68
102
}
102
{ACAD_REACTORS
330
EF
102
}
330
EF
100
AcDbVisualStyle
  2
Dim
 70
    11
177
     2
291
     1
 71
     2
176
     1
 72
     2
176
     1
 73
     1
176
     1
 90
        0
176
     1
 40
0.6
176
     1
 41
30.0
176
     1
 63
     7
421
 16777215
176
     1
 74
     1
176
     1
 91
        4
176
     1
 64
     7
176
     1
 65
   257
176
     1
 75
     1
176
     1
175
     1
176
     1
 42
1.0
176
     1
 92
        8
176
     1
 66
     7
176
     1
 43
1.0
176
     1
 76
     1
176
     1
 77
     6
176
     1
 78
     2
176
     1
 67
     7
176
     1
 79
     5
176
     1
170
     0
176
     1
171
     0
176
     1
290
     0
176
     1
 93
        1
176
     1
 44
-50.0
176
     1
173
     0
176
     1
1001
ACAD
1000
AcDbSavedByObjectVersion
1070
     0
  0
VISUALSTYLE
  5
1E6
102
{ACAD_XDICTIONARY
360
1F78
102
}
102
{ACAD_REACTORS
330
EF
102
}
330
EF
100
AcDbVisualStyle
  2
EdgeColorOff
 70
    22
177
     2
291
     1
 71
     2
176
     0
 72
     2
176
     0
 73
     0
176
     0
 90
        0
176
     0
 40
0.6
176
     0
 41
30.0
176
     0
 63
     7
421
 16777215
176
     0
 74
     1
176
     0
 91
        4
176
     0
 64
     7
176
     0
 65
   257
176
     0
 75
     1
176
     0
175
     1
176
     0
 42
1.0
176
     0
 92
        8
176
     2
 66
     7
176
     0
 43
1.0
176
     0
 76
     1
176
     0
 77
     6
176
     0
 78
     2
176
     0
 67
     7
176
     0
 79
     5
176
     0
170
     0
176
     0
171
     0
176
     0
290
     0
176
     0
 93
        1
176
     0
 44
0.0
176
     0
173
     0
176
     0
1001
ACAD
1000
AcDbSavedByObjectVersion
1070
     0
  0
VISUALSTYLE
  5
FE
102
{ACAD_XDICTIONARY
360
1F70
102
}
102
{ACAD_REACTORS
330
EF
102
}
330
EF
100
AcDbVisualStyle
  2
Facepattern
 70
    15
177
     2
291
     1
 71
     2
176
     1
 72
     2
176
     1
 73
     1
176
     1
 90
        0
176
     1
 40
0.6
176
     1
 41
30.0
176
     1
 63
     7
421
 16777215
176
     1
 74
     1
176
     1
 91
        4
176
     1
 64
     7
176
     1
 65
   257
176
     1
 75
     1
176
     1
175
     1
176
     1
 42
1.0
176
     1
 92
        8
176
     1
 66
     7
176
     1
 43
1.0
176
     1
 76
     1
176
     1
 77
     6
176
     1
 78
     2
176
     1
 67
     7
176
     1
 79
     5
176
     1
170
     0
176
     1
171
     0
176
     1
290
     0
176
     1
 93
        1
176
     1
 44
0.0
176
     1
173
     0
176
     1
1001
ACAD
1000
AcDbSavedByObjectVersion
1070
     0
  0
VISUALSTYLE
  5
F0
102
{ACAD_XDICTIONARY
360
1F54
102
}
102
{ACAD_REACTORS
330
EF
102
}
330
EF
100
AcDbVisualStyle
  2
Flat
 70
     0
177
     2
291
     1
 71
     2
176
     1
 72
     1
176
     1
 73
     1
176
     1
 90
        2
176
     1
 40
0.6
176
     1
 41
30.0
176
     1
 63
     7
421
 16777215
176
     1
 74
     0
176
     1
 91
        0
176
     1
 64
     7
176
     1
 65
   257
176
     1
 75
     1
176
     1
175
     1
176
     1
 42
1.0
176
     1
 92
        8
176
     1
 66
     7
176
     1
 43
1.0
176
     1
 76
     1
176
     1
 77
     6
176
     1
 78
     2
176
     1
 67
     7
176
     1
 79
     5
176
     1
170
     0
176
     1
171
     0
176
     1
290
     0
176
     1
 93
       13
176
     1
 44
0.0
176
     1
173
     0
176
     1
1001
ACAD
1000
AcDbSavedByObjectVersion
1070
     0
  0
VISUALSTYLE
  5
F1
102
{ACAD_XDICTIONARY
360
1F56
102
}
102
{ACAD_REACTORS
330
EF
102
}
330
EF
100
AcDbVisualStyle
  2
FlatWithEdges
 70
     1
177
     2
291
     1
 71
     2
176
     1
 72
     1
176
     1
 73
     1
176
     1
 90
        2
176
     1
 40
0.6
176
     1
 41
30.0
176
     1
 63
     7
421
 16777215
176
     1
 74
     1
176
     1
 91
        0
176
     1
 64
     7
176
     1
 65
   257
176
     1
 75
     1
176
     1
175
     1
176
     1
 42
1.0
176
     1
 92
        0
176
     1
 66
   257
176
     1
 43
1.0
176
     1
 76
     1
176
     1
 77
     6
176
     1
 78
     2
176
     1
 67
     7
176
     1
 79
     5
176
     1
170
     0
176
     1
171
     0
176
     1
290
     0
176
     1
 93
       13
176
     1
 44
0.0
176
     1
173
     0
176
     1
1001
ACAD
1000
AcDbSavedByObjectVersion
1070
     0
  0
VISUALSTYLE
  5
F2
102
{ACAD_XDICTIONARY
360
1F58
102
}
102
{ACAD_REACTORS
330
EF
102
}
330
EF
100
AcDbVisualStyle
  2
Gouraud
 70
     2
177
     2
291
     1
 71
     2
176
     1
 72
     2
176
     1
 73
     1
176
     1
 90
        2
176
     1
 40
0.6
176
     1
 41
30.0
176
     1
 63
     7
421
 16777215
176
     1
 74
     0
176
     1
 91
        0
176
     1
 64
     7
176
     1
 65
   257
176
     1
 75
     1
176
     1
175
     1
176
     1
 42
1.0
176
     1
 92
        0
176
     1
 66
     7
176
     1
 43
1.0
176
     1
 76
     1
176
     1
 77
     6
176
     1
 78
     2
176
     1
 67
     7
176
     1
 79
     5
176
     1
170
     0
176
     1
171
     0
176
     1
290
     0
176
     1
 93
       13
176
     1
 44
0.0
176
     1
173
     0
176
     1
1001
ACAD
1000
AcDbSavedByObjectVersion
1070
     0
  0
VISUALSTYLE
  5
F3
102
{ACAD_XDICTIONARY
360
1F5A
102
}
102
{ACAD_REACTORS
330
EF
102
}
330
EF
100
AcDbVisualStyle
  2
GouraudWithEdges
 70
     3
177
     2
291
     1
 71
     2
176
     1
 72
     2
176
     1
 73
     1
176
     1
 90
        2
176
     1
 40
0.6
176
     1
 41
30.0
176
     1
 63
     7
421
 16777215
176
     1
 74
     1
176
     1
 91
        0
176
     1
 64
     7
176
     1
 65
   257
176
     1
 75
     1
176
     1
175
     1
176
     1
 42
1.0
176
     1
 92
        0
176
     1
 66
   257
176
     1
 43
1.0
176
     1
 76
     1
176
     1
 77
     6
176
     1
 78
     2
176
     1
 67
     7
176
     1
 79
     5
176
     1
170
     0
176
     1
171
     0
176
     1
290
     0
176
     1
 93
       13
176
     1
 44
0.0
176
     1
173
     0
176
     1
1001
ACAD
1000
AcDbSavedByObjectVersion
1070
     0
  0
VISUALSTYLE
  5
F7
102
{ACAD_XDICTIONARY
360
1F62
102
}
102
{ACAD_REACTORS
330
EF
102
}
330
EF
100
AcDbVisualStyle
  2
Hidden
 70
     6
177
     2
291
     0
 71
     1
176
     1
 72
     2
176
     1
 73
     2
176
     1
 90
        0
176
     1
 40
0.6
176
     1
 41
30.0
176
     1
 63
     7
421
 16777215
176
     1
 74
     2
176
     1
 91
        2
176
     1
 64
     7
176
     1
 65
   257
176
     1
 75
     2
176
     1
175
     1
176
     1
 42
40.0
176
     1
 92
        0
176
     1
 66
   257
176
     1
 43
1.0
176
     1
 76
     1
176
     1
 77
     6
176
     1
 78
     2
176
     1
 67
     7
176
     1
 79
     3
176
     1
170
     0
176
     1
171
     0
176
     1
290
     0
176
     1
 93
        1
176
     1
 44
0.0
176
     1
173
     0
176
     1
1001
ACAD
1000
AcDbSavedByObjectVersion
1070
     0
  0
VISUALSTYLE
  5
1E4
102
{ACAD_XDICTIONARY
360
1F74
102
}
102
{ACAD_REACTORS
330
EF
102
}
330
EF
100
AcDbVisualStyle
  2
JitterOff
 70
    20
177
     2
291
     1
 71
     2
176
     0
 72
     2
176
     0
 73
     0
176
     0
 90
        0
176
     0
 40
0.6
176
     0
 41
30.0
176
     0
 63
     7
421
 16777215
176
     0
 74
     1
176
     0
 91
        4
176
     0
 64
     7
176
     0
 65
   257
176
     0
 75
     1
176
     0
175
     1
176
     0
 42
1.0
176
     0
 92
       10
176
     2
 66
     7
176
     0
 43
1.0
176
     0
 76
     1
176
     0
 77
     6
176
     0
 78
     2
176
     0
 67
     7
176
     0
 79
     5
176
     0
170
     0
176
     0
171
     0
176
     0
290
     0
176
     0
 93
        1
176
     0
 44
0.0
176
     0
173
     0
176
     0
1001
ACAD
1000
AcDbSavedByObjectVersion
1070
     0
  0
VISUALSTYLE
  5
FD
102
{ACAD_XDICTIONARY
360
1F6E
102
}
102
{ACAD_REACTORS
330
EF
102
}
330
EF
100
AcDbVisualStyle
  2
Linepattern
 70
    14
177
     2
291
     1
 71
     2
176
     1
 72
     2
176
     1
 73
     1
176
     1
 90
        0
176
     1
 40
0.6
176
     1
 41
30.0
176
     1
 63
     7
421
 16777215
176
     1
 74
     1
176
     1
 91
        4
176
     1
 64
     7
176
     1
 65
   257
176
     1
 75
     7
176
     1
175
     7
176
     1
 42
1.0
176
     1
 92
        8
176
     1
 66
     7
176
     1
 43
1.0
176
     1
 76
     1
176
     1
 77
     6
176
     1
 78
     2
176
     1
 67
     7
176
     1
 79
     5
176
     1
170
     0
176
     1
171
     0
176
     1
290
     0
176
     1
 93
        1
176
     1
 44
0.0
176
     1
173
     0
176
     1
1001
ACAD
1000
AcDbSavedByObjectVersion
1070
     0
  0
VISUALSTYLE
  5
1E5
102
{ACAD_XDICTIONARY
360
1F76
102
}
102
{ACAD_REACTORS
330
EF
102
}
330
EF
100
AcDbVisualStyle
  2
OverhangOff
 70
    21
177
     2
291
     1
 71
     2
176
     0
 72
     2
176
     0
 73
     0
176
     0
 90
        0
176
     0
 40
0.6
176
     0
 41
30.0
176
     0
 63
     7
421
 16777215
176
     0
 74
     1
176
     0
 91
        4
176
     0
 64
     7
176
     0
 65
   257
176
     0
 75
     1
176
     0
175
     1
176
     0
 42
1.0
176
     0
 92
        9
176
     2
 66
     7
176
     0
 43
1.0
176
     0
 76
     1
176
     0
 77
     6
176
     0
 78
     2
176
     0
 67
     7
176
     0
 79
     5
176
     0
170
     0
176
     0
171
     0
176
     0
290
     0
176
     0
 93
        1
176
     0
 44
0.0
176
     0
173
     0
176
     0
1001
ACAD
1000
AcDbSavedByObjectVersion
1070
     0
  0
VISUALSTYLE
  5
F9
102
{ACAD_XDICTIONARY
360
1F66
102
}
102
{ACAD_REACTORS
330
EF
102
}
330
EF
100
AcDbVisualStyle
  2
Realistic
 70
     8
177
     2
291
     0
 71
     2
176
     1
 72
     3
176
     1
 73
     0
176
     1
 90
        2
176
     1
 40
0.6
176
     1
 41
30.0
176
     1
 63
     7
421
 16777215
176
     1
 74
     0
176
     1
 91
        0
176
     1
 64
     7
176
     1
 65
   257
176
     1
 75
     1
176
     1
175
     1
176
     1
 42
1.0
176
     1
 92
        8
176
     1
 66
   257
176
     1
 43
1.0
176
     1
 76
     1
176
     1
 77
     6
176
     1
 78
     2
176
     1
 67
     7
176
     1
 79
     3
176
     1
170
     0
176
     1
171
     0
176
     1
290
     0
176
     1
 93
       13
176
     1
 44
0.0
176
     1
173
     0
176
     1
1001
ACAD
1000
AcDbSavedByObjectVersion
1070
     0
  0
VISUALSTYLE
  5
1F3
102
{ACAD_XDICTIONARY
360
1F82
102
}
102
{ACAD_REACTORS
330
EF
102
}
330
EF
100
AcDbVisualStyle
  2
Shaded
 70
    27
177
     2
291
     0
 71
     2
176
     1
 72
     2
176
     1
 73
     1
176
     1
 90
        2
176
     1
 40
0.6
176
     1
 41
30.0
176
     1
 63
     7
421
 16777215
176
     1
 74
     0
176
     1
 91
        4
176
     1
 64
     7
176
     1
 65
   257
176
     1
 75
     1
176
     1
175
     1
176
     1
 42
1.0
176
     1
 92
        8
176
     1
 66
   257
176
     1
 43
1.0
176
     1
 76
     1
176
     1
 77
     6
176
     1
 78
     2
176
     1
 67
     8
425
  7895160
176
     1
 79
     3
176
     1
170
     0
176
     1
171
     0
176
     1
290
     0
176
     1
 93
        5
176
     1
 44
0.0
176
     1
173
     0
176
     1
1001
ACAD
1000
AcDbSavedByObjectVersion
1070
     0
  0
VISUALSTYLE
  5
1F2
102
{ACAD_XDICTIONARY
360
1F80
102
}
102
{ACAD_REACTORS
330
EF
102
}
330
EF
100
AcDbVisualStyle
  2
Shaded with edges
 70
    26
177
     2
291
     0
 71
     2
176
     1
 72
     2
176
     1
 73
     1
176
     1
 90
        2
176
     1
 40
0.6
176
     1
 41
30.0
176
     1
 63
     7
421
 16777215
176
     1
 74
     1
176
     1
 91
       10
176
     1
 64
     7
176
     1
 65
   257
176
     1
 75
     2
176
     1
175
     1
176
     1
 42
1.0
176
     1
 92
        8
176
     1
 66
   257
176
     1
 43
1.0
176
     1
 76
     1
176
     1
 77
     6
176
     1
 78
     2
176
     1
 67
     7
176
     1
 79
     3
176
     1
170
     0
176
     1
171
     0
176
     1
290
     0
176
     1
 93
        5
176
     1
 44
0.0
176
     1
173
     0
176
     1
1001
ACAD
1000
AcDbSavedByObjectVersion
1070
     0
  0
VISUALSTYLE
  5
1EF
102
{ACAD_XDICTIONARY
360
1F7A
102
}
102
{ACAD_REACTORS
330
EF
102
}
330
EF
100
AcDbVisualStyle
  2
Shades of Gray
 70
    23
177
     2
291
     0
 71
     2
176
     1
 72
     2
176
     1
 73
     3
176
     1
 90
        0
176
     1
 40
0.6
176
     1
 41
30.0
176
     1
 63
     7
421
 16777215
176
     1
 74
     2
176
     1
 91
        2
176
     1
 64
     7
176
     1
 65
     7
176
     1
 75
     1
176
     1
175
     1
176
     1
 42
40.0
176
     1
 92
        8
176
     1
 66
     7
176
     1
 43
1.0
176
     1
 76
     1
176
     1
 77
     6
176
     1
 78
     2
176
     1
 67
     7
176
     1
 79
     3
176
     1
170
     0
176
     1
171
     0
176
     1
290
     0
176
     1
 93
        1
176
     1
 44
0.0
176
     1
173
     0
176
     1
1001
ACAD
1000
AcDbSavedByObjectVersion
1070
     0
  0
VISUALSTYLE
  5
1F0
102
{ACAD_XDICTIONARY
360
1F7C
102
}
102
{ACAD_REACTORS
330
EF
102
}
330
EF
100
AcDbVisualStyle
  2
Sketchy
 70
    24
177
     2
291
     0
 71
     1
176
     1
 72
     2
176
     1
 73
     2
176
     1
 90
        0
176
     1
 40
0.6
176
     1
 41
30.0
176
     1
 63
     7
421
 16777215
176
     1
 74
     2
176
     1
 91
        2
176
     1
 64
     7
176
     1
 65
     7
176
     1
 75
     1
176
     1
175
     1
176
     1
 42
40.0
176
     1
 92
       11
176
     1
 66
     7
176
     1
 43
1.0
176
     1
 76
     1
176
     1
 77
     6
176
     1
 78
     2
176
     1
 67
     7
176
     1
 79
     6
176
     1
170
     0
176
     1
171
     0
176
     1
290
     0
176
     1
 93
        1
176
     1
 44
0.0
176
     1
173
     0
176
     1
1001
ACAD
1000
AcDbSavedByObjectVersion
1070
     0
  0
VISUALSTYLE
  5
FC
102
{ACAD_XDICTIONARY
360
1F6C
102
}
102
{ACAD_REACTORS
330
EF
102
}
330
EF
100
AcDbVisualStyle
  2
Thicken
 70
    13
177
     2
291
     1
 71
     2
176
     1
 72
     2
176
     1
 73
     1
176
     1
 90
        0
176
     1
 40
0.6
176
     1
 41
30.0
176
     1
 63
     7
421
 16777215
176
     1
 74
     1
176
     1
 91
        4
176
     1
 64
     7
176
     1
 65
   257
176
     1
 75
     1
176
     1
175
     1
176
     1
 42
1.0
176
     1
 92
       12
176
     1
 66
     7
176
     1
 43
1.0
176
     1
 76
     1
176
     1
 77
     6
176
     1
 78
     2
176
     1
 67
     7
176
     1
 79
     5
176
     1
170
     0
176
     1
171
     0
176
     1
290
     0
176
     1
 93
        1
176
     1
 44
0.0
176
     1
173
     0
176
     1
1001
ACAD
1000
AcDbSavedByObjectVersion
1070
     0
  0
VISUALSTYLE
  5
F6
102
{ACAD_XDICTIONARY
360
1F60
102
}
102
{ACAD_REACTORS
330
EF
102
}
330
EF
100
AcDbVisualStyle
  2
Wireframe
 70
     5
177
     2
291
     0
 71
     0
176
     1
 72
     2
176
     1
 73
     0
176
     1
 90
        0
176
     1
 40
0.6
176
     1
 41
30.0
176
     1
 63
     7
421
 16777215
176
     1
 74
     1
176
     1
 91
        4
176
     1
 64
     7
176
     1
 65
   257
176
     1
 75
     1
176
     1
175
     1
176
     1
 42
1.0
176
     1
 92
        0
176
     1
 66
   257
176
     1
 43
1.0
176
     1
 76
     1
176
     1
 77
     6
176
     1
 78
     2
176
     1
 67
     7
176
     1
 79
     3
176
     1
170
     0
176
     1
171
     0
176
     1
290
     0
176
     1
 93
        1
176
     1
 44
0.0
176
     1
173
     0
176
     1
1001
ACAD
1000
AcDbSavedByObjectVersion
1070
     0
  0
VISUALSTYLE
  5
1F1
102
{ACAD_XDICTIONARY
360
1F7E
102
}
102
{ACAD_REACTORS
330
EF
102
}
330
EF
100
AcDbVisualStyle
  2
X-Ray
 70
    25
177
     2
291
     0
 71
     2
176
     1
 72
     2
176
     1
 73
     1
176
     1
 90
        1
176
     1
 40
0.5
176
     1
 41
30.0
176
     1
 63
     7
421
 16777215
176
     1
 74
     1
176
     1
 91
        0
176
     1
 64
     7
176
     1
 65
   257
176
     1
 75
     1
176
     1
175
     1
176
     1
 42
1.0
176
     1
 92
        8
176
     1
 66
     7
176
     1
 43
1.0
176
     1
 76
     1
176
     1
 77
     6
176
     1
 78
     2
176
     1
 67
     7
176
     1
 79
     3
176
     1
170
     0
176
     1
171
     0
176
     1
290
     0
176
     1
 93
       13
176
     1
 44
0.0
176
     1
173
     0
176
     1
1001
ACAD
1000
AcDbSavedByObjectVersion
1070
     0
  0
DICTIONARYVAR
  5
146
102
{ACAD_REACTORS
330
5E
102
}
330
5E
100
DictionaryVariables
280
     0
  1
1:1
  0
DICTIONARYVAR
  5
145
102
{ACAD_REACTORS
330
5E
102
}
330
5E
100
DictionaryVariables
280
     0
  1
STANDARD
  0
DICTIONARYVAR
  5
84
102
{ACAD_REACTORS
330
5E
102
}
330
5E
100
DictionaryVariables
280
     0
  1
STANDARD
  0
DICTIONARYVAR
  5
227
102
{ACAD_REACTORS
330
5E
102
}
330
5E
100
DictionaryVariables
280
     0
  1
Metric50
  0
DICTIONARYVAR
  5
228
102
{ACAD_REACTORS
330
5E
102
}
330
5E
100
DictionaryVariables
280
     0
  1
Metric50
  0
DICTIONARYVAR
  5
5F
102
{ACAD_REACTORS
330
5E
102
}
330
5E
100
DictionaryVariables
280
     0
  1
2
  0
DICTIONARYVAR
  5
63
102
{ACAD_REACTORS
330
5E
102
}
330
5E
100
DictionaryVariables
280
     0
  1
1
  0
DICTIONARYVAR
  5
1AE
102
{ACAD_REACTORS
330
5E
102
}
330
5E
100
DictionaryVariables
280
     0
  1
0
  0
DICTIONARYVAR
  5
1AF
102
{ACAD_REACTORS
330
5E
102
}
330
5E
100
DictionaryVariables
280
     0
  1
0
  0
DICTIONARY
  5
1F53
102
{ACAD_REACTORS
330
1F51
102
}
330
1F51
100
AcDbDictionary
281
     1
  0
DICTIONARY
  5
1F52
102
{ACAD_REACTORS
330
1F51
102
}
330
1F51
100
AcDbDictionary
281
     1
  3
140698104572096
350
1F4C
  3
140698104572112
350
1F4D
  3
140698104572128
350
1F4E
  3
140698104572144
350
1F4F
  3
140698104572160
350
1F50
  0
DICTIONARY
  5
1364
330
130E
100
AcDbDictionary
280
     1
281
     1
  3
ACAD_XREC_ROUNDTRIP
360
1F87
  0
DICTIONARY
  5
1360
330
21C
100
AcDbDictionary
280
     1
281
     1
  3
ACAD_XREC_ROUNDTRIP
360
1F85
  0
DICTIONARY
  5
205
330
22
100
AcDbDictionary
280
     1
281
     1
  0
DICTIONARY
  5
1F9
330
ED
100
AcDbDictionary
280
     1
281
     1
  3
FBXASSET
360
1FA
  0
DICTIONARY
  5
1F7
330
EC
100
AcDbDictionary
280
     1
281
     1
  3
FBXASSET
360
1F8
  0
DICTIONARY
  5
173
330
EE
100
AcDbDictionary
280
     1
281
     1
  3
BUMPTILE
360
175
  3
DIFFUSETILE
360
174
  3
FBXASSET
360
1FB
  3
OPACITYTILE
360
176
  3
REFLECTIONTILE
360
177
  0
DICTIONARY
  5
1362
330
130D
100
AcDbDictionary
280
     1
281
     1
  3
ACAD_XREC_ROUNDTRIP
360
1F86
  0
DICTIONARY
  5
135E
330
21A
100
AcDbDictionary
280
     1
281
     1
  3
ACAD_XREC_ROUNDTRIP
360
1F84
  0
DICTIONARY
  5
162
330
7F
100
AcDbDictionary
280
     1
281
     1
  3
ACAD_ROUNDTRIP_2008_TABLESTYLE_CELLSTYLEMAP
360
1F4A
  0
DICTIONARY
  5
1F5E
330
F5
100
AcDbDictionary
280
     1
281
     1
  3
ACAD_XREC_ROUNDTRIP
360
1F5F
  0
DICTIONARY
  5
1F5C
330
F4
100
AcDbDictionary
280
     1
281
     1
  3
ACAD_XREC_ROUNDTRIP
360
1F5D
  0
DICTIONARY
  5
1F6A
330
FB
100
AcDbDictionary
280
     1
281
     1
  3
ACAD_XREC_ROUNDTRIP
360
1F6B
  0
DICTIONARY
  5
1F72
330
FF
100
AcDbDictionary
280
     1
281
     1
  3
ACAD_XREC_ROUNDTRIP
360
1F73
  0
DICTIONARY
  5
1F64
330
F8
100
AcDbDictionary
280
     1
281
     1
  3
ACAD_XREC_ROUNDTRIP
360
1F65
  0
DICTIONARY
  5
1F68
330
FA
100
AcDbDictionary
280
     1
281
     1
  3
ACAD_XREC_ROUNDTRIP
360
1F69
  0
DICTIONARY
  5
1F78
330
1E6
100
AcDbDictionary
280
     1
281
     1
  3
ACAD_XREC_ROUNDTRIP
360
1F79
  0
DICTIONARY
  5
1F70
330
FE
100
AcDbDictionary
280
     1
281
     1
  3
ACAD_XREC_ROUNDTRIP
360
1F71
  0
DICTIONARY
  5
1F54
330
F0
100
AcDbDictionary
280
     1
281
     1
  3
ACAD_XREC_ROUNDTRIP
360
1F55
  0
DICTIONARY
  5
1F56
330
F1
100
AcDbDictionary
280
     1
281
     1
  3
ACAD_XREC_ROUNDTRIP
360
1F57
  0
DICTIONARY
  5
1F58
330
F2
100
AcDbDictionary
280
     1
281
     1
  3
ACAD_XREC_ROUNDTRIP
360
1F59
  0
DICTIONARY
  5
1F5A
330
F3
100
AcDbDictionary
280
     1
281
     1
  3
ACAD_XREC_ROUNDTRIP
360
1F5B
  0
DICTIONARY
  5
1F62
330
F7
100
AcDbDictionary
280
     1
281
     1
  3
ACAD_XREC_ROUNDTRIP
360
1F63
  0
DICTIONARY
  5
1F74
330
1E4
100
AcDbDictionary
280
     1
281
     1
  3
ACAD_XREC_ROUNDTRIP
360
1F75
  0
DICTIONARY
  5
1F6E
330
FD
100
AcDbDictionary
280
     1
281
     1
  3
ACAD_XREC_ROUNDTRIP
360
1F6F
  0
DICTIONARY
  5
1F76
330
1E5
100
AcDbDictionary
280
     1
281
     1
  3
ACAD_XREC_ROUNDTRIP
360
1F77
  0
DICTIONARY
  5
1F66
330
F9
100
AcDbDictionary
280
     1
281
     1
  3
ACAD_XREC_ROUNDTRIP
360
1F67
  0
DICTIONARY
  5
1F82
330
1F3
100
AcDbDictionary
280
     1
281
     1
  3
ACAD_XREC_ROUNDTRIP
360
1F83
  0
DICTIONARY
  5
1F80
330
1F2
100
AcDbDictionary
280
     1
281
     1
  3
ACAD_XREC_ROUNDTRIP
360
1F81
  0
DICTIONARY
  5
1F7A
330
1EF
100
AcDbDictionary
280
     1
281
     1
  3
ACAD_XREC_ROUNDTRIP
360
1F7B
  0
DICTIONARY
  5
1F7C
330
1F0
100
AcDbDictionary
280
     1
281
     1
  3
ACAD_XREC_ROUNDTRIP
360
1F7D
  0
DICTIONARY
  5
1F6C
330
FC
100
AcDbDictionary
280
     1
281
     1
  3
ACAD_XREC_ROUNDTRIP
360
1F6D
  0
DICTIONARY
  5
1F60
330
F6
100
AcDbDictionary
280
     1
281
     1
  3
ACAD_XREC_ROUNDTRIP
360
1F61
  0
DICTIONARY
  5
1F7E
330
1F1
100
AcDbDictionary
280
     1
281
     1
  3
ACAD_XREC_ROUNDTRIP
360
1F7F
  0
XRECORD
  5
1F4C
102
{ACAD_REACTORS
330
1F52
102
}
330
1F52
100
AcDbXrecord
280
     1
  1
AcDb_Thumbnail_Schema
102
{ATTRRECORD
341
1F4D
  2
AcDbDs::TreatedAsObjectData
280
     1
291
     1
102
ATTRRECORD}
102
{ATTRRECORD
341
1F4E
  2
AcDbDs::Legacy
280
     1
291
     1
102
ATTRRECORD}
  2
AcDbDs::ID
280
    10
 91
        8
102
{ATTRRECORD
341
1F4F
  2
AcDs:Indexable
280
     1
291
     1
102
ATTRRECORD}
102
{ATTRRECORD
341
1F50
  2
AcDbDs::HandleAttribute
280
     7
282
     1
102
ATTRRECORD}
  2
Thumbnail_Data
280
    15
 91
        0
  0
XRECORD
  5
1F4D
102
{ACAD_REACTORS
330
1F52
102
}
330
1F52
100
AcDbXrecord
280
     1
  1
AcDbDs::TreatedAsObjectDataSchema
  2
AcDbDs::TreatedAsObjectData
280
     1
 91
        0
  0
XRECORD
  5
1F4E
102
{ACAD_REACTORS
330
1F52
102
}
330
1F52
100
AcDbXrecord
280
     1
  1
AcDbDs::LegacySchema
  2
AcDbDs::Legacy
280
     1
 91
        0
  0
XRECORD
  5
1F4F
102
{ACAD_REACTORS
330
1F52
102
}
330
1F52
100
AcDbXrecord
280
     1
  1
AcDbDs::IndexedPropertySchema
  2
AcDs:Indexable
280
     1
 91
        0
  0
XRECORD
  5
1F50
102
{ACAD_REACTORS
330
1F52
102
}
330
1F52
100
AcDbXrecord
280
     1
  1
AcDbDs::HandleAttributeSchema
  2
AcDbDs::HandleAttribute
280
     7
 91
        1
284
     1
  0
XRECORD
  5
1F87
102
{ACAD_REACTORS
330
1364
102
}
330
1364
100
AcDbXrecord
280
     1
102
DISPLAYNAME
  1
Imperial24
102
FLAGS
 90
        0
  0
XRECORD
  5
1F85
102
{ACAD_REACTORS
330
1360
102
}
330
1360
100
AcDbXrecord
280
     1
102
DISPLAYNAME
  1
Metric50
102
FLAGS
 90
        0
  0
XRECORD
  5
1FA
102
{ACAD_REACTORS
330
1F9
102
}
330
1F9
100
AcDbXrecord
280
     1
 70
     1
 90
429727718
  1
D62C5603-E3A1-4AEA-B7FB-FE5D8D0755AF
310
504B03040A0000080000CC70623B3DEE336E79000000790000001B0000006175746F6465736B2D64657369676E2D7061636B6167652E786D6C3C3F786D6C2076657273696F6E3D22312E302220656E636F64696E673D227574662D3822203F3E3C666F726D6174733E3C666F726D61743E687474703A2F2F736368656D612E
310
6175746F6465736B2E636F6D2F64657369676E2D7061636B6167652F323030393C2F666F726D61743E3C2F666F726D6174733E504B0304140006080800CC70623BD486FD9CA0000000F4000000130000005B436F6E74656E745F54797065735D2E786D6C7D8EC10E82300C865F65E91D8A1E8C310C0EEA1BF002731658846E
310
D98AC1B77784ABF1D8FE5FBFBF75BBCE937A534CCEB38643598122B6FEE978D0B0485F9C41B54DDD7D022595594E1A469170414C76A4D9A4D207E29CF43ECE46F218070CC6BECC4078ACAA135ACF422C856C0E68EA1BF5669944DDD7BCDE7B1F8E415D77AECB980613C2E4AC91FC167A2B244592486606FC29C8FD7F045B9A
310
EF7053A7E60B504B0304140006080800CC70623B853B8169EB0000007C01000008000000636F72652E786D6C8D90416EC3201045AF62CDB6C206821CC7C244919D9CA01740401C94182C03558F5F9C3852BBEB6A467FFE9B197D7EFC9E1EC5975982F5AE035262288C535E5B377690E21535501C055FBC8FBF6C503839990E
310
5619041F179FE64D52DE45E362569DD7661365082642A11EB9E920A89B99642953CC8E702F67A9EE7234257977194EC9EAE275C4EABCCF5EAD5940D4AC6F0E35A568B8F43562CD7046CD199FD07E60174276A7BE677B5EADB0E0D14EEFFB6A31321A0D82627C4084204C3F096B71DD52F6819B16635EADF63F509AF53FA164
310
5DDCD1EDDD17164090FCC8732078B56691CB33A85CD7DCC40F504B0304140006080800CC70623B55019EA25F0000007C00000007000000636E782E786D6C4DCB3B0E80201045D1AD90E915ED2CF8AC45050C11660C8261F98AB1B07AC9C97D42D718D865D3E909258CFD00CCE24AC6E326A164D74DC0B4128928FF32603847
310
2BA13128B1252AC747C6BAB984FC68F0B87FE8960A5C09FE86CFB69FBA01504B0304140006080800CC70623BDBABAAF470010000D40300000C0000006662782F636F72652E786D6CC553D16E823014FD95A6AF4B694182CC941A83FA05FB810A9511A125A5257EFE2E82712ECEB8A7F100CD39F7F69E734AF9FADC366850B6
310
AF8DCE7018308C942E4C59EB2AC3DE1D498AD15A706B8CFB56869196ADCAF00863C12B6B7C374385D14E6907A836A59A41D9F7CA615434B0C8705F7CAA5606D23BA8E84F41278B93AC54100640439DE0BDB320004D43C63716C7C399D30917DCFBBA9CD9BA8469F5B156168B24CED3F7248AC8769F27244EB73B92EED8862C
310
B7F13E0C179B3C8F979C8ECD82BBBABDAA2BAC924E9558448CBD9330242CFA08E3154B5651FCC6D215639C8EE5774DBE2B5F6CF2B5768B68963BB5F5588420E442FC700B1139D4CB01F450C1E918227C2E09DF070D8140C84E1E9AAB8F1340832A9CB13130A5F1376A908D57309505ECF2A0DF179C4E9D30F5B239B87E3823
310
7A79C6F31DE1A8A5AEC08474B03C7837EAE4938639B44E5932B833D2C6B6B279CDC613877FA26EE21F4A2A4C63EC7F29A2F301D1F9F7A0E37D145F504B0304140006080800CC70623B9C113CC27E0000009D0000000B0000006662782F636E782E786D6C4DCCDF0A83201C86E15B91DFB94BFB330DD428C8FB886521330DA7
310
6397BF1A1DECE883878F57749FCDA1B7892F1BBC047A23808C7F84D9FA55424E0BE6803A256208E9EF06C84F9B91703228B1C690F78B66B34CD9A5439DF5CF0BFBF65E35BCA1B8D6A5C6F540381E886698B5741C695F9503EBA150A2F8958E3DC3EA0B504B0304140006080800CC70623B7DF2F77C2A010000120200003100
310
00006662782F41393633353835312D344632462D344230382D423046372D3739314545314133324237412F636F72652E786D6C8D51DB8EC22014FC15C2939B0D2DB4B45643319AE817EC0F6041255A68B86CFCFC856D4D76DF7CE190393373060EDB3DC707F856CE6B6B7A480A0C81328395DA5C7B18C3057510EC3873D686
310
3F34088C18550F330C39BB3A1BA7051AAC09CA84841A2BD5020AEF55806078A44B0FFD7053A328440C89E1EFC52486BBB8AA8214A99D789CF9E05200300FC927E4FB4D5B375D43103D5527440FB843077C5AA3F5861C8F645F5787F59E95B390B318B55CE45AA638FAA2957BD7248B390B7A7CC51F9C124149C82B8C378810
310
84AB2F42B7B8DD56F413775B8C5999E9FF4471926F8AA236A1AE96B8B3CC434E5839373893369E1FAF30EA395917409EB7F26AF8801C171837A4A6AC9C89E9F9C9B1A58BA30FD6A5EF5DDDCF894B9AD9B6A59C957943A9FCAE2FD5BC4DFE03504B0304140006080800CC70623BAD7543B64E01000033030000300000006662
310
782F41393633353835312D344632462D344230382D423046372D3739314545314133324237412F636E782E786D6CD593CD6EC32010845F0571AD6CE3D48AD20813A9873E410FBD12D82434182C7EAAE6EDBB2424CD25871E7B41D6EC30B3FA84F9E67BB2E40B4234DE8DB46F1925E094D7C6ED479AD3AE5951B2113C789FEE
310
6C943839C1488B4C05DF079FE72A69D8C96C13AAD6B8631503449F83828872B949AC57D26200B826A308D316B4064D6E46FCDA41C05550DC9E483A00797BFD207EFB092A45DE9514C1BBD22178396BD39D891265658C238DEA00936C654E5E433CB65A26D9F6EDB5EBC14EBF49A45CB856E66048291F6939A9A81BB5C89177
310
38143CA680F4AA299D66A042CEB3354A2684DC9D8D178FE0D9B8B41CAAD720F880EE7EF93C0C18769E099ECC04D5A102C8049A8A05632F4DDF376CF1DE0F6BB65C2F8627B65A33C6BB62177CEBBDAD973006829F89F22E814B54F4BC2BE347F8AA8F681390B50FA73F804400B5F542E796F19FF974E7F78DB802FE05E20750
310
4B0304140006080800CC70623BE75B7789680500003C100000340000006662782F41393633353835312D344632462D344230382D423046372D3739314545314133324237412F6F626A656374732E786D6CAD575B8F9B3818FD2B887D06C22499CB8AA1CA655245D5B455A356FB305264C061D8018C6C3393D95FBFC7600890
310
A4CD5EF210B0B1BFEBF98E3F7B1FF6596ABC522E1296DF9BAE3D320D9A872C4AF2F8DE2CE5CEBA358D0FBEC719939D65A691938CDE9B6ADAF4BD98B3B2D05311DD91329583D9D5FC0F438434A7A611A644887B5384CF34233629258BA878B12322891DEFF6B66BD70BFB62634E8AE781D082709A4B588AF91C528CDA28B73F
310
1C998EEF39EABBEFA97FBD6A7C7E9553F9D3D79FE442923C3C523610337627CB87ABE99D359D4CC6D6E4FACAB5E6ABF9D2726FC6A3C5F56271377BB88362213924694B38DD99FE47C48627A1E7D49F5A8BB5E1A74C0A599ED3B0F21F1E56366B89112D681E218F0915D0D6F17AD41FBA2A369DCF6335D62ABBD39779D5DDD1
310
11D4D8DE3CBB96B2E04FB8202E41051754A1AA8E8F76B4C6DFE810B580B1547F4B84911149794252234D024EF8BBE963A95AE27B3D310A9D5C215C7960FAEE415ED75694C6AFB17BCACA5D99A60A9AA65F217B0BFC53292ACB92BF283FAD0D3621576592CB5BED907C2FA8E9DF794E35E97BEA31BED21FEB401ABB94C44839
310
DCACBF0E1C5DA8DA5B2F4DFFD32AD86F543D9E565E7056502E157C00AD2671CD534549AB752FCA9CDA00677A313F04E51B22FF19E57B300579E3C97EB29F682D92935CEC18CF901B7B54FD8C51F362B56FC72FE0B3C1EAE335EDCCBF5AEC39ADB17DC238973F804BA5E6F6BFE7AF1FB32E523BE9F3BD571418E3631DCA4D48
310
5250CF639223210A9446CA30052EDF057BD35F8329C1ECD84552BF0DC8D18BE7BCE23BFE6BD960AB4A7DE79923A103BEBD80F911CBAA2C60DB19B01CF164A5583B772EE6D3FFA56666CBCDA74DC97724A48F9A58967497E489C4D979006FD7A05E227A1EBDD0F737C623387A9C844D3709995625106D157315F8B8392CD4E0
310
A0B9A720C4BE9829CEF37EA1E13111214D53925356365ADA634861B52519DD27A00AEB808EAF0628E6F435519D446F45CF2C9CF5214F0A15B2F6D06B79DA3EE3CBF7F56780D2F4E7EF73A0F5E5B02A38D07DC852C6B7C1FBB6664213E0C39E3EBA7FF4E1AD23EA2829407C85E586727488B751B2DB9502BC7B228A3FD68B6E
310
A65A22397E690AA8D158D7E404EC8CDA235CC3B7D1898680131CEC2CDF2638C65196279577750F15884AEE19F94199155B92B13297978469D4F8D358DF0AEF7631E28DC8F0D9F437D5D39A83B2231A1D52D543813A824EF8D44BCFF2FA6A31BD1E8DAD87F1CCB526B3879935BF59CDADD5C37479BB1CDD4CA7B3556B516589
310
EF352754B706114D9C885EC9131DE6EFEB43D99AFE2391C2F958179413D7CFEF6B1B6DB1E7600F00DE6E5C67454A339A4BA2E0FBA85ED26F045D454F463DBFCE484C2F90F2E5E3666003662ED8F755951A7D1BECD5B30B550B2785C8E7320B7292A4838DDA71BBC863ED7613CAF659337A3354231D4FF4A182A54904C2898C
310
98B28C4AD0CE056CCF332A80986E571EE9DBC305BB5FEB7E509220A58D25CF042D712A806AC0AD0C657FDEF80D2D9CEAA2EE4D1C76F60BFE74219A06527D6F82DF6412526107381E55E353090704D085B52408A8913C4ED159D79BDA71BB4BC506F4831350EB6F975CD22D69BF7AC49B91A2C0A9DDA3D5CA36AD20FC478E37
310
E61844E2352865EBCB61A275A65283CAAA9DD27703B4102F5AF51EF5F573B75CBB5AD38BC845F7A49F82A0966A49C2E3EA5EA0ECD326CD965F1DB402C6FA8B51A4658C5C5E2EC9E214602E55810345408596591009A82E7E7FFACA19EEA299B14A0081A705CB3296EBC14CDF658DCD336EA6D1136881AAEB87B81AB9EE53D5
310
F5EB8BC8362082DA24122F98680A4E7930C01A0079749CEA14382A0783E5EBA5A10F8C098456A03D6A4AEB6BB881E2513747552A5DB22C7EDAF83BD5528081A365F7FF06504B0304140006080000CC70623B000000000000000000000000350000006662782F41393633353835312D344632462D344230382D423046372D37
310
39314545314133324237412F76657274696365732E62696E504B0304140006080800CC70623BF270F1330600000004000000360000006662782F41393633353835312D344632462D344230382D423046372D3739314545314133324237412F747269616E676C65732E62696E636660600000504B0304140006080000CC7062
310
3B000000000000000000000000370000006662782F41393633353835312D344632462D344230382D423046372D3739314545314133324237412F617474726962757465732E62696E504B0304140006080800CC70623B08DA0BD19000000041010000360000006662782F41393633353835312D344632462D344230382D4230
310
46372D3739314545314133324237412F6469726563746F72792E786D6C858F410AC3201045AF22B36F53E9A60B35CBEEBAE80D244E44489C6234F4F835464A48035D0DF398FF9F8AF63D0E6CC63039F212F8F9020C7D47C6792B21C5FE7403D62A1188E2E60C98D7234A5830286103A55745067B9D86B8A3CF9C7F90C11DE6
310
07FB144396D7B6A82D282E9A152AD114D5EF2CB866EEE831B8EEA07A7BB5A8D7D61A2BAAEB7FD5F70921FF497D00504B0304140006080800CC70623BEDD1DC58FD000000A00100003B0000006662782F41393633353835312D344632462D344230382D423046372D3739314545314133324237412F7265736F75726365732F
310
636F72652E786D6C8D504B6E833010BD0A9A6D65B00922041947112427E8052C33A156828DFCA97AFC9A40A576D7CDCCE87D344F8F9FBFE667F689CE6B6B3A6039850C8DB2A336530731DC4903D95970676DF82583CCC8193B5861107C72362E3BA4AC096842428D1D7107A5F7182053CF7474E0D507CE32973124857FE48B
310
540F3961CEF244279DE03EB81420DB9EAC1384436FA353E879B1B182C7A8C75DA3C7F453DF353A1075D537A7BA6464B8F535A99AE14A9A2BBD90E350DD183B5CFABE3AF262350B1EF4FC9351399401471025A527C218A1E53BAB5A5AB765F5469B96525EACF23FA6B88CFF34456DC2A1DCE36E360F82A5202F42F062ED2BAD
310
579969AFDD8A6F504B010214000A0000080000CC70623B3DEE336E79000000790000001B00000000000000000000000000000000006175746F6465736B2D64657369676E2D7061636B6167652E786D6C504B01021400140006080800CC70623BD486FD9CA0000000F40000001300000000000000000000000000B20000005B
310
436F6E74656E745F54797065735D2E786D6C504B01021400140006080800CC70623B853B8169EB0000007C010000080000000000000000000000000083010000636F72652E786D6C504B01021400140006080800CC70623B55019EA25F0000007C000000070000000000000000000000000094020000636E782E786D6C504B
310
01021400140006080800CC70623BDBABAAF470010000D40300000C00000000000000000000000000180300006662782F636F72652E786D6C504B01021400140006080800CC70623B9C113CC27E0000009D0000000B00000000000000000000000000B20400006662782F636E782E786D6C504B01021400140006080800CC70
310
623B7DF2F77C2A010000120200003100000000000000000000000000590500006662782F41393633353835312D344632462D344230382D423046372D3739314545314133324237412F636F72652E786D6C504B01021400140006080800CC70623BAD7543B64E010000330300003000000000000000000000000000D2060000
310
6662782F41393633353835312D344632462D344230382D423046372D3739314545314133324237412F636E782E786D6C504B01021400140006080800CC70623BE75B7789680500003C10000034000000000000000000000000006E0800006662782F41393633353835312D344632462D344230382D423046372D3739314545
310
314133324237412F6F626A656374732E786D6C504B01021400140006080000CC70623B0000000000000000000000003500000000000000000000000000280E00006662782F41393633353835312D344632462D344230382D423046372D3739314545314133324237412F76657274696365732E62696E504B01021400140006
310
080800CC70623BF270F133060000000400000036000000000000000000000000007B0E00006662782F41393633353835312D344632462D344230382D423046372D3739314545314133324237412F747269616E676C65732E62696E504B01021400140006080000CC70623B0000000000000000000000003700000000000000
310
000000000000D50E00006662782F41393633353835312D344632462D344230382D423046372D3739314545314133324237412F617474726962757465732E62696E504B01021400140006080800CC70623B08DA0BD1900000004101000036000000000000000000000000002A0F00006662782F41393633353835312D344632
310
462D344230382D423046372D3739314545314133324237412F6469726563746F72792E786D6C504B01021400140006080800CC70623BEDD1DC58FD000000A00100003B000000000000000000000000000E1000006662782F41393633353835312D344632462D344230382D423046372D3739314545314133324237412F7265
310
736F75726365732F636F72652E786D6C504B0506000000000E000E0080040000641100000000
  0
XRECORD
  5
1F8
102
{ACAD_REACTORS
330
1F7
102
}
330
1F7
100
AcDbXrecord
280
     1
 70
     1
 90
429727718
  1
30362254-06B7-45E0-A893-8CFA70E3D6BC
310
504B03040A0000080000CC70623B3DEE336E79000000790000001B0000006175746F6465736B2D64657369676E2D7061636B6167652E786D6C3C3F786D6C2076657273696F6E3D22312E302220656E636F64696E673D227574662D3822203F3E3C666F726D6174733E3C666F726D61743E687474703A2F2F736368656D612E
310
6175746F6465736B2E636F6D2F64657369676E2D7061636B6167652F323030393C2F666F726D61743E3C2F666F726D6174733E504B0304140006080800CC70623BD486FD9CA0000000F4000000130000005B436F6E74656E745F54797065735D2E786D6C7D8EC10E82300C865F65E91D8A1E8C310C0EEA1BF002731658846E
310
D98AC1B77784ABF1D8FE5FBFBF75BBCE937A534CCEB38643598122B6FEE978D0B0485F9C41B54DDD7D022595594E1A469170414C76A4D9A4D207E29CF43ECE46F218070CC6BECC4078ACAA135ACF422C856C0E68EA1BF5669944DDD7BCDE7B1F8E415D77AECB980613C2E4AC91FC167A2B244592486606FC29C8FD7F045B9A
310
EF7053A7E60B504B0304140006080800CC70623B1EC5D7A3EB0000007C01000008000000636F72652E786D6C8D90416EC3201045AF82665B6103C6756C6122AB4D4ED00B204C5C94182C03558F5F9C3852BBEB6A467FFE9B197D71FC9E6FE8CBACC17AD7032D0820E3B41FAD9B7A48F1820F808E52ACDEC75F36404ECDA687
310
4D0629A6D5A76597B477D1B89855E747B38B2A041301E95B6E7A08FAD3CCAA50296647B8168BD2573599823EBB0CA76447F43862C7BCCF5EAC59410E4DDD9C7973C2755553CCCFA4C603E3040F1565ED3B1FDE4E432BCA0D9622DAF9795FAF464533826484B498524CD807E51D79ED187F21878E10516EF63F505AC67F42C9
310
BA58B1FDDD071640D2FCC87D2045B96591CB3DA85CB7DCE40F504B0304140006080800CC70623B55019EA25F0000007C00000007000000636E782E786D6C4DCB3B0E80201045D1AD90E915ED2CF8AC45050C11660C8261F98AB1B07AC9C97D42D718D865D3E909258CFD00CCE24AC6E326A164D74DC0B4128928FF32603847
310
2BA13128B1252AC747C6BAB984FC68F0B87FE8960A5C09FE86CFB69FBA01504B0304140006080800CC70623B8C9102E971010000D40300000C0000006662782F636F72652E786D6CC5535B6E833010BC8AE5DF0A6C08340F1947A84D4ED00B38C6A128602363A31CBFCB234A53A551FA553EC09AD9F5CE8C31DB9E9B1AF5CA
310
7695D1198E428A91D2D214952E33ECDD315861B4E5CC1AE3BE9561A445A3323CC098B3D21ADFCE9034DA29ED00D5A6503328BA4E398C640D8B0C77F253352214DE4145770A5B214FA2546114020D759C75CE8200340D19DE981F0F6746269C33EFAB6266AB02A655C74A59CCF365BADC27CB5D902ED22848F6340DF238A141
310
BE88E2F57B92BFEDF23523433367AE6A2EEAA455C2A902F398D2751045018D3FA264435F3771F242571B4A1919CA6F9A7C5B3CD9E42BED16F12C776AEB308F40C848FC700B1139D4891EF410CEC810227CC6846F8386402064270EF5C5C709A05E49676C024C61FC95EA45ED154CA5211D1FF4FB8291A913A68E9B83EBBB33
310
E2A7673CDE118E5AE8124C0807CB8377834E366998436B950D7A7746DAD846D4CFD978E0F04FD455FC5D49D2D4C6FE9722321F10997F0F32DC47FE05504B0304140006080800CC70623BFFEA85907E0000009D0000000B0000006662782F636E782E786D6C4DCCD10A83201886E15B91FFDC95D95A811AB6F23E625948A6C3
310
E9D8E5AF46073BFAE0E1E365ED67B3E8ADC3CB78C7815C7240DA3DFC64DCC221C519D7805AC182F7F1EF06C88D9BE6703008B6049F9E274D7A1E938DBB5AE3D6131B2589BA0D3D965551E0B2EA732C9B9A624AAEB41E3A557677029960D9AFB4EF11165F504B0304140006080800CC70623B4FEEA4082C0100001202000031
310
0000006662782F39464131463745442D413632322D343644302D413938332D3331353338454246344243312F636F72652E786D6C8D515B6EC32010BC0AE2AB55850DD871ED0813254D72825EC00192A2C460F1A872FC42ED48ED5F7E00CDCECCCEB26C731F6FE05B39AFADE921293004CA082BB5B9F43086336A21D870E6AC
310
0D7F68109861543DCC30E4ECE26C9C164858139409093556AA051CBC570102714B8F1E7AF1A5C6A11862480C7F2DA6415C878B2A4891CA89C7990F2E050073937C42DE1DB7E4F87ED8A36D4329AA9B3D46DBAEAD504556557BD81DEBDD0761E52CE42C462D17B996298E3E6BE59E35C962CE821E1FF18553435012728A7187
310
0841987E927A8D9B35ADDF70BBC6989599FE4F1427F9A4286A132ABAC49D651EF234CD5CE04CDA78BA3DC2A8FB645D00B9DF8B57E215725C60BCA2A463E54C4CE327C7A65E1C7DB02E7DEFCBF594B864C5CA6CDBD49C957943E9FA5D5FBAF336F90F504B0304140006080800CC70623BAD7543B64E01000033030000300000
310
006662782F39464131463745442D413632322D343644302D413938332D3331353338454246344243312F636E782E786D6CD593CD6EC32010845F0571AD6CE3D48AD20813A9873E410FBD12D82434182C7EAAE6EDBB2424CD25871E7B41D6EC30B3FA84F9E67BB2E40B4234DE8DB46F1925E094D7C6ED479AD3AE5951B2113C
310
789FEE6C943839C1488B4C05DF079FE72A69D8C96C13AAD6B8631503449F83828872B949AC57D26200B826A308D316B4064D6E46FCDA41C05550DC9E483A00797BFD207EFB092A45DE9514C1BBD22178396BD39D891265658C238DEA00936C654E5E433CB65A26D9F6EDB5EBC14EBF49A45CB856E66048291F6939A9A81BB5
310
C8917738143CA680F4AA299D66A042CEB3354A2684DC9D8D178FE0D9B8B41CAAD720F880EE7EF93C0C18769E099ECC04D5A102C8049A8A05632F4DDF376CF1DE0F6BB65C2F8627B65A33C6BB62177CEBBDAD973006829F89F22E814B54F4BC2BE347F8AA8F681390B50FA73F804400B5F542E796F19FF974E7F78DB802FE05
310
E207504B0304140006080800CC70623B16AB87BA640500003C100000340000006662782F39464131463745442D413632322D343644302D413938332D3331353338454246344243312F6F626A656374732E786D6CAD575B6FA33818FD2B887DE6924B3BED8A326A92B68A663B534DD4D13E548A0C38942D60649B369D5FBFC7
310
600890A493BDE42160637FD7F31D7FF63E6FB3D478A55C242CBF3247B66B1A340F5994E4F19559CA8D75611A9F7D8F33263BCB4C232719BD32D5B4E97B316765A1A722BA21652A07B3B7B33F0D11D29C9A46981221AE4C113ED38CD8A4942CA2E2C58E882476BCD9DA23BB5ED8171B73523C0F841684D35CC252CCE79062D4
310
468DFA43D7747CCF51DF7D4FFDEB5593E3AB9CCA9FBEFE241792E4E19EB28198C968BAB8199F5D5A67D3E9C49A9E8F47D6EC76B6B0469F26EEFC7C3EBFBCBEB98462213924694B38DD98FE1D62C393D073EA4FADC5DAF04326852CCF6958F90F0F2B9BB5C48816348F90C7840A68EB78EDF68723159BCEE7891A6B95DDE9D3
310
BCEAEEE8086A6C6F9E5D4B59F0175C10A7A0820BAA5055C7473B5AE3CFDD452D602CD5DF12616444529E90D448938013FE6EFA58AA96F85E4F8C42275708571E98FE6827AF6B2B4AE3D7D83D64E5A64C53054DD3AF90BD06FEA9149565C94FCA0F6B834DC85599E4F2423B24DF0B6AFA979E534DFA9E7A4CC6FA631D486393
310
921829879BF5D781A373557BCB85E97FB90DB62B558F8795179C15944B051F40AB495CF35451D26A4727654E6D8033BD98EF82F21D91FF8AF2DD9982BCF1643BDD4EB516C9492E368C67C88DED563FC36D5EACF66DFF057C3658BDBFA69DF9578B3DA735B64F18C7F20770A9D45CFCF7FCF563D6456A277DBEF78A02637CA2
310
43B90A490AEAB94F72244481D24819A6C0E59B606BFA4B3025981DBB48EAB701D97BF19C577CC77F2D1B6C55A9EF3C732474C0B727303F625995056C3B02963D9EAC146BE78EC5FCEC7FA999EBC5EACBAAE41B12D27B4D2C0BBA49F244E2ECDC81B76B502F113D8F5EE8FB1BE3111CDD4FC2AA9B844CAB1288B68AB90A7CDC
310
1C166AB0D3DC5310625FCC14E779BFD0709F8890A629C9292B1B2DED31A4B0DA928CEE135085754027E3018A397D4D5427D15BD1330B677DC8934285AC3DF45A9EB68FF8F2B8FC0A509AFEECFD0FF2DE25CC6047F7214B195F07EFEB9A094D800F7BFAE8FED187B78EA8A3A400F115961BCAD1215E47C966530AF0EE8128FE
310
58CEBB996A8964FFA529A046635D9353B0336A8F700DDF46271A024E70B0B37C9DE01847591E54DED53D54202AB947E4076556AC49C6CA5C9E1226B7F1A7B1BE15DEED62C41B91E1B3E9AFAAA735036547343A925075041DF0A9979E893B391F8FCFA6967B3EFB644DCF6E5CEBFAE272625DCC6FAF3FB93793C5F90CE1EF57
310
407342756B10D1C489E8953CD1617E5CEECAD6F4EF8914CE5D5D504E5C3F1F9736DA62CFC11E00BCDDB8CC8A9466349744C1F75EBDA4DF09BA8A9E8C7A7E9991989E20E5DBDD6A6003664ED8F7A04A8DBE0DF6EAD9B9AA858342E47399053949D2C146EDB85DE4B176BB0965FBAC19BD19AA918E27FA50C1D22402E144464C
310
59462568E704B6E71915404CB72B8FF4EDE184DDAF753F284990D2C6926782963815403548A70C657FDEF80D2D9CEAA2AE4C1C76F60BFE74219A06527D6582DF6412526107381E55E353090704D085B52408D0933C4ED159D79BDA71BB4BC506F4831350EB6F979CD22D69BF7AC49B91A2C0A9DDA3D5CA36AD20FC478E37E6
310
1844E2352865EBCB6EA275A652E3836BE04EFB400BF1A2556F515F1FBB35B2AB35BD889C744FFA1004B5544B121E57F70215746DD2F5E2C1412B602CBF19455AC6C8E5E9922C4E01E65215385004546899059180EAFCF7A707CE7017CD8CDB0410789AB32C63B91E5CEBBBACB17AC6CD347A022D5075FD106377347AAABA7E
310
7D11590744509B44E205134DC1290F06580320F78E537D3D73540E06CB970B431F185308AD40BBD794D6D77003C5A36E8EAA54BA64597CD8F83BD552A080A365F7FF06504B0304140006080000CC70623B000000000000000000000000350000006662782F39464131463745442D413632322D343644302D413938332D3331
310
353338454246344243312F76657274696365732E62696E504B0304140006080800CC70623BF270F1330600000004000000360000006662782F39464131463745442D413632322D343644302D413938332D3331353338454246344243312F747269616E676C65732E62696E636660600000504B0304140006080000CC70623B
310
000000000000000000000000370000006662782F39464131463745442D413632322D343644302D413938332D3331353338454246344243312F617474726962757465732E62696E504B0304140006080800CC70623B08DA0BD19000000041010000360000006662782F39464131463745442D413632322D343644302D413938
310
332D3331353338454246344243312F6469726563746F72792E786D6C858F410AC3201045AF22B36F53E9A60B35CBEEBAE80D244E44489C6234F4F835464A48035D0DF398FF9F8AF63D0E6CC63039F212F8F9020C7D47C6792B21C5FE7403D62A1188E2E60C98D7234A5830286103A55745067B9D86B8A3CF9C7F90C11DE607
310
FB144396D7B6A82D282E9A152AD114D5EF2CB866EEE831B8EEA07A7BB5A8D7D61A2BAAEB7FD5F70921FF497D00504B0304140006080800CC70623B0D6EF93BFE000000A00100003B0000006662782F39464131463745442D413632322D343644302D413938332D3331353338454246344243312F7265736F75726365732F63
310
6F72652E786D6C8D50596E833010BD0A9ADFCA60B334011947A8694ED00B586642AC041B79A97AFC9A40A5F6AF3F33A3B7689E1E3F7DCD8FEC139DD7D6F4C0720A191A65476DA61E62B892236427C19DB5E1970C322367EC618541F0C9D9B8EC90B226A009093576C41D94DE63804C3DD2D18357379C652E63480A7FCF17A9
310
EE72C29CE5894E3AC17D702940B63D59270887DE46A7D0F36263058F518FBB468FE9A7BE6A7420864373B8D4873369AA8691FA421B3294352543C5CAF65C0F6FEF43CB8BD52C78D0F34F46E550061C419494B6843142CB0F5677F4B52BEB177AEC28E5C52AFF638ACBF84F53D42654E51E77B379102C05791282176B5F693D
310
CB4C7BED567C03504B010214000A0000080000CC70623B3DEE336E79000000790000001B00000000000000000000000000000000006175746F6465736B2D64657369676E2D7061636B6167652E786D6C504B01021400140006080800CC70623BD486FD9CA0000000F40000001300000000000000000000000000B20000005B
310
436F6E74656E745F54797065735D2E786D6C504B01021400140006080800CC70623B1EC5D7A3EB0000007C010000080000000000000000000000000083010000636F72652E786D6C504B01021400140006080800CC70623B55019EA25F0000007C000000070000000000000000000000000094020000636E782E786D6C504B
310
01021400140006080800CC70623B8C9102E971010000D40300000C00000000000000000000000000180300006662782F636F72652E786D6C504B01021400140006080800CC70623BFFEA85907E0000009D0000000B00000000000000000000000000B30400006662782F636E782E786D6C504B01021400140006080800CC70
310
623B4FEEA4082C0100001202000031000000000000000000000000005A0500006662782F39464131463745442D413632322D343644302D413938332D3331353338454246344243312F636F72652E786D6C504B01021400140006080800CC70623BAD7543B64E010000330300003000000000000000000000000000D5060000
310
6662782F39464131463745442D413632322D343644302D413938332D3331353338454246344243312F636E782E786D6C504B01021400140006080800CC70623B16AB87BA640500003C1000003400000000000000000000000000710800006662782F39464131463745442D413632322D343644302D413938332D3331353338
310
454246344243312F6F626A656374732E786D6C504B01021400140006080000CC70623B0000000000000000000000003500000000000000000000000000270E00006662782F39464131463745442D413632322D343644302D413938332D3331353338454246344243312F76657274696365732E62696E504B01021400140006
310
080800CC70623BF270F133060000000400000036000000000000000000000000007A0E00006662782F39464131463745442D413632322D343644302D413938332D3331353338454246344243312F747269616E676C65732E62696E504B01021400140006080000CC70623B0000000000000000000000003700000000000000
310
000000000000D40E00006662782F39464131463745442D413632322D343644302D413938332D3331353338454246344243312F617474726962757465732E62696E504B01021400140006080800CC70623B08DA0BD190000000410100003600000000000000000000000000290F00006662782F39464131463745442D413632
310
322D343644302D413938332D3331353338454246344243312F6469726563746F72792E786D6C504B01021400140006080800CC70623B0D6EF93BFE000000A00100003B000000000000000000000000000D1000006662782F39464131463745442D413632322D343644302D413938332D3331353338454246344243312F7265
310
736F75726365732F636F72652E786D6C504B0506000000000E000E0080040000641100000000
  0
XRECORD
  5
175
102
{ACAD_REACTORS
330
173
102
}
330
173
100
AcDbXrecord
280
     1
270
     1
271
     1
  0
XRECORD
  5
174
102
{ACAD_REACTORS
330
173
102
}
330
173
100
AcDbXrecord
280
     1
270
     1
271
     1
  0
XRECORD
  5
1FB
102
{ACAD_REACTORS
330
173
102
}
330
173
100
AcDbXrecord
280
     1
 70
     0
 90
1673772943
  1
ECE7A1D2-D628-4531-984C-D00F80459256
310
504B03040A0000080000CC70623B3DEE336E79000000790000001B0000006175746F6465736B2D64657369676E2D7061636B6167652E786D6C3C3F786D6C2076657273696F6E3D22312E302220656E636F64696E673D227574662D3822203F3E3C666F726D6174733E3C666F726D61743E687474703A2F2F736368656D612E
310
6175746F6465736B2E636F6D2F64657369676E2D7061636B6167652F323030393C2F666F726D61743E3C2F666F726D6174733E504B0304140006080800CC70623BD486FD9CA0000000F4000000130000005B436F6E74656E745F54797065735D2E786D6C7D8EC10E82300C865F65E91D8A1E8C310C0EEA1BF002731658846E
310
D98AC1B77784ABF1D8FE5FBFBF75BBCE937A534CCEB38643598122B6FEE978D0B0485F9C41B54DDD7D022595594E1A469170414C76A4D9A4D207E29CF43ECE46F218070CC6BECC4078ACAA135ACF422C856C0E68EA1BF5669944DDD7BCDE7B1F8E415D77AECB980613C2E4AC91FC167A2B244592486606FC29C8FD7F045B9A
310
EF7053A7E60B504B0304140006080800CC70623BD9DDAED0EC0000007C01000008000000636F72652E786D6C8D90416EC3201045AF82665B61836D9CD8C2444DD39CA01740405C94182C03558F5F9C3852BBEB6A467FFE9B197D7EF89E6EE8CB2CC17A37002D0820E394D7D68D03A478C17B4007C117EFE32F1B20272733C0
310
2A83E0E3E2D3BC49CABB685CCCAAF3DA6CA20CC14440EA969B0182FA34932C648AD911AEC52CD5558EA6A0CF2EC329598D1E47ACCEFBECC59A050463A7EA5833865FEBDD0E37353BE3EE8DBDE3F6786A48D375FBF6CC78B9C282473B3DEFABC5C86834888A900E538A49F5419B9EB47DD5BC907D4F082F57FB1F28CDFA9F50
310
B22ED6D5F6EE030B20687EE43E10BC5CB3C8E51E54AE6B6EE207504B0304140006080800CC70623B55019EA25F0000007C00000007000000636E782E786D6C4DCB3B0E80201045D1AD90E915ED2CF8AC45050C11660C8261F98AB1B07AC9C97D42D718D865D3E909258CFD00CCE24AC6E326A164D74DC0B4128928FF326038
310
472BA13128B1252AC747C6BAB984FC68F0B87FE8960A5C09FE86CFB69FBA01504B0304140006080800CC70623BA24EB22D72010000D40300000C0000006662782F636F72652E786D6CC5535B6E833010BC8AE5DF0A6C5E49888CA3A6694ED00B38E05014B091B1518EDFE511A5A9D228FD2A1F60CDEC7A67C6986DCE4D8D7A
310
69BA4AAB0C073EC548AA5C17952A33ECECD15B61B4E1CC686DBF9561A44423333CC098B3D268D7CE50AE9595CA02AA74216750749DB418E5352C32DCE59FB211BE70162ABA93DF8AFC244AE9073ED050C759670D0840D390E18DF9F1706664C23973AE2A66B62A605A75ACA4C13C4976E1364A12EF355A2EBD384AF65EFA96
310
BC7B8BED2EA6719AAE16FB8491A199335B351775B991C2CA02F390D2D40B028F861F41BCA68B7518BFD0D59A524686F29B26D7164F36B94AD9289CE54E6D1DE6010819891F6E21228B3AD1831EC219194284CF98F06DD01008846CC5A1BEF83801D4CBDC6A1303536877A57A513B0953A94FC707FDBE6064EA84A9E3E6E0FA
310
EE8CF0E9198F7784A316AA0413C2C2F2E0ECA0934D1AE6D05A69BCDE9E91D2A611F573361E38FC1375157F5752AE6B6DFE4B11990F88CCBF0719EE23FF02504B0304140006080800CC70623B408A7D3B7C0000009D0000000B0000006662782F636E782E786D6C4DCCD10A83201886E15B91FFDC552A92A0064DBC8F581632
310
D3703A76F9ABD1C18E3E78F878E5F0D9027ABBFCF2292AE86E2D20171F69F6715550CB827B40839639A5F2770314A7CD293819B45C73AAFB45B35BA61ACAA1C1C7E7855C58C15BC331339661262CC762340413D68D77DA5B42298546CBE6573AF60CEB2F504B0304140006080800CC70623B449FB9BD290100001202000031
310
0000006662782F36394639363044362D344446342D343946362D394244322D3234314243333846323333332F636F72652E786D6C8D515B6EC32010BC0AE22B55850D98B871848994463E412FE002495162B07854397EA176A4F62F3F2C9A9D991D587EB84F37F0AD7D30CEF6905418026DA553C65E7A98E219ED203808EE9D
310
8B7F6810D871D23D2C3014FCE25D9A57483A1BB58D19B54EE9151C43D0110279CB971E06F9A5A7B11A53CC8C70ADE6515EC78BAE4895DB992778883E0700CB907242D17643D7E2538BD869608875438BBAE38922CAC8F1BDD90DB4691A5E2F42C153326A951B95E398B3D1FE599322163C9AE9115F7A3D46ADA0A018778810
310
84E907617BDCEE297BC5BB3DC6BC2EF47FA234AB2745C9D8D8D035EE220B50105E2F0DC1954B9FB747187D9F9D8FA0CCDB042D5FA0C015C65B42DF78BD10F3F3B363CB56C7109DCFDFBBB97E662ED92EB62D13BC2E1BCAE5777DB9966D8A1F504B0304140006080800CC70623BAD7543B64E01000033030000300000006662
310
782F36394639363044362D344446342D343946362D394244322D3234314243333846323333332F636E782E786D6CD593CD6EC32010845F0571AD6CE3D48AD20813A9873E410FBD12D82434182C7EAAE6EDBB2424CD25871E7B41D6EC30B3FA84F9E67BB2E40B4234DE8DB46F1925E094D7C6ED479AD3AE5951B2113C789FEE
310
6C943839C1488B4C05DF079FE72A69D8C96C13AAD6B8631503449F83828872B949AC57D26200B826A308D316B4064D6E46FCDA41C05550DC9E483A00797BFD207EFB092A45DE9514C1BBD22178396BD39D891265658C238DEA00936C654E5E433CB65A26D9F6EDB5EBC14EBF49A45CB856E66048291F6939A9A81BB5C89177
310
38143CA680F4AA299D66A042CEB3354A2684DC9D8D178FE0D9B8B41CAAD720F880EE7EF93C0C18769E099ECC04D5A102C8049A8A05632F4DDF376CF1DE0F6BB65C2F8627B65A33C6BB62177CEBBDAD973006829F89F22E814B54F4BC2BE347F8AA8F681390B50FA73F804400B5F542E796F19FF974E7F78DB802FE05E20750
310
4B0304140006080800CC70623B8D05915C650500003B100000340000006662782F36394639363044362D344446342D343946362D394244322D3234314243333846323333332F6F626A656374732E786D6CAD575B6FA33814FE2B887D06429276DA1565D4266D158D3A339A6846FB502932E050B66023DB74D2FDF5FB190C01
310
9276B2973C046C8ECFF53B17071F77456EBD502133CEAE6CDF9DD81665314F32965ED995DA3A17B6F5310C04E7AA47665B8C14F4CAD6DB7618A48257A5D94AE89654B91AEDDEDDFC61C998326A5B714EA4BCB265FC440BE2924AF184CA6737218AB8E976E7FA6E4338649B0A523E8D98964450A6A029F619B8588D52FE7039
310
B1BD30F0F4F730D0FF866AF6369557DB33949F31A9088B0F848DD8CCFCF9F2767A76E99CCDE733677E3EF59D9BBB9BA5E37F984D16E78BC5E5F5ED25044B25C0C96822E8D60EEFE11B91C581D77CEA34368A1F5329E68CD1B8B61F16D63A1B8E092D294B10C78C4A48EB593D192E7DED9BDEE7995E1B91FDEDD3ACEA9FE831
310
6A756F9F7D4D79F4274C90A7A04248AA51D5F8C718DAE06FB2F75AC4796EBE65D22A88A22223B995679120E2D50E41AA49C260C046A35368846B0BECD0DFF3EBEB8AD4F835768F69B9ADF25C43D30E6B646F807FAA64AD59F61715C7A54127C4AACA98BA3006A9D792DAE165E0D59B61A01FB3A9F9D838D2DAE62445C86166
310
F37564E842E7DE6A69879FEEA2DD5AE7E371E1A5E025154AC307D06A03D73EB5978C58FFA4C8E9033066E0F3BD53BEC1F39F91BE7B55103791EDE6BBB991A2046172CB4581D8B893FA674DDA17A77B3B7C413D1B511FD2743BFF8A38F03A658705E3ADF8015C3A3417FF3D7E439FF591DA0B5F18BC20C1B8981957AE6392A3
310
F43C640C01D1A0B4728E2DD4F26DB4B3C3152A252A3B4E913CEC1C72F012782FF88EFF8637AA552DBEF76408E8A8DE9E50F9E1CB3A2DA0DB1B6039A893B56063DC5B3E3FFB5F72E67AB9FEB4AEC496C4F4C1149625DD662C53E89D7BF0F6151A046260D1337DFDC94502430F83B0EE07A130A224BCAD7DAE1D9FB6CD422FF6
310
920702629C4BB9AE79C12F243C6432A6794E18E5552BA56B431AAB5D91317302B2B071E86C3A42B1A02F999E24061403B5D0EB639195DA655DD3EBEAB4FB862DDF579F014AD0E73C22F99E28DA57FB98E75C6CA2D74D53086D600F4786E0FE3144B771A8A7B900F03594DB8A633CBC49B2EDB69228BB479CF863B5E807AAAB
310
23872F6DFEB4129B949CA33823F58830E86D65621E10047D9DB34D862E8EAC3C2ABC2F7B2C40D67CDFE01F5545B92105AF983AC54D93D69E56FB8E797F88913F898A9FEC705D3F9D1B54EC8426FB500D40A03BD0119B06E1B95DDC7EB8F6975367793EBD70E66733DFB9BC982F9CE564727731999F5D4ECFCE3B8D6A4DC2A0
310
6D50FD148437D110834A64C6CDDF57FBACB5C307A2A477DFE4939736CFEF2B175371E0E10CF0DD1D5C15654E0BCA14D1E87DD02FF93782A162C0A3D95F1524A52770F972BF1EE9809D13CE7DD599467F8ECE9ADD85CE85A34CD45355448C64F9E8A031DC2D596ACC6E5DD93D9B82DE2EF5CAF81363A8E47996A0DE24564A79
310
4115AACE09C55E14540231FDA13C319787134EBF34E3A022514E5B4D9E0826E25C02D5805B15ABE1BEF51B26383D445DD9E875EE33FE4C22DA16427D65A3BCA92CA6D28DD01DF5DC53330704308475351050232CCD31583787BA75774AFB06E5070DD0C8EF484E19968C5D83BA5B90B244D31E54D55A372320FE4786B7EA58
310
44E135AA5467CB7EA333A61683CC6A8C3257034C10CF46F40EF9F5BE59BE5BD30C3C72D235E95D10345C1D45445A5F0BB47E46A5EBE5570F9380B5FA629579952296A773720405982B9DE04011506178964401AA8BDF1FBF0A8EAB6861DD6580C0E38217056766716DAEB2D6FA0917D3E4116581EADB879C4E7CFFB11EFACD
310
3D641311495D92C8676CB409A72D18610D803CE8A626049E8EC1887CB5B44CC39883690DDA8399B4B9855B481E7D71D4A9D22F96E5BB73BF5793020C02137BF837504B0304140006080000CC70623B000000000000000000000000350000006662782F36394639363044362D344446342D343946362D394244322D32343142
310
43333846323333332F76657274696365732E62696E504B0304140006080800CC70623BF270F1330600000004000000360000006662782F36394639363044362D344446342D343946362D394244322D3234314243333846323333332F747269616E676C65732E62696E636660600000504B0304140006080000CC70623B0000
310
00000000000000000000370000006662782F36394639363044362D344446342D343946362D394244322D3234314243333846323333332F617474726962757465732E62696E504B0304140006080800CC70623B08DA0BD19000000041010000360000006662782F36394639363044362D344446342D343946362D394244322D
310
3234314243333846323333332F6469726563746F72792E786D6C858F410AC3201045AF22B36F53E9A60B35CBEEBAE80D244E44489C6234F4F835464A48035D0DF398FF9F8AF63D0E6CC63039F212F8F9020C7D47C6792B21C5FE7403D62A1188E2E60C98D7234A5830286103A55745067B9D86B8A3CF9C7F90C11DE607FB14
310
4396D7B6A82D282E9A152AD114D5EF2CB866EEE831B8EEA07A7BB5A8D7D61A2BAAEB7FD5F70921FF497D00504B0304140006080800CC70623BCA768048FE000000A00100003B0000006662782F36394639363044362D344446342D343946362D394244322D3234314243333846323333332F7265736F75726365732F636F72
310
652E786D6C8D50596E833010BD0A9ADFCA60D600328E9AA639412F609909B1126CE4A5EAF16B0295DABFFECC8CDEA2797AECF8353F924FB44E193D409E5248504B332A3D0D10FC95B4901C39B3C6F85F3248B49871801506CE266BC2B243D2688FDA47549B11775038871E12F988C7004EDE7016A9083E2ADC3D5D84BC8B09
310
D33C8D74D471E6BC8D0192EDC93A815B742658898E651BCB59086ADC356A8C3FD555A1055ED7E7E254D615792D0F075295F585746FF53B694EE78A565DD736979A65AB9933AFE69F8CD2A2F038022F28ED489E135A7CE4554F9BBEA85E68DB53CAB255FEC71496F19FA6A0B42F8B3DEE6673C0F318E4497096AD7DC5F52C33
310
EEB55BFE0D504B010214000A0000080000CC70623B3DEE336E79000000790000001B00000000000000000000000000000000006175746F6465736B2D64657369676E2D7061636B6167652E786D6C504B01021400140006080800CC70623BD486FD9CA0000000F40000001300000000000000000000000000B20000005B436F
310
6E74656E745F54797065735D2E786D6C504B01021400140006080800CC70623BD9DDAED0EC0000007C010000080000000000000000000000000083010000636F72652E786D6C504B01021400140006080800CC70623B55019EA25F0000007C000000070000000000000000000000000095020000636E782E786D6C504B0102
310
1400140006080800CC70623BA24EB22D72010000D40300000C00000000000000000000000000190300006662782F636F72652E786D6C504B01021400140006080800CC70623B408A7D3B7C0000009D0000000B00000000000000000000000000B50400006662782F636E782E786D6C504B01021400140006080800CC70623B
310
449FB9BD290100001202000031000000000000000000000000005A0500006662782F36394639363044362D344446342D343946362D394244322D3234314243333846323333332F636F72652E786D6C504B01021400140006080800CC70623BAD7543B64E010000330300003000000000000000000000000000D20600006662
310
782F36394639363044362D344446342D343946362D394244322D3234314243333846323333332F636E782E786D6C504B01021400140006080800CC70623B8D05915C650500003B10000034000000000000000000000000006E0800006662782F36394639363044362D344446342D343946362D394244322D32343142433338
310
46323333332F6F626A656374732E786D6C504B01021400140006080000CC70623B0000000000000000000000003500000000000000000000000000250E00006662782F36394639363044362D344446342D343946362D394244322D3234314243333846323333332F76657274696365732E62696E504B010214001400060808
310
00CC70623BF270F13306000000040000003600000000000000000000000000780E00006662782F36394639363044362D344446342D343946362D394244322D3234314243333846323333332F747269616E676C65732E62696E504B01021400140006080000CC70623B00000000000000000000000037000000000000000000
310
00000000D20E00006662782F36394639363044362D344446342D343946362D394244322D3234314243333846323333332F617474726962757465732E62696E504B01021400140006080800CC70623B08DA0BD190000000410100003600000000000000000000000000270F00006662782F36394639363044362D344446342D
310
343946362D394244322D3234314243333846323333332F6469726563746F72792E786D6C504B01021400140006080800CC70623BCA768048FE000000A00100003B000000000000000000000000000B1000006662782F36394639363044362D344446342D343946362D394244322D3234314243333846323333332F7265736F
310
75726365732F636F72652E786D6C504B0506000000000E000E0080040000621100000000
  0
XRECORD
  5
176
102
{ACAD_REACTORS
330
173
102
}
330
173
100
AcDbXrecord
280
     1
270
     1
271
     1
  0
XRECORD
  5
177
102
{ACAD_REACTORS
330
173
102
}
330
173
100
AcDbXrecord
280
     1
270
     1
271
     1
  0
XRECORD
  5
1F86
102
{ACAD_REACTORS
330
1362
102
}
330
1362
100
AcDbXrecord
280
     1
102
DISPLAYNAME
  1
Imperial24
102
FLAGS
 90
        0
  0
XRECORD
  5
1F84
102
{ACAD_REACTORS
330
135E
102
}
330
135E
100
AcDbXrecord
280
     1
102
DISPLAYNAME
  1
Metric50
102
FLAGS
 90
        0
  0
CELLSTYLEMAP
  5
1F4A
102
{ACAD_REACTORS
330
162
102
}
330
162
100
AcDbCellStyleMap
 90
        3
300
CELLSTYLE
  1
TABLEFORMAT_BEGIN
 90
        5
170
     1
 91
        0
 92
    32768
 62
   257
 93
        1
300
CONTENTFORMAT
  1
CONTENTFORMAT_BEGIN
 90
        0
 91
        0
 92
      512
 93
        0
300

 40
0.0
140
1.0
 94
        5
 62
     0
340
11
144
6.0
309
CONTENTFORMAT_END
171
     1
301
MARGIN
  1
CELLMARGIN_BEGIN
 40
1.5
 40
1.5
 40
1.5
 40
1.5
 40
0.18
 40
0.18
309
CELLMARGIN_END
 94
        6
 95
        1
302
GRIDFORMAT
  1
GRIDFORMAT_BEGIN
 90
        0
 91
        1
 62
     0
 92
       -2
340
14
 93
        0
 40
1.125
309
GRIDFORMAT_END
 95
        2
302
GRIDFORMAT
  1
GRIDFORMAT_BEGIN
 90
        0
 91
        1
 62
     0
 92
       -2
340
14
 93
        0
 40
1.125
309
GRIDFORMAT_END
 95
        4
302
GRIDFORMAT
  1
GRIDFORMAT_BEGIN
 90
        0
 91
        1
 62
     0
 92
       -2
340
14
 93
        0
 40
1.125
309
GRIDFORMAT_END
 95
        8
302
GRIDFORMAT
  1
GRIDFORMAT_BEGIN
 90
        0
 91
        1
 62
     0
 92
       -2
340
14
 93
        0
 40
1.125
309
GRIDFORMAT_END
 95
       16
302
GRIDFORMAT
  1
GRIDFORMAT_BEGIN
 90
        0
 91
        1
 62
     0
 92
       -2
340
14
 93
        0
 40
1.125
309
GRIDFORMAT_END
 95
       32
302
GRIDFORMAT
  1
GRIDFORMAT_BEGIN
 90
        0
 91
        1
 62
     0
 92
       -2
340
14
 93
        0
 40
1.125
309
GRIDFORMAT_END
309
TABLEFORMAT_END
  1
CELLSTYLE_BEGIN
 90
        1
 91
        1
300
_TITLE
309
CELLSTYLE_END
300
CELLSTYLE
  1
TABLEFORMAT_BEGIN
 90
        5
170
     1
 91
        0
 92
        0
 62
   257
 93
        1
300
CONTENTFORMAT
  1
CONTENTFORMAT_BEGIN
 90
        0
 91
        0
 92
      512
 93
        0
300

 40
0.0
140
1.0
 94
        5
 62
     0
340
11
144
4.5
309
CONTENTFORMAT_END
171
     1
301
MARGIN
  1
CELLMARGIN_BEGIN
 40
1.5
 40
1.5
 40
1.5
 40
1.5
 40
0.18
 40
0.18
309
CELLMARGIN_END
 94
        6
 95
        1
302
GRIDFORMAT
  1
GRIDFORMAT_BEGIN
 90
        0
 91
        1
 62
     0
 92
       -2
340
14
 93
        0
 40
1.125
309
GRIDFORMAT_END
 95
        2
302
GRIDFORMAT
  1
GRIDFORMAT_BEGIN
 90
        0
 91
        1
 62
     0
 92
       -2
340
14
 93
        0
 40
1.125
309
GRIDFORMAT_END
 95
        4
302
GRIDFORMAT
  1
GRIDFORMAT_BEGIN
 90
        0
 91
        1
 62
     0
 92
       -2
340
14
 93
        0
 40
1.125
309
GRIDFORMAT_END
 95
        8
302
GRIDFORMAT
  1
GRIDFORMAT_BEGIN
 90
        0
 91
        1
 62
     0
 92
       -2
340
14
 93
        0
 40
1.125
309
GRIDFORMAT_END
 95
       16
302
GRIDFORMAT
  1
GRIDFORMAT_BEGIN
 90
        0
 91
        1
 62
     0
 92
       -2
340
14
 93
        0
 40
1.125
309
GRIDFORMAT_END
 95
       32
302
GRIDFORMAT
  1
GRIDFORMAT_BEGIN
 90
        0
 91
        1
 62
     0
 92
       -2
340
14
 93
        0
 40
1.125
309
GRIDFORMAT_END
309
TABLEFORMAT_END
  1
CELLSTYLE_BEGIN
 90
        2
 91
        1
300
_HEADER
309
CELLSTYLE_END
300
CELLSTYLE
  1
TABLEFORMAT_BEGIN
 90
        5
170
     1
 91
        0
 92
        0
 62
   257
 93
        1
300
CONTENTFORMAT
  1
CONTENTFORMAT_BEGIN
 90
        0
 91
        0
 92
      512
 93
        0
300

 40
0.0
140
1.0
 94
        2
 62
     0
340
11
144
4.5
309
CONTENTFORMAT_END
171
     1
301
MARGIN
  1
CELLMARGIN_BEGIN
 40
1.5
 40
1.5
 40
1.5
 40
1.5
 40
0.18
 40
0.18
309
CELLMARGIN_END
 94
        6
 95
        1
302
GRIDFORMAT
  1
GRIDFORMAT_BEGIN
 90
        0
 91
        1
 62
     0
 92
       -2
340
14
 93
        0
 40
1.125
309
GRIDFORMAT_END
 95
        2
302
GRIDFORMAT
  1
GRIDFORMAT_BEGIN
 90
        0
 91
        1
 62
     0
 92
       -2
340
14
 93
        0
 40
1.125
309
GRIDFORMAT_END
 95
        4
302
GRIDFORMAT
  1
GRIDFORMAT_BEGIN
 90
        0
 91
        1
 62
     0
 92
       -2
340
14
 93
        0
 40
1.125
309
GRIDFORMAT_END
 95
        8
302
GRIDFORMAT
  1
GRIDFORMAT_BEGIN
 90
        0
 91
        1
 62
     0
 92
       -2
340
14
 93
        0
 40
1.125
309
GRIDFORMAT_END
 95
       16
302
GRIDFORMAT
  1
GRIDFORMAT_BEGIN
 90
        0
 91
        1
 62
     0
 92
       -2
340
14
 93
        0
 40
1.125
309
GRIDFORMAT_END
 95
       32
302
GRIDFORMAT
  1
GRIDFORMAT_BEGIN
 90
        0
 91
        1
 62
     0
 92
       -2
340
14
 93
        0
 40
1.125
309
GRIDFORMAT_END
309
TABLEFORMAT_END
  1
CELLSTYLE_BEGIN
 90
        3
 91
        2
300
_DATA
309
CELLSTYLE_END
  0
XRECORD
  5
1F5F
102
{ACAD_REACTORS
330
1F5E
102
}
330
1F5E
100
AcDbXrecord
280
     1
102
RTVSPost2010Prop28
280
     1
102
RTVSPost2010PropOp28
 70
     1
102
RTVSPost2010Prop29
280
     1
102
RTVSPost2010PropOp29
 70
     1
102
RTVSPost2010Prop30
280
     0
102
RTVSPost2010PropOp30
 70
     1
102
RTVSPost2010Prop31
280
     0
102
RTVSPost2010PropOp31
 70
     1
102
RTVSPost2010Prop32
280
     0
102
RTVSPost2010PropOp32
 70
     1
102
RTVSPost2010Prop33
280
     0
102
RTVSPost2010PropOp33
 70
     1
102
RTVSPost2010Prop34
280
     0
102
RTVSPost2010PropOp34
 70
     1
102
RTVSPost2010Prop35
280
     0
102
RTVSPost2010PropOp35
 70
     1
102
RTVSPost2010Prop36
280
     0
102
RTVSPost2010PropOp36
 70
     1
102
RTVSPost2010Prop37
 90
       50
102
RTVSPost2010PropOp37
 70
     1
102
RTVSPost2010Prop38
140
0.0
102
RTVSPost2010PropOp38
 70
     1
102
RTVSPost2010Prop39
140
1.0
102
RTVSPost2010PropOp39
 70
     1
102
RTVSPost2010Prop40
 90
        0
102
RTVSPost2010PropOp40
 70
     1
102
RTVSPost2010Prop41ColorIndex
 90
       18
102
RTVSPost2010Prop41ColorRGB
 90
        0
102
RTVSPost2010PropOp41
 70
     1
102
RTVSPost2010Prop42
 90
       50
102
RTVSPost2010PropOp42
 70
     1
102
RTVSPost2010Prop43
 90
        3
102
RTVSPost2010PropOp43
 70
     1
102
RTVSPost2010Prop44ColorIndex
 90
        5
102
RTVSPost2010Prop44ColorRGB
 90
      255
102
RTVSPost2010PropOp44
 70
     1
102
RTVSPost2010Prop45
280
     0
102
RTVSPost2010PropOp45
 70
     1
102
RTVSPost2010Prop46
 90
       50
102
RTVSPost2010PropOp46
 70
     1
102
RTVSPost2010Prop47
 90
       50
102
RTVSPost2010PropOp47
 70
     1
102
RTVSPost2010Prop48
 90
       50
102
RTVSPost2010PropOp48
 70
     1
102
RTVSPost2010Prop49
280
     0
102
RTVSPost2010PropOp49
 70
     1
102
RTVSPost2010Prop50
 90
       50
102
RTVSPost2010PropOp50
 70
     1
102
RTVSPost2010Prop51ColorIndex
 90
      256
102
RTVSPost2010Prop51ColorRGB
 90
-16777216
102
RTVSPost2010PropOp51
 70
     0
102
RTVSPost2010Prop52
140
1.0
102
RTVSPost2010PropOp52
 70
     0
102
RTVSPost2010Prop53
 90
        2
102
RTVSPost2010PropOp53
 70
     1
102
RTVSPost2010Prop54
  1
strokes_ogs.tif
102
RTVSPost2010PropOp54
 70
     1
102
RTVSPost2010Prop55
280
     0
102
RTVSPost2010PropOp55
 70
     1
102
RTVSPost2010Prop56
140
1.0
102
RTVSPost2010PropOp56
 70
     1
102
RTVSPost2010Prop57
140
1.0
102
RTVSPost2010PropOp57
 70
     1
  0
XRECORD
  5
1F5D
102
{ACAD_REACTORS
330
1F5C
102
}
330
1F5C
100
AcDbXrecord
280
     1
102
RTVSPost2010Prop28
280
     0
102
RTVSPost2010PropOp28
 70
     1
102
RTVSPost2010Prop29
280
     1
102
RTVSPost2010PropOp29
 70
     1
102
RTVSPost2010Prop30
280
     1
102
RTVSPost2010PropOp30
 70
     1
102
RTVSPost2010Prop31
280
     0
102
RTVSPost2010PropOp31
 70
     1
102
RTVSPost2010Prop32
280
     0
102
RTVSPost2010PropOp32
 70
     1
102
RTVSPost2010Prop33
280
     0
102
RTVSPost2010PropOp33
 70
     1
102
RTVSPost2010Prop34
280
     0
102
RTVSPost2010PropOp34
 70
     1
102
RTVSPost2010Prop35
280
     0
102
RTVSPost2010PropOp35
 70
     1
102
RTVSPost2010Prop36
280
     0
102
RTVSPost2010PropOp36
 70
     1
102
RTVSPost2010Prop37
 90
       50
102
RTVSPost2010PropOp37
 70
     1
102
RTVSPost2010Prop38
140
0.0
102
RTVSPost2010PropOp38
 70
     1
102
RTVSPost2010Prop39
140
1.0
102
RTVSPost2010PropOp39
 70
     1
102
RTVSPost2010Prop40
 90
        0
102
RTVSPost2010PropOp40
 70
     1
102
RTVSPost2010Prop41ColorIndex
 90
       18
102
RTVSPost2010Prop41ColorRGB
 90
        0
102
RTVSPost2010PropOp41
 70
     1
102
RTVSPost2010Prop42
 90
       50
102
RTVSPost2010PropOp42
 70
     1
102
RTVSPost2010Prop43
 90
        3
102
RTVSPost2010PropOp43
 70
     1
102
RTVSPost2010Prop44ColorIndex
 90
        5
102
RTVSPost2010Prop44ColorRGB
 90
      255
102
RTVSPost2010PropOp44
 70
     1
102
RTVSPost2010Prop45
280
     0
102
RTVSPost2010PropOp45
 70
     1
102
RTVSPost2010Prop46
 90
       50
102
RTVSPost2010PropOp46
 70
     1
102
RTVSPost2010Prop47
 90
       50
102
RTVSPost2010PropOp47
 70
     1
102
RTVSPost2010Prop48
 90
       50
102
RTVSPost2010PropOp48
 70
     1
102
RTVSPost2010Prop49
280
     0
102
RTVSPost2010PropOp49
 70
     1
102
RTVSPost2010Prop50
 90
       50
102
RTVSPost2010PropOp50
 70
     1
102
RTVSPost2010Prop51ColorIndex
 90
      256
102
RTVSPost2010Prop51ColorRGB
 90
-16777216
102
RTVSPost2010PropOp51
 70
     0
102
RTVSPost2010Prop52
140
1.0
102
RTVSPost2010PropOp52
 70
     0
102
RTVSPost2010Prop53
 90
        2
102
RTVSPost2010PropOp53
 70
     1
102
RTVSPost2010Prop54
  1
strokes_ogs.tif
102
RTVSPost2010PropOp54
 70
     1
102
RTVSPost2010Prop55
280
     0
102
RTVSPost2010PropOp55
 70
     1
102
RTVSPost2010Prop56
140
1.0
102
RTVSPost2010PropOp56
 70
     1
102
RTVSPost2010Prop57
140
1.0
102
RTVSPost2010PropOp57
 70
     1
  0
XRECORD
  5
1F6B
102
{ACAD_REACTORS
330
1F6A
102
}
330
1F6A
100
AcDbXrecord
280
     1
102
RTVSPost2010Prop28
280
     0
102
RTVSPost2010PropOp28
 70
     1
102
RTVSPost2010Prop29
280
     1
102
RTVSPost2010PropOp29
 70
     1
102
RTVSPost2010Prop30
280
     1
102
RTVSPost2010PropOp30
 70
     1
102
RTVSPost2010Prop31
280
     0
102
RTVSPost2010PropOp31
 70
     1
102
RTVSPost2010Prop32
280
     0
102
RTVSPost2010PropOp32
 70
     1
102
RTVSPost2010Prop33
280
     0
102
RTVSPost2010PropOp33
 70
     1
102
RTVSPost2010Prop34
280
     0
102
RTVSPost2010PropOp34
 70
     1
102
RTVSPost2010Prop35
280
     0
102
RTVSPost2010PropOp35
 70
     1
102
RTVSPost2010Prop36
280
     0
102
RTVSPost2010PropOp36
 70
     1
102
RTVSPost2010Prop37
 90
       50
102
RTVSPost2010PropOp37
 70
     1
102
RTVSPost2010Prop38
140
0.0
102
RTVSPost2010PropOp38
 70
     1
102
RTVSPost2010Prop39
140
1.0
102
RTVSPost2010PropOp39
 70
     1
102
RTVSPost2010Prop40
 90
        0
102
RTVSPost2010PropOp40
 70
     1
102
RTVSPost2010Prop41ColorIndex
 90
       18
102
RTVSPost2010Prop41ColorRGB
 90
        0
102
RTVSPost2010PropOp41
 70
     1
102
RTVSPost2010Prop42
 90
       50
102
RTVSPost2010PropOp42
 70
     1
102
RTVSPost2010Prop43
 90
        3
102
RTVSPost2010PropOp43
 70
     1
102
RTVSPost2010Prop44ColorIndex
 90
        5
102
RTVSPost2010Prop44ColorRGB
 90
      255
102
RTVSPost2010PropOp44
 70
     1
102
RTVSPost2010Prop45
280
     0
102
RTVSPost2010PropOp45
 70
     1
102
RTVSPost2010Prop46
 90
       50
102
RTVSPost2010PropOp46
 70
     1
102
RTVSPost2010Prop47
 90
       50
102
RTVSPost2010PropOp47
 70
     1
102
RTVSPost2010Prop48
 90
       50
102
RTVSPost2010PropOp48
 70
     1
102
RTVSPost2010Prop49
280
     0
102
RTVSPost2010PropOp49
 70
     1
102
RTVSPost2010Prop50
 90
       50
102
RTVSPost2010PropOp50
 70
     1
102
RTVSPost2010Prop51ColorIndex
 90
      256
102
RTVSPost2010Prop51ColorRGB
 90
-16777216
102
RTVSPost2010PropOp51
 70
     0
102
RTVSPost2010Prop52
140
1.0
102
RTVSPost2010PropOp52
 70
     0
102
RTVSPost2010Prop53
 90
        2
102
RTVSPost2010PropOp53
 70
     1
102
RTVSPost2010Prop54
  1
strokes_ogs.tif
102
RTVSPost2010PropOp54
 70
     1
102
RTVSPost2010Prop55
280
     0
102
RTVSPost2010PropOp55
 70
     1
102
RTVSPost2010Prop56
140
1.0
102
RTVSPost2010PropOp56
 70
     1
102
RTVSPost2010Prop57
140
1.0
102
RTVSPost2010PropOp57
 70
     1
  0
XRECORD
  5
1F73
102
{ACAD_REACTORS
330
1F72
102
}
330
1F72
100
AcDbXrecord
280
     1
102
RTVSPost2010Prop28
280
     0
102
RTVSPost2010PropOp28
 70
     1
102
RTVSPost2010Prop29
280
     1
102
RTVSPost2010PropOp29
 70
     1
102
RTVSPost2010Prop30
280
     1
102
RTVSPost2010PropOp30
 70
     1
102
RTVSPost2010Prop31
280
     0
102
RTVSPost2010PropOp31
 70
     1
102
RTVSPost2010Prop32
280
     0
102
RTVSPost2010PropOp32
 70
     1
102
RTVSPost2010Prop33
280
     0
102
RTVSPost2010PropOp33
 70
     1
102
RTVSPost2010Prop34
280
     0
102
RTVSPost2010PropOp34
 70
     1
102
RTVSPost2010Prop35
280
     0
102
RTVSPost2010PropOp35
 70
     1
102
RTVSPost2010Prop36
280
     0
102
RTVSPost2010PropOp36
 70
     1
102
RTVSPost2010Prop37
 90
       50
102
RTVSPost2010PropOp37
 70
     1
102
RTVSPost2010Prop38
140
0.0
102
RTVSPost2010PropOp38
 70
     1
102
RTVSPost2010Prop39
140
1.0
102
RTVSPost2010PropOp39
 70
     1
102
RTVSPost2010Prop40
 90
        0
102
RTVSPost2010PropOp40
 70
     1
102
RTVSPost2010Prop41ColorIndex
 90
       18
102
RTVSPost2010Prop41ColorRGB
 90
        0
102
RTVSPost2010PropOp41
 70
     1
102
RTVSPost2010Prop42
 90
       50
102
RTVSPost2010PropOp42
 70
     1
102
RTVSPost2010Prop43
 90
        3
102
RTVSPost2010PropOp43
 70
     1
102
RTVSPost2010Prop44ColorIndex
 90
        5
102
RTVSPost2010Prop44ColorRGB
 90
      255
102
RTVSPost2010PropOp44
 70
     1
102
RTVSPost2010Prop45
280
     0
102
RTVSPost2010PropOp45
 70
     1
102
RTVSPost2010Prop46
 90
       50
102
RTVSPost2010PropOp46
 70
     1
102
RTVSPost2010Prop47
 90
       50
102
RTVSPost2010PropOp47
 70
     1
102
RTVSPost2010Prop48
 90
       50
102
RTVSPost2010PropOp48
 70
     1
102
RTVSPost2010Prop49
280
     0
102
RTVSPost2010PropOp49
 70
     1
102
RTVSPost2010Prop50
 90
       50
102
RTVSPost2010PropOp50
 70
     1
102
RTVSPost2010Prop51ColorIndex
 90
      256
102
RTVSPost2010Prop51ColorRGB
 90
-16777216
102
RTVSPost2010PropOp51
 70
     0
102
RTVSPost2010Prop52
140
1.0
102
RTVSPost2010PropOp52
 70
     0
102
RTVSPost2010Prop53
 90
        2
102
RTVSPost2010PropOp53
 70
     1
102
RTVSPost2010Prop54
  1
strokes_ogs.tif
102
RTVSPost2010PropOp54
 70
     1
102
RTVSPost2010Prop55
280
     0
102
RTVSPost2010PropOp55
 70
     1
102
RTVSPost2010Prop56
140
1.0
102
RTVSPost2010PropOp56
 70
     1
102
RTVSPost2010Prop57
140
1.0
102
RTVSPost2010PropOp57
 70
     1
  0
XRECORD
  5
1F65
102
{ACAD_REACTORS
330
1F64
102
}
330
1F64
100
AcDbXrecord
280
     1
102
RTVSPost2010Prop28
280
     0
102
RTVSPost2010PropOp28
 70
     1
102
RTVSPost2010Prop29
280
     1
102
RTVSPost2010PropOp29
 70
     1
102
RTVSPost2010Prop30
280
     1
102
RTVSPost2010PropOp30
 70
     1
102
RTVSPost2010Prop31
280
     0
102
RTVSPost2010PropOp31
 70
     1
102
RTVSPost2010Prop32
280
     0
102
RTVSPost2010PropOp32
 70
     1
102
RTVSPost2010Prop33
280
     0
102
RTVSPost2010PropOp33
 70
     1
102
RTVSPost2010Prop34
280
     0
102
RTVSPost2010PropOp34
 70
     1
102
RTVSPost2010Prop35
280
     0
102
RTVSPost2010PropOp35
 70
     1
102
RTVSPost2010Prop36
280
     0
102
RTVSPost2010PropOp36
 70
     1
102
RTVSPost2010Prop37
 90
       50
102
RTVSPost2010PropOp37
 70
     1
102
RTVSPost2010Prop38
140
0.0
102
RTVSPost2010PropOp38
 70
     1
102
RTVSPost2010Prop39
140
1.0
102
RTVSPost2010PropOp39
 70
     1
102
RTVSPost2010Prop40
 90
        0
102
RTVSPost2010PropOp40
 70
     1
102
RTVSPost2010Prop41ColorIndex
 90
       18
102
RTVSPost2010Prop41ColorRGB
 90
        0
102
RTVSPost2010PropOp41
 70
     1
102
RTVSPost2010Prop42
 90
       50
102
RTVSPost2010PropOp42
 70
     1
102
RTVSPost2010Prop43
 90
        3
102
RTVSPost2010PropOp43
 70
     1
102
RTVSPost2010Prop44ColorIndex
 90
        5
102
RTVSPost2010Prop44ColorRGB
 90
      255
102
RTVSPost2010PropOp44
 70
     1
102
RTVSPost2010Prop45
280
     0
102
RTVSPost2010PropOp45
 70
     1
102
RTVSPost2010Prop46
 90
       50
102
RTVSPost2010PropOp46
 70
     1
102
RTVSPost2010Prop47
 90
       50
102
RTVSPost2010PropOp47
 70
     1
102
RTVSPost2010Prop48
 90
       50
102
RTVSPost2010PropOp48
 70
     1
102
RTVSPost2010Prop49
280
     0
102
RTVSPost2010PropOp49
 70
     1
102
RTVSPost2010Prop50
 90
       50
102
RTVSPost2010PropOp50
 70
     1
102
RTVSPost2010Prop51ColorIndex
 90
      256
102
RTVSPost2010Prop51ColorRGB
 90
-16777216
102
RTVSPost2010PropOp51
 70
     0
102
RTVSPost2010Prop52
140
1.0
102
RTVSPost2010PropOp52
 70
     0
102
RTVSPost2010Prop53
 90
        2
102
RTVSPost2010PropOp53
 70
     1
102
RTVSPost2010Prop54
  1
strokes_ogs.tif
102
RTVSPost2010PropOp54
 70
     1
102
RTVSPost2010Prop55
280
     0
102
RTVSPost2010PropOp55
 70
     1
102
RTVSPost2010Prop56
140
1.0
102
RTVSPost2010PropOp56
 70
     1
102
RTVSPost2010Prop57
140
1.0
102
RTVSPost2010PropOp57
 70
     1
  0
XRECORD
  5
1F69
102
{ACAD_REACTORS
330
1F68
102
}
330
1F68
100
AcDbXrecord
280
     1
102
RTVSPost2010Prop28
280
     0
102
RTVSPost2010PropOp28
 70
     1
102
RTVSPost2010Prop29
280
     1
102
RTVSPost2010PropOp29
 70
     1
102
RTVSPost2010Prop30
280
     1
102
RTVSPost2010PropOp30
 70
     1
102
RTVSPost2010Prop31
280
     0
102
RTVSPost2010PropOp31
 70
     1
102
RTVSPost2010Prop32
280
     0
102
RTVSPost2010PropOp32
 70
     1
102
RTVSPost2010Prop33
280
     0
102
RTVSPost2010PropOp33
 70
     1
102
RTVSPost2010Prop34
280
     0
102
RTVSPost2010PropOp34
 70
     1
102
RTVSPost2010Prop35
280
     0
102
RTVSPost2010PropOp35
 70
     1
102
RTVSPost2010Prop36
280
     0
102
RTVSPost2010PropOp36
 70
     1
102
RTVSPost2010Prop37
 90
       50
102
RTVSPost2010PropOp37
 70
     1
102
RTVSPost2010Prop38
140
0.0
102
RTVSPost2010PropOp38
 70
     1
102
RTVSPost2010Prop39
140
1.0
102
RTVSPost2010PropOp39
 70
     1
102
RTVSPost2010Prop40
 90
        0
102
RTVSPost2010PropOp40
 70
     1
102
RTVSPost2010Prop41ColorIndex
 90
       18
102
RTVSPost2010Prop41ColorRGB
 90
        0
102
RTVSPost2010PropOp41
 70
     1
102
RTVSPost2010Prop42
 90
       50
102
RTVSPost2010PropOp42
 70
     1
102
RTVSPost2010Prop43
 90
        3
102
RTVSPost2010PropOp43
 70
     1
102
RTVSPost2010Prop44ColorIndex
 90
        5
102
RTVSPost2010Prop44ColorRGB
 90
      255
102
RTVSPost2010PropOp44
 70
     1
102
RTVSPost2010Prop45
280
     0
102
RTVSPost2010PropOp45
 70
     1
102
RTVSPost2010Prop46
 90
       50
102
RTVSPost2010PropOp46
 70
     1
102
RTVSPost2010Prop47
 90
       50
102
RTVSPost2010PropOp47
 70
     1
102
RTVSPost2010Prop48
 90
       50
102
RTVSPost2010PropOp48
 70
     1
102
RTVSPost2010Prop49
280
     0
102
RTVSPost2010PropOp49
 70
     1
102
RTVSPost2010Prop50
 90
       50
102
RTVSPost2010PropOp50
 70
     1
102
RTVSPost2010Prop51ColorIndex
 90
      256
102
RTVSPost2010Prop51ColorRGB
 90
-16777216
102
RTVSPost2010PropOp51
 70
     0
102
RTVSPost2010Prop52
140
1.0
102
RTVSPost2010PropOp52
 70
     0
102
RTVSPost2010Prop53
 90
        2
102
RTVSPost2010PropOp53
 70
     1
102
RTVSPost2010Prop54
  1
strokes_ogs.tif
102
RTVSPost2010PropOp54
 70
     1
102
RTVSPost2010Prop55
280
     0
102
RTVSPost2010PropOp55
 70
     1
102
RTVSPost2010Prop56
140
1.0
102
RTVSPost2010PropOp56
 70
     1
102
RTVSPost2010Prop57
140
1.0
102
RTVSPost2010PropOp57
 70
     1
  0
XRECORD
  5
1F79
102
{ACAD_REACTORS
330
1F78
102
}
330
1F78
100
AcDbXrecord
280
     1
102
RTVSPost2010Prop28
280
     0
102
RTVSPost2010PropOp28
 70
     1
102
RTVSPost2010Prop29
280
     1
102
RTVSPost2010PropOp29
 70
     1
102
RTVSPost2010Prop30
280
     1
102
RTVSPost2010PropOp30
 70
     1
102
RTVSPost2010Prop31
280
     0
102
RTVSPost2010PropOp31
 70
     1
102
RTVSPost2010Prop32
280
     0
102
RTVSPost2010PropOp32
 70
     1
102
RTVSPost2010Prop33
280
     0
102
RTVSPost2010PropOp33
 70
     1
102
RTVSPost2010Prop34
280
     0
102
RTVSPost2010PropOp34
 70
     1
102
RTVSPost2010Prop35
280
     0
102
RTVSPost2010PropOp35
 70
     1
102
RTVSPost2010Prop36
280
     0
102
RTVSPost2010PropOp36
 70
     1
102
RTVSPost2010Prop37
 90
       50
102
RTVSPost2010PropOp37
 70
     1
102
RTVSPost2010Prop38
140
0.0
102
RTVSPost2010PropOp38
 70
     1
102
RTVSPost2010Prop39
140
1.0
102
RTVSPost2010PropOp39
 70
     1
102
RTVSPost2010Prop40
 90
        0
102
RTVSPost2010PropOp40
 70
     1
102
RTVSPost2010Prop41ColorIndex
 90
       18
102
RTVSPost2010Prop41ColorRGB
 90
        0
102
RTVSPost2010PropOp41
 70
     1
102
RTVSPost2010Prop42
 90
       50
102
RTVSPost2010PropOp42
 70
     1
102
RTVSPost2010Prop43
 90
        3
102
RTVSPost2010PropOp43
 70
     1
102
RTVSPost2010Prop44ColorIndex
 90
        5
102
RTVSPost2010Prop44ColorRGB
 90
      255
102
RTVSPost2010PropOp44
 70
     1
102
RTVSPost2010Prop45
280
     0
102
RTVSPost2010PropOp45
 70
     1
102
RTVSPost2010Prop46
 90
       50
102
RTVSPost2010PropOp46
 70
     1
102
RTVSPost2010Prop47
 90
       50
102
RTVSPost2010PropOp47
 70
     1
102
RTVSPost2010Prop48
 90
       50
102
RTVSPost2010PropOp48
 70
     1
102
RTVSPost2010Prop49
280
     0
102
RTVSPost2010PropOp49
 70
     1
102
RTVSPost2010Prop50
 90
       50
102
RTVSPost2010PropOp50
 70
     1
102
RTVSPost2010Prop51ColorIndex
 90
      256
102
RTVSPost2010Prop51ColorRGB
 90
-16777216
102
RTVSPost2010PropOp51
 70
     0
102
RTVSPost2010Prop52
140
1.0
102
RTVSPost2010PropOp52
 70
     0
102
RTVSPost2010Prop53
 90
        2
102
RTVSPost2010PropOp53
 70
     1
102
RTVSPost2010Prop54
  1
strokes_ogs.tif
102
RTVSPost2010PropOp54
 70
     1
102
RTVSPost2010Prop55
280
     0
102
RTVSPost2010PropOp55
 70
     1
102
RTVSPost2010Prop56
140
1.0
102
RTVSPost2010PropOp56
 70
     1
102
RTVSPost2010Prop57
140
1.0
102
RTVSPost2010PropOp57
 70
     1
  0
XRECORD
  5
1F71
102
{ACAD_REACTORS
330
1F70
102
}
330
1F70
100
AcDbXrecord
280
     1
102
RTVSPost2010Prop28
280
     0
102
RTVSPost2010PropOp28
 70
     1
102
RTVSPost2010Prop29
280
     1
102
RTVSPost2010PropOp29
 70
     1
102
RTVSPost2010Prop30
280
     1
102
RTVSPost2010PropOp30
 70
     1
102
RTVSPost2010Prop31
280
     0
102
RTVSPost2010PropOp31
 70
     1
102
RTVSPost2010Prop32
280
     0
102
RTVSPost2010PropOp32
 70
     1
102
RTVSPost2010Prop33
280
     0
102
RTVSPost2010PropOp33
 70
     1
102
RTVSPost2010Prop34
280
     0
102
RTVSPost2010PropOp34
 70
     1
102
RTVSPost2010Prop35
280
     0
102
RTVSPost2010PropOp35
 70
     1
102
RTVSPost2010Prop36
280
     0
102
RTVSPost2010PropOp36
 70
     1
102
RTVSPost2010Prop37
 90
       50
102
RTVSPost2010PropOp37
 70
     1
102
RTVSPost2010Prop38
140
0.0
102
RTVSPost2010PropOp38
 70
     1
102
RTVSPost2010Prop39
140
1.0
102
RTVSPost2010PropOp39
 70
     1
102
RTVSPost2010Prop40
 90
        0
102
RTVSPost2010PropOp40
 70
     1
102
RTVSPost2010Prop41ColorIndex
 90
       18
102
RTVSPost2010Prop41ColorRGB
 90
        0
102
RTVSPost2010PropOp41
 70
     1
102
RTVSPost2010Prop42
 90
       50
102
RTVSPost2010PropOp42
 70
     1
102
RTVSPost2010Prop43
 90
        3
102
RTVSPost2010PropOp43
 70
     1
102
RTVSPost2010Prop44ColorIndex
 90
        5
102
RTVSPost2010Prop44ColorRGB
 90
      255
102
RTVSPost2010PropOp44
 70
     1
102
RTVSPost2010Prop45
280
     0
102
RTVSPost2010PropOp45
 70
     1
102
RTVSPost2010Prop46
 90
       50
102
RTVSPost2010PropOp46
 70
     1
102
RTVSPost2010Prop47
 90
       50
102
RTVSPost2010PropOp47
 70
     1
102
RTVSPost2010Prop48
 90
       50
102
RTVSPost2010PropOp48
 70
     1
102
RTVSPost2010Prop49
280
     0
102
RTVSPost2010PropOp49
 70
     1
102
RTVSPost2010Prop50
 90
       50
102
RTVSPost2010PropOp50
 70
     1
102
RTVSPost2010Prop51ColorIndex
 90
      256
102
RTVSPost2010Prop51ColorRGB
 90
-16777216
102
RTVSPost2010PropOp51
 70
     0
102
RTVSPost2010Prop52
140
1.0
102
RTVSPost2010PropOp52
 70
     0
102
RTVSPost2010Prop53
 90
        2
102
RTVSPost2010PropOp53
 70
     1
102
RTVSPost2010Prop54
  1
strokes_ogs.tif
102
RTVSPost2010PropOp54
 70
     1
102
RTVSPost2010Prop55
280
     0
102
RTVSPost2010PropOp55
 70
     1
102
RTVSPost2010Prop56
140
1.0
102
RTVSPost2010PropOp56
 70
     1
102
RTVSPost2010Prop57
140
1.0
102
RTVSPost2010PropOp57
 70
     1
  0
XRECORD
  5
1F55
102
{ACAD_REACTORS
330
1F54
102
}
330
1F54
100
AcDbXrecord
280
     1
102
RTVSPost2010Prop28
280
     0
102
RTVSPost2010PropOp28
 70
     1
102
RTVSPost2010Prop29
280
     1
102
RTVSPost2010PropOp29
 70
     1
102
RTVSPost2010Prop30
280
     1
102
RTVSPost2010PropOp30
 70
     1
102
RTVSPost2010Prop31
280
     0
102
RTVSPost2010PropOp31
 70
     1
102
RTVSPost2010Prop32
280
     0
102
RTVSPost2010PropOp32
 70
     1
102
RTVSPost2010Prop33
280
     0
102
RTVSPost2010PropOp33
 70
     1
102
RTVSPost2010Prop34
280
     0
102
RTVSPost2010PropOp34
 70
     1
102
RTVSPost2010Prop35
280
     0
102
RTVSPost2010PropOp35
 70
     1
102
RTVSPost2010Prop36
280
     0
102
RTVSPost2010PropOp36
 70
     1
102
RTVSPost2010Prop37
 90
       50
102
RTVSPost2010PropOp37
 70
     1
102
RTVSPost2010Prop38
140
0.0
102
RTVSPost2010PropOp38
 70
     1
102
RTVSPost2010Prop39
140
1.0
102
RTVSPost2010PropOp39
 70
     1
102
RTVSPost2010Prop40
 90
        0
102
RTVSPost2010PropOp40
 70
     1
102
RTVSPost2010Prop41ColorIndex
 90
       18
102
RTVSPost2010Prop41ColorRGB
 90
        0
102
RTVSPost2010PropOp41
 70
     1
102
RTVSPost2010Prop42
 90
       50
102
RTVSPost2010PropOp42
 70
     1
102
RTVSPost2010Prop43
 90
        3
102
RTVSPost2010PropOp43
 70
     1
102
RTVSPost2010Prop44ColorIndex
 90
        5
102
RTVSPost2010Prop44ColorRGB
 90
      255
102
RTVSPost2010PropOp44
 70
     1
102
RTVSPost2010Prop45
280
     0
102
RTVSPost2010PropOp45
 70
     1
102
RTVSPost2010Prop46
 90
       50
102
RTVSPost2010PropOp46
 70
     1
102
RTVSPost2010Prop47
 90
       50
102
RTVSPost2010PropOp47
 70
     1
102
RTVSPost2010Prop48
 90
       50
102
RTVSPost2010PropOp48
 70
     1
102
RTVSPost2010Prop49
280
     0
102
RTVSPost2010PropOp49
 70
     1
102
RTVSPost2010Prop50
 90
       50
102
RTVSPost2010PropOp50
 70
     1
102
RTVSPost2010Prop51ColorIndex
 90
      256
102
RTVSPost2010Prop51ColorRGB
 90
-16777216
102
RTVSPost2010PropOp51
 70
     0
102
RTVSPost2010Prop52
140
1.0
102
RTVSPost2010PropOp52
 70
     0
102
RTVSPost2010Prop53
 90
        2
102
RTVSPost2010PropOp53
 70
     1
102
RTVSPost2010Prop54
  1
strokes_ogs.tif
102
RTVSPost2010PropOp54
 70
     1
102
RTVSPost2010Prop55
280
     0
102
RTVSPost2010PropOp55
 70
     1
102
RTVSPost2010Prop56
140
1.0
102
RTVSPost2010PropOp56
 70
     1
102
RTVSPost2010Prop57
140
1.0
102
RTVSPost2010PropOp57
 70
     1
  0
XRECORD
  5
1F57
102
{ACAD_REACTORS
330
1F56
102
}
330
1F56
100
AcDbXrecord
280
     1
102
RTVSPost2010Prop28
280
     0
102
RTVSPost2010PropOp28
 70
     1
102
RTVSPost2010Prop29
280
     1
102
RTVSPost2010PropOp29
 70
     1
102
RTVSPost2010Prop30
280
     1
102
RTVSPost2010PropOp30
 70
     1
102
RTVSPost2010Prop31
280
     0
102
RTVSPost2010PropOp31
 70
     1
102
RTVSPost2010Prop32
280
     0
102
RTVSPost2010PropOp32
 70
     1
102
RTVSPost2010Prop33
280
     0
102
RTVSPost2010PropOp33
 70
     1
102
RTVSPost2010Prop34
280
     0
102
RTVSPost2010PropOp34
 70
     1
102
RTVSPost2010Prop35
280
     0
102
RTVSPost2010PropOp35
 70
     1
102
RTVSPost2010Prop36
280
     0
102
RTVSPost2010PropOp36
 70
     1
102
RTVSPost2010Prop37
 90
       50
102
RTVSPost2010PropOp37
 70
     1
102
RTVSPost2010Prop38
140
0.0
102
RTVSPost2010PropOp38
 70
     1
102
RTVSPost2010Prop39
140
1.0
102
RTVSPost2010PropOp39
 70
     1
102
RTVSPost2010Prop40
 90
        0
102
RTVSPost2010PropOp40
 70
     1
102
RTVSPost2010Prop41ColorIndex
 90
       18
102
RTVSPost2010Prop41ColorRGB
 90
        0
102
RTVSPost2010PropOp41
 70
     1
102
RTVSPost2010Prop42
 90
       50
102
RTVSPost2010PropOp42
 70
     1
102
RTVSPost2010Prop43
 90
        3
102
RTVSPost2010PropOp43
 70
     1
102
RTVSPost2010Prop44ColorIndex
 90
        5
102
RTVSPost2010Prop44ColorRGB
 90
      255
102
RTVSPost2010PropOp44
 70
     1
102
RTVSPost2010Prop45
280
     0
102
RTVSPost2010PropOp45
 70
     1
102
RTVSPost2010Prop46
 90
       50
102
RTVSPost2010PropOp46
 70
     1
102
RTVSPost2010Prop47
 90
       50
102
RTVSPost2010PropOp47
 70
     1
102
RTVSPost2010Prop48
 90
       50
102
RTVSPost2010PropOp48
 70
     1
102
RTVSPost2010Prop49
280
     0
102
RTVSPost2010PropOp49
 70
     1
102
RTVSPost2010Prop50
 90
       50
102
RTVSPost2010PropOp50
 70
     1
102
RTVSPost2010Prop51ColorIndex
 90
      256
102
RTVSPost2010Prop51ColorRGB
 90
-16777216
102
RTVSPost2010PropOp51
 70
     0
102
RTVSPost2010Prop52
140
1.0
102
RTVSPost2010PropOp52
 70
     0
102
RTVSPost2010Prop53
 90
        2
102
RTVSPost2010PropOp53
 70
     1
102
RTVSPost2010Prop54
  1
strokes_ogs.tif
102
RTVSPost2010PropOp54
 70
     1
102
RTVSPost2010Prop55
280
     0
102
RTVSPost2010PropOp55
 70
     1
102
RTVSPost2010Prop56
140
1.0
102
RTVSPost2010PropOp56
 70
     1
102
RTVSPost2010Prop57
140
1.0
102
RTVSPost2010PropOp57
 70
     1
  0
XRECORD
  5
1F59
102
{ACAD_REACTORS
330
1F58
102
}
330
1F58
100
AcDbXrecord
280
     1
102
RTVSPost2010Prop28
280
     0
102
RTVSPost2010PropOp28
 70
     1
102
RTVSPost2010Prop29
280
     1
102
RTVSPost2010PropOp29
 70
     1
102
RTVSPost2010Prop30
280
     1
102
RTVSPost2010PropOp30
 70
     1
102
RTVSPost2010Prop31
280
     0
102
RTVSPost2010PropOp31
 70
     1
102
RTVSPost2010Prop32
280
     0
102
RTVSPost2010PropOp32
 70
     1
102
RTVSPost2010Prop33
280
     0
102
RTVSPost2010PropOp33
 70
     1
102
RTVSPost2010Prop34
280
     0
102
RTVSPost2010PropOp34
 70
     1
102
RTVSPost2010Prop35
280
     0
102
RTVSPost2010PropOp35
 70
     1
102
RTVSPost2010Prop36
280
     0
102
RTVSPost2010PropOp36
 70
     1
102
RTVSPost2010Prop37
 90
       50
102
RTVSPost2010PropOp37
 70
     1
102
RTVSPost2010Prop38
140
0.0
102
RTVSPost2010PropOp38
 70
     1
102
RTVSPost2010Prop39
140
1.0
102
RTVSPost2010PropOp39
 70
     1
102
RTVSPost2010Prop40
 90
        0
102
RTVSPost2010PropOp40
 70
     1
102
RTVSPost2010Prop41ColorIndex
 90
       18
102
RTVSPost2010Prop41ColorRGB
 90
        0
102
RTVSPost2010PropOp41
 70
     1
102
RTVSPost2010Prop42
 90
       50
102
RTVSPost2010PropOp42
 70
     1
102
RTVSPost2010Prop43
 90
        3
102
RTVSPost2010PropOp43
 70
     1
102
RTVSPost2010Prop44ColorIndex
 90
        5
102
RTVSPost2010Prop44ColorRGB
 90
      255
102
RTVSPost2010PropOp44
 70
     1
102
RTVSPost2010Prop45
280
     0
102
RTVSPost2010PropOp45
 70
     1
102
RTVSPost2010Prop46
 90
       50
102
RTVSPost2010PropOp46
 70
     1
102
RTVSPost2010Prop47
 90
       50
102
RTVSPost2010PropOp47
 70
     1
102
RTVSPost2010Prop48
 90
       50
102
RTVSPost2010PropOp48
 70
     1
102
RTVSPost2010Prop49
280
     0
102
RTVSPost2010PropOp49
 70
     1
102
RTVSPost2010Prop50
 90
       50
102
RTVSPost2010PropOp50
 70
     1
102
RTVSPost2010Prop51ColorIndex
 90
      256
102
RTVSPost2010Prop51ColorRGB
 90
-16777216
102
RTVSPost2010PropOp51
 70
     0
102
RTVSPost2010Prop52
140
1.0
102
RTVSPost2010PropOp52
 70
     0
102
RTVSPost2010Prop53
 90
        2
102
RTVSPost2010PropOp53
 70
     1
102
RTVSPost2010Prop54
  1
strokes_ogs.tif
102
RTVSPost2010PropOp54
 70
     1
102
RTVSPost2010Prop55
280
     0
102
RTVSPost2010PropOp55
 70
     1
102
RTVSPost2010Prop56
140
1.0
102
RTVSPost2010PropOp56
 70
     1
102
RTVSPost2010Prop57
140
1.0
102
RTVSPost2010PropOp57
 70
     1
  0
XRECORD
  5
1F5B
102
{ACAD_REACTORS
330
1F5A
102
}
330
1F5A
100
AcDbXrecord
280
     1
102
RTVSPost2010Prop28
280
     0
102
RTVSPost2010PropOp28
 70
     1
102
RTVSPost2010Prop29
280
     1
102
RTVSPost2010PropOp29
 70
     1
102
RTVSPost2010Prop30
280
     1
102
RTVSPost2010PropOp30
 70
     1
102
RTVSPost2010Prop31
280
     0
102
RTVSPost2010PropOp31
 70
     1
102
RTVSPost2010Prop32
280
     0
102
RTVSPost2010PropOp32
 70
     1
102
RTVSPost2010Prop33
280
     0
102
RTVSPost2010PropOp33
 70
     1
102
RTVSPost2010Prop34
280
     0
102
RTVSPost2010PropOp34
 70
     1
102
RTVSPost2010Prop35
280
     0
102
RTVSPost2010PropOp35
 70
     1
102
RTVSPost2010Prop36
280
     0
102
RTVSPost2010PropOp36
 70
     1
102
RTVSPost2010Prop37
 90
       50
102
RTVSPost2010PropOp37
 70
     1
102
RTVSPost2010Prop38
140
0.0
102
RTVSPost2010PropOp38
 70
     1
102
RTVSPost2010Prop39
140
1.0
102
RTVSPost2010PropOp39
 70
     1
102
RTVSPost2010Prop40
 90
        0
102
RTVSPost2010PropOp40
 70
     1
102
RTVSPost2010Prop41ColorIndex
 90
       18
102
RTVSPost2010Prop41ColorRGB
 90
        0
102
RTVSPost2010PropOp41
 70
     1
102
RTVSPost2010Prop42
 90
       50
102
RTVSPost2010PropOp42
 70
     1
102
RTVSPost2010Prop43
 90
        3
102
RTVSPost2010PropOp43
 70
     1
102
RTVSPost2010Prop44ColorIndex
 90
        5
102
RTVSPost2010Prop44ColorRGB
 90
      255
102
RTVSPost2010PropOp44
 70
     1
102
RTVSPost2010Prop45
280
     0
102
RTVSPost2010PropOp45
 70
     1
102
RTVSPost2010Prop46
 90
       50
102
RTVSPost2010PropOp46
 70
     1
102
RTVSPost2010Prop47
 90
       50
102
RTVSPost2010PropOp47
 70
     1
102
RTVSPost2010Prop48
 90
       50
102
RTVSPost2010PropOp48
 70
     1
102
RTVSPost2010Prop49
280
     0
102
RTVSPost2010PropOp49
 70
     1
102
RTVSPost2010Prop50
 90
       50
102
RTVSPost2010PropOp50
 70
     1
102
RTVSPost2010Prop51ColorIndex
 90
      256
102
RTVSPost2010Prop51ColorRGB
 90
-16777216
102
RTVSPost2010PropOp51
 70
     0
102
RTVSPost2010Prop52
140
1.0
102
RTVSPost2010PropOp52
 70
     0
102
RTVSPost2010Prop53
 90
        2
102
RTVSPost2010PropOp53
 70
     1
102
RTVSPost2010Prop54
  1
strokes_ogs.tif
102
RTVSPost2010PropOp54
 70
     1
102
RTVSPost2010Prop55
280
     0
102
RTVSPost2010PropOp55
 70
     1
102
RTVSPost2010Prop56
140
1.0
102
RTVSPost2010PropOp56
 70
     1
102
RTVSPost2010Prop57
140
1.0
102
RTVSPost2010PropOp57
 70
     1
  0
XRECORD
  5
1F63
102
{ACAD_REACTORS
330
1F62
102
}
330
1F62
100
AcDbXrecord
280
     1
102
RTVSPost2010Prop28
280
     0
102
RTVSPost2010PropOp28
 70
     1
102
RTVSPost2010Prop29
280
     1
102
RTVSPost2010PropOp29
 70
     1
102
RTVSPost2010Prop30
280
     1
102
RTVSPost2010PropOp30
 70
     1
102
RTVSPost2010Prop31
280
     0
102
RTVSPost2010PropOp31
 70
     1
102
RTVSPost2010Prop32
280
     0
102
RTVSPost2010PropOp32
 70
     1
102
RTVSPost2010Prop33
280
     0
102
RTVSPost2010PropOp33
 70
     1
102
RTVSPost2010Prop34
280
     0
102
RTVSPost2010PropOp34
 70
     1
102
RTVSPost2010Prop35
280
     0
102
RTVSPost2010PropOp35
 70
     1
102
RTVSPost2010Prop36
280
     0
102
RTVSPost2010PropOp36
 70
     1
102
RTVSPost2010Prop37
 90
       50
102
RTVSPost2010PropOp37
 70
     1
102
RTVSPost2010Prop38
140
0.0
102
RTVSPost2010PropOp38
 70
     1
102
RTVSPost2010Prop39
140
1.0
102
RTVSPost2010PropOp39
 70
     1
102
RTVSPost2010Prop40
 90
        0
102
RTVSPost2010PropOp40
 70
     1
102
RTVSPost2010Prop41ColorIndex
 90
       18
102
RTVSPost2010Prop41ColorRGB
 90
        0
102
RTVSPost2010PropOp41
 70
     1
102
RTVSPost2010Prop42
 90
       50
102
RTVSPost2010PropOp42
 70
     1
102
RTVSPost2010Prop43
 90
        3
102
RTVSPost2010PropOp43
 70
     1
102
RTVSPost2010Prop44ColorIndex
 90
        5
102
RTVSPost2010Prop44ColorRGB
 90
      255
102
RTVSPost2010PropOp44
 70
     1
102
RTVSPost2010Prop45
280
     0
102
RTVSPost2010PropOp45
 70
     1
102
RTVSPost2010Prop46
 90
       50
102
RTVSPost2010PropOp46
 70
     1
102
RTVSPost2010Prop47
 90
       50
102
RTVSPost2010PropOp47
 70
     1
102
RTVSPost2010Prop48
 90
       50
102
RTVSPost2010PropOp48
 70
     1
102
RTVSPost2010Prop49
280
     0
102
RTVSPost2010PropOp49
 70
     1
102
RTVSPost2010Prop50
 90
       50
102
RTVSPost2010PropOp50
 70
     1
102
RTVSPost2010Prop51ColorIndex
 90
      256
102
RTVSPost2010Prop51ColorRGB
 90
-16777216
102
RTVSPost2010PropOp51
 70
     0
102
RTVSPost2010Prop52
140
1.0
102
RTVSPost2010PropOp52
 70
     0
102
RTVSPost2010Prop53
 90
        2
102
RTVSPost2010PropOp53
 70
     1
102
RTVSPost2010Prop54
  1
strokes_ogs.tif
102
RTVSPost2010PropOp54
 70
     1
102
RTVSPost2010Prop55
280
     0
102
RTVSPost2010PropOp55
 70
     1
102
RTVSPost2010Prop56
140
1.0
102
RTVSPost2010PropOp56
 70
     1
102
RTVSPost2010Prop57
140
1.0
102
RTVSPost2010PropOp57
 70
     1
  0
XRECORD
  5
1F75
102
{ACAD_REACTORS
330
1F74
102
}
330
1F74
100
AcDbXrecord
280
     1
102
RTVSPost2010Prop28
280
     0
102
RTVSPost2010PropOp28
 70
     1
102
RTVSPost2010Prop29
280
     1
102
RTVSPost2010PropOp29
 70
     1
102
RTVSPost2010Prop30
280
     1
102
RTVSPost2010PropOp30
 70
     1
102
RTVSPost2010Prop31
280
     0
102
RTVSPost2010PropOp31
 70
     1
102
RTVSPost2010Prop32
280
     0
102
RTVSPost2010PropOp32
 70
     1
102
RTVSPost2010Prop33
280
     0
102
RTVSPost2010PropOp33
 70
     1
102
RTVSPost2010Prop34
280
     0
102
RTVSPost2010PropOp34
 70
     1
102
RTVSPost2010Prop35
280
     0
102
RTVSPost2010PropOp35
 70
     1
102
RTVSPost2010Prop36
280
     0
102
RTVSPost2010PropOp36
 70
     1
102
RTVSPost2010Prop37
 90
       50
102
RTVSPost2010PropOp37
 70
     1
102
RTVSPost2010Prop38
140
0.0
102
RTVSPost2010PropOp38
 70
     1
102
RTVSPost2010Prop39
140
1.0
102
RTVSPost2010PropOp39
 70
     1
102
RTVSPost2010Prop40
 90
        0
102
RTVSPost2010PropOp40
 70
     1
102
RTVSPost2010Prop41ColorIndex
 90
       18
102
RTVSPost2010Prop41ColorRGB
 90
        0
102
RTVSPost2010PropOp41
 70
     1
102
RTVSPost2010Prop42
 90
       50
102
RTVSPost2010PropOp42
 70
     1
102
RTVSPost2010Prop43
 90
        3
102
RTVSPost2010PropOp43
 70
     1
102
RTVSPost2010Prop44ColorIndex
 90
        5
102
RTVSPost2010Prop44ColorRGB
 90
      255
102
RTVSPost2010PropOp44
 70
     1
102
RTVSPost2010Prop45
280
     0
102
RTVSPost2010PropOp45
 70
     1
102
RTVSPost2010Prop46
 90
       50
102
RTVSPost2010PropOp46
 70
     1
102
RTVSPost2010Prop47
 90
       50
102
RTVSPost2010PropOp47
 70
     1
102
RTVSPost2010Prop48
 90
       50
102
RTVSPost2010PropOp48
 70
     1
102
RTVSPost2010Prop49
280
     0
102
RTVSPost2010PropOp49
 70
     1
102
RTVSPost2010Prop50
 90
       50
102
RTVSPost2010PropOp50
 70
     1
102
RTVSPost2010Prop51ColorIndex
 90
      256
102
RTVSPost2010Prop51ColorRGB
 90
-16777216
102
RTVSPost2010PropOp51
 70
     0
102
RTVSPost2010Prop52
140
1.0
102
RTVSPost2010PropOp52
 70
     0
102
RTVSPost2010Prop53
 90
        2
102
RTVSPost2010PropOp53
 70
     1
102
RTVSPost2010Prop54
  1
strokes_ogs.tif
102
RTVSPost2010PropOp54
 70
     1
102
RTVSPost2010Prop55
280
     0
102
RTVSPost2010PropOp55
 70
     1
102
RTVSPost2010Prop56
140
1.0
102
RTVSPost2010PropOp56
 70
     1
102
RTVSPost2010Prop57
140
1.0
102
RTVSPost2010PropOp57
 70
     1
  0
XRECORD
  5
1F6F
102
{ACAD_REACTORS
330
1F6E
102
}
330
1F6E
100
AcDbXrecord
280
     1
102
RTVSPost2010Prop28
280
     0
102
RTVSPost2010PropOp28
 70
     1
102
RTVSPost2010Prop29
280
     1
102
RTVSPost2010PropOp29
 70
     1
102
RTVSPost2010Prop30
280
     1
102
RTVSPost2010PropOp30
 70
     1
102
RTVSPost2010Prop31
280
     0
102
RTVSPost2010PropOp31
 70
     1
102
RTVSPost2010Prop32
280
     0
102
RTVSPost2010PropOp32
 70
     1
102
RTVSPost2010Prop33
280
     0
102
RTVSPost2010PropOp33
 70
     1
102
RTVSPost2010Prop34
280
     0
102
RTVSPost2010PropOp34
 70
     1
102
RTVSPost2010Prop35
280
     0
102
RTVSPost2010PropOp35
 70
     1
102
RTVSPost2010Prop36
280
     0
102
RTVSPost2010PropOp36
 70
     1
102
RTVSPost2010Prop37
 90
       50
102
RTVSPost2010PropOp37
 70
     1
102
RTVSPost2010Prop38
140
0.0
102
RTVSPost2010PropOp38
 70
     1
102
RTVSPost2010Prop39
140
1.0
102
RTVSPost2010PropOp39
 70
     1
102
RTVSPost2010Prop40
 90
        0
102
RTVSPost2010PropOp40
 70
     1
102
RTVSPost2010Prop41ColorIndex
 90
       18
102
RTVSPost2010Prop41ColorRGB
 90
        0
102
RTVSPost2010PropOp41
 70
     1
102
RTVSPost2010Prop42
 90
       50
102
RTVSPost2010PropOp42
 70
     1
102
RTVSPost2010Prop43
 90
        3
102
RTVSPost2010PropOp43
 70
     1
102
RTVSPost2010Prop44ColorIndex
 90
        5
102
RTVSPost2010Prop44ColorRGB
 90
      255
102
RTVSPost2010PropOp44
 70
     1
102
RTVSPost2010Prop45
280
     0
102
RTVSPost2010PropOp45
 70
     1
102
RTVSPost2010Prop46
 90
       50
102
RTVSPost2010PropOp46
 70
     1
102
RTVSPost2010Prop47
 90
       50
102
RTVSPost2010PropOp47
 70
     1
102
RTVSPost2010Prop48
 90
       50
102
RTVSPost2010PropOp48
 70
     1
102
RTVSPost2010Prop49
280
     0
102
RTVSPost2010PropOp49
 70
     1
102
RTVSPost2010Prop50
 90
       50
102
RTVSPost2010PropOp50
 70
     1
102
RTVSPost2010Prop51ColorIndex
 90
      256
102
RTVSPost2010Prop51ColorRGB
 90
-16777216
102
RTVSPost2010PropOp51
 70
     0
102
RTVSPost2010Prop52
140
1.0
102
RTVSPost2010PropOp52
 70
     0
102
RTVSPost2010Prop53
 90
        2
102
RTVSPost2010PropOp53
 70
     1
102
RTVSPost2010Prop54
  1
strokes_ogs.tif
102
RTVSPost2010PropOp54
 70
     1
102
RTVSPost2010Prop55
280
     0
102
RTVSPost2010PropOp55
 70
     1
102
RTVSPost2010Prop56
140
1.0
102
RTVSPost2010PropOp56
 70
     1
102
RTVSPost2010Prop57
140
1.0
102
RTVSPost2010PropOp57
 70
     1
  0
XRECORD
  5
1F77
102
{ACAD_REACTORS
330
1F76
102
}
330
1F76
100
AcDbXrecord
280
     1
102
RTVSPost2010Prop28
280
     0
102
RTVSPost2010PropOp28
 70
     1
102
RTVSPost2010Prop29
280
     1
102
RTVSPost2010PropOp29
 70
     1
102
RTVSPost2010Prop30
280
     1
102
RTVSPost2010PropOp30
 70
     1
102
RTVSPost2010Prop31
280
     0
102
RTVSPost2010PropOp31
 70
     1
102
RTVSPost2010Prop32
280
     0
102
RTVSPost2010PropOp32
 70
     1
102
RTVSPost2010Prop33
280
     0
102
RTVSPost2010PropOp33
 70
     1
102
RTVSPost2010Prop34
280
     0
102
RTVSPost2010PropOp34
 70
     1
102
RTVSPost2010Prop35
280
     0
102
RTVSPost2010PropOp35
 70
     1
102
RTVSPost2010Prop36
280
     0
102
RTVSPost2010PropOp36
 70
     1
102
RTVSPost2010Prop37
 90
       50
102
RTVSPost2010PropOp37
 70
     1
102
RTVSPost2010Prop38
140
0.0
102
RTVSPost2010PropOp38
 70
     1
102
RTVSPost2010Prop39
140
1.0
102
RTVSPost2010PropOp39
 70
     1
102
RTVSPost2010Prop40
 90
        0
102
RTVSPost2010PropOp40
 70
     1
102
RTVSPost2010Prop41ColorIndex
 90
       18
102
RTVSPost2010Prop41ColorRGB
 90
        0
102
RTVSPost2010PropOp41
 70
     1
102
RTVSPost2010Prop42
 90
       50
102
RTVSPost2010PropOp42
 70
     1
102
RTVSPost2010Prop43
 90
        3
102
RTVSPost2010PropOp43
 70
     1
102
RTVSPost2010Prop44ColorIndex
 90
        5
102
RTVSPost2010Prop44ColorRGB
 90
      255
102
RTVSPost2010PropOp44
 70
     1
102
RTVSPost2010Prop45
280
     0
102
RTVSPost2010PropOp45
 70
     1
102
RTVSPost2010Prop46
 90
       50
102
RTVSPost2010PropOp46
 70
     1
102
RTVSPost2010Prop47
 90
       50
102
RTVSPost2010PropOp47
 70
     1
102
RTVSPost2010Prop48
 90
       50
102
RTVSPost2010PropOp48
 70
     1
102
RTVSPost2010Prop49
280
     0
102
RTVSPost2010PropOp49
 70
     1
102
RTVSPost2010Prop50
 90
       50
102
RTVSPost2010PropOp50
 70
     1
102
RTVSPost2010Prop51ColorIndex
 90
      256
102
RTVSPost2010Prop51ColorRGB
 90
-16777216
102
RTVSPost2010PropOp51
 70
     0
102
RTVSPost2010Prop52
140
1.0
102
RTVSPost2010PropOp52
 70
     0
102
RTVSPost2010Prop53
 90
        2
102
RTVSPost2010PropOp53
 70
     1
102
RTVSPost2010Prop54
  1
strokes_ogs.tif
102
RTVSPost2010PropOp54
 70
     1
102
RTVSPost2010Prop55
280
     0
102
RTVSPost2010PropOp55
 70
     1
102
RTVSPost2010Prop56
140
1.0
102
RTVSPost2010PropOp56
 70
     1
102
RTVSPost2010Prop57
140
1.0
102
RTVSPost2010PropOp57
 70
     1
  0
XRECORD
  5
1F67
102
{ACAD_REACTORS
330
1F66
102
}
330
1F66
100
AcDbXrecord
280
     1
102
RTVSPost2010Prop28
280
     0
102
RTVSPost2010PropOp28
 70
     1
102
RTVSPost2010Prop29
280
     1
102
RTVSPost2010PropOp29
 70
     1
102
RTVSPost2010Prop30
280
     1
102
RTVSPost2010PropOp30
 70
     1
102
RTVSPost2010Prop31
280
     0
102
RTVSPost2010PropOp31
 70
     1
102
RTVSPost2010Prop32
280
     0
102
RTVSPost2010PropOp32
 70
     1
102
RTVSPost2010Prop33
280
     0
102
RTVSPost2010PropOp33
 70
     1
102
RTVSPost2010Prop34
280
     0
102
RTVSPost2010PropOp34
 70
     1
102
RTVSPost2010Prop35
280
     0
102
RTVSPost2010PropOp35
 70
     1
102
RTVSPost2010Prop36
280
     0
102
RTVSPost2010PropOp36
 70
     1
102
RTVSPost2010Prop37
 90
       50
102
RTVSPost2010PropOp37
 70
     1
102
RTVSPost2010Prop38
140
0.0
102
RTVSPost2010PropOp38
 70
     1
102
RTVSPost2010Prop39
140
1.0
102
RTVSPost2010PropOp39
 70
     1
102
RTVSPost2010Prop40
 90
        0
102
RTVSPost2010PropOp40
 70
     1
102
RTVSPost2010Prop41ColorIndex
 90
       18
102
RTVSPost2010Prop41ColorRGB
 90
        0
102
RTVSPost2010PropOp41
 70
     1
102
RTVSPost2010Prop42
 90
       50
102
RTVSPost2010PropOp42
 70
     1
102
RTVSPost2010Prop43
 90
        3
102
RTVSPost2010PropOp43
 70
     1
102
RTVSPost2010Prop44ColorIndex
 90
        5
102
RTVSPost2010Prop44ColorRGB
 90
      255
102
RTVSPost2010PropOp44
 70
     1
102
RTVSPost2010Prop45
280
     0
102
RTVSPost2010PropOp45
 70
     1
102
RTVSPost2010Prop46
 90
       50
102
RTVSPost2010PropOp46
 70
     1
102
RTVSPost2010Prop47
 90
       50
102
RTVSPost2010PropOp47
 70
     1
102
RTVSPost2010Prop48
 90
       50
102
RTVSPost2010PropOp48
 70
     1
102
RTVSPost2010Prop49
280
     0
102
RTVSPost2010PropOp49
 70
     1
102
RTVSPost2010Prop50
 90
       50
102
RTVSPost2010PropOp50
 70
     1
102
RTVSPost2010Prop51ColorIndex
 90
      256
102
RTVSPost2010Prop51ColorRGB
 90
-16777216
102
RTVSPost2010PropOp51
 70
     0
102
RTVSPost2010Prop52
140
1.0
102
RTVSPost2010PropOp52
 70
     0
102
RTVSPost2010Prop53
 90
        2
102
RTVSPost2010PropOp53
 70
     1
102
RTVSPost2010Prop54
  1
strokes_ogs.tif
102
RTVSPost2010PropOp54
 70
     1
102
RTVSPost2010Prop55
280
     0
102
RTVSPost2010PropOp55
 70
     1
102
RTVSPost2010Prop56
140
1.0
102
RTVSPost2010PropOp56
 70
     1
102
RTVSPost2010Prop57
140
1.0
102
RTVSPost2010PropOp57
 70
     1
  0
XRECORD
  5
1F83
102
{ACAD_REACTORS
330
1F82
102
}
330
1F82
100
AcDbXrecord
280
     1
102
RTVSPost2010Prop28
280
     0
102
RTVSPost2010PropOp28
 70
     1
102
RTVSPost2010Prop29
280
     1
102
RTVSPost2010PropOp29
 70
     1
102
RTVSPost2010Prop30
280
     1
102
RTVSPost2010PropOp30
 70
     1
102
RTVSPost2010Prop31
280
     0
102
RTVSPost2010PropOp31
 70
     1
102
RTVSPost2010Prop32
280
     0
102
RTVSPost2010PropOp32
 70
     1
102
RTVSPost2010Prop33
280
     0
102
RTVSPost2010PropOp33
 70
     1
102
RTVSPost2010Prop34
280
     0
102
RTVSPost2010PropOp34
 70
     1
102
RTVSPost2010Prop35
280
     0
102
RTVSPost2010PropOp35
 70
     1
102
RTVSPost2010Prop36
280
     0
102
RTVSPost2010PropOp36
 70
     1
102
RTVSPost2010Prop37
 90
       50
102
RTVSPost2010PropOp37
 70
     1
102
RTVSPost2010Prop38
140
0.0
102
RTVSPost2010PropOp38
 70
     1
102
RTVSPost2010Prop39
140
1.0
102
RTVSPost2010PropOp39
 70
     1
102
RTVSPost2010Prop40
 90
        0
102
RTVSPost2010PropOp40
 70
     1
102
RTVSPost2010Prop41ColorIndex
 90
       18
102
RTVSPost2010Prop41ColorRGB
 90
        0
102
RTVSPost2010PropOp41
 70
     1
102
RTVSPost2010Prop42
 90
       50
102
RTVSPost2010PropOp42
 70
     1
102
RTVSPost2010Prop43
 90
        3
102
RTVSPost2010PropOp43
 70
     1
102
RTVSPost2010Prop44ColorIndex
 90
        5
102
RTVSPost2010Prop44ColorRGB
 90
      255
102
RTVSPost2010PropOp44
 70
     1
102
RTVSPost2010Prop45
280
     0
102
RTVSPost2010PropOp45
 70
     1
102
RTVSPost2010Prop46
 90
       50
102
RTVSPost2010PropOp46
 70
     1
102
RTVSPost2010Prop47
 90
       50
102
RTVSPost2010PropOp47
 70
     1
102
RTVSPost2010Prop48
 90
       50
102
RTVSPost2010PropOp48
 70
     1
102
RTVSPost2010Prop49
280
     0
102
RTVSPost2010PropOp49
 70
     1
102
RTVSPost2010Prop50
 90
       50
102
RTVSPost2010PropOp50
 70
     1
102
RTVSPost2010Prop51ColorIndex
 90
      256
102
RTVSPost2010Prop51ColorRGB
 90
-16777216
102
RTVSPost2010PropOp51
 70
     0
102
RTVSPost2010Prop52
140
1.0
102
RTVSPost2010PropOp52
 70
     0
102
RTVSPost2010Prop53
 90
        2
102
RTVSPost2010PropOp53
 70
     1
102
RTVSPost2010Prop54
  1
strokes_ogs.tif
102
RTVSPost2010PropOp54
 70
     1
102
RTVSPost2010Prop55
280
     0
102
RTVSPost2010PropOp55
 70
     1
102
RTVSPost2010Prop56
140
1.0
102
RTVSPost2010PropOp56
 70
     1
102
RTVSPost2010Prop57
140
1.0
102
RTVSPost2010PropOp57
 70
     1
  0
XRECORD
  5
1F81
102
{ACAD_REACTORS
330
1F80
102
}
330
1F80
100
AcDbXrecord
280
     1
102
RTVSPost2010Prop28
280
     0
102
RTVSPost2010PropOp28
 70
     1
102
RTVSPost2010Prop29
280
     1
102
RTVSPost2010PropOp29
 70
     1
102
RTVSPost2010Prop30
280
     1
102
RTVSPost2010PropOp30
 70
     1
102
RTVSPost2010Prop31
280
     0
102
RTVSPost2010PropOp31
 70
     1
102
RTVSPost2010Prop32
280
     0
102
RTVSPost2010PropOp32
 70
     1
102
RTVSPost2010Prop33
280
     0
102
RTVSPost2010PropOp33
 70
     1
102
RTVSPost2010Prop34
280
     0
102
RTVSPost2010PropOp34
 70
     1
102
RTVSPost2010Prop35
280
     0
102
RTVSPost2010PropOp35
 70
     1
102
RTVSPost2010Prop36
280
     0
102
RTVSPost2010PropOp36
 70
     1
102
RTVSPost2010Prop37
 90
       50
102
RTVSPost2010PropOp37
 70
     1
102
RTVSPost2010Prop38
140
0.0
102
RTVSPost2010PropOp38
 70
     1
102
RTVSPost2010Prop39
140
1.0
102
RTVSPost2010PropOp39
 70
     1
102
RTVSPost2010Prop40
 90
        0
102
RTVSPost2010PropOp40
 70
     1
102
RTVSPost2010Prop41ColorIndex
 90
       18
102
RTVSPost2010Prop41ColorRGB
 90
        0
102
RTVSPost2010PropOp41
 70
     1
102
RTVSPost2010Prop42
 90
       50
102
RTVSPost2010PropOp42
 70
     1
102
RTVSPost2010Prop43
 90
        3
102
RTVSPost2010PropOp43
 70
     1
102
RTVSPost2010Prop44ColorIndex
 90
        5
102
RTVSPost2010Prop44ColorRGB
 90
      255
102
RTVSPost2010PropOp44
 70
     1
102
RTVSPost2010Prop45
280
     0
102
RTVSPost2010PropOp45
 70
     1
102
RTVSPost2010Prop46
 90
       50
102
RTVSPost2010PropOp46
 70
     1
102
RTVSPost2010Prop47
 90
       50
102
RTVSPost2010PropOp47
 70
     1
102
RTVSPost2010Prop48
 90
       50
102
RTVSPost2010PropOp48
 70
     1
102
RTVSPost2010Prop49
280
     0
102
RTVSPost2010PropOp49
 70
     1
102
RTVSPost2010Prop50
 90
       50
102
RTVSPost2010PropOp50
 70
     1
102
RTVSPost2010Prop51ColorIndex
 90
      256
102
RTVSPost2010Prop51ColorRGB
 90
-16777216
102
RTVSPost2010PropOp51
 70
     0
102
RTVSPost2010Prop52
140
1.0
102
RTVSPost2010PropOp52
 70
     0
102
RTVSPost2010Prop53
 90
        2
102
RTVSPost2010PropOp53
 70
     1
102
RTVSPost2010Prop54
  1
strokes_ogs.tif
102
RTVSPost2010PropOp54
 70
     1
102
RTVSPost2010Prop55
280
     0
102
RTVSPost2010PropOp55
 70
     1
102
RTVSPost2010Prop56
140
1.0
102
RTVSPost2010PropOp56
 70
     1
102
RTVSPost2010Prop57
140
1.0
102
RTVSPost2010PropOp57
 70
     1
  0
XRECORD
  5
1F7B
102
{ACAD_REACTORS
330
1F7A
102
}
330
1F7A
100
AcDbXrecord
280
     1
102
RTVSPost2010Prop28
280
     0
102
RTVSPost2010PropOp28
 70
     1
102
RTVSPost2010Prop29
280
     1
102
RTVSPost2010PropOp29
 70
     1
102
RTVSPost2010Prop30
280
     1
102
RTVSPost2010PropOp30
 70
     1
102
RTVSPost2010Prop31
280
     0
102
RTVSPost2010PropOp31
 70
     1
102
RTVSPost2010Prop32
280
     0
102
RTVSPost2010PropOp32
 70
     1
102
RTVSPost2010Prop33
280
     0
102
RTVSPost2010PropOp33
 70
     1
102
RTVSPost2010Prop34
280
     0
102
RTVSPost2010PropOp34
 70
     1
102
RTVSPost2010Prop35
280
     0
102
RTVSPost2010PropOp35
 70
     1
102
RTVSPost2010Prop36
280
     0
102
RTVSPost2010PropOp36
 70
     1
102
RTVSPost2010Prop37
 90
       50
102
RTVSPost2010PropOp37
 70
     1
102
RTVSPost2010Prop38
140
0.0
102
RTVSPost2010PropOp38
 70
     1
102
RTVSPost2010Prop39
140
1.0
102
RTVSPost2010PropOp39
 70
     1
102
RTVSPost2010Prop40
 90
        0
102
RTVSPost2010PropOp40
 70
     1
102
RTVSPost2010Prop41ColorIndex
 90
       18
102
RTVSPost2010Prop41ColorRGB
 90
        0
102
RTVSPost2010PropOp41
 70
     1
102
RTVSPost2010Prop42
 90
       50
102
RTVSPost2010PropOp42
 70
     1
102
RTVSPost2010Prop43
 90
        3
102
RTVSPost2010PropOp43
 70
     1
102
RTVSPost2010Prop44ColorIndex
 90
        5
102
RTVSPost2010Prop44ColorRGB
 90
      255
102
RTVSPost2010PropOp44
 70
     1
102
RTVSPost2010Prop45
280
     0
102
RTVSPost2010PropOp45
 70
     1
102
RTVSPost2010Prop46
 90
       50
102
RTVSPost2010PropOp46
 70
     1
102
RTVSPost2010Prop47
 90
       50
102
RTVSPost2010PropOp47
 70
     1
102
RTVSPost2010Prop48
 90
       50
102
RTVSPost2010PropOp48
 70
     1
102
RTVSPost2010Prop49
280
     0
102
RTVSPost2010PropOp49
 70
     1
102
RTVSPost2010Prop50
 90
       50
102
RTVSPost2010PropOp50
 70
     1
102
RTVSPost2010Prop51ColorIndex
 90
      256
102
RTVSPost2010Prop51ColorRGB
 90
-16777216
102
RTVSPost2010PropOp51
 70
     0
102
RTVSPost2010Prop52
140
1.0
102
RTVSPost2010PropOp52
 70
     0
102
RTVSPost2010Prop53
 90
        2
102
RTVSPost2010PropOp53
 70
     1
102
RTVSPost2010Prop54
  1
strokes_ogs.tif
102
RTVSPost2010PropOp54
 70
     1
102
RTVSPost2010Prop55
280
     0
102
RTVSPost2010PropOp55
 70
     1
102
RTVSPost2010Prop56
140
1.0
102
RTVSPost2010PropOp56
 70
     1
102
RTVSPost2010Prop57
140
1.0
102
RTVSPost2010PropOp57
 70
     1
  0
XRECORD
  5
1F7D
102
{ACAD_REACTORS
330
1F7C
102
}
330
1F7C
100
AcDbXrecord
280
     1
102
RTVSPost2010Prop28
280
     0
102
RTVSPost2010PropOp28
 70
     1
102
RTVSPost2010Prop29
280
     1
102
RTVSPost2010PropOp29
 70
     1
102
RTVSPost2010Prop30
280
     1
102
RTVSPost2010PropOp30
 70
     1
102
RTVSPost2010Prop31
280
     0
102
RTVSPost2010PropOp31
 70
     1
102
RTVSPost2010Prop32
280
     0
102
RTVSPost2010PropOp32
 70
     1
102
RTVSPost2010Prop33
280
     0
102
RTVSPost2010PropOp33
 70
     1
102
RTVSPost2010Prop34
280
     0
102
RTVSPost2010PropOp34
 70
     1
102
RTVSPost2010Prop35
280
     0
102
RTVSPost2010PropOp35
 70
     1
102
RTVSPost2010Prop36
280
     0
102
RTVSPost2010PropOp36
 70
     1
102
RTVSPost2010Prop37
 90
       50
102
RTVSPost2010PropOp37
 70
     1
102
RTVSPost2010Prop38
140
0.0
102
RTVSPost2010PropOp38
 70
     1
102
RTVSPost2010Prop39
140
1.0
102
RTVSPost2010PropOp39
 70
     1
102
RTVSPost2010Prop40
 90
        0
102
RTVSPost2010PropOp40
 70
     1
102
RTVSPost2010Prop41ColorIndex
 90
       18
102
RTVSPost2010Prop41ColorRGB
 90
        0
102
RTVSPost2010PropOp41
 70
     1
102
RTVSPost2010Prop42
 90
       50
102
RTVSPost2010PropOp42
 70
     1
102
RTVSPost2010Prop43
 90
        3
102
RTVSPost2010PropOp43
 70
     1
102
RTVSPost2010Prop44ColorIndex
 90
        5
102
RTVSPost2010Prop44ColorRGB
 90
      255
102
RTVSPost2010PropOp44
 70
     1
102
RTVSPost2010Prop45
280
     0
102
RTVSPost2010PropOp45
 70
     1
102
RTVSPost2010Prop46
 90
       50
102
RTVSPost2010PropOp46
 70
     1
102
RTVSPost2010Prop47
 90
       50
102
RTVSPost2010PropOp47
 70
     1
102
RTVSPost2010Prop48
 90
       50
102
RTVSPost2010PropOp48
 70
     1
102
RTVSPost2010Prop49
280
     0
102
RTVSPost2010PropOp49
 70
     1
102
RTVSPost2010Prop50
 90
       50
102
RTVSPost2010PropOp50
 70
     1
102
RTVSPost2010Prop51ColorIndex
 90
      256
102
RTVSPost2010Prop51ColorRGB
 90
-16777216
102
RTVSPost2010PropOp51
 70
     0
102
RTVSPost2010Prop52
140
1.0
102
RTVSPost2010PropOp52
 70
     0
102
RTVSPost2010Prop53
 90
        2
102
RTVSPost2010PropOp53
 70
     1
102
RTVSPost2010Prop54
  1
strokes_ogs.tif
102
RTVSPost2010PropOp54
 70
     1
102
RTVSPost2010Prop55
280
     0
102
RTVSPost2010PropOp55
 70
     1
102
RTVSPost2010Prop56
140
1.0
102
RTVSPost2010PropOp56
 70
     1
102
RTVSPost2010Prop57
140
1.0
102
RTVSPost2010PropOp57
 70
     1
  0
XRECORD
  5
1F6D
102
{ACAD_REACTORS
330
1F6C
102
}
330
1F6C
100
AcDbXrecord
280
     1
102
RTVSPost2010Prop28
280
     0
102
RTVSPost2010PropOp28
 70
     1
102
RTVSPost2010Prop29
280
     1
102
RTVSPost2010PropOp29
 70
     1
102
RTVSPost2010Prop30
280
     1
102
RTVSPost2010PropOp30
 70
     1
102
RTVSPost2010Prop31
280
     0
102
RTVSPost2010PropOp31
 70
     1
102
RTVSPost2010Prop32
280
     0
102
RTVSPost2010PropOp32
 70
     1
102
RTVSPost2010Prop33
280
     0
102
RTVSPost2010PropOp33
 70
     1
102
RTVSPost2010Prop34
280
     0
102
RTVSPost2010PropOp34
 70
     1
102
RTVSPost2010Prop35
280
     0
102
RTVSPost2010PropOp35
 70
     1
102
RTVSPost2010Prop36
280
     0
102
RTVSPost2010PropOp36
 70
     1
102
RTVSPost2010Prop37
 90
       50
102
RTVSPost2010PropOp37
 70
     1
102
RTVSPost2010Prop38
140
0.0
102
RTVSPost2010PropOp38
 70
     1
102
RTVSPost2010Prop39
140
1.0
102
RTVSPost2010PropOp39
 70
     1
102
RTVSPost2010Prop40
 90
        0
102
RTVSPost2010PropOp40
 70
     1
102
RTVSPost2010Prop41ColorIndex
 90
       18
102
RTVSPost2010Prop41ColorRGB
 90
        0
102
RTVSPost2010PropOp41
 70
     1
102
RTVSPost2010Prop42
 90
       50
102
RTVSPost2010PropOp42
 70
     1
102
RTVSPost2010Prop43
 90
        3
102
RTVSPost2010PropOp43
 70
     1
102
RTVSPost2010Prop44ColorIndex
 90
        5
102
RTVSPost2010Prop44ColorRGB
 90
      255
102
RTVSPost2010PropOp44
 70
     1
102
RTVSPost2010Prop45
280
     0
102
RTVSPost2010PropOp45
 70
     1
102
RTVSPost2010Prop46
 90
       50
102
RTVSPost2010PropOp46
 70
     1
102
RTVSPost2010Prop47
 90
       50
102
RTVSPost2010PropOp47
 70
     1
102
RTVSPost2010Prop48
 90
       50
102
RTVSPost2010PropOp48
 70
     1
102
RTVSPost2010Prop49
280
     0
102
RTVSPost2010PropOp49
 70
     1
102
RTVSPost2010Prop50
 90
       50
102
RTVSPost2010PropOp50
 70
     1
102
RTVSPost2010Prop51ColorIndex
 90
      256
102
RTVSPost2010Prop51ColorRGB
 90
-16777216
102
RTVSPost2010PropOp51
 70
     0
102
RTVSPost2010Prop52
140
1.0
102
RTVSPost2010PropOp52
 70
     0
102
RTVSPost2010Prop53
 90
        2
102
RTVSPost2010PropOp53
 70
     1
102
RTVSPost2010Prop54
  1
strokes_ogs.tif
102
RTVSPost2010PropOp54
 70
     1
102
RTVSPost2010Prop55
280
     0
102
RTVSPost2010PropOp55
 70
     1
102
RTVSPost2010Prop56
140
1.0
102
RTVSPost2010PropOp56
 70
     1
102
RTVSPost2010Prop57
140
1.0
102
RTVSPost2010PropOp57
 70
     1
  0
XRECORD
  5
1F61
102
{ACAD_REACTORS
330
1F60
102
}
330
1F60
100
AcDbXrecord
280
     1
102
RTVSPost2010Prop28
280
     0
102
RTVSPost2010PropOp28
 70
     1
102
RTVSPost2010Prop29
280
     1
102
RTVSPost2010PropOp29
 70
     1
102
RTVSPost2010Prop30
280
     1
102
RTVSPost2010PropOp30
 70
     1
102
RTVSPost2010Prop31
280
     0
102
RTVSPost2010PropOp31
 70
     1
102
RTVSPost2010Prop32
280
     0
102
RTVSPost2010PropOp32
 70
     1
102
RTVSPost2010Prop33
280
     0
102
RTVSPost2010PropOp33
 70
     1
102
RTVSPost2010Prop34
280
     0
102
RTVSPost2010PropOp34
 70
     1
102
RTVSPost2010Prop35
280
     0
102
RTVSPost2010PropOp35
 70
     1
102
RTVSPost2010Prop36
280
     0
102
RTVSPost2010PropOp36
 70
     1
102
RTVSPost2010Prop37
 90
       50
102
RTVSPost2010PropOp37
 70
     1
102
RTVSPost2010Prop38
140
0.0
102
RTVSPost2010PropOp38
 70
     1
102
RTVSPost2010Prop39
140
1.0
102
RTVSPost2010PropOp39
 70
     1
102
RTVSPost2010Prop40
 90
        0
102
RTVSPost2010PropOp40
 70
     1
102
RTVSPost2010Prop41ColorIndex
 90
       18
102
RTVSPost2010Prop41ColorRGB
 90
        0
102
RTVSPost2010PropOp41
 70
     1
102
RTVSPost2010Prop42
 90
       50
102
RTVSPost2010PropOp42
 70
     1
102
RTVSPost2010Prop43
 90
        3
102
RTVSPost2010PropOp43
 70
     1
102
RTVSPost2010Prop44ColorIndex
 90
        5
102
RTVSPost2010Prop44ColorRGB
 90
      255
102
RTVSPost2010PropOp44
 70
     1
102
RTVSPost2010Prop45
280
     0
102
RTVSPost2010PropOp45
 70
     1
102
RTVSPost2010Prop46
 90
       50
102
RTVSPost2010PropOp46
 70
     1
102
RTVSPost2010Prop47
 90
       50
102
RTVSPost2010PropOp47
 70
     1
102
RTVSPost2010Prop48
 90
       50
102
RTVSPost2010PropOp48
 70
     1
102
RTVSPost2010Prop49
280
     0
102
RTVSPost2010PropOp49
 70
     1
102
RTVSPost2010Prop50
 90
       50
102
RTVSPost2010PropOp50
 70
     1
102
RTVSPost2010Prop51ColorIndex
 90
      256
102
RTVSPost2010Prop51ColorRGB
 90
-16777216
102
RTVSPost2010PropOp51
 70
     0
102
RTVSPost2010Prop52
140
1.0
102
RTVSPost2010PropOp52
 70
     0
102
RTVSPost2010Prop53
 90
        2
102
RTVSPost2010PropOp53
 70
     1
102
RTVSPost2010Prop54
  1
strokes_ogs.tif
102
RTVSPost2010PropOp54
 70
     1
102
RTVSPost2010Prop55
280
     0
102
RTVSPost2010PropOp55
 70
     1
102
RTVSPost2010Prop56
140
1.0
102
RTVSPost2010PropOp56
 70
     1
102
RTVSPost2010Prop57
140
1.0
102
RTVSPost2010PropOp57
 70
     1
  0
XRECORD
  5
1F7F
102
{ACAD_REACTORS
330
1F7E
102
}
330
1F7E
100
AcDbXrecord
280
     1
102
RTVSPost2010Prop28
280
     0
102
RTVSPost2010PropOp28
 70
     1
102
RTVSPost2010Prop29
280
     1
102
RTVSPost2010PropOp29
 70
     1
102
RTVSPost2010Prop30
280
     1
102
RTVSPost2010PropOp30
 70
     1
102
RTVSPost2010Prop31
280
     0
102
RTVSPost2010PropOp31
 70
     1
102
RTVSPost2010Prop32
280
     0
102
RTVSPost2010PropOp32
 70
     1
102
RTVSPost2010Prop33
280
     0
102
RTVSPost2010PropOp33
 70
     1
102
RTVSPost2010Prop34
280
     0
102
RTVSPost2010PropOp34
 70
     1
102
RTVSPost2010Prop35
280
     0
102
RTVSPost2010PropOp35
 70
     1
102
RTVSPost2010Prop36
280
     0
102
RTVSPost2010PropOp36
 70
     1
102
RTVSPost2010Prop37
 90
       50
102
RTVSPost2010PropOp37
 70
     1
102
RTVSPost2010Prop38
140
0.0
102
RTVSPost2010PropOp38
 70
     1
102
RTVSPost2010Prop39
140
1.0
102
RTVSPost2010PropOp39
 70
     1
102
RTVSPost2010Prop40
 90
        0
102
RTVSPost2010PropOp40
 70
     1
102
RTVSPost2010Prop41ColorIndex
 90
       18
102
RTVSPost2010Prop41ColorRGB
 90
        0
102
RTVSPost2010PropOp41
 70
     1
102
RTVSPost2010Prop42
 90
       50
102
RTVSPost2010PropOp42
 70
     1
102
RTVSPost2010Prop43
 90
        3
102
RTVSPost2010PropOp43
 70
     1
102
RTVSPost2010Prop44ColorIndex
 90
        5
102
RTVSPost2010Prop44ColorRGB
 90
      255
102
RTVSPost2010PropOp44
 70
     1
102
RTVSPost2010Prop45
280
     0
102
RTVSPost2010PropOp45
 70
     1
102
RTVSPost2010Prop46
 90
       50
102
RTVSPost2010PropOp46
 70
     1
102
RTVSPost2010Prop47
 90
       50
102
RTVSPost2010PropOp47
 70
     1
102
RTVSPost2010Prop48
 90
       50
102
RTVSPost2010PropOp48
 70
     1
102
RTVSPost2010Prop49
280
     0
102
RTVSPost2010PropOp49
 70
     1
102
RTVSPost2010Prop50
 90
       50
102
RTVSPost2010PropOp50
 70
     1
102
RTVSPost2010Prop51ColorIndex
 90
      256
102
RTVSPost2010Prop51ColorRGB
 90
-16777216
102
RTVSPost2010PropOp51
 70
     0
102
RTVSPost2010Prop52
140
1.0
102
RTVSPost2010PropOp52
 70
     0
102
RTVSPost2010Prop53
 90
        2
102
RTVSPost2010PropOp53
 70
     1
102
RTVSPost2010Prop54
  1
strokes_ogs.tif
102
RTVSPost2010PropOp54
 70
     1
102
RTVSPost2010Prop55
280
     0
102
RTVSPost2010PropOp55
 70
     1
102
RTVSPost2010Prop56
140
1.0
102
RTVSPost2010PropOp56
 70
     1
102
RTVSPost2010Prop57
140
1.0
102
RTVSPost2010PropOp57
 70
     1
  0
ENDSEC
  0
EOF
