  0
SECTION
  2
HEADER
  9
$ACADVER
  1
AC1024
  9
$ACADMAINTVER
 70
     6
  9
$DWGCODEPAGE
  3
ANSI_1252
  9
$LASTSAVEDBY
  1
AlexB
  9
$INSBASE
 10
0.0
 20
0.0
 30
0.0
  9
$EXTMIN
 10
0.0
 20
0.0
 30
0.0
  9
$EXTMAX
 10
51.0
 20
33.0
 30
0.0
  9
$LIMMIN
 10
0.0
 20
0.0
  9
$LIMMAX
 10
51.0
 20
33.0
  9
$ORTHOMODE
 70
     0
  9
$REGENMODE
 70
     1
  9
$FILLMODE
 70
     1
  9
$QTEXTMODE
 70
     0
  9
$MIRRTEXT
 70
     1
  9
$LTSCALE
 40
3.0
  9
$ATTMODE
 70
     1
  9
$TEXTSIZE
 40
0.375
  9
$TRACEWID
 40
0.05
  9
$TEXTSTYLE
  7
Standard
  9
$CLAYER
  8
0
  9
$CELTYPE
  6
ByLayer
  9
$CECOLOR
 62
   256
  9
$CELTSCALE
 40
1.0
  9
$DISPSILH
 70
     0
  9
$DIMSCALE
 40
1.0
  9
$DIMASZ
 40
0.39
  9
$DIMEXO
 40
0.1875
  9
$DIMDLI
 40
0.38
  9
$DIMRND
 40
0.0
  9
$DIMDLE
 40
0.0
  9
$DIMEXE
 40
0.375
  9
$DIMTP
 40
0.0
  9
$DIMTM
 40
0.0
  9
$DIMTXT
 40
0.375
  9
$DIMCEN
 40
0.09
  9
$DIMTSZ
 40
0.0
  9
$DIMTOL
 70
     0
  9
$DIMLIM
 70
     0
  9
$DIMTIH
 70
     1
  9
$DIMTOH
 70
     1
  9
$DIMSE1
 70
     0
  9
$DIMSE2
 70
     0
  9
$DIMTAD
 70
     0
  9
$DIMZIN
 70
     0
  9
$DIMBLK
  1

  9
$DIMASO
 70
     1
  9
$DIMSHO
 70
     1
  9
$DIMPOST
  1

  9
$DIMAPOST
  1

  9
$DIMALT
 70
     0
  9
$DIMALTD
 70
     2
  9
$DIMALTF
 40
25.4
  9
$DIMLFAC
 40
1.0
  9
$DIMTOFL
 70
     0
  9
$DIMTVP
 40
0.0
  9
$DIMTIX
 70
     0
  9
$DIMSOXD
 70
     0
  9
$DIMSAH
 70
     0
  9
$DIMBLK1
  1

  9
$DIMBLK2
  1

  9
$DIMSTYLE
  2
Standard
  9
$DIMCLRD
 70
     0
  9
$DIMCLRE
 70
     0
  9
$DIMCLRT
 70
     0
  9
$DIMTFAC
 40
1.0
  9
$DIMGAP
 40
0.28125
  9
$DIMJUST
 70
     0
  9
$DIMSD1
 70
     0
  9
$DIMSD2
 70
     0
  9
$DIMTOLJ
 70
     1
  9
$DIMTZIN
 70
     0
  9
$DIMALTZ
 70
     0
  9
$DIMALTTZ
 70
     0
  9
$DIMUPT
 70
     0
  9
$DIMDEC
 70
     3
  9
$DIMTDEC
 70
     3
  9
$DIMALTU
 70
     2
  9
$DIMALTTD
 70
     2
  9
$DIMTXSTY
  7
Standard
  9
$DIMAUNIT
 70
     0
  9
$DIMADEC
 70
     0
  9
$DIMALTRND
 40
0.0
  9
$DIMAZIN
 70
     0
  9
$DIMDSEP
 70
    46
  9
$DIMATFIT
 70
     3
  9
$DIMFRAC
 70
     0
  9
$DIMLDRBLK
  1

  9
$DIMLUNIT
 70
     2
  9
$DIMLWD
 70
    -2
  9
$DIMLWE
 70
    -2
  9
$DIMTMOVE
 70
     0
  9
$DIMFXL
 40
1.0
  9
$DIMFXLON
 70
     0
  9
$DIMJOGANG
 40
0.7853981634
  9
$DIMTFILL
 70
     0
  9
$DIMTFILLCLR
 70
     0
  9
$DIMARCSYM
 70
     0
  9
$DIMLTYPE
  6

  9
$DIMLTEX1
  6

  9
$DIMLTEX2
  6

  9
$DIMTXTDIRECTION
 70
     0
  9
$LUNITS
 70
     2
  9
$LUPREC
 70
     3
  9
$SKETCHINC
 40
0.1
  9
$FILLETRAD
 40
0.0
  9
$AUNITS
 70
     0
  9
$AUPREC
 70
     1
  9
$MENU
  1
.
  9
$ELEVATION
 40
0.0
  9
$PELEVATION
 40
0.0
  9
$THICKNESS
 40
0.0
  9
$LIMCHECK
 70
     0
  9
$CHAMFERA
 40
0.0
  9
$CHAMFERB
 40
0.0
  9
$CHAMFERC
 40
0.0
  9
$CHAMFERD
 40
0.0
  9
$SKPOLY
 70
     0
  9
$TDCREATE
 40
2460668.607730787
  9
$TDUCREATE
 40
2460668.941064121
  9
$TDUPDATE
 40
2460668.607731597
  9
$TDUUPDATE
 40
2460668.941064931
  9
$TDINDWG
 40
0.0000000116
  9
$TDUSRTIMER
 40
0.0000000116
  9
$USRTIMER
 70
     1
  9
$ANGBASE
 50
0.0
  9
$ANGDIR
 70
     0
  9
$PDMODE
 70
     0
  9
$PDSIZE
 40
-1.0
  9
$PLINEWID
 40
0.0
  9
$SPLFRAME
 70
     0
  9
$SPLINETYPE
 70
     6
  9
$SPLINESEGS
 70
     8
  9
$HANDSEED
  5
15B
  9
$SURFTAB1
 70
     6
  9
$SURFTAB2
 70
     6
  9
$SURFTYPE
 70
     6
  9
$SURFU
 70
     6
  9
$SURFV
 70
     6
  9
$UCSBASE
  2

  9
$UCSNAME
  2

  9
$UCSORG
 10
0.0
 20
0.0
 30
0.0
  9
$UCSXDIR
 10
1.0
 20
0.0
 30
0.0
  9
$UCSYDIR
 10
0.0
 20
1.0
 30
0.0
  9
$UCSORTHOREF
  2

  9
$UCSORTHOVIEW
 70
     0
  9
$UCSORGTOP
 10
0.0
 20
0.0
 30
0.0
  9
$UCSORGBOTTOM
 10
0.0
 20
0.0
 30
0.0
  9
$UCSORGLEFT
 10
0.0
 20
0.0
 30
0.0
  9
$UCSORGRIGHT
 10
0.0
 20
0.0
 30
0.0
  9
$UCSORGFRONT
 10
0.0
 20
0.0
 30
0.0
  9
$UCSORGBACK
 10
0.0
 20
0.0
 30
0.0
  9
$PUCSBASE
  2

  9
$PUCSNAME
  2

  9
$PUCSORG
 10
0.0
 20
0.0
 30
0.0
  9
$PUCSXDIR
 10
1.0
 20
0.0
 30
0.0
  9
$PUCSYDIR
 10
0.0
 20
1.0
 30
0.0
  9
$PUCSORTHOREF
  2

  9
$PUCSORTHOVIEW
 70
     0
  9
$PUCSORGTOP
 10
0.0
 20
0.0
 30
0.0
  9
$PUCSORGBOTTOM
 10
0.0
 20
0.0
 30
0.0
  9
$PUCSORGLEFT
 10
0.0
 20
0.0
 30
0.0
  9
$PUCSORGRIGHT
 10
0.0
 20
0.0
 30
0.0
  9
$PUCSORGFRONT
 10
0.0
 20
0.0
 30
0.0
  9
$PUCSORGBACK
 10
0.0
 20
0.0
 30
0.0
  9
$USERI1
 70
     0
  9
$USERI2
 70
     0
  9
$USERI3
 70
     0
  9
$USERI4
 70
     0
  9
$USERI5
 70
     0
  9
$USERR1
 40
0.0
  9
$USERR2
 40
0.0
  9
$USERR3
 40
0.0
  9
$USERR4
 40
0.0
  9
$USERR5
 40
0.0
  9
$WORLDVIEW
 70
     1
  9
$SHADEDGE
 70
     3
  9
$SHADEDIF
 70
    70
  9
$TILEMODE
 70
     1
  9
$MAXACTVP
 70
    64
  9
$PINSBASE
 10
0.0
 20
0.0
 30
0.0
  9
$PLIMCHECK
 70
     0
  9
$PEXTMIN
 10
1.0000000000E+20
 20
1.0000000000E+20
 30
1.0000000000E+20
  9
$PEXTMAX
 10
-1.0000000000E+20
 20
-1.0000000000E+20
 30
-1.0000000000E+20
  9
$PLIMMIN
 10
0.0
 20
0.0
  9
$PLIMMAX
 10
12.0
 20
9.0
  9
$UNITMODE
 70
     0
  9
$VISRETAIN
 70
     1
  9
$PLINEGEN
 70
     0
  9
$PSLTSCALE
 70
     1
  9
$TREEDEPTH
 70
  3020
  9
$CMLSTYLE
  2
Standard
  9
$CMLJUST
 70
     0
  9
$CMLSCALE
 40
1.0
  9
$PROXYGRAPHICS
 70
     1
  9
$MEASUREMENT
 70
     0
  9
$CELWEIGHT
370
    -1
  9
$ENDCAPS
280
     0
  9
$JOINSTYLE
280
     0
  9
$LWDISPLAY
290
     1
  9
$INSUNITS
 70
     1
  9
$HYPERLINKBASE
  1

  9
$STYLESHEET
  1

  9
$XEDIT
290
     1
  9
$CEPSNTYPE
380
     0
  9
$PSTYLEMODE
290
     1
  9
$FINGERPRINTGUID
  2
{328d3e35-8541-43ba-9921-ffb5401c3188}
  9
$VERSIONGUID
  2
{FAEB1C32-E019-11D5-929B-00C0DF256EC4}
  9
$EXTNAMES
290
     1
  9
$PSVPSCALE
 40
0.0
  9
$OLESTARTUP
290
     0
  9
$SORTENTS
280
   127
  9
$INDEXCTL
280
     0
  9
$HIDETEXT
280
     1
  9
$XCLIPFRAME
280
     2
  9
$HALOGAP
280
     0
  9
$OBSCOLOR
 70
   257
  9
$OBSLTYPE
280
     0
  9
$INTERSECTIONDISPLAY
280
     0
  9
$INTERSECTIONCOLOR
 70
   257
  9
$DIMASSOC
280
     2
  9
$PROJECTNAME
  1

  9
$CAMERADISPLAY
290
     0
  9
$LENSLENGTH
 40
50.0
  9
$CAMERAHEIGHT
 40
0.0
  9
$STEPSPERSEC
 40
2.0
  9
$STEPSIZE
 40
6.0
  9
$3DDWFPREC
 40
2.0
  9
$PSOLWIDTH
 40
0.25
  9
$PSOLHEIGHT
 40
4.0
  9
$LOFTANG1
 40
1.5707963268
  9
$LOFTANG2
 40
1.5707963268
  9
$LOFTMAG1
 40
0.0
  9
$LOFTMAG2
 40
0.0
  9
$LOFTPARAM
 70
     7
  9
$LOFTNORMALS
280
     1
  9
$LATITUDE
 40
37.795
  9
$LONGITUDE
 40
-122.394
  9
$NORTHDIRECTION
 40
0.0
  9
$TIMEZONE
 70
 -8000
  9
$LIGHTGLYPHDISPLAY
280
     1
  9
$TILEMODELIGHTSYNCH
280
     1
  9
$CMATERIAL
347
44
  9
$SOLIDHIST
280
     0
  9
$SHOWHIST
280
     1
  9
$DWFFRAME
280
     2
  9
$DGNFRAME
280
     2
  9
$REALWORLDSCALE
290
     1
  9
$INTERFERECOLOR
 62
   256
  9
$CSHADOW
280
     0
  9
$SHADOWPLANELOCATION
 40
0.0
  0
ENDSEC
  0
SECTION
  2
CLASSES
  0
CLASS
  1
ACDBDICTIONARYWDFLT
  2
AcDbDictionaryWithDefault
  3
ObjectDBX Classes
 90
        0
 91
        3
280
     0
281
     0
  0
CLASS
  1
VISUALSTYLE
  2
AcDbVisualStyle
  3
ObjectDBX Classes
 90
     4095
 91
        3
280
     0
281
     0
  0
CLASS
  1
MATERIAL
  2
AcDbMaterial
  3
ObjectDBX Classes
 90
     1153
 91
        3
280
     0
281
     0
  0
CLASS
  1
SCALE
  2
AcDbScale
  3
ObjectDBX Classes
 90
     1153
 91
        3
280
     0
281
     0
  0
CLASS
  1
TABLESTYLE
  2
AcDbTableStyle
  3
ObjectDBX Classes
 90
     4095
 91
        3
280
     0
281
     0
  0
CLASS
  1
MLEADERSTYLE
  2
AcDbMLeaderStyle
  3
ACDB_MLEADERSTYLE_CLASS
 90
     4095
 91
        3
280
     0
281
     0
  0
CLASS
  1
SUN
  2
AcDbSun
  3
SCENEOE
 90
     1153
 91
        3
280
     0
281
     0
  0
CLASS
  1
DICTIONARYVAR
  2
AcDbDictionaryVar
  3
ObjectDBX Classes
 90
        0
 91
        3
280
     0
281
     0
  0
CLASS
  1
CELLSTYLEMAP
  2
AcDbCellStyleMap
  3
ObjectDBX Classes
 90
     1152
 91
        3
280
     0
281
     0
  0
ENDSEC
  0
SECTION
  2
TABLES
  0
TABLE
  2
VPORT
  5
8
330
0
100
AcDbSymbolTable
 70
     1
  0
VPORT
  5
29
330
8
100
AcDbSymbolTableRecord
100
AcDbViewportTableRecord
  2
*Active
 70
     0
 10
0.0
 20
0.0
 11
1.0
 21
1.0
 12
25.5
 22
16.5
 13
0.0
 23
0.0
 14
0.5
 24
0.5
 15
0.5
 25
0.5
 16
0.0
 26
0.0
 36
1.0
 17
0.0
 27
0.0
 37
0.0
 40
33.0
 41
1.5454545455
 42
50.0
 43
0.0
 44
0.0
 50
0.0
 51
0.0
 71
     0
 72
  2000
 73
     1
 74
     3
 75
     0
 76
     0
 77
     0
 78
     0
281
     0
 65
     1
110
0.0
120
0.0
130
0.0
111
1.0
121
0.0
131
0.0
112
0.0
122
1.0
132
0.0
 79
     0
146
0.0
348
2F
 60
     3
 61
     5
292
     1
282
     1
141
0.0
142
0.0
 63
   250
361
5D
  0
ENDTAB
  0
TABLE
  2
LTYPE
  5
5
330
0
100
AcDbSymbolTable
 70
     6
  0
LTYPE
  5
14
330
5
100
AcDbSymbolTableRecord
100
AcDbLinetypeTableRecord
  2
ByBlock
 70
     0
  3

 72
    65
 73
     0
 40
0.0
  0
LTYPE
  5
15
330
5
100
AcDbSymbolTableRecord
100
AcDbLinetypeTableRecord
  2
ByLayer
 70
     0
  3

 72
    65
 73
     0
 40
0.0
  0
LTYPE
  5
16
330
5
100
AcDbSymbolTableRecord
100
AcDbLinetypeTableRecord
  2
Continuous
 70
     0
  3
Solid line
 72
    65
 73
     0
 40
0.0
  0
LTYPE
  5
5E
330
5
100
AcDbSymbolTableRecord
100
AcDbLinetypeTableRecord
  2
HIDDEN
 70
     0
  3
Hidden __ __ __ __ __ __ __ __ __ __ __ __ __ __
 72
    65
 73
     2
 40
0.075
 49
0.05
 74
     0
 49
-0.025
 74
     0
  0
LTYPE
  5
5F
330
5
100
AcDbSymbolTableRecord
100
AcDbLinetypeTableRecord
  2
PHANTOM
 70
     0
  3
Phantom ______  __  __  ______  __  __  ______
 72
    65
 73
     6
 40
0.5
 49
0.25
 74
     0
 49
-0.05
 74
     0
 49
0.05
 74
     0
 49
-0.05
 74
     0
 49
0.05
 74
     0
 49
-0.05
 74
     0
  0
LTYPE
  5
60
330
5
100
AcDbSymbolTableRecord
100
AcDbLinetypeTableRecord
  2
CENTER
 70
     0
  3
Center ____ _ ____ _ ____ _ ____ _ ____ _ ____
 72
    65
 73
     4
 40
0.4
 49
0.25
 74
     0
 49
-0.05
 74
     0
 49
0.05
 74
     0
 49
-0.05
 74
     0
  0
LTYPE
  5
61
330
5
100
AcDbSymbolTableRecord
100
AcDbLinetypeTableRecord
  2
CENTERX2
 70
     0
  3
Center (2x) ________  __  ________  __  _____
 72
    65
 73
     4
 40
0.8
 49
0.5
 74
     0
 49
-0.1
 74
     0
 49
0.1
 74
     0
 49
-0.1
 74
     0
  0
LTYPE
  5
62
330
5
100
AcDbSymbolTableRecord
100
AcDbLinetypeTableRecord
  2
DOT2
 70
     0
  3
Dot (.5x) ........................................
 72
    65
 73
     2
 40
0.025
 49
0.0
 74
     0
 49
-0.025
 74
     0
  0
ENDTAB
  0
TABLE
  2
LAYER
  5
2
330
0
100
AcDbSymbolTable
 70
     5
  0
LAYER
  5
10
330
2
100
AcDbSymbolTableRecord
100
AcDbLayerTableRecord
  2
0
 70
     0
 62
     7
  6
Continuous
370
    -3
390
F
347
46
  0
LAYER
  5
63
330
2
100
AcDbSymbolTableRecord
100
AcDbLayerTableRecord
  2
FORMAT
 70
     0
 62
     7
  6
Continuous
370
    -3
390
F
347
46
  0
LAYER
  5
64
330
2
100
AcDbSymbolTableRecord
100
AcDbLayerTableRecord
  2
TB
 70
     0
 62
     7
  6
Continuous
370
    -3
390
F
347
46
  0
LAYER
  5
65
330
2
100
AcDbSymbolTableRecord
100
AcDbLayerTableRecord
  2
REV
 70
     0
 62
     1
  6
Continuous
370
    -3
390
F
347
46
  0
LAYER
  5
66
330
2
100
AcDbSymbolTableRecord
100
AcDbLayerTableRecord
  2
OBJ
 70
     0
 62
     7
  6
Continuous
370
    -3
390
F
347
46
  0
ENDTAB
  0
TABLE
  2
STYLE
  5
3
330
0
100
AcDbSymbolTable
 70
     5
  0
STYLE
  5
11
330
3
100
AcDbSymbolTableRecord
100
AcDbTextStyleTableRecord
  2
Standard
 70
     0
 40
0.0
 41
1.0
 50
0.0
 71
     0
 42
0.375
  3
txt
  4

  0
STYLE
  5
9B
330
3
100
AcDbSymbolTableRecord
100
AcDbTextStyleTableRecord
  2
SLDTEXTSTYLE0
 70
     0
 40
0.0
 41
0.75
 50
0.0
 71
     0
 42
0.375
  3
TXT
  4

  0
STYLE
  5
9D
330
3
100
AcDbSymbolTableRecord
100
AcDbTextStyleTableRecord
  2
SLDTEXTSTYLE1
 70
     0
 40
0.0
 41
0.7
 50
0.0
 71
     0
 42
0.375
  3
TXT
  4

  0
STYLE
  5
B1
330
3
100
AcDbSymbolTableRecord
100
AcDbTextStyleTableRecord
  2
SLDTEXTSTYLE2
 70
     0
 40
0.0
 41
0.6875
 50
0.0
 71
     0
 42
0.375
  3
TXT
  4

  0
STYLE
  5
B5
330
3
100
AcDbSymbolTableRecord
100
AcDbTextStyleTableRecord
  2
SLDTEXTSTYLE3
 70
     0
 40
0.0
 41
0.605
 50
0.0
 71
     0
 42
0.375
  3
TXT
  4

  0
ENDTAB
  0
TABLE
  2
VIEW
  5
6
330
0
100
AcDbSymbolTable
 70
     0
  0
ENDTAB
  0
TABLE
  2
UCS
  5
7
330
0
100
AcDbSymbolTable
 70
     0
  0
ENDTAB
  0
TABLE
  2
APPID
  5
9
330
0
100
AcDbSymbolTable
 70
     1
  0
APPID
  5
12
330
9
100
AcDbSymbolTableRecord
100
AcDbRegAppTableRecord
  2
ACAD
 70
     0
  0
ENDTAB
  0
TABLE
  2
DIMSTYLE
  5
A
330
0
100
AcDbSymbolTable
 70
     4
100
AcDbDimStyleTable
  0
DIMSTYLE
105
27
330
A
100
AcDbSymbolTableRecord
100
AcDbDimStyleTableRecord
  2
Standard
 70
     0
178
     0
340
11
  0
DIMSTYLE
105
113
102
{ACAD_REACTORS
330
112
330
126
102
}
330
A
100
AcDbSymbolTableRecord
100
AcDbDimStyleTableRecord
  2
SLDDIMSTYLE0
 70
     0
 41
0.39
 44
0.0
 45
0.000000001
 78
    12
 79
     3
140
0.375
147
0.09375
148
0.000000001
170
     1
171
     1
173
     1
178
     0
271
     2
272
     2
274
     1
276
     2
284
    12
340
9B
  0
DIMSTYLE
105
13A
102
{ACAD_REACTORS
330
139
102
}
330
A
100
AcDbSymbolTableRecord
100
AcDbDimStyleTableRecord
  2
SLDDIMSTYLE1
 70
     0
 41
0.39
 44
0.0
 45
0.000000001
 78
    12
 79
     3
140
0.375
147
0.09375
148
0.000000001
170
     1
172
     1
173
     1
178
     0
271
     3
272
     3
276
     2
284
    12
289
     0
340
9B
341
13B
343
13B
344
13B
  0
DIMSTYLE
105
144
102
{ACAD_REACTORS
330
143
102
}
330
A
100
AcDbSymbolTableRecord
100
AcDbDimStyleTableRecord
  2
SLDDIMSTYLE2
 70
     0
 41
0.39
 44
0.0
 45
0.000000001
 78
    12
 79
     3
140
0.375
147
0.09375
148
0.000000001
170
     1
172
     1
173
     1
178
     0
271
     3
272
     3
276
     2
284
    12
289
     0
340
9B
  0
ENDTAB
  0
TABLE
  2
BLOCK_RECORD
  5
1
330
0
100
AcDbSymbolTable
 70
     9
  0
BLOCK_RECORD
  5
1F
330
1
100
AcDbSymbolTableRecord
100
AcDbBlockTableRecord
  2
*Model_Space
340
22
 70
     0
280
     1
281
     0
  0
BLOCK_RECORD
  5
1B
330
1
100
AcDbSymbolTableRecord
100
AcDbBlockTableRecord
  2
*Paper_Space
340
1E
 70
     0
280
     1
281
     0
  0
BLOCK_RECORD
  5
23
330
1
100
AcDbSymbolTableRecord
100
AcDbBlockTableRecord
  2
*Paper_Space0
340
26
 70
     0
280
     1
281
     0
  0
BLOCK_RECORD
  5
92
330
1
100
AcDbSymbolTableRecord
100
AcDbBlockTableRecord
  2
SW_NOTE_0
340
0
102
{BLKREFS
331
A2
102
}
 70
     0
280
     1
281
     0
  0
BLOCK_RECORD
  5
A3
330
1
100
AcDbSymbolTableRecord
100
AcDbBlockTableRecord
  2
SW_NOTE_0_1
340
0
102
{BLKREFS
331
AD
102
}
 70
     0
280
     1
281
     0
  0
BLOCK_RECORD
  5
BD
330
1
100
AcDbSymbolTableRecord
100
AcDbBlockTableRecord
  2
SW_TABLEANNOTATION_0
340
0
102
{BLKREFS
331
F3
102
}
 70
     0
280
     1
281
     0
  0
BLOCK_RECORD
  5
114
330
1
100
AcDbSymbolTableRecord
100
AcDbBlockTableRecord
  2
_D
340
0
 70
     0
280
     1
281
     0
  0
BLOCK_RECORD
  5
127
330
1
100
AcDbSymbolTableRecord
100
AcDbBlockTableRecord
  2
_D_1
340
0
 70
     0
280
     1
281
     0
  0
BLOCK_RECORD
  5
13B
330
1
100
AcDbSymbolTableRecord
100
AcDbBlockTableRecord
  2
_None
340
0
 70
     0
280
     1
281
     0
  0
BLOCK_RECORD
  5
13E
330
1
100
AcDbSymbolTableRecord
100
AcDbBlockTableRecord
  2
_D_2
340
0
 70
     0
280
     1
281
     0
  0
BLOCK_RECORD
  5
145
330
1
100
AcDbSymbolTableRecord
100
AcDbBlockTableRecord
  2
_D_3
340
0
 70
     0
280
     1
281
     0
  0
ENDTAB
  0
ENDSEC
  0
SECTION
  2
BLOCKS
  0
BLOCK
  5
20
330
1F
100
AcDbEntity
  8
0
100
AcDbBlockBegin
  2
*Model_Space
 70
     0
 10
0.0
 20
0.0
 30
0.0
  3
*Model_Space
  1

  0
ENDBLK
  5
21
330
1F
100
AcDbEntity
  8
0
100
AcDbBlockEnd
  0
BLOCK
  5
1C
330
1B
100
AcDbEntity
 67
     1
  8
0
100
AcDbBlockBegin
  2
*Paper_Space
 70
     0
 10
0.0
 20
0.0
 30
0.0
  3
*Paper_Space
  1

  0
ENDBLK
  5
1D
330
1B
100
AcDbEntity
 67
     1
  8
0
100
AcDbBlockEnd
  0
BLOCK
  5
24
330
23
100
AcDbEntity
  8
0
100
AcDbBlockBegin
  2
*Paper_Space0
 70
     0
 10
0.0
 20
0.0
 30
0.0
  3
*Paper_Space0
  1

  0
ENDBLK
  5
25
330
23
100
AcDbEntity
  8
0
100
AcDbBlockEnd
  0
BLOCK
  5
93
330
92
100
AcDbEntity
  8
0
100
AcDbBlockBegin
  2
SW_NOTE_0
 70
     0
 10
0.0
 20
0.0
 30
0.0
  3
SW_NOTE_0
  1

  0
LINE
  5
95
330
92
100
AcDbEntity
  8
TB
 62
     0
100
AcDbLine
 10
-0.2023486602
 20
-1.3271107922
 30
0.0
 11
-0.0319034965
 21
-1.031891109
 31
0.0
  0
LINE
  5
96
330
92
100
AcDbEntity
  8
TB
 62
     0
100
AcDbLine
 10
-0.0319034965
 20
-1.031891109
 30
0.0
 11
0.3089868307
 21
-1.031891109
 31
0.0
  0
LINE
  5
97
330
92
100
AcDbEntity
  8
TB
 62
     0
100
AcDbLine
 10
0.3089868307
 20
-1.031891109
 30
0.0
 11
0.4794319943
 21
-1.3271107922
 31
0.0
  0
LINE
  5
98
330
92
100
AcDbEntity
  8
TB
 62
     0
100
AcDbLine
 10
0.4794319943
 20
-1.3271107922
 30
0.0
 11
0.3089868307
 21
-1.6223304755
 31
0.0
  0
LINE
  5
99
330
92
100
AcDbEntity
  8
TB
 62
     0
100
AcDbLine
 10
0.3089868307
 20
-1.6223304755
 30
0.0
 11
-0.0319034965
 21
-1.6223304755
 31
0.0
  0
LINE
  5
9A
330
92
100
AcDbEntity
  8
TB
 62
     0
100
AcDbLine
 10
-0.0319034965
 20
-1.6223304755
 30
0.0
 11
-0.2023486602
 21
-1.3271107922
 31
0.0
  0
MTEXT
  5
9C
330
92
100
AcDbEntity
  8
TB
 62
     0
100
AcDbMText
 10
0.0
 20
0.4834004024
 30
0.0
 40
0.375
 41
0.0
 46
0.0
 71
     1
 72
     1
  1
NOTES UNLESS OTHERWISWE SPECIFIED:
  7
SLDTEXTSTYLE0
 73
     1
 44
1.0
  0
MTEXT
  5
9E
330
92
100
AcDbEntity
  8
TB
 62
     0
100
AcDbMText
 10
1.1811023358
 20
-0.5028200447
 30
0.0
 40
0.375
 41
0.0
 46
0.0
 71
     1
 72
     1
  1
MODEL: VX VXQ 6" RND
  7
SLDTEXTSTYLE1
 73
     1
 44
1.0
  0
MTEXT
  5
9F
330
92
100
AcDbEntity
  8
TB
 62
     0
100
AcDbMText
 10
0.0
 20
-0.5028200447
 30
0.0
 40
0.375
 41
0.0
 46
0.0
 71
     1
 72
     1
  1
1.
  7
SLDTEXTSTYLE0
 73
     1
 44
1.0
  0
MTEXT
  5
A0
330
92
100
AcDbEntity
  8
TB
 62
     0
100
AcDbMText
 10
1.1811023358
 20
-1.0902655085
 30
0.0
 40
0.375
 41
0.0
 46
0.0
 71
     1
 72
     1
  1
POCKET DEPTH VARIES PER MODEL.
  7
SLDTEXTSTYLE0
 73
     1
 44
1.0
  0
MTEXT
  5
A1
330
92
100
AcDbEntity
  8
TB
 62
     0
100
AcDbMText
 10
0.0
 20
-1.0902655085
 30
0.0
 40
0.375
 41
0.0
 46
0.0
 71
     1
 72
     1
  1
2
  7
SLDTEXTSTYLE0
 73
     1
 44
1.0
  0
ENDBLK
  5
94
330
92
100
AcDbEntity
  8
0
100
AcDbBlockEnd
  0
BLOCK
  5
A4
330
A3
100
AcDbEntity
  8
0
100
AcDbBlockBegin
  2
SW_NOTE_0_1
 70
     0
 10
0.0
 20
0.0
 30
0.0
  3
SW_NOTE_0_1
  1

  0
LINE
  5
A6
330
A3
100
AcDbEntity
  8
TB
 62
     0
100
AcDbLine
 10
-0.2227571078
 20
0.265664552
 30
0.0
 11
-0.0514211284
 21
0.5624271735
 31
0.0
  0
LINE
  5
A7
330
A3
100
AcDbEntity
  8
TB
 62
     0
100
AcDbLine
 10
-0.0514211284
 20
0.5624271735
 30
0.0
 11
0.2912508304
 21
0.5624271735
 31
0.0
  0
LINE
  5
A8
330
A3
100
AcDbEntity
  8
TB
 62
     0
100
AcDbLine
 10
0.2912508304
 20
0.5624271735
 30
0.0
 11
0.4625868098
 21
0.265664552
 31
0.0
  0
LINE
  5
A9
330
A3
100
AcDbEntity
  8
TB
 62
     0
100
AcDbLine
 10
0.4625868098
 20
0.265664552
 30
0.0
 11
0.2912508304
 21
-0.0310980695
 31
0.0
  0
LINE
  5
AA
330
A3
100
AcDbEntity
  8
TB
 62
     0
100
AcDbLine
 10
0.2912508304
 20
-0.0310980695
 30
0.0
 11
-0.0514211284
 21
-0.0310980695
 31
0.0
  0
LINE
  5
AB
330
A3
100
AcDbEntity
  8
TB
 62
     0
100
AcDbLine
 10
-0.0514211284
 20
-0.0310980695
 30
0.0
 11
-0.2227571078
 21
0.265664552
 31
0.0
  0
MTEXT
  5
AC
330
A3
100
AcDbEntity
  8
TB
 62
     0
100
AcDbMText
 10
0.134765625
 20
0.4834004024
 30
0.0
 40
0.375
 41
0.0
 46
0.0
 71
     2
 72
     1
  1
2
  7
SLDTEXTSTYLE0
 73
     1
 44
1.0
  0
ENDBLK
  5
A5
330
A3
100
AcDbEntity
  8
0
100
AcDbBlockEnd
  0
BLOCK
  5
BE
330
BD
100
AcDbEntity
  8
0
100
AcDbBlockBegin
  2
SW_TABLEANNOTATION_0
 70
     0
 10
0.0
 20
0.0
 30
0.0
  3
SW_TABLEANNOTATION_0
  1

  0
LINE
  5
C0
330
BD
100
AcDbEntity
  8
TB
 62
     0
100
AcDbLine
 10
0.0
 20
0.0
 30
0.0
 11
0.0
 21
-0.9149935788
 31
0.0
  0
LINE
  5
C1
330
BD
100
AcDbEntity
  8
TB
 62
     0
100
AcDbLine
 10
0.0
 20
-0.9149935788
 30
0.0
 11
0.0
 21
-1.8149935788
 31
0.0
  0
LINE
  5
C2
330
BD
100
AcDbEntity
  8
TB
 62
     0
100
AcDbLine
 10
1.4759326642
 20
-0.9149935788
 30
0.0
 11
1.4759326642
 21
-1.8149935788
 31
0.0
  0
LINE
  5
C3
330
BD
100
AcDbEntity
  8
TB
 62
     0
100
AcDbLine
 10
3.160940815
 20
-0.9149935788
 30
0.0
 11
3.160940815
 21
-1.8149935788
 31
0.0
  0
LINE
  5
C4
330
BD
100
AcDbEntity
  8
TB
 62
     0
100
AcDbLine
 10
10.4812526558
 20
-0.9149935788
 30
0.0
 11
10.4812526558
 21
-1.8149935788
 31
0.0
  0
LINE
  5
C5
330
BD
100
AcDbEntity
  8
TB
 62
     0
100
AcDbLine
 10
13.4202936544
 20
-0.9149935788
 30
0.0
 11
13.4202936544
 21
-1.8149935788
 31
0.0
  0
LINE
  5
C6
330
BD
100
AcDbEntity
  8
TB
 62
     0
100
AcDbLine
 10
15.4860276911
 20
-0.9149935788
 30
0.0
 11
15.4860276911
 21
-1.8149935788
 31
0.0
  0
LINE
  5
C7
330
BD
100
AcDbEntity
  8
TB
 62
     0
100
AcDbLine
 10
17.2571468882
 20
0.0
 30
0.0
 11
17.2571468882
 21
-0.9149935788
 31
0.0
  0
LINE
  5
C8
330
BD
100
AcDbEntity
  8
TB
 62
     0
100
AcDbLine
 10
17.2571468882
 20
-0.9149935788
 30
0.0
 11
17.2571468882
 21
-1.8149935788
 31
0.0
  0
LINE
  5
C9
330
BD
100
AcDbEntity
  8
TB
 62
     0
100
AcDbLine
 10
0.0
 20
0.0
 30
0.0
 11
1.4759326642
 21
0.0
 31
0.0
  0
LINE
  5
CA
330
BD
100
AcDbEntity
  8
TB
 62
     0
100
AcDbLine
 10
0.0
 20
-0.9149935788
 30
0.0
 11
1.4759326642
 21
-0.9149935788
 31
0.0
  0
LINE
  5
CB
330
BD
100
AcDbEntity
  8
TB
 62
     0
100
AcDbLine
 10
1.4759326642
 20
0.0
 30
0.0
 11
3.160940815
 21
0.0
 31
0.0
  0
LINE
  5
CC
330
BD
100
AcDbEntity
  8
TB
 62
     0
100
AcDbLine
 10
1.4759326642
 20
-0.9149935788
 30
0.0
 11
3.160940815
 21
-0.9149935788
 31
0.0
  0
LINE
  5
CD
330
BD
100
AcDbEntity
  8
TB
 62
     0
100
AcDbLine
 10
3.160940815
 20
0.0
 30
0.0
 11
10.4812526558
 21
0.0
 31
0.0
  0
LINE
  5
CE
330
BD
100
AcDbEntity
  8
TB
 62
     0
100
AcDbLine
 10
3.160940815
 20
-0.9149935788
 30
0.0
 11
10.4812526558
 21
-0.9149935788
 31
0.0
  0
LINE
  5
CF
330
BD
100
AcDbEntity
  8
TB
 62
     0
100
AcDbLine
 10
10.4812526558
 20
0.0
 30
0.0
 11
13.4202936544
 21
0.0
 31
0.0
  0
LINE
  5
D0
330
BD
100
AcDbEntity
  8
TB
 62
     0
100
AcDbLine
 10
10.4812526558
 20
-0.9149935788
 30
0.0
 11
13.4202936544
 21
-0.9149935788
 31
0.0
  0
LINE
  5
D1
330
BD
100
AcDbEntity
  8
TB
 62
     0
100
AcDbLine
 10
13.4202936544
 20
0.0
 30
0.0
 11
15.4860276911
 21
0.0
 31
0.0
  0
LINE
  5
D2
330
BD
100
AcDbEntity
  8
TB
 62
     0
100
AcDbLine
 10
13.4202936544
 20
-0.9149935788
 30
0.0
 11
15.4860276911
 21
-0.9149935788
 31
0.0
  0
LINE
  5
D3
330
BD
100
AcDbEntity
  8
TB
 62
     0
100
AcDbLine
 10
15.4860276911
 20
0.0
 30
0.0
 11
17.2571468882
 21
0.0
 31
0.0
  0
LINE
  5
D4
330
BD
100
AcDbEntity
  8
TB
 62
     0
100
AcDbLine
 10
15.4860276911
 20
-0.9149935788
 30
0.0
 11
17.2571468882
 21
-0.9149935788
 31
0.0
  0
LINE
  5
D5
330
BD
100
AcDbEntity
  8
TB
 62
     0
100
AcDbLine
 10
0.0
 20
-1.8149935788
 30
0.0
 11
1.4759326642
 21
-1.8149935788
 31
0.0
  0
LINE
  5
D6
330
BD
100
AcDbEntity
  8
TB
 62
     0
100
AcDbLine
 10
1.4759326642
 20
-1.8149935788
 30
0.0
 11
3.160940815
 21
-1.8149935788
 31
0.0
  0
LINE
  5
D7
330
BD
100
AcDbEntity
  8
TB
 62
     0
100
AcDbLine
 10
3.160940815
 20
-1.8149935788
 30
0.0
 11
10.4812526558
 21
-1.8149935788
 31
0.0
  0
LINE
  5
D8
330
BD
100
AcDbEntity
  8
TB
 62
     0
100
AcDbLine
 10
10.4812526558
 20
-1.8149935788
 30
0.0
 11
13.4202936544
 21
-1.8149935788
 31
0.0
  0
LINE
  5
D9
330
BD
100
AcDbEntity
  8
TB
 62
     0
100
AcDbLine
 10
13.4202936544
 20
-1.8149935788
 30
0.0
 11
15.4860276911
 21
-1.8149935788
 31
0.0
  0
LINE
  5
DA
330
BD
100
AcDbEntity
  8
TB
 62
     0
100
AcDbLine
 10
15.4860276911
 20
-1.8149935788
 30
0.0
 11
17.2571468882
 21
-1.8149935788
 31
0.0
  0
LINE
  5
DB
330
BD
100
AcDbEntity
  8
TB
 62
     0
100
AcDbLine
 10
0.0
 20
-1.8149935788
 30
0.0
 11
0.0
 21
-3.2149935728
 31
0.0
  0
LINE
  5
DC
330
BD
100
AcDbEntity
  8
TB
 62
     0
100
AcDbLine
 10
1.4759326642
 20
-1.8149935788
 30
0.0
 11
1.4759326642
 21
-3.2149935728
 31
0.0
  0
LINE
  5
DD
330
BD
100
AcDbEntity
  8
TB
 62
     0
100
AcDbLine
 10
3.160940815
 20
-1.8149935788
 30
0.0
 11
3.160940815
 21
-3.2149935728
 31
0.0
  0
LINE
  5
DE
330
BD
100
AcDbEntity
  8
TB
 62
     0
100
AcDbLine
 10
10.4812526558
 20
-1.8149935788
 30
0.0
 11
10.4812526558
 21
-3.2149935728
 31
0.0
  0
LINE
  5
DF
330
BD
100
AcDbEntity
  8
TB
 62
     0
100
AcDbLine
 10
13.4202936544
 20
-1.8149935788
 30
0.0
 11
13.4202936544
 21
-3.2149935728
 31
0.0
  0
LINE
  5
E0
330
BD
100
AcDbEntity
  8
TB
 62
     0
100
AcDbLine
 10
15.4860276911
 20
-1.8149935788
 30
0.0
 11
15.4860276911
 21
-3.2149935728
 31
0.0
  0
LINE
  5
E1
330
BD
100
AcDbEntity
  8
TB
 62
     0
100
AcDbLine
 10
17.2571468882
 20
-1.8149935788
 30
0.0
 11
17.2571468882
 21
-3.2149935728
 31
0.0
  0
LINE
  5
E2
330
BD
100
AcDbEntity
  8
TB
 62
     0
100
AcDbLine
 10
0.0
 20
-3.2149935728
 30
0.0
 11
1.4759326642
 21
-3.2149935728
 31
0.0
  0
LINE
  5
E3
330
BD
100
AcDbEntity
  8
TB
 62
     0
100
AcDbLine
 10
1.4759326642
 20
-3.2149935728
 30
0.0
 11
3.160940815
 21
-3.2149935728
 31
0.0
  0
LINE
  5
E4
330
BD
100
AcDbEntity
  8
TB
 62
     0
100
AcDbLine
 10
3.160940815
 20
-3.2149935728
 30
0.0
 11
10.4812526558
 21
-3.2149935728
 31
0.0
  0
LINE
  5
E5
330
BD
100
AcDbEntity
  8
TB
 62
     0
100
AcDbLine
 10
10.4812526558
 20
-3.2149935728
 30
0.0
 11
13.4202936544
 21
-3.2149935728
 31
0.0
  0
LINE
  5
E6
330
BD
100
AcDbEntity
  8
TB
 62
     0
100
AcDbLine
 10
13.4202936544
 20
-3.2149935728
 30
0.0
 11
15.4860276911
 21
-3.2149935728
 31
0.0
  0
LINE
  5
E7
330
BD
100
AcDbEntity
  8
TB
 62
     0
100
AcDbLine
 10
15.4860276911
 20
-3.2149935728
 30
0.0
 11
17.2571468882
 21
-3.2149935728
 31
0.0
  0
MTEXT
  5
E8
330
BD
100
AcDbEntity
  8
TB
 62
     0
100
AcDbMText
 10
7.176721666
 20
-0.2382320444
 30
0.0
 40
0.4375
 41
0.0
 46
0.0
 71
     1
 72
     1
  1
REVISIONS
  7
SLDTEXTSTYLE0
 73
     1
 44
1.0
  0
MTEXT
  5
E9
330
BD
100
AcDbEntity
  8
TB
 62
     0
100
AcDbMText
 10
0.2181746518
 20
-1.175789602
 30
0.0
 40
0.375
 41
0.0
 46
0.0
 71
     1
 72
     1
  1
REV.
  7
SLDTEXTSTYLE0
 73
     1
 44
1.0
  0
MTEXT
  5
EA
330
BD
100
AcDbEntity
  8
TB
 62
     0
100
AcDbMText
 10
1.6684367585
 20
-1.175789602
 30
0.0
 40
0.375
 41
0.0
 46
0.0
 71
     1
 72
     1
  1
ZONE
  7
SLDTEXTSTYLE0
 73
     1
 44
1.0
  0
MTEXT
  5
EB
330
BD
100
AcDbEntity
  8
TB
 62
     0
100
AcDbMText
 10
5.2669300793
 20
-1.175789602
 30
0.0
 40
0.375
 41
0.0
 46
0.0
 71
     1
 72
     1
  1
DESCRIPTION
  7
SLDTEXTSTYLE0
 73
     1
 44
1.0
  0
MTEXT
  5
EC
330
BD
100
AcDbEntity
  8
TB
 62
     0
100
AcDbMText
 10
11.3559814262
 20
-1.175789602
 30
0.0
 40
0.375
 41
0.0
 46
0.0
 71
     1
 72
     1
  1
DATE
  7
SLDTEXTSTYLE0
 73
     1
 44
1.0
  0
MTEXT
  5
ED
330
BD
100
AcDbEntity
  8
TB
 62
     0
100
AcDbMText
 10
13.728160698
 20
-1.175789602
 30
0.0
 40
0.375
 41
0.0
 46
0.0
 71
     1
 72
     1
  1
NAME
  7
SLDTEXTSTYLE0
 73
     1
 44
1.0
  0
MTEXT
  5
EE
330
BD
100
AcDbEntity
  8
TB
 62
     0
100
AcDbMText
 10
15.8368650968
 20
-1.175789602
 30
0.0
 40
0.375
 41
0.0
 46
0.0
 71
     1
 72
     1
  1
ECO
  7
SLDTEXTSTYLE0
 73
     1
 44
1.0
  0
MTEXT
  5
EF
330
BD
100
AcDbEntity
  8
TB
 62
     0
100
AcDbMText
 10
0.599424665
 20
-2.3257895989
 30
0.0
 40
0.375
 41
0.0
 46
0.0
 71
     1
 72
     1
  1
1
  7
SLDTEXTSTYLE0
 73
     1
 44
1.0
  0
MTEXT
  5
F0
330
BD
100
AcDbEntity
  8
TB
 62
     0
100
AcDbMText
 10
5.0106801195
 20
-2.3257895989
 30
0.0
 40
0.375
 41
0.0
 46
0.0
 71
     1
 72
     1
  1
INITIAL RELEASE
  7
SLDTEXTSTYLE0
 73
     1
 44
1.0
  0
MTEXT
  5
F1
330
BD
100
AcDbEntity
  8
TB
 62
     0
100
AcDbMText
 10
10.8240370313
 20
-2.3257895989
 30
0.0
 40
0.375
 41
0.0
 46
0.0
 71
     1
 72
     1
  1
24-SEP-24
  7
SLDTEXTSTYLE0
 73
     1
 44
1.0
  0
MTEXT
  5
F2
330
BD
100
AcDbEntity
  8
TB
 62
     0
100
AcDbMText
 10
14.1246884623
 20
-2.3257895989
 30
0.0
 40
0.375
 41
0.0
 46
0.0
 71
     1
 72
     1
  1
AB
  7
SLDTEXTSTYLE0
 73
     1
 44
1.0
  0
ENDBLK
  5
BF
330
BD
100
AcDbEntity
  8
0
100
AcDbBlockEnd
  0
BLOCK
  5
115
330
114
100
AcDbEntity
  8
0
100
AcDbBlockBegin
  2
_D
 70
     0
 10
0.0
 20
0.0
 30
0.0
  3
_D
  1

  0
SOLID
  5
117
330
114
100
AcDbEntity
  8
FORMAT
100
AcDbTrace
 10
14.3496829189
 20
30.4880837416
 30
0.0
 11
14.7396829189
 21
30.4280837416
 31
0.0
 12
14.7396829189
 22
30.5480837416
 32
0.0
 13
14.7396829189
 23
30.5480837416
 33
0.0
  0
SOLID
  5
118
330
114
100
AcDbEntity
  8
FORMAT
100
AcDbTrace
 10
23.6846829189
 20
30.4880837416
 30
0.0
 11
23.2946829189
 21
30.5480837416
 31
0.0
 12
23.2946829189
 22
30.4280837416
 32
0.0
 13
23.2946829189
 23
30.4280837416
 33
0.0
  0
LINE
  5
119
330
114
100
AcDbEntity
  8
FORMAT
100
AcDbLine
 10
19.1614146552
 20
30.7857400006
 30
0.0
 11
19.0471568439
 21
30.7857400006
 31
0.0
  0
LINE
  5
11A
330
114
100
AcDbEntity
  8
FORMAT
100
AcDbLine
 10
19.0471568439
 20
30.7857400006
 30
0.0
 11
19.0471568439
 21
30.1904274827
 31
0.0
  0
LINE
  5
11B
330
114
100
AcDbEntity
  8
FORMAT
100
AcDbLine
 10
19.0471568439
 20
30.1904274827
 30
0.0
 11
19.1614146552
 21
30.1904274827
 31
0.0
  0
LINE
  5
11C
330
114
100
AcDbEntity
  8
FORMAT
100
AcDbLine
 10
20.4082896312
 20
30.7857400006
 30
0.0
 11
20.5225474425
 21
30.7857400006
 31
0.0
  0
LINE
  5
11D
330
114
100
AcDbEntity
  8
FORMAT
100
AcDbLine
 10
20.5225474425
 20
30.7857400006
 30
0.0
 11
20.5225474425
 21
30.1904274827
 31
0.0
  0
LINE
  5
11E
330
114
100
AcDbEntity
  8
FORMAT
100
AcDbLine
 10
20.5225474425
 20
30.1904274827
 30
0.0
 11
20.4082896312
 21
30.1904274827
 31
0.0
  0
LINE
  5
11F
330
114
100
AcDbEntity
  8
FORMAT
100
AcDbLine
 10
14.3496829189
 20
27.3256355932
 30
0.0
 11
14.3496829189
 21
30.8630837416
 31
0.0
  0
LINE
  5
120
330
114
100
AcDbEntity
  8
FORMAT
100
AcDbLine
 10
23.6846829189
 20
27.3256355932
 30
0.0
 11
23.6846829189
 21
30.8630837416
 31
0.0
  0
LINE
  5
121
330
114
100
AcDbEntity
  8
FORMAT
100
AcDbLine
 10
14.3496829189
 20
30.4880837416
 30
0.0
 11
17.3213995036
 21
30.4880837416
 31
0.0
  0
LINE
  5
122
330
114
100
AcDbEntity
  8
FORMAT
100
AcDbLine
 10
23.6846829189
 20
30.4880837416
 30
0.0
 11
20.7129663342
 21
30.4880837416
 31
0.0
  0
MTEXT
  5
123
330
114
100
AcDbEntity
  8
FORMAT
100
AcDbMText
 10
17.3975605289
 20
30.6680987594
 30
0.0
 40
0.375
 41
0.0
 46
0.0
 71
     1
 72
     1
  1
%%c
  7
SLDTEXTSTYLE0
 73
     1
 44
1.0
  0
MTEXT
  5
124
330
114
100
AcDbEntity
  8
FORMAT
100
AcDbMText
 10
17.9631073907
 20
30.6738279264
 30
0.0
 40
0.375
 41
0.0
 46
0.0
 71
     1
 72
     1
  1
9.34
  7
SLDTEXTSTYLE0
 73
     1
 44
1.0
  0
MTEXT
  5
125
330
114
100
AcDbEntity
  8
FORMAT
100
AcDbMText
 10
19.1614146552
 20
30.6738279264
 30
0.0
 40
0.375
 41
0.0
 46
0.0
 71
     1
 72
     1
  1
237.1
  7
SLDTEXTSTYLE0
 73
     1
 44
1.0
  0
ENDBLK
  5
116
330
114
100
AcDbEntity
  8
0
100
AcDbBlockEnd
  0
BLOCK
  5
128
330
127
100
AcDbEntity
  8
0
100
AcDbBlockBegin
  2
_D_1
 70
     0
 10
0.0
 20
0.0
 30
0.0
  3
_D_1
  1

  0
SOLID
  5
12A
330
127
100
AcDbEntity
  8
FORMAT
100
AcDbTrace
 10
14.9479407288
 20
29.3932453018
 30
0.0
 11
15.3379407288
 21
29.3332453018
 31
0.0
 12
15.3379407288
 22
29.4532453018
 32
0.0
 13
15.3379407288
 23
29.4532453018
 33
0.0
  0
SOLID
  5
12B
330
127
100
AcDbEntity
  8
FORMAT
100
AcDbTrace
 10
23.086425109
 20
29.3932453018
 30
0.0
 11
22.696425109
 21
29.4532453018
 31
0.0
 12
22.696425109
 22
29.3332453018
 32
0.0
 13
22.696425109
 23
29.3332453018
 33
0.0
  0
LINE
  5
12C
330
127
100
AcDbEntity
  8
FORMAT
100
AcDbLine
 10
19.1614146552
 20
29.6909015608
 30
0.0
 11
19.0471568439
 21
29.6909015608
 31
0.0
  0
LINE
  5
12D
330
127
100
AcDbEntity
  8
FORMAT
100
AcDbLine
 10
19.0471568439
 20
29.6909015608
 30
0.0
 11
19.0471568439
 21
29.0955890429
 31
0.0
  0
LINE
  5
12E
330
127
100
AcDbEntity
  8
FORMAT
100
AcDbLine
 10
19.0471568439
 20
29.0955890429
 30
0.0
 11
19.1614146552
 21
29.0955890429
 31
0.0
  0
LINE
  5
12F
330
127
100
AcDbEntity
  8
FORMAT
100
AcDbLine
 10
20.4082896312
 20
29.6909015608
 30
0.0
 11
20.5225474425
 21
29.6909015608
 31
0.0
  0
LINE
  5
130
330
127
100
AcDbEntity
  8
FORMAT
100
AcDbLine
 10
20.5225474425
 20
29.6909015608
 30
0.0
 11
20.5225474425
 21
29.0955890429
 31
0.0
  0
LINE
  5
131
330
127
100
AcDbEntity
  8
FORMAT
100
AcDbLine
 10
20.5225474425
 20
29.0955890429
 30
0.0
 11
20.4082896312
 21
29.0955890429
 31
0.0
  0
LINE
  5
132
330
127
100
AcDbEntity
  8
FORMAT
100
AcDbLine
 10
14.9479407288
 20
27.1206355932
 30
0.0
 11
14.9479407288
 21
29.7682453018
 31
0.0
  0
LINE
  5
133
330
127
100
AcDbEntity
  8
FORMAT
100
AcDbLine
 10
23.086425109
 20
27.1206355932
 30
0.0
 11
23.086425109
 21
29.7682453018
 31
0.0
  0
LINE
  5
134
330
127
100
AcDbEntity
  8
FORMAT
100
AcDbLine
 10
14.9479407288
 20
29.3932453018
 30
0.0
 11
17.3213995036
 21
29.3932453018
 31
0.0
  0
LINE
  5
135
330
127
100
AcDbEntity
  8
FORMAT
100
AcDbLine
 10
23.086425109
 20
29.3932453018
 30
0.0
 11
20.7129663342
 21
29.3932453018
 31
0.0
  0
MTEXT
  5
136
330
127
100
AcDbEntity
  8
FORMAT
100
AcDbMText
 10
17.3975605289
 20
29.5732603196
 30
0.0
 40
0.375
 41
0.0
 46
0.0
 71
     1
 72
     1
  1
%%c
  7
SLDTEXTSTYLE0
 73
     1
 44
1.0
  0
MTEXT
  5
137
330
127
100
AcDbEntity
  8
FORMAT
100
AcDbMText
 10
17.9631073907
 20
29.5789894865
 30
0.0
 40
0.375
 41
0.0
 46
0.0
 71
     1
 72
     1
  1
8.14
  7
SLDTEXTSTYLE0
 73
     1
 44
1.0
  0
MTEXT
  5
138
330
127
100
AcDbEntity
  8
FORMAT
100
AcDbMText
 10
19.1614146552
 20
29.5789894865
 30
0.0
 40
0.375
 41
0.0
 46
0.0
 71
     1
 72
     1
  1
206.7
  7
SLDTEXTSTYLE0
 73
     1
 44
1.0
  0
ENDBLK
  5
129
330
127
100
AcDbEntity
  8
0
100
AcDbBlockEnd
  0
BLOCK
  5
13C
330
13B
100
AcDbEntity
  8
0
100
AcDbBlockBegin
  2
_None
 70
     0
 10
0.0
 20
0.0
 30
0.0
  3
_None
  1

  0
ENDBLK
  5
13D
330
13B
100
AcDbEntity
  8
0
100
AcDbBlockEnd
  0
BLOCK
  5
13F
330
13E
100
AcDbEntity
  8
0
100
AcDbBlockBegin
  2
_D_2
 70
     0
 10
0.0
 20
0.0
 30
0.0
  3
_D_2
  1

  0
MTEXT
  5
141
330
13E
100
AcDbEntity
  8
TB
100
AcDbMText
 10
28.751599278
 20
26.4790597107
 30
0.0
 40
0.375
 41
0.0
 46
0.0
 71
     1
 72
     1
  1
VX .155 [3.9]
  7
SLDTEXTSTYLE0
 73
     1
 44
1.0
  0
MTEXT
  5
142
330
13E
100
AcDbEntity
  8
TB
100
AcDbMText
 10
28.316182728
 20
25.8837471928
 30
0.0
 40
0.375
 41
0.0
 46
0.0
 71
     1
 72
     1
  1
VXQ .210 [5.4]
  7
SLDTEXTSTYLE0
 73
     1
 44
1.0
  0
ENDBLK
  5
140
330
13E
100
AcDbEntity
  8
0
100
AcDbBlockEnd
  0
BLOCK
  5
146
330
145
100
AcDbEntity
  8
0
100
AcDbBlockBegin
  2
_D_3
 70
     0
 10
0.0
 20
0.0
 30
0.0
  3
_D_3
  1

  0
SOLID
  5
148
330
145
100
AcDbEntity
  8
TB
100
AcDbTrace
 10
28.7671829189
 20
27.1381355932
 30
0.0
 11
28.8271829189
 21
27.5281355932
 31
0.0
 12
28.7071829189
 22
27.5281355932
 32
0.0
 13
28.7071829189
 23
27.5281355932
 33
0.0
  0
SOLID
  5
149
330
145
100
AcDbEntity
  8
TB
100
AcDbTrace
 10
28.7671829189
 20
26.9331355932
 30
0.0
 11
28.7071829189
 21
26.5431355932
 31
0.0
 12
28.8271829189
 22
26.5431355932
 32
0.0
 13
28.8271829189
 23
26.5431355932
 33
0.0
  0
LINE
  5
14A
330
145
100
AcDbEntity
  8
TB
100
AcDbLine
 10
26.7046829189
 20
27.1381355932
 30
0.0
 11
29.1421829189
 21
27.1381355932
 31
0.0
  0
LINE
  5
14B
330
145
100
AcDbEntity
  8
TB
100
AcDbLine
 10
23.8721829189
 20
26.9331355932
 30
0.0
 11
29.1421829189
 21
26.9331355932
 31
0.0
  0
LINE
  5
14C
330
145
100
AcDbEntity
  8
TB
100
AcDbLine
 10
29.5171829189
 20
26.2984023539
 30
0.0
 11
28.7671829189
 21
26.2984023539
 31
0.0
  0
LINE
  5
14D
330
145
100
AcDbEntity
  8
TB
100
AcDbLine
 10
28.7671829189
 20
26.2984023539
 30
0.0
 11
28.7671829189
 21
26.9331355932
 31
0.0
  0
LINE
  5
14E
330
145
100
AcDbEntity
  8
TB
100
AcDbLine
 10
28.7671829189
 20
27.1381355932
 30
0.0
 11
28.7671829189
 21
27.8881355932
 31
0.0
  0
MTEXT
  5
14F
330
145
100
AcDbEntity
  8
TB
100
AcDbMText
 10
29.8110523293
 20
26.7818027976
 30
0.0
 40
0.375
 41
0.0
 46
0.0
 71
     1
 72
     1
  1
VX 0.150 [3.81]
  7
SLDTEXTSTYLE0
 73
     1
 44
1.0
  0
MTEXT
  5
150
330
145
100
AcDbEntity
  8
TB
100
AcDbMText
 10
29.5933439443
 20
26.1864902797
 30
0.0
 40
0.375
 41
0.0
 46
0.0
 71
     1
 72
     1
  1
VXQ 0.205 [5.21]
  7
SLDTEXTSTYLE0
 73
     1
 44
1.0
  0
ENDBLK
  5
147
330
145
100
AcDbEntity
  8
0
100
AcDbBlockEnd
  0
ENDSEC
  0
SECTION
  2
ENTITIES
  0
HATCH
  5
67
330
1F
100
AcDbEntity
  8
OBJ
100
AcDbHatch
 10
0.0
 20
0.0
 30
0.0
210
0.0
220
0.0
230
1.0
  2
SOLID
 70
     1
 71
     0
 91
        2
 92
        0
 93
        4
 72
     1
 10
49.7597606429958
 20
2.534876614340148
 11
49.7597606429958
 21
4.679176292397328
 72
     1
 10
49.7597606429958
 20
4.679176292397328
 11
47.61554637288723
 21
4.679176292397328
 72
     1
 10
47.61554637288723
 20
4.679176292397328
 11
47.61554637288723
 21
2.534876614340148
 72
     1
 10
47.61554637288723
 20
2.534876614340148
 11
49.7597606429958
 21
2.534876614340148
 97
        0
 92
        0
 93
        8
 72
     1
 10
48.23375107553942
 20
3.488811277523687
 11
48.23375107553942
 21
2.93933718355651
 72
     1
 10
48.23375107553942
 20
2.93933718355651
 11
48.05898452396606
 21
2.93933718355651
 72
     1
 10
48.05898452396606
 20
2.93933718355651
 11
48.05898452396606
 21
4.262785426376871
 72
     1
 10
48.05898452396606
 20
4.262785426376871
 11
48.23375107553942
 21
4.262785426376871
 72
     1
 10
48.23375107553942
 20
4.262785426376871
 11
48.23375107553942
 21
3.713031616418057
 72
     1
 10
48.23375107553942
 20
3.713031616418057
 11
49.38522992670274
 21
3.713031616418057
 72
     1
 10
49.38522992670274
 20
3.713031616418057
 11
49.38522992670274
 21
3.488811277523687
 72
     1
 10
49.38522992670274
 20
3.488811277523687
 11
48.23375107553942
 21
3.488811277523687
 97
        0
 75
     0
 76
     1
 98
        1
 10
0.0
 20
0.0
  0
LINE
  5
68
330
1F
100
AcDbEntity
  8
TB
 62
   250
420
  2960685
100
AcDbLine
 10
47.6155463729
 20
4.6791762924
 30
0.0
 11
47.6155463729
 21
2.5348766143
 31
0.0
  0
LINE
  5
69
330
1F
100
AcDbEntity
  8
TB
 62
   250
420
  2960685
100
AcDbLine
 10
47.6155463729
 20
2.5348766143
 30
0.0
 11
49.759760643
 21
2.5348766143
 31
0.0
  0
LINE
  5
6A
330
1F
100
AcDbEntity
  8
TB
 62
   250
420
  2960685
100
AcDbLine
 10
49.759760643
 20
2.5348766143
 30
0.0
 11
49.759760643
 21
4.6791762924
 31
0.0
  0
LINE
  5
6B
330
1F
100
AcDbEntity
  8
TB
 62
   250
420
  2960685
100
AcDbLine
 10
49.759760643
 20
4.6791762924
 30
0.0
 11
47.6155463729
 21
4.6791762924
 31
0.0
  0
LINE
  5
6C
330
1F
100
AcDbEntity
  8
TB
 62
   250
420
  2960685
100
AcDbLine
 10
48.058984524
 20
2.9393371836
 30
0.0
 11
48.058984524
 21
4.2627854264
 31
0.0
  0
LINE
  5
6D
330
1F
100
AcDbEntity
  8
TB
 62
   250
420
  2960685
100
AcDbLine
 10
48.058984524
 20
4.2627854264
 30
0.0
 11
48.2337510755
 21
4.2627854264
 31
0.0
  0
LINE
  5
6E
330
1F
100
AcDbEntity
  8
TB
 62
   250
420
  2960685
100
AcDbLine
 10
48.2337510755
 20
4.2627854264
 30
0.0
 11
48.2337510755
 21
3.7130316164
 31
0.0
  0
LINE
  5
6F
330
1F
100
AcDbEntity
  8
TB
 62
   250
420
  2960685
100
AcDbLine
 10
48.2337510755
 20
3.7130316164
 30
0.0
 11
49.3852299267
 21
3.7130316164
 31
0.0
  0
LINE
  5
70
330
1F
100
AcDbEntity
  8
TB
 62
   250
420
  2960685
100
AcDbLine
 10
49.3852299267
 20
3.7130316164
 30
0.0
 11
49.3852299267
 21
3.4888112775
 31
0.0
  0
LINE
  5
71
330
1F
100
AcDbEntity
  8
TB
 62
   250
420
  2960685
100
AcDbLine
 10
49.3852299267
 20
3.4888112775
 30
0.0
 11
48.2337510755
 21
3.4888112775
 31
0.0
  0
LINE
  5
72
330
1F
100
AcDbEntity
  8
TB
 62
   250
420
  2960685
100
AcDbLine
 10
48.2337510755
 20
3.4888112775
 30
0.0
 11
48.2337510755
 21
2.9393371836
 31
0.0
  0
LINE
  5
73
330
1F
100
AcDbEntity
  8
TB
 62
   250
420
  2960685
100
AcDbLine
 10
48.2337510755
 20
2.9393371836
 30
0.0
 11
48.058984524
 21
2.9393371836
 31
0.0
  0
LINE
  5
74
330
1F
100
AcDbEntity
  8
TB
 62
   250
420
  2960685
370
    18
100
AcDbLine
 10
49.3852299267
 20
3.7130316164
 30
0.0
 11
49.3852299267
 21
3.4892588231
 31
0.0
  0
LINE
  5
75
330
1F
100
AcDbEntity
  8
TB
 62
   250
420
  2960685
370
    18
100
AcDbLine
 10
49.3852299267
 20
3.4892588231
 30
0.0
 11
48.2337510755
 21
3.4892588231
 31
0.0
  0
LINE
  5
76
330
1F
100
AcDbEntity
  8
TB
 62
   250
420
  2960685
370
    18
100
AcDbLine
 10
48.2337510755
 20
3.4892588231
 30
0.0
 11
48.2337510755
 21
2.9395050132
 31
0.0
  0
LINE
  5
77
330
1F
100
AcDbEntity
  8
TB
 62
   250
420
  2960685
370
    18
100
AcDbLine
 10
48.2337510755
 20
2.9395050132
 30
0.0
 11
48.0592082968
 21
2.9395050132
 31
0.0
  0
LINE
  5
78
330
1F
100
AcDbEntity
  8
TB
 62
   250
420
  2960685
370
    18
100
AcDbLine
 10
48.0592082968
 20
2.9395050132
 30
0.0
 11
48.0592082968
 21
4.2627854264
 31
0.0
  0
LINE
  5
79
330
1F
100
AcDbEntity
  8
TB
 62
   250
420
  2960685
370
    18
100
AcDbLine
 10
48.0592082968
 20
4.2627854264
 30
0.0
 11
48.2337510755
 21
4.2627854264
 31
0.0
  0
LINE
  5
7A
330
1F
100
AcDbEntity
  8
TB
 62
   250
420
  2960685
370
    18
100
AcDbLine
 10
48.2337510755
 20
4.2627854264
 30
0.0
 11
48.2337510755
 21
3.7130316164
 31
0.0
  0
LINE
  5
7B
330
1F
100
AcDbEntity
  8
TB
 62
   250
420
  2960685
370
    18
100
AcDbLine
 10
48.2337510755
 20
3.7130316164
 30
0.0
 11
49.3852299267
 21
3.7130316164
 31
0.0
  0
LINE
  5
7C
330
1F
100
AcDbEntity
  8
TB
 62
     7
100
AcDbLine
 10
47.1158116715
 20
16.6573016535
 30
0.0
 11
50.7403170872
 21
16.6573016535
 31
0.0
  0
LINE
  5
7D
330
1F
100
AcDbEntity
  8
TB
 62
     7
100
AcDbLine
 10
49.065
 20
29.7765
 30
0.0
 11
50.715
 21
29.7765
 31
0.0
  0
LINE
  5
7E
330
1F
100
AcDbEntity
  8
TB
 62
     7
100
AcDbLine
 10
49.905
 20
16.6573016535
 30
0.0
 11
49.905
 21
20.7736610437
 31
0.0
  0
LINE
  5
7F
330
1F
100
AcDbEntity
  8
TB
 62
     7
100
AcDbLine
 10
49.065
 20
25.3685405564
 30
0.0
 11
50.715
 21
25.3685405564
 31
0.0
  0
LINE
  5
80
330
1F
100
AcDbEntity
  8
TB
 62
     7
100
AcDbLine
 10
47.1158116715
 20
32.5665
 30
0.0
 11
47.1158116715
 21
1.0853215988
 31
0.0
  0
LINE
  5
81
330
1F
100
AcDbEntity
  8
TB
 62
     7
100
AcDbLine
 10
49.065
 20
16.6573016535
 30
0.0
 11
49.065
 21
32.5665
 31
0.0
  0
LINE
  5
82
330
1F
100
AcDbEntity
  8
TB
 62
     7
100
AcDbLine
 10
50.715
 20
2.5853215988
 30
0.0
 11
50.715
 21
27.7726905114
 31
0.0
  0
LINE
  5
83
330
1F
100
AcDbEntity
  8
TB
 62
     7
100
AcDbLine
 10
50.715
 20
2.5853215988
 30
0.0
 11
50.715
 21
31.0665
 31
0.0
  0
LINE
  5
84
330
1F
100
AcDbEntity
  8
TB
 62
     7
100
AcDbLine
 10
47.4908116715
 20
1.0853215988
 30
0.0
 11
49.215
 21
1.0853215988
 31
0.0
  0
LINE
  5
85
330
1F
100
AcDbEntity
  8
TB
 62
     7
100
AcDbLine
 10
46.3358116715
 20
1.0853215988
 30
0.0
 11
2.2197357877
 21
1.0853215988
 31
0.0
  0
LINE
  5
86
330
1F
100
AcDbEntity
  8
TB
 62
     7
100
AcDbLine
 10
49.215
 20
32.5665
 30
0.0
 11
47.4908116715
 21
32.5665
 31
0.0
  0
LINE
  5
87
330
1F
100
AcDbEntity
  8
TB
 62
     7
100
AcDbLine
 10
47.4908116715
 20
32.5665
 30
0.0
 11
47.4908116715
 21
1.0853215988
 31
0.0
  0
LINE
  5
88
330
1F
100
AcDbEntity
  8
TB
 62
     7
100
AcDbLine
 10
47.1158116715
 20
32.5665
 30
0.0
 11
2.25
 21
32.5665
 31
0.0
  0
LINE
  5
89
330
1F
100
AcDbEntity
  8
TB
 62
     7
100
AcDbLine
 10
0.75
 20
31.0665
 30
0.0
 11
0.75
 21
2.5853215988
 31
0.0
  0
LINE
  5
8A
330
1F
100
AcDbEntity
  8
TB
 62
     7
100
AcDbLine
 10
2.25
 20
1.0853215988
 30
0.0
 11
47.1158116715
 21
1.0853215988
 31
0.0
  0
LINE
  5
8B
330
1F
100
AcDbEntity
  8
TB
 62
     7
100
AcDbLine
 10
49.065
 20
20.7736610437
 30
0.0
 11
50.715
 21
20.7736610437
 31
0.0
  0
LINE
  5
8C
330
1F
100
AcDbEntity
  8
TB
 62
     7
100
AcDbLine
 10
49.905
 20
20.7736610437
 30
0.0
 11
49.905
 21
24.2548130095
 31
0.0
  0
LINE
  5
8D
330
1F
100
AcDbEntity
  8
TB
 62
     7
100
AcDbLine
 10
49.065
 20
24.2548130095
 30
0.0
 11
50.715
 21
24.2548130095
 31
0.0
  0
ARC
  5
8E
330
1F
100
AcDbEntity
  8
TB
 62
     7
100
AcDbCircle
 10
49.215
 20
31.0665
 30
0.0
 40
1.5
100
AcDbArc
 50
0.0
 51
90.0
  0
ARC
  5
8F
330
1F
100
AcDbEntity
  8
TB
 62
     7
100
AcDbCircle
 10
49.215
 20
2.5853215988
 30
0.0
 40
1.5
100
AcDbArc
 50
270.0
 51
0.0
  0
ARC
  5
90
330
1F
100
AcDbEntity
  8
TB
 62
     7
100
AcDbCircle
 10
2.25
 20
31.0665
 30
0.0
 40
1.5
100
AcDbArc
 50
90.0
 51
180.0
  0
ARC
  5
91
330
1F
100
AcDbEntity
  8
TB
 62
     7
100
AcDbCircle
 10
2.25
 20
2.5853215988
 30
0.0
 40
1.5
100
AcDbArc
 50
180.0
 51
270.0
  0
INSERT
  5
A2
330
1F
100
AcDbEntity
  8
TB
100
AcDbBlockReference
  2
SW_NOTE_0
 10
4.2874576271
 20
4.7090931594
 30
0.0
  0
INSERT
  5
AD
330
1F
100
AcDbEntity
  8
TB
100
AcDbBlockReference
  2
SW_NOTE_0_1
 10
34.2234484786
 20
25.7853372759
 30
0.0
  0
MTEXT
  5
AE
330
1F
100
AcDbEntity
  8
TB
 62
     7
100
AcDbMText
 10
49.1714813561
 20
30.8637027654
 30
0.0
 40
0.21
 41
0.0
 46
0.0
 71
     2
 72
     1
  1
REV.
  7
SLDTEXTSTYLE0
 11
6.123233995736766E-17
 21
1.0
 31
0.0
 73
     1
 44
1.0
  0
MTEXT
  5
AF
330
1F
100
AcDbEntity
  8
TB
 62
     7
100
AcDbMText
 10
49.1714813561
 20
27.3590612872
 30
0.0
 40
0.21
 41
0.0
 46
0.0
 71
     2
 72
     1
  1
DRWN - PART NUMBER
  7
SLDTEXTSTYLE0
 11
6.123233995736766E-17
 21
1.0
 31
0.0
 73
     1
 44
1.0
  0
MTEXT
  5
B0
330
1F
100
AcDbEntity
  8
TB
 62
     7
100
AcDbMText
 10
49.4335223781
 20
24.4432600378
 30
0.0
 40
0.9
 41
0.0
 46
0.0
 71
     1
 72
     1
  1
B
  7
SLDTEXTSTYLE0
 11
6.123233995736766E-17
 21
1.0
 31
0.0
 73
     1
 44
1.0
  0
MTEXT
  5
B2
330
1F
100
AcDbEntity
  8
TB
100
AcDbMText
 10
50.138180413
 20
16.852951524
 30
0.0
 40
0.21
 41
0.0
 46
0.0
 71
     1
 72
     1
  1
SHEET 1 OF 1
  7
SLDTEXTSTYLE2
 11
-3.491481338843133E-15
 21
1.0
 31
0.0
 73
     1
 44
1.0
  0
MTEXT
  5
B3
330
1F
100
AcDbEntity
  8
TB
100
AcDbMText
 10
50.2280019701
 20
20.8461405056
 30
0.0
 40
0.21
 41
0.0
 46
0.0
 71
     1
 72
     1
  1
RELEASED ON: 23 DEC 24
  7
SLDTEXTSTYLE0
 11
-3.491481338843133E-15
 21
1.0
 31
0.0
 73
     1
 44
1.0
  0
MTEXT
  5
B4
330
1F
100
AcDbEntity
  8
TB
100
AcDbMText
 10
49.3282050829
 20
20.8632251177
 30
0.0
 40
0.21
 41
0.0
 46
0.0
 71
     1
 72
     1
  1
DRAWN BYAB
  7
SLDTEXTSTYLE0
 11
-3.491481338843133E-15
 21
1.0
 31
0.0
 73
     1
 44
1.0
  0
MTEXT
  5
B6
330
1F
100
AcDbEntity
  8
TB
 62
   250
420
  2960685
100
AcDbMText
 10
48.6428694212
 20
5.3320637734
 30
0.0
 40
0.315
 41
0.0
 46
0.0
 71
     1
 72
     1
  1
991 CALLE AMANECER, SAN CLEMENTE CA. 92673
  7
SLDTEXTSTYLE3
 11
6.123233995736766E-17
 21
1.0
 31
0.0
 73
     1
 44
1.0
  0
MTEXT
  5
B7
330
1F
100
AcDbEntity
  8
TB
 62
   250
420
  2960685
100
AcDbMText
 10
47.7535535626
 20
5.3163147868
 30
0.0
 40
0.6
 41
0.0
 46
0.0
 71
     1
 72
     1
  1
TRUFIG
  7
SLDTEXTSTYLE0
 11
6.123233995736766E-17
 21
1.0
 31
0.0
 73
     1
 44
1.0
  0
MTEXT
  5
B8
330
1F
100
AcDbEntity
  8
TB
 62
   250
420
  2960685
100
AcDbMText
 10
49.4475832755
 20
5.3564673235
 30
0.0
 40
0.345
 41
0.0
 46
0.0
 71
     1
 72
     1
  1
WWW.TRUFIG.COM
  7
SLDTEXTSTYLE3
 11
6.123233995736766E-17
 21
1.0
 31
0.0
 73
     1
 44
1.0
  0
MTEXT
  5
B9
330
1F
100
AcDbEntity
  8
TB
 62
   250
420
  2960685
100
AcDbMText
 10
49.9588161407
 20
2.5518253397
 30
0.0
 40
0.5
 41
0.0
 46
0.0
 71
     1
 72
     1
  1
TRUFIG
  7
SLDTEXTSTYLE0
 11
6.123233995736766E-17
 21
1.0
 31
0.0
 73
     1
 44
1.0
  0
MTEXT
  5
BA
330
1F
100
AcDbEntity
  8
TB
100
AcDbMText
 10
49.4336549226
 20
16.9437488064
 30
0.0
 40
0.21
 41
0.0
 46
0.0
 71
     1
 72
     1
  1
SCALE: 1:3
  7
SLDTEXTSTYLE0
 11
-3.491481338843133E-15
 21
1.0
 31
0.0
 73
     1
 44
1.0
  0
MTEXT
  5
BB
330
1F
100
AcDbEntity
  8
FORMAT
100
AcDbMText
 10
47.0856601714
 20
0.9503983911
 30
0.0
 40
0.3125
 41
0.0
 46
0.0
 71
     3
 72
     1
  1
FILE NAME: VX-VXQ 6IN RND CUT FILE
  7
SLDTEXTSTYLE0
 73
     1
 44
1.0
  0
MTEXT
  5
BC
330
1F
100
AcDbEntity
  8
TB
100
AcDbMText
 10
49.6952766066
 20
30.6930353342
 30
0.0
 40
0.6
 41
0.0
 46
0.0
 71
     1
 72
     1
  1
1
  7
SLDTEXTSTYLE0
 11
-3.491481338843133E-15
 21
1.0
 31
0.0
 73
     1
 44
1.0
  0
INSERT
  5
F3
330
1F
100
AcDbEntity
  8
TB
100
AcDbBlockReference
  2
SW_TABLEANNOTATION_0
 10
29.8586647833
 20
32.5665
 30
0.0
  0
CIRCLE
  5
F4
330
1F
100
AcDbEntity
  8
0
  6
Continuous
 62
     7
370
    25
100
AcDbCircle
 10
19.0171829189
 20
14.6293695733
 30
0.0
 40
4.667499999999997
  0
LINE
  5
F5
330
1F
100
AcDbEntity
  8
0
  6
Continuous
 62
     7
370
    25
100
AcDbLine
 10
11.5171829189
 20
22.1293695733
 30
0.0
 11
11.5171829189
 21
7.1293695733
 31
0.0
  0
LINE
  5
F6
330
1F
100
AcDbEntity
  8
0
  6
Continuous
 62
     7
370
    25
100
AcDbLine
 10
26.5171829189
 20
22.1293695733
 30
0.0
 11
11.5171829189
 21
22.1293695733
 31
0.0
  0
LINE
  5
F7
330
1F
100
AcDbEntity
  8
0
  6
Continuous
 62
     7
370
    25
100
AcDbLine
 10
26.5171829189
 20
7.1293695733
 30
0.0
 11
26.5171829189
 21
22.1293695733
 31
0.0
  0
LINE
  5
F8
330
1F
100
AcDbEntity
  8
0
  6
Continuous
 62
     7
370
    25
100
AcDbLine
 10
11.5171829189
 20
7.1293695733
 30
0.0
 11
26.5171829189
 21
7.1293695733
 31
0.0
  0
CIRCLE
  5
F9
330
1F
100
AcDbEntity
  8
0
  6
Continuous
 62
     7
370
    25
100
AcDbCircle
 10
19.0171829189
 20
14.6293695733
 30
0.0
 40
4.069242190068028
  0
LINE
  5
FA
330
1F
100
AcDbEntity
  8
0
  6
HIDDEN
 62
     7
370
    18
100
AcDbLine
 10
28.3791829189
 20
14.6293695733
 30
0.0
 11
9.6551829189
 21
14.6293695733
 31
0.0
  0
LINE
  5
FB
330
1F
100
AcDbEntity
  8
0
  6
Continuous
 62
     7
370
    18
100
AcDbLine
 10
28.3791829189
 20
14.6293695733
 30
0.0
 11
28.3791829189
 21
16.1293695733
 31
0.0
  0
SOLID
  5
FC
330
1F
100
AcDbEntity
  8
0
  6
Continuous
 62
     7
370
    18
100
AcDbTrace
 10
28.3791829189
 20
16.1293695733
 30
0.0
 11
28.2591829189
 21
15.3793695733
 31
0.0
 12
28.4991829189
 22
15.3793695733
 32
0.0
 13
28.4991829189
 23
15.3793695733
 33
0.0
  0
LINE
  5
FD
330
1F
100
AcDbEntity
  8
0
  6
Continuous
 62
     7
370
    18
100
AcDbLine
 10
9.6551829189
 20
14.6293695733
 30
0.0
 11
9.6551829189
 21
16.1293695733
 31
0.0
  0
SOLID
  5
FE
330
1F
100
AcDbEntity
  8
0
  6
Continuous
 62
     7
370
    18
100
AcDbTrace
 10
9.6551829189
 20
16.1293695733
 30
0.0
 11
9.5351829189
 21
15.3793695733
 31
0.0
 12
9.7751829189
 22
15.3793695733
 32
0.0
 13
9.7751829189
 23
15.3793695733
 33
0.0
  0
MTEXT
  5
FF
330
1F
100
AcDbEntity
  8
0
  6
Continuous
 62
     7
100
AcDbMText
 10
28.1942920086
 20
16.7256302324
 30
0.0
 40
0.375
 41
0.0
 46
0.0
 71
     1
 72
     1
  1
A
  7
SLDTEXTSTYLE0
 73
     1
 44
1.0
  0
MTEXT
  5
100
330
1F
100
AcDbEntity
  8
0
  6
Continuous
 62
     7
100
AcDbMText
 10
9.4702920086
 20
16.7256302324
 30
0.0
 40
0.375
 41
0.0
 46
0.0
 71
     1
 72
     1
  1
A
  7
SLDTEXTSTYLE0
 73
     1
 44
1.0
  0
LINE
  5
101
330
1F
100
AcDbEntity
  8
0
  6
Continuous
 62
     7
370
    25
100
AcDbLine
 10
23.086425109
 20
26.5131355932
 30
0.0
 11
14.9479407288
 21
26.5131355932
 31
0.0
  0
LINE
  5
102
330
1F
100
AcDbEntity
  8
0
  6
Continuous
 62
     7
370
    25
100
AcDbLine
 10
14.9479407288
 20
26.5131355932
 30
0.0
 11
14.9479407288
 21
26.9331355932
 31
0.0
  0
LINE
  5
103
330
1F
100
AcDbEntity
  8
0
  6
Continuous
 62
     7
370
    25
100
AcDbLine
 10
14.9479407288
 20
26.9331355932
 30
0.0
 11
23.086425109
 21
26.9331355932
 31
0.0
  0
LINE
  5
104
330
1F
100
AcDbEntity
  8
0
  6
Continuous
 62
     7
370
    25
100
AcDbLine
 10
23.086425109
 20
26.9331355932
 30
0.0
 11
23.086425109
 21
26.5131355932
 31
0.0
  0
LINE
  5
105
330
1F
100
AcDbEntity
  8
0
  6
Continuous
 62
     7
370
    25
100
AcDbLine
 10
11.5171829189
 20
27.1381355932
 30
0.0
 11
14.3496829189
 21
27.1381355932
 31
0.0
  0
LINE
  5
106
330
1F
100
AcDbEntity
  8
0
  6
Continuous
 62
     7
370
    25
100
AcDbLine
 10
14.3496829189
 20
26.9331355932
 30
0.0
 11
14.3496829189
 21
27.1381355932
 31
0.0
  0
LINE
  5
107
330
1F
100
AcDbEntity
  8
0
  6
Continuous
 62
     7
370
    25
100
AcDbLine
 10
14.3496829189
 20
26.9331355932
 30
0.0
 11
14.9479407288
 21
26.9331355932
 31
0.0
  0
LINE
  5
108
330
1F
100
AcDbEntity
  8
0
  6
Continuous
 62
     7
370
    25
100
AcDbLine
 10
11.5171829189
 20
26.5131355932
 30
0.0
 11
14.9479407288
 21
26.5131355932
 31
0.0
  0
LINE
  5
109
330
1F
100
AcDbEntity
  8
0
  6
Continuous
 62
     7
370
    25
100
AcDbLine
 10
11.5171829189
 20
27.1381355932
 30
0.0
 11
11.5171829189
 21
26.5131355932
 31
0.0
  0
LINE
  5
10A
330
1F
100
AcDbEntity
  8
0
  6
Continuous
 62
     7
370
    25
100
AcDbLine
 10
23.086425109
 20
26.9331355932
 30
0.0
 11
23.6846829189
 21
26.9331355932
 31
0.0
  0
LINE
  5
10B
330
1F
100
AcDbEntity
  8
0
  6
Continuous
 62
     7
370
    25
100
AcDbLine
 10
23.6846829189
 20
27.1381355932
 30
0.0
 11
23.6846829189
 21
26.9331355932
 31
0.0
  0
LINE
  5
10C
330
1F
100
AcDbEntity
  8
0
  6
Continuous
 62
     7
370
    25
100
AcDbLine
 10
23.6846829189
 20
27.1381355932
 30
0.0
 11
26.5171829189
 21
27.1381355932
 31
0.0
  0
LINE
  5
10D
330
1F
100
AcDbEntity
  8
0
  6
Continuous
 62
     7
370
    25
100
AcDbLine
 10
23.086425109
 20
26.5131355932
 30
0.0
 11
26.5171829189
 21
26.5131355932
 31
0.0
  0
LINE
  5
10E
330
1F
100
AcDbEntity
  8
0
  6
Continuous
 62
     7
370
    25
100
AcDbLine
 10
26.5171829189
 20
26.5131355932
 30
0.0
 11
26.5171829189
 21
27.1381355932
 31
0.0
  0
LINE
  5
10F
330
1F
100
AcDbEntity
  8
0
  6
Continuous
 62
     7
370
    25
100
AcDbLine
 10
23.6846829189
 20
27.1381355932
 30
0.0
 11
14.3496829189
 21
27.1381355932
 31
0.0
  0
HATCH
  5
110
330
1F
100
AcDbEntity
  8
TB
  6
Continuous
370
    18
100
AcDbHatch
 10
0.0
 20
0.0
 30
0.0
210
0.0
220
0.0
230
1.0
  2
ANSI32
 70
     0
 71
     0
 91
        1
 92
        0
 93
        6
 72
     1
 10
11.5171829188967
 20
27.13813559322035
 11
11.5171829188967
 21
26.51313559322035
 72
     1
 10
11.5171829188967
 20
26.51313559322035
 11
14.94794072882863
 21
26.51313559322035
 72
     1
 10
14.94794072882863
 20
26.51313559322035
 11
14.94794072882863
 21
26.93313559322035
 72
     1
 10
14.94794072882863
 20
26.93313559322035
 11
14.34968291889666
 21
26.93313559322035
 72
     1
 10
14.34968291889666
 20
26.93313559322035
 11
14.34968291889666
 21
27.13813559322035
 72
     1
 10
14.34968291889666
 20
27.13813559322035
 11
11.5171829188967
 21
27.13813559322035
 97
        0
 75
     0
 76
     1
 52
0.0
 41
3.0
 77
     0
 78
     2
 53
45.0
 43
0.0
 44
0.0
 45
-0.7954951288348661
 46
0.7954951288348661
 79
     0
 53
45.0
 43
0.530330085
 44
0.0
 45
-0.7954951288348661
 46
0.7954951288348661
 79
     0
 98
        1
 10
0.0
 20
0.0
  0
HATCH
  5
111
330
1F
100
AcDbEntity
  8
TB
  6
Continuous
370
    18
100
AcDbHatch
 10
0.0
 20
0.0
 30
0.0
210
0.0
220
0.0
230
1.0
  2
ANSI32
 70
     0
 71
     0
 91
        1
 92
        0
 93
        6
 72
     1
 10
23.08642510896469
 20
26.93313559322035
 11
23.08642510896469
 21
26.51313559322035
 72
     1
 10
23.08642510896469
 20
26.51313559322035
 11
26.51718291889672
 21
26.51313559322035
 72
     1
 10
26.51718291889672
 20
26.51313559322035
 11
26.51718291889672
 21
27.13813559322035
 72
     1
 10
26.51718291889672
 20
27.13813559322035
 11
23.68468291889666
 21
27.13813559322035
 72
     1
 10
23.68468291889666
 20
27.13813559322035
 11
23.68468291889666
 21
26.93313559322035
 72
     1
 10
23.68468291889666
 20
26.93313559322035
 11
23.08642510896469
 21
26.93313559322035
 97
        0
 75
     0
 76
     1
 52
0.0
 41
3.0
 77
     0
 78
     2
 53
45.0
 43
0.0
 44
0.0
 45
-0.7954951288348661
 46
0.7954951288348661
 79
     0
 53
45.0
 43
0.530330085
 44
0.0
 45
-0.7954951288348661
 46
0.7954951288348661
 79
     0
 98
        1
 10
0.0
 20
0.0
  0
DIMENSION
  5
112
330
1F
100
AcDbEntity
  8
FORMAT
100
AcDbDimension
280
     0
  2
_D
 10
23.6846829189
 20
30.4880837416
 30
0.0
 11
19.0171829189
 21
30.4880837416
 31
0.0
 70
   160
  1
%%c<>
 71
     2
 42
-1.0
 73
     0
 74
     0
 75
     0
  3
SLDDIMSTYLE0
100
AcDbAlignedDimension
 13
14.3496829189
 23
27.1381355932
 33
0.0
 14
23.6846829189
 24
27.1381355932
 34
0.0
100
AcDbRotatedDimension
  0
DIMENSION
  5
126
330
1F
100
AcDbEntity
  8
FORMAT
100
AcDbDimension
280
     0
  2
_D_1
 10
23.086425109
 20
29.3932453018
 30
0.0
 11
19.0171829189
 21
29.3932453018
 31
0.0
 70
   160
  1
%%c<>
 71
     2
 42
-1.0
 73
     0
 74
     0
 75
     0
  3
SLDDIMSTYLE0
100
AcDbAlignedDimension
 13
14.9479407288
 23
26.9331355932
 33
0.0
 14
23.086425109
 24
26.9331355932
 34
0.0
100
AcDbRotatedDimension
  0
DIMENSION
  5
139
330
1F
100
AcDbEntity
  8
TB
100
AcDbDimension
280
     0
  2
_D_2
 10
30.0070679047
 20
25.995659267
 30
0.0
 11
30.0070679047
 21
25.995659267
 31
0.0
 70
   160
  1
VX .155 [3.9]\PVXQ .210 [5.4]
 71
     3
 42
-1.0
 73
     0
 74
     0
 75
     0
  3
SLDDIMSTYLE1
100
AcDbAlignedDimension
 13
23.6846829189
 23
26.9331355932
 33
0.0
 14
26.5171829189
 24
26.5131355932
 34
0.0
 50
90.0
100
AcDbRotatedDimension
  0
DIMENSION
  5
143
330
1F
100
AcDbEntity
  8
TB
100
AcDbDimension
280
     0
  2
_D_3
 10
28.7671829189
 20
26.9331355932
 30
0.0
 11
28.7671829189
 21
26.2984023539
 31
0.0
 70
   160
  1
VX 0.150 [3.81]\PVXQ 0.205 [5.21]
 71
     2
 42
-1.0
 73
     0
 74
     0
 75
     0
  3
SLDDIMSTYLE2
100
AcDbAlignedDimension
 13
26.5171829189
 23
27.1381355932
 33
0.0
 14
23.6846829189
 24
26.9331355932
 34
0.0
 50
90.0
100
AcDbRotatedDimension
  0
MTEXT
  5
151
330
1F
100
AcDbEntity
  8
TB
100
AcDbMText
 10
18.9858027176
 20
26.2596757721
 30
0.0
 40
0.375
 41
0.0
 46
0.0
 71
     2
 72
     1
  1
SECTION A-A
  7
SLDTEXTSTYLE0
 73
     1
 44
1.0
  0
ENDSEC
  0
SECTION
  2
OBJECTS
  0
DICTIONARY
  5
C
330
0
100
AcDbDictionary
281
     1
  3
ACAD_DETAILVIEWSTYLE
350
159
  3
ACAD_GROUP
350
D
  3
ACAD_LAYOUT
350
1A
  3
ACAD_MATERIAL
350
43
  3
ACAD_MLEADERSTYLE
350
5B
  3
ACAD_MLINESTYLE
350
17
  3
ACAD_PLOTSETTINGS
350
19
  3
ACAD_PLOTSTYLENAME
350
E
  3
ACAD_SCALELIST
350
47
  3
ACAD_SECTIONVIEWSTYLE
350
15A
  3
ACAD_TABLESTYLE
350
59
  3
ACAD_VISUALSTYLE
350
2A
  3
ACDB_RECOMPOSE_DATA
350
156
  3
AcDbVariableDictionary
350
152
  0
SUN
  5
5D
330
29
100
AcDbSun
 90
        1
290
     0
 63
     7
421
 16777215
 40
1.0
291
     1
 91
  2455826
 92
 54000000
292
     0
 70
     2
 71
   256
280
     1
  0
DICTIONARY
  5
159
102
{ACAD_REACTORS
330
C
102
}
330
C
100
AcDbDictionary
281
     1
  0
DICTIONARY
  5
D
102
{ACAD_REACTORS
330
C
102
}
330
C
100
AcDbDictionary
281
     1
  0
DICTIONARY
  5
1A
102
{ACAD_REACTORS
330
C
102
}
330
C
100
AcDbDictionary
281
     1
  3
Layout1
350
1E
  3
Layout2
350
26
  3
Model
350
22
  0
DICTIONARY
  5
43
102
{ACAD_REACTORS
330
C
102
}
330
C
100
AcDbDictionary
281
     1
  3
ByBlock
350
45
  3
ByLayer
350
44
  3
Global
350
46
  0
DICTIONARY
  5
5B
102
{ACAD_REACTORS
330
C
102
}
330
C
100
AcDbDictionary
281
     1
  3
Standard
350
5C
  0
DICTIONARY
  5
17
102
{ACAD_REACTORS
330
C
102
}
330
C
100
AcDbDictionary
281
     1
  3
Standard
350
18
  0
DICTIONARY
  5
19
102
{ACAD_REACTORS
330
C
102
}
330
C
100
AcDbDictionary
281
     1
  0
ACDBDICTIONARYWDFLT
  5
E
102
{ACAD_REACTORS
330
C
102
}
330
C
100
AcDbDictionary
281
     1
  3
Normal
350
F
100
AcDbDictionaryWithDefault
340
F
  0
DICTIONARY
  5
47
102
{ACAD_REACTORS
330
C
102
}
330
C
100
AcDbDictionary
281
     1
  3
A0
350
48
  3
A1
350
49
  3
A2
350
4A
  3
A3
350
4B
  3
A4
350
4C
  3
A5
350
4D
  3
A6
350
4E
  3
A7
350
4F
  3
A8
350
50
  3
A9
350
51
  3
B1
350
52
  3
B2
350
53
  3
B3
350
54
  3
B4
350
55
  3
B5
350
56
  3
B6
350
57
  3
B7
350
58
  0
DICTIONARY
  5
15A
102
{ACAD_REACTORS
330
C
102
}
330
C
100
AcDbDictionary
281
     1
  0
DICTIONARY
  5
59
102
{ACAD_REACTORS
330
C
102
}
330
C
100
AcDbDictionary
281
     1
  3
Standard
350
5A
  0
DICTIONARY
  5
2A
102
{ACAD_REACTORS
330
C
102
}
330
C
100
AcDbDictionary
281
     1
  3
2dWireframe
350
2F
  3
Basic
350
32
  3
Brighten
350
36
  3
ColorChange
350
3A
  3
Conceptual
350
34
  3
Dim
350
35
  3
EdgeColorOff
350
3D
  3
Facepattern
350
39
  3
Flat
350
2B
  3
FlatWithEdges
350
2C
  3
Gouraud
350
2D
  3
GouraudWithEdges
350
2E
  3
Hidden
350
31
  3
JitterOff
350
3B
  3
Linepattern
350
38
  3
OverhangOff
350
3C
  3
Realistic
350
33
  3
Shaded
350
42
  3
Shaded with edges
350
41
  3
Shades of Gray
350
3E
  3
Sketchy
350
3F
  3
Thicken
350
37
  3
Wireframe
350
30
  3
X-Ray
350
40
  0
XRECORD
  5
156
102
{ACAD_REACTORS
330
C
102
}
330
C
100
AcDbXrecord
280
     1
 90
        1
330
5A
  0
DICTIONARY
  5
152
102
{ACAD_REACTORS
330
C
102
}
330
C
100
AcDbDictionary
281
     1
  3
CANNOSCALE
350
153
  3
CMLEADERSTYLE
350
158
  3
CTABLESTYLE
350
157
  0
LAYOUT
  5
1E
102
{ACAD_REACTORS
330
1A
102
}
330
1A
100
AcDbPlotSettings
  1

  2
none_device
  4

  6

 40
0.0
 41
0.0
 42
0.0
 43
0.0
 44
0.0
 45
0.0
 46
0.0
 47
0.0
 48
0.0
 49
0.0
140
0.0
141
0.0
142
1.0
143
1.0
 70
   688
 72
     0
 73
     0
 74
     5
  7

 75
    16
 76
     0
 77
     2
 78
   300
147
1.0
148
0.0
149
0.0
100
AcDbLayout
  1
Layout1
 70
     1
 71
     1
 10
0.0
 20
0.0
 11
12.0
 21
9.0
 12
0.0
 22
0.0
 32
0.0
 14
1.0000000000E+20
 24
1.0000000000E+20
 34
1.0000000000E+20
 15
-1.0000000000E+20
 25
-1.0000000000E+20
 35
-1.0000000000E+20
146
0.0
 13
0.0
 23
0.0
 33
0.0
 16
1.0
 26
0.0
 36
0.0
 17
0.0
 27
1.0
 37
0.0
 76
     0
330
1B
  0
LAYOUT
  5
26
102
{ACAD_REACTORS
330
1A
102
}
330
1A
100
AcDbPlotSettings
  1

  2
none_device
  4

  6

 40
0.0
 41
0.0
 42
0.0
 43
0.0
 44
0.0
 45
0.0
 46
0.0
 47
0.0
 48
0.0
 49
0.0
140
0.0
141
0.0
142
1.0
143
1.0
 70
   688
 72
     0
 73
     0
 74
     5
  7

 75
    16
 76
     0
 77
     2
 78
   300
147
1.0
148
0.0
149
0.0
100
AcDbLayout
  1
Layout2
 70
     1
 71
     2
 10
0.0
 20
0.0
 11
0.0
 21
0.0
 12
0.0
 22
0.0
 32
0.0
 14
0.0
 24
0.0
 34
0.0
 15
0.0
 25
0.0
 35
0.0
146
0.0
 13
0.0
 23
0.0
 33
0.0
 16
1.0
 26
0.0
 36
0.0
 17
0.0
 27
1.0
 37
0.0
 76
     0
330
23
  0
LAYOUT
  5
22
102
{ACAD_REACTORS
330
1A
102
}
330
1A
100
AcDbPlotSettings
  1

  2
none_device
  4
Letter_(8.50_x_11.00_Inches)
  6

 40
6.35
 41
6.35
 42
6.35000508
 43
6.35000508
 44
215.9
 45
279.4
 46
0.0
 47
0.0
 48
0.0
 49
0.0
140
0.0
141
0.0
142
1.0
143
1.0
 70
  1712
 72
     0
 73
     0
 74
     0
  7

 75
     0
 76
     0
 77
     2
 78
   300
147
1.0
148
0.0
149
0.0
100
AcDbLayout
  1
Model
 70
     1
 71
     0
 10
0.0
 20
0.0
 11
51.0
 21
33.0
 12
0.0
 22
0.0
 32
0.0
 14
0.0
 24
0.0
 34
0.0
 15
51.0
 25
33.0
 35
0.0
146
0.0
 13
0.0
 23
0.0
 33
0.0
 16
1.0
 26
0.0
 36
0.0
 17
0.0
 27
1.0
 37
0.0
 76
     0
330
1F
331
29
  0
MATERIAL
  5
45
102
{ACAD_REACTORS
330
43
102
}
330
43
100
AcDbMaterial
  1
ByBlock
 72
     1
 94
      127
  0
MATERIAL
  5
44
102
{ACAD_REACTORS
330
43
102
}
330
43
100
AcDbMaterial
  1
ByLayer
 72
     1
 94
      127
  0
MATERIAL
  5
46
102
{ACAD_REACTORS
330
43
102
}
330
43
100
AcDbMaterial
  1
Global
 72
     1
 94
      127
  0
MLEADERSTYLE
  5
5C
102
{ACAD_REACTORS
330
5B
102
}
330
5B
100
AcDbMLeaderStyle
179
     2
170
     2
171
     1
172
     0
 90
        2
 40
0.0
 41
0.0
173
     1
 91
-1056964608
340
14
 92
       -2
290
     1
 42
0.09
291
     1
 43
0.36
  3
Standard
341
0
 44
0.18
300

342
11
174
     1
178
     6
175
     1
176
     0
 93
-1056964608
 45
0.18
292
     0
297
     0
 46
0.18
343
0
 94
-1056964608
 47
1.0
 49
1.0
140
1.0
293
     1
141
0.0
294
     1
177
     0
142
1.0
295
     0
296
     0
143
0.125
271
     0
272
     9
273
     9
  0
MLINESTYLE
  5
18
102
{ACAD_REACTORS
330
17
102
}
330
17
100
AcDbMlineStyle
  2
Standard
 70
     0
  3

 62
   256
 51
90.0
 52
90.0
 71
     2
 49
0.5
 62
   256
  6
BYLAYER
 49
-0.5
 62
   256
  6
BYLAYER
  0
ACDBPLACEHOLDER
  5
F
102
{ACAD_REACTORS
330
E
102
}
330
E
  0
SCALE
  5
48
102
{ACAD_REACTORS
330
47
102
}
330
47
100
AcDbScale
 70
     0
300
1:1
140
1.0
141
1.0
290
     1
  0
SCALE
  5
49
102
{ACAD_REACTORS
330
47
102
}
330
47
100
AcDbScale
 70
     0
300
1/128" = 1'-0"
140
0.0078125
141
12.0
290
     0
  0
SCALE
  5
4A
102
{ACAD_REACTORS
330
47
102
}
330
47
100
AcDbScale
 70
     0
300
1/64" = 1'-0"
140
0.015625
141
12.0
290
     0
  0
SCALE
  5
4B
102
{ACAD_REACTORS
330
47
102
}
330
47
100
AcDbScale
 70
     0
300
1/32" = 1'-0"
140
0.03125
141
12.0
290
     0
  0
SCALE
  5
4C
102
{ACAD_REACTORS
330
47
102
}
330
47
100
AcDbScale
 70
     0
300
1/16" = 1'-0"
140
0.0625
141
12.0
290
     0
  0
SCALE
  5
4D
102
{ACAD_REACTORS
330
47
102
}
330
47
100
AcDbScale
 70
     0
300
3/32" = 1'-0"
140
0.09375
141
12.0
290
     0
  0
SCALE
  5
4E
102
{ACAD_REACTORS
330
47
102
}
330
47
100
AcDbScale
 70
     0
300
1/8" = 1'-0"
140
0.125
141
12.0
290
     0
  0
SCALE
  5
4F
102
{ACAD_REACTORS
330
47
102
}
330
47
100
AcDbScale
 70
     0
300
3/16" = 1'-0"
140
0.1875
141
12.0
290
     0
  0
SCALE
  5
50
102
{ACAD_REACTORS
330
47
102
}
330
47
100
AcDbScale
 70
     0
300
1/4" = 1'-0"
140
0.25
141
12.0
290
     0
  0
SCALE
  5
51
102
{ACAD_REACTORS
330
47
102
}
330
47
100
AcDbScale
 70
     0
300
3/8" = 1'-0"
140
0.375
141
12.0
290
     0
  0
SCALE
  5
52
102
{ACAD_REACTORS
330
47
102
}
330
47
100
AcDbScale
 70
     0
300
1/2" = 1'-0"
140
0.5
141
12.0
290
     0
  0
SCALE
  5
53
102
{ACAD_REACTORS
330
47
102
}
330
47
100
AcDbScale
 70
     0
300
3/4" = 1'-0"
140
0.75
141
12.0
290
     0
  0
SCALE
  5
54
102
{ACAD_REACTORS
330
47
102
}
330
47
100
AcDbScale
 70
     0
300
1" = 1'-0"
140
1.0
141
12.0
290
     0
  0
SCALE
  5
55
102
{ACAD_REACTORS
330
47
102
}
330
47
100
AcDbScale
 70
     0
300
1-1/2" = 1'-0"
140
1.5
141
12.0
290
     0
  0
SCALE
  5
56
102
{ACAD_REACTORS
330
47
102
}
330
47
100
AcDbScale
 70
     0
300
3" = 1'-0"
140
3.0
141
12.0
290
     0
  0
SCALE
  5
57
102
{ACAD_REACTORS
330
47
102
}
330
47
100
AcDbScale
 70
     0
300
6" = 1'-0"
140
6.0
141
12.0
290
     0
  0
SCALE
  5
58
102
{ACAD_REACTORS
330
47
102
}
330
47
100
AcDbScale
 70
     0
300
1'-0" = 1'-0"
140
12.0
141
12.0
290
     0
  0
TABLESTYLE
  5
5A
102
{ACAD_REACTORS
330
59
102
}
102
{ACAD_XDICTIONARY
360
154
102
}
330
59
100
AcDbTableStyle
  3
Standard
 70
     0
 71
     0
 40
0.06
 41
0.06
280
     0
281
     0
  7
Standard
140
0.18
170
     2
 62
     0
 63
   257
283
     0
 90
        4
 91
        0
  1

274
    -2
284
     1
 64
     0
275
    -2
285
     1
 65
     0
276
    -2
286
     1
 66
     0
277
    -2
287
     1
 67
     0
278
    -2
288
     1
 68
     0
279
    -2
289
     1
 69
     0
  7
Standard
140
0.25
170
     5
 62
     0
 63
   257
283
     0
 90
        4
 91
        0
  1

274
    -2
284
     1
 64
     0
275
    -2
285
     1
 65
     0
276
    -2
286
     1
 66
     0
277
    -2
287
     1
 67
     0
278
    -2
288
     1
 68
     0
279
    -2
289
     1
 69
     0
  7
Standard
140
0.18
170
     5
 62
     0
 63
   257
283
     0
 90
        4
 91
        0
  1

274
    -2
284
     1
 64
     0
275
    -2
285
     1
 65
     0
276
    -2
286
     1
 66
     0
277
    -2
287
     1
 67
     0
278
    -2
288
     1
 68
     0
279
    -2
289
     1
 69
     0
  0
VISUALSTYLE
  5
2F
102
{ACAD_REACTORS
330
2A
102
}
330
2A
100
AcDbVisualStyle
  2
2dWireframe
 70
     4
177
     2
291
     0
 71
     0
176
     1
 72
     2
176
     1
 73
     0
176
     1
 90
        0
176
     1
 40
0.6
176
     1
 41
30.0
176
     1
 62
     5
 63
     7
421
 16777215
176
     1
 74
     1
176
     1
 91
        4
176
     1
 64
     7
176
     1
 65
   257
176
     1
 75
     1
176
     1
175
     1
176
     1
 42
1.0
176
     1
 92
        0
176
     1
 66
   257
176
     1
 43
1.0
176
     1
 76
     1
176
     1
 77
     6
176
     1
 78
     2
176
     1
 67
     7
176
     1
 79
     5
176
     1
170
     0
176
     1
171
     0
176
     1
290
     0
176
     1
 93
        1
176
     1
 44
0.0
176
     1
173
     0
176
     1
  0
VISUALSTYLE
  5
32
102
{ACAD_REACTORS
330
2A
102
}
330
2A
100
AcDbVisualStyle
  2
Basic
 70
     7
177
     2
291
     1
 71
     1
176
     1
 72
     0
176
     1
 73
     1
176
     1
 90
        0
176
     1
 40
0.6
176
     1
 41
30.0
176
     1
 62
     5
 63
     7
421
 16777215
176
     1
 74
     0
176
     1
 91
        4
176
     1
 64
     7
176
     1
 65
   257
176
     1
 75
     1
176
     1
175
     1
176
     1
 42
1.0
176
     1
 92
        8
176
     1
 66
     7
176
     1
 43
1.0
176
     1
 76
     1
176
     1
 77
     6
176
     1
 78
     2
176
     1
 67
     7
176
     1
 79
     5
176
     1
170
     0
176
     1
171
     0
176
     1
290
     0
176
     1
 93
        1
176
     1
 44
0.0
176
     1
173
     0
176
     1
  0
VISUALSTYLE
  5
36
102
{ACAD_REACTORS
330
2A
102
}
330
2A
100
AcDbVisualStyle
  2
Brighten
 70
    12
177
     2
291
     1
 71
     2
176
     1
 72
     2
176
     1
 73
     0
176
     1
 90
        0
176
     1
 40
0.6
176
     1
 41
30.0
176
     1
 62
     5
 63
     7
421
 16777215
176
     1
 74
     1
176
     1
 91
        4
176
     1
 64
     7
176
     1
 65
   257
176
     1
 75
     1
176
     1
175
     1
176
     1
 42
1.0
176
     1
 92
        8
176
     1
 66
     7
176
     1
 43
1.0
176
     1
 76
     1
176
     1
 77
     6
176
     1
 78
     2
176
     1
 67
     7
176
     1
 79
     5
176
     1
170
     0
176
     1
171
     0
176
     1
290
     0
176
     1
 93
        1
176
     1
 44
50.0
176
     1
173
     0
176
     1
  0
VISUALSTYLE
  5
3A
102
{ACAD_REACTORS
330
2A
102
}
330
2A
100
AcDbVisualStyle
  2
ColorChange
 70
    16
177
     2
291
     1
 71
     2
176
     1
 72
     2
176
     1
 73
     3
176
     1
 90
        0
176
     1
 40
0.6
176
     1
 41
30.0
176
     1
 62
     5
 63
     8
421
  8421504
176
     1
 74
     1
176
     1
 91
        4
176
     1
 64
     7
176
     1
 65
   257
176
     1
 75
     1
176
     1
175
     1
176
     1
 42
1.0
176
     1
 92
        8
176
     1
 66
     8
424
  8421504
176
     1
 43
1.0
176
     1
 76
     1
176
     1
 77
     6
176
     1
 78
     2
176
     1
 67
     7
176
     1
 79
     5
176
     1
170
     0
176
     1
171
     0
176
     1
290
     0
176
     1
 93
        1
176
     1
 44
0.0
176
     1
173
     0
176
     1
  0
VISUALSTYLE
  5
34
102
{ACAD_REACTORS
330
2A
102
}
330
2A
100
AcDbVisualStyle
  2
Conceptual
 70
     9
177
     2
291
     0
 71
     3
176
     1
 72
     2
176
     1
 73
     0
176
     1
 90
        0
176
     1
 40
0.6
176
     1
 41
30.0
176
     1
 62
     5
 63
     7
421
 16777215
176
     1
 74
     2
176
     1
 91
        2
176
     1
 64
     7
176
     1
 65
   257
176
     1
 75
     1
176
     1
175
     1
176
     1
 42
179.0
176
     1
 92
        8
176
     1
 66
     7
176
     1
 43
1.0
176
     1
 76
     1
176
     1
 77
     6
176
     1
 78
     2
176
     1
 67
     7
176
     1
 79
     3
176
     1
170
     0
176
     1
171
     0
176
     1
290
     0
176
     1
 93
        1
176
     1
 44
0.0
176
     1
173
     0
176
     1
  0
VISUALSTYLE
  5
35
102
{ACAD_REACTORS
330
2A
102
}
330
2A
100
AcDbVisualStyle
  2
Dim
 70
    11
177
     2
291
     1
 71
     2
176
     1
 72
     2
176
     1
 73
     0
176
     1
 90
        0
176
     1
 40
0.6
176
     1
 41
30.0
176
     1
 62
     5
 63
     7
421
 16777215
176
     1
 74
     1
176
     1
 91
        4
176
     1
 64
     7
176
     1
 65
   257
176
     1
 75
     1
176
     1
175
     1
176
     1
 42
1.0
176
     1
 92
        8
176
     1
 66
     7
176
     1
 43
1.0
176
     1
 76
     1
176
     1
 77
     6
176
     1
 78
     2
176
     1
 67
     7
176
     1
 79
     5
176
     1
170
     0
176
     1
171
     0
176
     1
290
     0
176
     1
 93
        1
176
     1
 44
-50.0
176
     1
173
     0
176
     1
  0
VISUALSTYLE
  5
3D
102
{ACAD_REACTORS
330
2A
102
}
330
2A
100
AcDbVisualStyle
  2
EdgeColorOff
 70
    22
177
     2
291
     1
 71
     2
176
     0
 72
     2
176
     0
 73
     0
176
     0
 90
        0
176
     0
 40
0.6
176
     0
 41
30.0
176
     0
 62
     5
 63
     7
421
 16777215
176
     0
 74
     1
176
     0
 91
        4
176
     0
 64
     7
176
     0
 65
   257
176
     0
 75
     1
176
     0
175
     1
176
     0
 42
1.0
176
     0
 92
        8
176
     2
 66
     7
176
     0
 43
1.0
176
     0
 76
     1
176
     0
 77
     6
176
     0
 78
     2
176
     0
 67
     7
176
     0
 79
     5
176
     0
170
     0
176
     0
171
     0
176
     0
290
     0
176
     0
 93
        1
176
     0
 44
0.0
176
     0
173
     0
176
     0
  0
VISUALSTYLE
  5
39
102
{ACAD_REACTORS
330
2A
102
}
330
2A
100
AcDbVisualStyle
  2
Facepattern
 70
    15
177
     2
291
     1
 71
     2
176
     1
 72
     2
176
     1
 73
     0
176
     1
 90
        0
176
     1
 40
0.6
176
     1
 41
30.0
176
     1
 62
     5
 63
     7
421
 16777215
176
     1
 74
     1
176
     1
 91
        4
176
     1
 64
     7
176
     1
 65
   257
176
     1
 75
     1
176
     1
175
     1
176
     1
 42
1.0
176
     1
 92
        8
176
     1
 66
     7
176
     1
 43
1.0
176
     1
 76
     1
176
     1
 77
     6
176
     1
 78
     2
176
     1
 67
     7
176
     1
 79
     5
176
     1
170
     0
176
     1
171
     0
176
     1
290
     0
176
     1
 93
        1
176
     1
 44
0.0
176
     1
173
     0
176
     1
  0
VISUALSTYLE
  5
2B
102
{ACAD_REACTORS
330
2A
102
}
330
2A
100
AcDbVisualStyle
  2
Flat
 70
     0
177
     2
291
     1
 71
     2
176
     1
 72
     1
176
     1
 73
     1
176
     1
 90
        2
176
     1
 40
0.6
176
     1
 41
30.0
176
     1
 62
     5
 63
     7
421
 16777215
176
     1
 74
     0
176
     1
 91
        0
176
     1
 64
     7
176
     1
 65
   257
176
     1
 75
     1
176
     1
175
     1
176
     1
 42
1.0
176
     1
 92
        8
176
     1
 66
     7
176
     1
 43
1.0
176
     1
 76
     1
176
     1
 77
     6
176
     1
 78
     2
176
     1
 67
     7
176
     1
 79
     5
176
     1
170
     0
176
     1
171
     0
176
     1
290
     0
176
     1
 93
       13
176
     1
 44
0.0
176
     1
173
     0
176
     1
  0
VISUALSTYLE
  5
2C
102
{ACAD_REACTORS
330
2A
102
}
330
2A
100
AcDbVisualStyle
  2
FlatWithEdges
 70
     1
177
     2
291
     1
 71
     2
176
     1
 72
     1
176
     1
 73
     1
176
     1
 90
        2
176
     1
 40
0.6
176
     1
 41
30.0
176
     1
 62
     5
 63
     7
421
 16777215
176
     1
 74
     1
176
     1
 91
        0
176
     1
 64
     7
176
     1
 65
   257
176
     1
 75
     1
176
     1
175
     1
176
     1
 42
1.0
176
     1
 92
        0
176
     1
 66
   257
176
     1
 43
1.0
176
     1
 76
     1
176
     1
 77
     6
176
     1
 78
     2
176
     1
 67
     7
176
     1
 79
     5
176
     1
170
     0
176
     1
171
     0
176
     1
290
     0
176
     1
 93
       13
176
     1
 44
0.0
176
     1
173
     0
176
     1
  0
VISUALSTYLE
  5
2D
102
{ACAD_REACTORS
330
2A
102
}
330
2A
100
AcDbVisualStyle
  2
Gouraud
 70
     2
177
     2
291
     1
 71
     2
176
     1
 72
     2
176
     1
 73
     1
176
     1
 90
        2
176
     1
 40
0.6
176
     1
 41
30.0
176
     1
 62
     5
 63
     7
421
 16777215
176
     1
 74
     0
176
     1
 91
        0
176
     1
 64
     7
176
     1
 65
   257
176
     1
 75
     1
176
     1
175
     1
176
     1
 42
1.0
176
     1
 92
        0
176
     1
 66
     7
176
     1
 43
1.0
176
     1
 76
     1
176
     1
 77
     6
176
     1
 78
     2
176
     1
 67
     7
176
     1
 79
     5
176
     1
170
     0
176
     1
171
     0
176
     1
290
     0
176
     1
 93
       13
176
     1
 44
0.0
176
     1
173
     0
176
     1
  0
VISUALSTYLE
  5
2E
102
{ACAD_REACTORS
330
2A
102
}
330
2A
100
AcDbVisualStyle
  2
GouraudWithEdges
 70
     3
177
     2
291
     1
 71
     2
176
     1
 72
     2
176
     1
 73
     1
176
     1
 90
        2
176
     1
 40
0.6
176
     1
 41
30.0
176
     1
 62
     5
 63
     7
421
 16777215
176
     1
 74
     1
176
     1
 91
        0
176
     1
 64
     7
176
     1
 65
   257
176
     1
 75
     1
176
     1
175
     1
176
     1
 42
1.0
176
     1
 92
        0
176
     1
 66
   257
176
     1
 43
1.0
176
     1
 76
     1
176
     1
 77
     6
176
     1
 78
     2
176
     1
 67
     7
176
     1
 79
     5
176
     1
170
     0
176
     1
171
     0
176
     1
290
     0
176
     1
 93
       13
176
     1
 44
0.0
176
     1
173
     0
176
     1
  0
VISUALSTYLE
  5
31
102
{ACAD_REACTORS
330
2A
102
}
330
2A
100
AcDbVisualStyle
  2
Hidden
 70
     6
177
     2
291
     0
 71
     1
176
     1
 72
     2
176
     1
 73
     2
176
     1
 90
        0
176
     1
 40
0.6
176
     1
 41
30.0
176
     1
 62
     5
 63
     7
421
 16777215
176
     1
 74
     2
176
     1
 91
        2
176
     1
 64
     7
176
     1
 65
   257
176
     1
 75
     2
176
     1
175
     1
176
     1
 42
40.0
176
     1
 92
        0
176
     1
 66
   257
176
     1
 43
1.0
176
     1
 76
     1
176
     1
 77
     6
176
     1
 78
     2
176
     1
 67
     7
176
     1
 79
     3
176
     1
170
     0
176
     1
171
     0
176
     1
290
     0
176
     1
 93
        1
176
     1
 44
0.0
176
     1
173
     0
176
     1
  0
VISUALSTYLE
  5
3B
102
{ACAD_REACTORS
330
2A
102
}
330
2A
100
AcDbVisualStyle
  2
JitterOff
 70
    20
177
     2
291
     1
 71
     2
176
     0
 72
     2
176
     0
 73
     0
176
     0
 90
        0
176
     0
 40
0.6
176
     0
 41
30.0
176
     0
 62
     5
 63
     7
421
 16777215
176
     0
 74
     1
176
     0
 91
        4
176
     0
 64
     7
176
     0
 65
   257
176
     0
 75
     1
176
     0
175
     1
176
     0
 42
1.0
176
     0
 92
       10
176
     2
 66
     7
176
     0
 43
1.0
176
     0
 76
     1
176
     0
 77
     6
176
     0
 78
     2
176
     0
 67
     7
176
     0
 79
     5
176
     0
170
     0
176
     0
171
     0
176
     0
290
     0
176
     0
 93
        1
176
     0
 44
0.0
176
     0
173
     0
176
     0
  0
VISUALSTYLE
  5
38
102
{ACAD_REACTORS
330
2A
102
}
330
2A
100
AcDbVisualStyle
  2
Linepattern
 70
    14
177
     2
291
     1
 71
     2
176
     1
 72
     2
176
     1
 73
     0
176
     1
 90
        0
176
     1
 40
0.6
176
     1
 41
30.0
176
     1
 62
     5
 63
     7
421
 16777215
176
     1
 74
     1
176
     1
 91
        4
176
     1
 64
     7
176
     1
 65
   257
176
     1
 75
     7
176
     1
175
     7
176
     1
 42
1.0
176
     1
 92
        8
176
     1
 66
     7
176
     1
 43
1.0
176
     1
 76
     1
176
     1
 77
     6
176
     1
 78
     2
176
     1
 67
     7
176
     1
 79
     5
176
     1
170
     0
176
     1
171
     0
176
     1
290
     0
176
     1
 93
        1
176
     1
 44
0.0
176
     1
173
     0
176
     1
  0
VISUALSTYLE
  5
3C
102
{ACAD_REACTORS
330
2A
102
}
330
2A
100
AcDbVisualStyle
  2
OverhangOff
 70
    21
177
     2
291
     1
 71
     2
176
     0
 72
     2
176
     0
 73
     0
176
     0
 90
        0
176
     0
 40
0.6
176
     0
 41
30.0
176
     0
 62
     5
 63
     7
421
 16777215
176
     0
 74
     1
176
     0
 91
        4
176
     0
 64
     7
176
     0
 65
   257
176
     0
 75
     1
176
     0
175
     1
176
     0
 42
1.0
176
     0
 92
        9
176
     2
 66
     7
176
     0
 43
1.0
176
     0
 76
     1
176
     0
 77
     6
176
     0
 78
     2
176
     0
 67
     7
176
     0
 79
     5
176
     0
170
     0
176
     0
171
     0
176
     0
290
     0
176
     0
 93
        1
176
     0
 44
0.0
176
     0
173
     0
176
     0
  0
VISUALSTYLE
  5
33
102
{ACAD_REACTORS
330
2A
102
}
330
2A
100
AcDbVisualStyle
  2
Realistic
 70
     8
177
     2
291
     0
 71
     2
176
     1
 72
     3
176
     1
 73
     0
176
     1
 90
        2
176
     1
 40
0.6
176
     1
 41
30.0
176
     1
 62
     5
 63
     7
421
 16777215
176
     1
 74
     0
176
     1
 91
        0
176
     1
 64
     7
176
     1
 65
   257
176
     1
 75
     1
176
     1
175
     1
176
     1
 42
1.0
176
     1
 92
        8
176
     1
 66
   257
176
     1
 43
1.0
176
     1
 76
     1
176
     1
 77
     6
176
     1
 78
     2
176
     1
 67
     7
176
     1
 79
     3
176
     1
170
     0
176
     1
171
     0
176
     1
290
     0
176
     1
 93
       13
176
     1
 44
0.0
176
     1
173
     0
176
     1
  0
VISUALSTYLE
  5
42
102
{ACAD_REACTORS
330
2A
102
}
330
2A
100
AcDbVisualStyle
  2
Shaded
 70
    27
177
     2
291
     0
 71
     2
176
     1
 72
     2
176
     1
 73
     1
176
     1
 90
        2
176
     1
 40
0.6
176
     1
 41
30.0
176
     1
 62
     5
 63
     7
421
 16777215
176
     1
 74
     0
176
     1
 91
        4
176
     1
 64
     7
176
     1
 65
   257
176
     1
 75
     1
176
     1
175
     1
176
     1
 42
1.0
176
     1
 92
        8
176
     1
 66
   257
176
     1
 43
1.0
176
     1
 76
     1
176
     1
 77
     6
176
     1
 78
     2
176
     1
 67
     8
425
  7895160
176
     1
 79
     3
176
     1
170
     0
176
     1
171
     0
176
     1
290
     0
176
     1
 93
        5
176
     1
 44
0.0
176
     1
173
     0
176
     1
  0
VISUALSTYLE
  5
41
102
{ACAD_REACTORS
330
2A
102
}
330
2A
100
AcDbVisualStyle
  2
Shaded with edges
 70
    26
177
     2
291
     0
 71
     2
176
     1
 72
     2
176
     1
 73
     1
176
     1
 90
        2
176
     1
 40
0.6
176
     1
 41
30.0
176
     1
 62
     5
 63
     7
421
 16777215
176
     1
 74
     1
176
     1
 91
       10
176
     1
 64
     7
176
     1
 65
   257
176
     1
 75
     2
176
     1
175
     1
176
     1
 42
1.0
176
     1
 92
        8
176
     1
 66
   257
176
     1
 43
1.0
176
     1
 76
     1
176
     1
 77
     6
176
     1
 78
     2
176
     1
 67
     7
176
     1
 79
     3
176
     1
170
     0
176
     1
171
     0
176
     1
290
     0
176
     1
 93
        5
176
     1
 44
0.0
176
     1
173
     0
176
     1
  0
VISUALSTYLE
  5
3E
102
{ACAD_REACTORS
330
2A
102
}
330
2A
100
AcDbVisualStyle
  2
Shades of Gray
 70
    23
177
     2
291
     0
 71
     2
176
     1
 72
     2
176
     1
 73
     3
176
     1
 90
        0
176
     1
 40
0.6
176
     1
 41
30.0
176
     1
 62
     5
 63
     7
421
 16777215
176
     1
 74
     2
176
     1
 91
        2
176
     1
 64
     7
176
     1
 65
     7
176
     1
 75
     1
176
     1
175
     1
176
     1
 42
40.0
176
     1
 92
        8
176
     1
 66
     7
176
     1
 43
1.0
176
     1
 76
     1
176
     1
 77
     6
176
     1
 78
     2
176
     1
 67
     7
176
     1
 79
     3
176
     1
170
     0
176
     1
171
     0
176
     1
290
     0
176
     1
 93
        1
176
     1
 44
0.0
176
     1
173
     0
176
     1
  0
VISUALSTYLE
  5
3F
102
{ACAD_REACTORS
330
2A
102
}
330
2A
100
AcDbVisualStyle
  2
Sketchy
 70
    24
177
     2
291
     0
 71
     1
176
     1
 72
     2
176
     1
 73
     2
176
     1
 90
        0
176
     1
 40
0.6
176
     1
 41
30.0
176
     1
 62
     5
 63
     7
421
 16777215
176
     1
 74
     2
176
     1
 91
        2
176
     1
 64
     7
176
     1
 65
     7
176
     1
 75
     1
176
     1
175
     1
176
     1
 42
40.0
176
     1
 92
       11
176
     1
 66
     7
176
     1
 43
1.0
176
     1
 76
     1
176
     1
 77
     6
176
     1
 78
     2
176
     1
 67
     7
176
     1
 79
     6
176
     1
170
     0
176
     1
171
     0
176
     1
290
     0
176
     1
 93
        1
176
     1
 44
0.0
176
     1
173
     0
176
     1
  0
VISUALSTYLE
  5
37
102
{ACAD_REACTORS
330
2A
102
}
330
2A
100
AcDbVisualStyle
  2
Thicken
 70
    13
177
     2
291
     1
 71
     2
176
     1
 72
     2
176
     1
 73
     0
176
     1
 90
        0
176
     1
 40
0.6
176
     1
 41
30.0
176
     1
 62
     5
 63
     7
421
 16777215
176
     1
 74
     1
176
     1
 91
        4
176
     1
 64
     7
176
     1
 65
   257
176
     1
 75
     1
176
     1
175
     1
176
     1
 42
1.0
176
     1
 92
       12
176
     1
 66
     7
176
     1
 43
1.0
176
     1
 76
     1
176
     1
 77
     6
176
     1
 78
     2
176
     1
 67
     7
176
     1
 79
     5
176
     1
170
     0
176
     1
171
     0
176
     1
290
     0
176
     1
 93
        1
176
     1
 44
0.0
176
     1
173
     0
176
     1
  0
VISUALSTYLE
  5
30
102
{ACAD_REACTORS
330
2A
102
}
330
2A
100
AcDbVisualStyle
  2
Wireframe
 70
     5
177
     2
291
     0
 71
     0
176
     1
 72
     2
176
     1
 73
     0
176
     1
 90
        0
176
     1
 40
0.6
176
     1
 41
30.0
176
     1
 62
     5
 63
     7
421
 16777215
176
     1
 74
     1
176
     1
 91
        4
176
     1
 64
     7
176
     1
 65
   257
176
     1
 75
     1
176
     1
175
     1
176
     1
 42
1.0
176
     1
 92
        0
176
     1
 66
   257
176
     1
 43
1.0
176
     1
 76
     1
176
     1
 77
     6
176
     1
 78
     2
176
     1
 67
     7
176
     1
 79
     3
176
     1
170
     0
176
     1
171
     0
176
     1
290
     0
176
     1
 93
        1
176
     1
 44
0.0
176
     1
173
     0
176
     1
  0
VISUALSTYLE
  5
40
102
{ACAD_REACTORS
330
2A
102
}
330
2A
100
AcDbVisualStyle
  2
X-Ray
 70
    25
177
     2
291
     0
 71
     2
176
     1
 72
     2
176
     1
 73
     1
176
     1
 90
        1
176
     1
 40
0.5
176
     1
 41
30.0
176
     1
 62
     5
 63
     7
421
 16777215
176
     1
 74
     1
176
     1
 91
        0
176
     1
 64
     7
176
     1
 65
   257
176
     1
 75
     1
176
     1
175
     1
176
     1
 42
1.0
176
     1
 92
        8
176
     1
 66
     7
176
     1
 43
1.0
176
     1
 76
     1
176
     1
 77
     6
176
     1
 78
     2
176
     1
 67
     7
176
     1
 79
     3
176
     1
170
     0
176
     1
171
     0
176
     1
290
     0
176
     1
 93
       13
176
     1
 44
0.0
176
     1
173
     0
176
     1
  0
DICTIONARYVAR
  5
153
102
{ACAD_REACTORS
330
152
102
}
330
152
100
DictionaryVariables
280
     0
  1
1:1
  0
DICTIONARYVAR
  5
158
102
{ACAD_REACTORS
330
152
102
}
330
152
100
DictionaryVariables
280
     0
  1
Standard
  0
DICTIONARYVAR
  5
157
102
{ACAD_REACTORS
330
152
102
}
330
152
100
DictionaryVariables
280
     0
  1
Standard
  0
DICTIONARY
  5
154
330
5A
100
AcDbDictionary
280
     1
281
     1
  3
ACAD_ROUNDTRIP_2008_TABLESTYLE_CELLSTYLEMAP
360
155
  0
CELLSTYLEMAP
  5
155
102
{ACAD_REACTORS
330
154
102
}
330
154
100
AcDbCellStyleMap
 90
        3
300
CELLSTYLE
  1
TABLEFORMAT_BEGIN
 90
        5
170
     1
 91
        0
 92
    32768
 62
   257
 93
        1
300
CONTENTFORMAT
  1
CONTENTFORMAT_BEGIN
 90
        0
 91
        0
 92
        4
 93
        0
300

 40
0.0
140
1.0
 94
        5
 62
     0
340
11
144
0.25
309
CONTENTFORMAT_END
171
     1
301
MARGIN
  1
CELLMARGIN_BEGIN
 40
0.06
 40
0.06
 40
0.06
 40
0.06
 40
0.06
 40
0.06
309
CELLMARGIN_END
 94
        6
 95
        1
302
GRIDFORMAT
  1
GRIDFORMAT_BEGIN
 90
        0
 91
        1
 62
     0
 92
       -2
340
14
 93
        0
 40
0.045
309
GRIDFORMAT_END
 95
        2
302
GRIDFORMAT
  1
GRIDFORMAT_BEGIN
 90
        0
 91
        1
 62
     0
 92
       -2
340
14
 93
        0
 40
0.045
309
GRIDFORMAT_END
 95
        4
302
GRIDFORMAT
  1
GRIDFORMAT_BEGIN
 90
        0
 91
        1
 62
     0
 92
       -2
340
14
 93
        0
 40
0.045
309
GRIDFORMAT_END
 95
        8
302
GRIDFORMAT
  1
GRIDFORMAT_BEGIN
 90
        0
 91
        1
 62
     0
 92
       -2
340
14
 93
        0
 40
0.045
309
GRIDFORMAT_END
 95
       16
302
GRIDFORMAT
  1
GRIDFORMAT_BEGIN
 90
        0
 91
        1
 62
     0
 92
       -2
340
14
 93
        0
 40
0.045
309
GRIDFORMAT_END
 95
       32
302
GRIDFORMAT
  1
GRIDFORMAT_BEGIN
 90
        0
 91
        1
 62
     0
 92
       -2
340
14
 93
        0
 40
0.045
309
GRIDFORMAT_END
309
TABLEFORMAT_END
  1
CELLSTYLE_BEGIN
 90
        1
 91
        1
300
_TITLE
309
CELLSTYLE_END
300
CELLSTYLE
  1
TABLEFORMAT_BEGIN
 90
        5
170
     1
 91
        0
 92
        0
 62
   257
 93
        1
300
CONTENTFORMAT
  1
CONTENTFORMAT_BEGIN
 90
        0
 91
        0
 92
        4
 93
        0
300

 40
0.0
140
1.0
 94
        5
 62
     0
340
11
144
0.18
309
CONTENTFORMAT_END
171
     1
301
MARGIN
  1
CELLMARGIN_BEGIN
 40
0.06
 40
0.06
 40
0.06
 40
0.06
 40
0.06
 40
0.06
309
CELLMARGIN_END
 94
        6
 95
        1
302
GRIDFORMAT
  1
GRIDFORMAT_BEGIN
 90
        0
 91
        1
 62
     0
 92
       -2
340
14
 93
        0
 40
0.045
309
GRIDFORMAT_END
 95
        2
302
GRIDFORMAT
  1
GRIDFORMAT_BEGIN
 90
        0
 91
        1
 62
     0
 92
       -2
340
14
 93
        0
 40
0.045
309
GRIDFORMAT_END
 95
        4
302
GRIDFORMAT
  1
GRIDFORMAT_BEGIN
 90
        0
 91
        1
 62
     0
 92
       -2
340
14
 93
        0
 40
0.045
309
GRIDFORMAT_END
 95
        8
302
GRIDFORMAT
  1
GRIDFORMAT_BEGIN
 90
        0
 91
        1
 62
     0
 92
       -2
340
14
 93
        0
 40
0.045
309
GRIDFORMAT_END
 95
       16
302
GRIDFORMAT
  1
GRIDFORMAT_BEGIN
 90
        0
 91
        1
 62
     0
 92
       -2
340
14
 93
        0
 40
0.045
309
GRIDFORMAT_END
 95
       32
302
GRIDFORMAT
  1
GRIDFORMAT_BEGIN
 90
        0
 91
        1
 62
     0
 92
       -2
340
14
 93
        0
 40
0.045
309
GRIDFORMAT_END
309
TABLEFORMAT_END
  1
CELLSTYLE_BEGIN
 90
        2
 91
        1
300
_HEADER
309
CELLSTYLE_END
300
CELLSTYLE
  1
TABLEFORMAT_BEGIN
 90
        5
170
     1
 91
        0
 92
        0
 62
   257
 93
        1
300
CONTENTFORMAT
  1
CONTENTFORMAT_BEGIN
 90
        0
 91
        0
 92
        4
 93
        0
300

 40
0.0
140
1.0
 94
        2
 62
     0
340
11
144
0.18
309
CONTENTFORMAT_END
171
     1
301
MARGIN
  1
CELLMARGIN_BEGIN
 40
0.06
 40
0.06
 40
0.06
 40
0.06
 40
0.06
 40
0.06
309
CELLMARGIN_END
 94
        6
 95
        1
302
GRIDFORMAT
  1
GRIDFORMAT_BEGIN
 90
        0
 91
        1
 62
     0
 92
       -2
340
14
 93
        0
 40
0.045
309
GRIDFORMAT_END
 95
        2
302
GRIDFORMAT
  1
GRIDFORMAT_BEGIN
 90
        0
 91
        1
 62
     0
 92
       -2
340
14
 93
        0
 40
0.045
309
GRIDFORMAT_END
 95
        4
302
GRIDFORMAT
  1
GRIDFORMAT_BEGIN
 90
        0
 91
        1
 62
     0
 92
       -2
340
14
 93
        0
 40
0.045
309
GRIDFORMAT_END
 95
        8
302
GRIDFORMAT
  1
GRIDFORMAT_BEGIN
 90
        0
 91
        1
 62
     0
 92
       -2
340
14
 93
        0
 40
0.045
309
GRIDFORMAT_END
 95
       16
302
GRIDFORMAT
  1
GRIDFORMAT_BEGIN
 90
        0
 91
        1
 62
     0
 92
       -2
340
14
 93
        0
 40
0.045
309
GRIDFORMAT_END
 95
       32
302
GRIDFORMAT
  1
GRIDFORMAT_BEGIN
 90
        0
 91
        1
 62
     0
 92
       -2
340
14
 93
        0
 40
0.045
309
GRIDFORMAT_END
309
TABLEFORMAT_END
  1
CELLSTYLE_BEGIN
 90
        3
 91
        2
300
_DATA
309
CELLSTYLE_END
  0
ENDSEC
  0
EOF
