  0
SECTION
  2
HEADER
  9
$ACADVER
  1
AC1018
  9
$ACADMAINTVER
 70
   104
  9
$DWGCODEPAGE
  3
ANSI_1252
  9
$LASTSAVEDBY
  1
alexb
  9
$INSBASE
 10
0.0
 20
0.0
 30
0.0
  9
$EXTMIN
 10
-0.0060127360054025
 20
-0.0042733639701851
 30
-0.0000000349181948
  9
$EXTMAX
 10
185.0456474146685
 20
131.0439993369253
 30
0.0000000814935746
  9
$LIMMIN
 10
0.0
 20
0.0
  9
$LIMMAX
 10
12.0
 20
9.0
  9
$ORTHOMODE
 70
     1
  9
$REGENMODE
 70
     1
  9
$FILLMODE
 70
     1
  9
$QTEXTMODE
 70
     0
  9
$MIRRTEXT
 70
     0
  9
$LTSCALE
 40
1.0
  9
$ATTMODE
 70
     1
  9
$TEXTSIZE
 40
1.0
  9
$TRACEWID
 40
0.05
  9
$TEXTSTYLE
  7
ARCH
  9
$CLAYER
  8
A-AENCL-DETAIL
  9
$CELTYPE
  6
ByLayer
  9
$CECOLOR
 62
   256
  9
$CELTSCALE
 40
1.0
  9
$DISPSILH
 70
     0
  9
$DIMSCALE
 40
8.0
  9
$DIMASZ
 40
0.18
  9
$DIMEXO
 40
0.1
  9
$DIMDLI
 40
0.38
  9
$DIMRND
 40
0.0
  9
$DIMDLE
 40
0.0
  9
$DIMEXE
 40
0.1
  9
$DIMTP
 40
0.0
  9
$DIMTM
 40
0.0
  9
$DIMTXT
 40
0.125
  9
$DIMCEN
 40
0.09
  9
$DIMTSZ
 40
0.0
  9
$DIMTOL
 70
     0
  9
$DIMLIM
 70
     0
  9
$DIMTIH
 70
     1
  9
$DIMTOH
 70
     1
  9
$DIMSE1
 70
     0
  9
$DIMSE2
 70
     0
  9
$DIMTAD
 70
     0
  9
$DIMZIN
 70
     4
  9
$DIMBLK
  1

  9
$DIMASO
 70
     1
  9
$DIMSHO
 70
     1
  9
$DIMPOST
  1

  9
$DIMAPOST
  1

  9
$DIMALT
 70
     1
  9
$DIMALTD
 70
     1
  9
$DIMALTF
 40
25.4
  9
$DIMLFAC
 40
1.0
  9
$DIMTOFL
 70
     0
  9
$DIMTVP
 40
0.0
  9
$DIMTIX
 70
     0
  9
$DIMSOXD
 70
     0
  9
$DIMSAH
 70
     0
  9
$DIMBLK1
  1

  9
$DIMBLK2
  1

  9
$DIMSTYLE
  2
00
  9
$DIMCLRD
 70
     1
  9
$DIMCLRE
 70
     1
  9
$DIMCLRT
 70
     4
  9
$DIMTFAC
 40
1.0
  9
$DIMGAP
 40
0.09
  9
$DIMJUST
 70
     0
  9
$DIMSD1
 70
     0
  9
$DIMSD2
 70
     0
  9
$DIMTOLJ
 70
     1
  9
$DIMTZIN
 70
     4
  9
$DIMALTZ
 70
     4
  9
$DIMALTTZ
 70
     4
  9
$DIMUPT
 70
     1
  9
$DIMDEC
 70
     2
  9
$DIMTDEC
 70
     2
  9
$DIMALTU
 70
     2
  9
$DIMALTTD
 70
     1
  9
$DIMTXSTY
  7
ARCH
  9
$DIMAUNIT
 70
     0
  9
$DIMADEC
 70
     0
  9
$DIMALTRND
 40
0.0
  9
$DIMAZIN
 70
     0
  9
$DIMDSEP
 70
    46
  9
$DIMATFIT
 70
     3
  9
$DIMFRAC
 70
     0
  9
$DIMLDRBLK
  1

  9
$DIMLUNIT
 70
     2
  9
$DIMLWD
 70
    -2
  9
$DIMLWE
 70
    -2
  9
$DIMTMOVE
 70
     2
  9
$LUNITS
 70
     2
  9
$LUPREC
 70
     4
  9
$SKETCHINC
 40
0.1
  9
$FILLETRAD
 40
0.0
  9
$AUNITS
 70
     0
  9
$AUPREC
 70
     0
  9
$MENU
  1
.
  9
$ELEVATION
 40
0.0
  9
$PELEVATION
 40
0.0
  9
$THICKNESS
 40
0.0
  9
$LIMCHECK
 70
     0
  9
$CHAMFERA
 40
0.0
  9
$CHAMFERB
 40
0.0
  9
$CHAMFERC
 40
0.0
  9
$CHAMFERD
 40
0.0
  9
$SKPOLY
 70
     0
  9
$TDCREATE
 40
2454923.615469398
  9
$TDUCREATE
 40
2454923.907136065
  9
$TDUPDATE
 40
2454923.637447176
  9
$TDUUPDATE
 40
2454923.929113843
  9
$TDINDWG
 40
0.0219795833
  9
$TDUSRTIMER
 40
0.0219793981
  9
$USRTIMER
 70
     1
  9
$ANGBASE
 50
0.0
  9
$ANGDIR
 70
     0
  9
$PDMODE
 70
     0
  9
$PDSIZE
 40
0.0
  9
$PLINEWID
 40
0.0
  9
$SPLFRAME
 70
     0
  9
$SPLINETYPE
 70
     6
  9
$SPLINESEGS
 70
     8
  9
$HANDSEED
  5
4452
  9
$SURFTAB1
 70
     6
  9
$SURFTAB2
 70
     6
  9
$SURFTYPE
 70
     6
  9
$SURFU
 70
     6
  9
$SURFV
 70
     6
  9
$UCSBASE
  2

  9
$UCSNAME
  2

  9
$UCSORG
 10
0.0
 20
0.0
 30
0.0
  9
$UCSXDIR
 10
1.0
 20
0.0
 30
0.0
  9
$UCSYDIR
 10
0.0
 20
1.0
 30
0.0
  9
$UCSORTHOREF
  2

  9
$UCSORTHOVIEW
 70
     0
  9
$UCSORGTOP
 10
0.0
 20
0.0
 30
0.0
  9
$UCSORGBOTTOM
 10
0.0
 20
0.0
 30
0.0
  9
$UCSORGLEFT
 10
0.0
 20
0.0
 30
0.0
  9
$UCSORGRIGHT
 10
0.0
 20
0.0
 30
0.0
  9
$UCSORGFRONT
 10
0.0
 20
0.0
 30
0.0
  9
$UCSORGBACK
 10
0.0
 20
0.0
 30
0.0
  9
$PUCSBASE
  2

  9
$PUCSNAME
  2

  9
$PUCSORG
 10
0.0
 20
0.0
 30
0.0
  9
$PUCSXDIR
 10
1.0
 20
0.0
 30
0.0
  9
$PUCSYDIR
 10
0.0
 20
1.0
 30
0.0
  9
$PUCSORTHOREF
  2

  9
$PUCSORTHOVIEW
 70
     0
  9
$PUCSORGTOP
 10
0.0
 20
0.0
 30
0.0
  9
$PUCSORGBOTTOM
 10
0.0
 20
0.0
 30
0.0
  9
$PUCSORGLEFT
 10
0.0
 20
0.0
 30
0.0
  9
$PUCSORGRIGHT
 10
0.0
 20
0.0
 30
0.0
  9
$PUCSORGFRONT
 10
0.0
 20
0.0
 30
0.0
  9
$PUCSORGBACK
 10
0.0
 20
0.0
 30
0.0
  9
$USERI1
 70
     0
  9
$USERI2
 70
     0
  9
$USERI3
 70
     0
  9
$USERI4
 70
     0
  9
$USERI5
 70
     0
  9
$USERR1
 40
0.0
  9
$USERR2
 40
0.0
  9
$USERR3
 40
0.0
  9
$USERR4
 40
0.0
  9
$USERR5
 40
0.0
  9
$WORLDVIEW
 70
     1
  9
$SHADEDGE
 70
     3
  9
$SHADEDIF
 70
    70
  9
$TILEMODE
 70
     1
  9
$MAXACTVP
 70
    64
  9
$PINSBASE
 10
0.0
 20
0.0
 30
0.0
  9
$PLIMCHECK
 70
     0
  9
$PEXTMIN
 10
1.000000000000000E+20
 20
1.000000000000000E+20
 30
1.000000000000000E+20
  9
$PEXTMAX
 10
-1.000000000000000E+20
 20
-1.000000000000000E+20
 30
-1.000000000000000E+20
  9
$PLIMMIN
 10
-0.2500002402958907
 20
-0.2499999962453767
  9
$PLIMMAX
 10
10.74999951940822
 20
8.249999763458733
  9
$UNITMODE
 70
     0
  9
$VISRETAIN
 70
     1
  9
$PLINEGEN
 70
     0
  9
$PSLTSCALE
 70
     1
  9
$TREEDEPTH
 70
  3020
  9
$CMLSTYLE
  2
Standard
  9
$CMLJUST
 70
     0
  9
$CMLSCALE
 40
1.0
  9
$PROXYGRAPHICS
 70
     1
  9
$MEASUREMENT
 70
     0
  9
$CELWEIGHT
370
    -1
  9
$ENDCAPS
280
     0
  9
$JOINSTYLE
280
     0
  9
$LWDISPLAY
290
     0
  9
$INSUNITS
 70
     1
  9
$HYPERLINKBASE
  1

  9
$STYLESHEET
  1
CAD Dwg's.ctb
  9
$XEDIT
290
     1
  9
$CEPSNTYPE
380
     0
  9
$PSTYLEMODE
290
     1
  9
$FINGERPRINTGUID
  2
{31D0920C-9E4F-4AC9-8B7E-C7F721D67E1E}
  9
$VERSIONGUID
  2
{12231848-323B-408D-9199-5452BDA60F93}
  9
$EXTNAMES
290
     1
  9
$PSVPSCALE
 40
0.0
  9
$OLESTARTUP
290
     0
  9
$SORTENTS
280
   127
  9
$INDEXCTL
280
     0
  9
$HIDETEXT
280
     0
  9
$XCLIPFRAME
290
     0
  9
$HALOGAP
280
     0
  9
$OBSCOLOR
 70
   257
  9
$OBSLTYPE
280
     0
  9
$INTERSECTIONDISPLAY
280
     0
  9
$INTERSECTIONCOLOR
 70
   257
  9
$DIMASSOC
280
     1
  9
$PROJECTNAME
  1

  0
ENDSEC
  0
SECTION
  2
CLASSES
  0
CLASS
  1
ACDBDICTIONARYWDFLT
  2
AcDbDictionaryWithDefault
  3
ObjectDBX Classes
 90
        0
 91
        1
280
     0
281
     0
  0
CLASS
  1
PLOTSETTINGS
  2
AcDbPlotSettings
  3
ObjectDBX Classes
 90
        0
 91
        5
280
     0
281
     0
  0
CLASS
  1
ACAD_EVALUATION_GRAPH
  2
AcDbEvalGraph
  3
ObjectDBX Classes
 90
     1153
 91
        0
280
     0
281
     0
  0
CLASS
  1
BLOCKVISIBILITYPARAMETER
  2
AcDbBlockVisibilityParameter
  3
ObjectDBX Classes
 90
     1153
 91
        0
280
     0
281
     0
  0
CLASS
  1
BLOCKVISIBILITYGRIP
  2
AcDbBlockVisibilityGrip
  3
ObjectDBX Classes
 90
     1153
 91
        0
280
     0
281
     0
  0
CLASS
  1
BLOCKGRIPLOCATIONCOMPONENT
  2
AcDbBlockGripExpr
  3
ObjectDBX Classes
 90
     1153
 91
        0
280
     0
281
     0
  0
CLASS
  1
BLOCKLINEARPARAMETER
  2
AcDbBlockLinearParameter
  3
ObjectDBX Classes
 90
     1153
 91
        0
280
     0
281
     0
  0
CLASS
  1
BLOCKLINEARGRIP
  2
AcDbBlockLinearGrip
  3
ObjectDBX Classes
 90
     1153
 91
        0
280
     0
281
     0
  0
CLASS
  1
BLOCKSTRETCHACTION
  2
AcDbBlockStretchAction
  3
ObjectDBX Classes
 90
     1153
 91
        0
280
     0
281
     0
  0
CLASS
  1
BLOCKARRAYACTION
  2
AcDbBlockArrayAction
  3
ObjectDBX Classes
 90
     1153
 91
        0
280
     0
281
     0
  0
CLASS
  1
BLOCKBASEPOINTPARAMETER
  2
AcDbBlockBasepointParameter
  3
ObjectDBX Classes
 90
     1153
 91
        0
280
     0
281
     0
  0
CLASS
  1
SORTENTSTABLE
  2
AcDbSortentsTable
  3
ObjectDBX Classes
 90
        0
 91
        0
280
     0
281
     0
  0
CLASS
  1
ACDB_DYNAMICBLOCKPURGEPREVENTER_VERSION
  2
AcDbDynamicBlockPurgePreventer
  3
ObjectDBX Classes
 90
     1153
 91
        0
280
     0
281
     0
  0
CLASS
  1
MATERIAL
  2
AcDbMaterial
  3
ObjectDBX Classes
 90
     1153
 91
        3
280
     0
281
     0
  0
CLASS
  1
ACDB_BLOCKREPRESENTATION_DATA
  2
AcDbBlockRepresentationData
  3
ObjectDBX Classes
 90
     1153
 91
        0
280
     0
281
     0
  0
CLASS
  1
VISUALSTYLE
  2
AcDbVisualStyle
  3
ObjectDBX Classes
 90
     4095
 91
       16
280
     0
281
     0
  0
CLASS
  1
TABLESTYLE
  2
AcDbTableStyle
  3
ObjectDBX Classes
 90
     4095
 91
        1
280
     0
281
     0
  0
CLASS
  1
SCALE
  2
AcDbScale
  3
ObjectDBX Classes
 90
     1153
 91
       33
280
     0
281
     0
  0
CLASS
  1
MLEADERSTYLE
  2
AcDbMLeaderStyle
  3
ACDB_MLEADERSTYLE_CLASS
 90
     4095
 91
        1
280
     0
281
     0
  0
CLASS
  1
EXACXREFPANELOBJECT
  2
ExAcXREFPanelObject
  3
EXAC_ESW
 90
     1025
 91
        0
280
     0
281
     0
  0
CLASS
  1
NPOCOLLECTION
  2
AcDbImpNonPersistentObjectsCollection
  3
ObjectDBX Classes
 90
     1153
 91
        0
280
     0
281
     0
  0
CLASS
  1
EXACTERMXREFMAP
  2
ExAcTermXrefMap
  3
EXAC_SERVICE
 90
     1025
 91
        0
280
     0
281
     0
  0
CLASS
  1
CELLSTYLEMAP
  2
AcDbCellStyleMap
  3
ObjectDBX Classes
 90
     1152
 91
       14
280
     0
281
     0
  0
CLASS
  1
DICTIONARYVAR
  2
AcDbDictionaryVar
  3
ObjectDBX Classes
 90
        0
 91
       10
280
     0
281
     0
  0
ENDSEC
  0
SECTION
  2
TABLES
  0
TABLE
  2
VPORT
  5
19
102
{ACAD_XDICTIONARY
360
4CF
102
}
330
0
100
AcDbSymbolTable
 70
     1
  0
VPORT
  5
43A
330
19
100
AcDbSymbolTableRecord
100
AcDbViewportTableRecord
  2
*Active
 70
     0
 10
0.0
 20
0.0
 11
1.0
 21
1.0
 12
92.51981733933158
 22
65.51986298647756
 13
0.0
 23
0.0
 14
0.5
 24
0.5
 15
0.5
 25
0.5
 16
0.0
 26
0.0
 36
1.0
 17
0.0
 27
0.0
 37
0.0
 40
131.869034325327
 41
2.001044932079414
 42
50.0
 43
0.0
 44
0.0
 50
0.0
 51
0.0
 71
     0
 72
  1000
 73
     1
 74
     2
 75
     0
 76
     0
 77
     0
 78
     0
281
     0
 65
     1
110
0.0
120
0.0
130
0.0
111
1.0
121
0.0
131
0.0
112
0.0
122
1.0
132
0.0
 79
     0
146
0.0
  0
ENDTAB
  0
TABLE
  2
LTYPE
  5
14
330
0
100
AcDbSymbolTable
 70
     6
  0
LTYPE
  5
15
330
14
100
AcDbSymbolTableRecord
100
AcDbLinetypeTableRecord
  2
ByBlock
 70
     0
  3

 72
    65
 73
     0
 40
0.0
  0
LTYPE
  5
16
330
14
100
AcDbSymbolTableRecord
100
AcDbLinetypeTableRecord
  2
ByLayer
 70
     0
  3

 72
    65
 73
     0
 40
0.0
  0
LTYPE
  5
8
330
14
100
AcDbSymbolTableRecord
100
AcDbLinetypeTableRecord
  2
Continuous
 70
     0
  3
Solid line
 72
    65
 73
     0
 40
0.0
  0
ENDTAB
  0
TABLE
  2
LAYER
  5
10
102
{ACAD_XDICTIONARY
360
5AB
102
}
330
0
100
AcDbSymbolTable
 70
    15
  0
LAYER
  5
4
102
{ACAD_XDICTIONARY
360
483
102
}
330
10
100
AcDbSymbolTableRecord
100
AcDbLayerTableRecord
  2
0
 70
     0
 62
     7
  6
Continuous
370
    -3
390
5
  0
LAYER
  5
1F8
102
{ACAD_XDICTIONARY
360
48B
102
}
330
10
100
AcDbSymbolTableRecord
100
AcDbLayerTableRecord
  2
A-ANNO-DIM
 70
     0
 62
     1
  6
Continuous
370
    -3
390
5
  0
LAYER
  5
1FB
102
{ACAD_XDICTIONARY
360
48D
102
}
330
10
100
AcDbSymbolTableRecord
100
AcDbLayerTableRecord
  2
A-ANNO-NOTES
 70
     0
 62
     4
  6
Continuous
370
    -3
390
5
  0
LAYER
  5
216
102
{ACAD_XDICTIONARY
360
38EA
102
}
330
10
100
AcDbSymbolTableRecord
100
AcDbLayerTableRecord
  2
Defpoints
 70
     0
 62
     7
  6
Continuous
290
     0
370
    -3
390
5
  0
LAYER
  5
386E
102
{ACAD_XDICTIONARY
360
38F2
102
}
330
10
100
AcDbSymbolTableRecord
100
AcDbLayerTableRecord
  2
A-AENCL-DETAIL
 70
     0
 62
     2
  6
Continuous
370
    -3
390
5
1001
AcAecLayerStandard
1000

1000

  0
LAYER
  5
392C
102
{ACAD_XDICTIONARY
360
392D
102
}
330
10
100
AcDbSymbolTableRecord
100
AcDbLayerTableRecord
  2
TB
 70
     0
 62
   254
  6
Continuous
370
    70
390
5
  0
ENDTAB
  0
TABLE
  2
STYLE
  5
11
330
0
100
AcDbSymbolTable
 70
    11
  0
STYLE
  5
12
330
11
100
AcDbSymbolTableRecord
100
AcDbTextStyleTableRecord
  2
Standard
 70
     0
 40
0.0
 41
1.0
 50
0.0
 71
     0
 42
1.0
  3
ARIAL.TTF
  4

1001
ACAD
1000
Arial
1071
       34
  0
STYLE
  5
21B
330
11
100
AcDbSymbolTableRecord
100
AcDbTextStyleTableRecord
  2
ARCH
 70
     0
 40
0.0
 41
1.0
 50
0.0
 71
     0
 42
1.0
  3
archquik.shx
  4

  0
STYLE
  5
3C0C
330
11
100
AcDbSymbolTableRecord
100
AcDbTextStyleTableRecord
  2
SLDTEXTSTYLE0
 70
     0
 40
0.0
 41
0.913
 50
0.0
 71
     0
 42
0.2
  3
GOTHIC.TTF
  4

1001
ACAD
1000
Century Gothic
1071
      290
  0
ENDTAB
  0
TABLE
  2
VIEW
  5
17
330
0
100
AcDbSymbolTable
 70
     0
  0
ENDTAB
  0
TABLE
  2
UCS
  5
18
330
0
100
AcDbSymbolTable
 70
     0
  0
ENDTAB
  0
TABLE
  2
APPID
  5
1B
330
0
100
AcDbSymbolTable
 70
    15
  0
APPID
  5
1C
330
1B
100
AcDbSymbolTableRecord
100
AcDbRegAppTableRecord
  2
ACAD
 70
     0
  0
APPID
  5
21F
330
1B
100
AcDbSymbolTableRecord
100
AcDbRegAppTableRecord
  2
ACAD_EXEMPT_FROM_CAD_STANDARDS
 70
     0
  0
APPID
  5
220
330
1B
100
AcDbSymbolTableRecord
100
AcDbRegAppTableRecord
  2
AcDbBlockRepETag
 70
     0
  0
APPID
  5
221
330
1B
100
AcDbSymbolTableRecord
100
AcDbRegAppTableRecord
  2
DWAVARS
 70
     0
  0
APPID
  5
222
330
1B
100
AcDbSymbolTableRecord
100
AcDbRegAppTableRecord
  2
AcDbDynamicBlockTrueName
 70
     0
  0
APPID
  5
223
330
1B
100
AcDbSymbolTableRecord
100
AcDbRegAppTableRecord
  2
AcDbDynamicBlockGUID
 70
     0
  0
APPID
  5
224
330
1B
100
AcDbSymbolTableRecord
100
AcDbRegAppTableRecord
  2
AcDbBlockArrayActionTag
 70
     0
  0
APPID
  5
225
330
1B
100
AcDbSymbolTableRecord
100
AcDbRegAppTableRecord
  2
AcDbBlockRepBTag
 70
     0
  0
APPID
  5
473
330
1B
100
AcDbSymbolTableRecord
100
AcDbRegAppTableRecord
  2
ACAD_MLEADERVER
 70
     0
  0
APPID
  5
4B2
330
1B
100
AcDbSymbolTableRecord
100
AcDbRegAppTableRecord
  2
ACAD_PSEXT
 70
     0
  0
APPID
  5
5AA
330
1B
100
AcDbSymbolTableRecord
100
AcDbRegAppTableRecord
  2
AcAecLayerStandard
 70
     0
  0
APPID
  5
38A1
330
1B
100
AcDbSymbolTableRecord
100
AcDbRegAppTableRecord
  2
AcadAnnoPO
 70
     0
  0
APPID
  5
38FF
330
1B
100
AcDbSymbolTableRecord
100
AcDbRegAppTableRecord
  2
ACAD_DSTYLE_DIMJAG
 70
     0
  0
APPID
  5
3900
330
1B
100
AcDbSymbolTableRecord
100
AcDbRegAppTableRecord
  2
ACAD_DSTYLE_DIMTALN
 70
     0
  0
APPID
  5
3B59
330
1B
100
AcDbSymbolTableRecord
100
AcDbRegAppTableRecord
  2
ACAD_DSTYLE_DIMRADIAL_EXTENSION
 70
     0
  0
ENDTAB
  0
TABLE
  2
DIMSTYLE
  5
1D
330
0
100
AcDbSymbolTable
 70
    15
100
AcDbDimStyleTable
 71
     2
340
21D
340
24
  0
DIMSTYLE
105
24
330
1D
100
AcDbSymbolTableRecord
100
AcDbDimStyleTableRecord
  2
Standard
 70
     0
340
12
  0
DIMSTYLE
105
21D
102
{ACAD_REACTORS
330
435D
330
436B
330
4379
330
4387
330
4394
330
43A2
102
}
330
1D
100
AcDbSymbolTableRecord
100
AcDbDimStyleTableRecord
  2
00
 70
     0
 40
8.0
 42
0.1
 44
0.1
 78
     4
140
0.125
170
     1
171
     1
176
     1
177
     1
178
     4
271
     2
272
     2
274
     1
279
     2
284
     4
285
     4
286
     4
288
     1
340
21B
1001
ACAD_DSTYLE_DIMJAG
1070
   388
1040
1.5
1001
ACAD_DSTYLE_DIMTALN
1070
   392
1070
     0
  0
DIMSTYLE
105
3C0D
102
{ACAD_REACTORS
330
3C2C
330
3C2D
102
}
330
1D
100
AcDbSymbolTableRecord
100
AcDbDimStyleTableRecord
  2
SLDDIMSTYLE0
 70
     0
 41
0.5200000000000001
 44
0.0
 45
0.000000001
 78
     4
140
0.5
147
0.125
148
0.000000001
170
     1
173
     1
271
     3
272
     3
284
    12
340
3C0C
  0
DIMSTYLE
105
3C0E
102
{ACAD_REACTORS
330
3C2E
330
3C2F
102
}
330
1D
100
AcDbSymbolTableRecord
100
AcDbDimStyleTableRecord
  2
SLDDIMSTYLE1
 70
     0
 41
0.5200000000000001
 44
0.0
 45
0.000000001
 78
    12
140
0.5
147
0.125
148
0.000000001
170
     1
173
     1
271
     3
272
     3
284
    12
340
3C0C
  0
DIMSTYLE
105
3ED9
102
{ACAD_REACTORS
330
3F03
102
}
330
1D
100
AcDbSymbolTableRecord
100
AcDbDimStyleTableRecord
  2
SLDDIMSTYLE2
 70
     0
 41
1.04
 44
0.0
 45
0.000000001
 78
    12
140
1.0
147
0.25
148
0.000000001
170
     1
173
     1
271
     3
272
     3
284
    12
340
3C0C
  0
ENDTAB
  0
TABLE
  2
BLOCK_RECORD
  5
1
330
0
100
AcDbSymbolTable
 70
    57
  0
BLOCK_RECORD
  5
2
330
1
100
AcDbSymbolTableRecord
100
AcDbBlockTableRecord
  2
*Model_Space
340
A
  0
BLOCK_RECORD
  5
1F31
330
1
100
AcDbSymbolTableRecord
100
AcDbBlockTableRecord
  2
*Paper_Space
340
1F32
  0
BLOCK_RECORD
  5
392E
330
1
100
AcDbSymbolTableRecord
100
AcDbBlockTableRecord
  2
SONANCE C title
340
0
102
{BLKREFS
331
3950
102
}
1001
ACAD
1000
DesignCenter Data
1002
{
1070
     1
1070
     1
1002
}
  0
BLOCK_RECORD
  5
3A5D
330
1
100
AcDbSymbolTableRecord
100
AcDbBlockTableRecord
  2
*D5
340
0
  0
BLOCK_RECORD
  5
3A77
330
1
100
AcDbSymbolTableRecord
100
AcDbBlockTableRecord
  2
*D7
340
0
  0
BLOCK_RECORD
  5
3B5B
330
1
100
AcDbSymbolTableRecord
100
AcDbBlockTableRecord
  2
*D8
340
0
  0
BLOCK_RECORD
  5
3B69
330
1
100
AcDbSymbolTableRecord
100
AcDbBlockTableRecord
  2
*D9
340
0
  0
BLOCK_RECORD
  5
3B89
330
1
100
AcDbSymbolTableRecord
100
AcDbBlockTableRecord
  2
*D11
340
0
  0
BLOCK_RECORD
  5
3BD8
330
1
100
AcDbSymbolTableRecord
100
AcDbBlockTableRecord
  2
*D13
340
0
  0
BLOCK_RECORD
  5
3BE5
330
1
100
AcDbSymbolTableRecord
100
AcDbBlockTableRecord
  2
*D14
340
0
  0
BLOCK_RECORD
  5
3BF2
330
1
100
AcDbSymbolTableRecord
100
AcDbBlockTableRecord
  2
*D15
340
0
  0
BLOCK_RECORD
  5
3BFF
330
1
100
AcDbSymbolTableRecord
100
AcDbBlockTableRecord
  2
*D16
340
0
  0
BLOCK_RECORD
  5
3D1B
330
1
100
AcDbSymbolTableRecord
100
AcDbBlockTableRecord
  2
*D18
340
0
  0
BLOCK_RECORD
  5
3D28
330
1
100
AcDbSymbolTableRecord
100
AcDbBlockTableRecord
  2
*D19
340
0
  0
BLOCK_RECORD
  5
3D35
330
1
100
AcDbSymbolTableRecord
100
AcDbBlockTableRecord
  2
*D20
340
0
  0
BLOCK_RECORD
  5
3D42
330
1
100
AcDbSymbolTableRecord
100
AcDbBlockTableRecord
  2
*D21
340
0
  0
BLOCK_RECORD
  5
3DC8
330
1
100
AcDbSymbolTableRecord
100
AcDbBlockTableRecord
  2
*D22
340
0
  0
BLOCK_RECORD
  5
3DD6
330
1
100
AcDbSymbolTableRecord
100
AcDbBlockTableRecord
  2
*D23
340
0
  0
BLOCK_RECORD
  5
3DE4
330
1
100
AcDbSymbolTableRecord
100
AcDbBlockTableRecord
  2
*D24
340
0
  0
BLOCK_RECORD
  5
3E1A
330
1
100
AcDbSymbolTableRecord
100
AcDbBlockTableRecord
  2
*D25
340
0
  0
BLOCK_RECORD
  5
3E3B
330
1
100
AcDbSymbolTableRecord
100
AcDbBlockTableRecord
  2
*D26
340
0
  0
BLOCK_RECORD
  5
3EB2
330
1
100
AcDbSymbolTableRecord
100
AcDbBlockTableRecord
  2
*D28
340
0
  0
BLOCK_RECORD
  5
3EBF
330
1
100
AcDbSymbolTableRecord
100
AcDbBlockTableRecord
  2
*D29
340
0
  0
BLOCK_RECORD
  5
3ECC
330
1
100
AcDbSymbolTableRecord
100
AcDbBlockTableRecord
  2
*D30
340
0
  0
BLOCK_RECORD
  5
3FF8
330
1
100
AcDbSymbolTableRecord
100
AcDbBlockTableRecord
  2
*D32
340
0
  0
BLOCK_RECORD
  5
4005
330
1
100
AcDbSymbolTableRecord
100
AcDbBlockTableRecord
  2
*D33
340
0
  0
BLOCK_RECORD
  5
4012
330
1
100
AcDbSymbolTableRecord
100
AcDbBlockTableRecord
  2
*D34
340
0
  0
BLOCK_RECORD
  5
407A
330
1
100
AcDbSymbolTableRecord
100
AcDbBlockTableRecord
  2
*D35
340
0
  0
BLOCK_RECORD
  5
4092
330
1
100
AcDbSymbolTableRecord
100
AcDbBlockTableRecord
  2
*D36
340
0
  0
BLOCK_RECORD
  5
40A0
330
1
100
AcDbSymbolTableRecord
100
AcDbBlockTableRecord
  2
*D37
340
0
  0
BLOCK_RECORD
  5
40AE
330
1
100
AcDbSymbolTableRecord
100
AcDbBlockTableRecord
  2
*D38
340
0
  0
BLOCK_RECORD
  5
40C6
330
1
100
AcDbSymbolTableRecord
100
AcDbBlockTableRecord
  2
*D39
340
0
  0
BLOCK_RECORD
  5
40D3
330
1
100
AcDbSymbolTableRecord
100
AcDbBlockTableRecord
  2
*D40
340
0
  0
BLOCK_RECORD
  5
413F
330
1
100
AcDbSymbolTableRecord
100
AcDbBlockTableRecord
  2
*D42
340
0
  0
BLOCK_RECORD
  5
414C
330
1
100
AcDbSymbolTableRecord
100
AcDbBlockTableRecord
  2
*D43
340
0
  0
BLOCK_RECORD
  5
4159
330
1
100
AcDbSymbolTableRecord
100
AcDbBlockTableRecord
  2
*D44
340
0
  0
BLOCK_RECORD
  5
42BE
330
1
100
AcDbSymbolTableRecord
100
AcDbBlockTableRecord
  2
*D46
340
0
  0
BLOCK_RECORD
  5
42CB
330
1
100
AcDbSymbolTableRecord
100
AcDbBlockTableRecord
  2
*D47
340
0
  0
BLOCK_RECORD
  5
42D8
330
1
100
AcDbSymbolTableRecord
100
AcDbBlockTableRecord
  2
*D48
340
0
  0
BLOCK_RECORD
  5
435E
330
1
100
AcDbSymbolTableRecord
100
AcDbBlockTableRecord
  2
*D49
340
0
  0
BLOCK_RECORD
  5
436C
330
1
100
AcDbSymbolTableRecord
100
AcDbBlockTableRecord
  2
*D50
340
0
  0
BLOCK_RECORD
  5
437A
330
1
100
AcDbSymbolTableRecord
100
AcDbBlockTableRecord
  2
*D51
340
0
  0
BLOCK_RECORD
  5
4388
330
1
100
AcDbSymbolTableRecord
100
AcDbBlockTableRecord
  2
*D52
340
0
  0
BLOCK_RECORD
  5
4395
330
1
100
AcDbSymbolTableRecord
100
AcDbBlockTableRecord
  2
*D53
340
0
  0
BLOCK_RECORD
  5
43A3
330
1
100
AcDbSymbolTableRecord
100
AcDbBlockTableRecord
  2
*D54
340
0
  0
ENDTAB
  0
ENDSEC
  0
SECTION
  2
BLOCKS
  0
BLOCK
  5
3
330
2
100
AcDbEntity
  8
0
100
AcDbBlockBegin
  2
*Model_Space
 70
     2
 10
0.0
 20
0.0
 30
0.0
  3
*Model_Space
  1

  0
ENDBLK
  5
9
330
2
100
AcDbEntity
  8
0
100
AcDbBlockEnd
  0
BLOCK
  5
1F33
330
1F31
100
AcDbEntity
 67
     1
  8
0
100
AcDbBlockBegin
  2
*Paper_Space
 70
     0
 10
0.0
 20
0.0
 30
0.0
  3
*Paper_Space
  1

  0
ENDBLK
  5
1F34
330
1F31
100
AcDbEntity
 67
     1
  8
0
100
AcDbBlockEnd
  0
BLOCK
  5
394E
330
392E
100
AcDbEntity
  8
0
100
AcDbBlockBegin
  2
SONANCE C title
 70
     0
 10
0.0
 20
0.0
 30
0.0
  3
SONANCE C title
  1

  0
LINE
  5
392F
330
392E
100
AcDbEntity
  8
TB
100
AcDbLine
 10
22.05527055715532
 20
6.245000000000008
 30
0.0
 11
23.13
 21
6.245000000000007
 31
0.0
  0
TEXT
  5
3930
330
392E
100
AcDbEntity
  8
TB
 62
     3
100
AcDbText
 10
22.68521463589621
 20
15.70110031525818
 30
0.0
 40
0.07
  1
REV.
 50
90.0
 72
     1
 11
22.68521463589621
 21
15.81522036982844
 31
0.0
100
AcDbText
  0
TEXT
  5
3931
330
392E
100
AcDbEntity
  8
TB
 62
     3
100
AcDbText
 10
22.68521463589621
 20
13.91872739654802
 30
0.0
 40
0.07
  1
DRAWN - PART NUMBER
 50
90.0
 72
     1
 11
22.68521463589621
 21
14.50274513188226
 31
0.0
100
AcDbText
  0
LINE
  5
3932
330
392E
100
AcDbEntity
  8
TB
 62
     3
100
AcDbLine
 10
22.58
 20
15.45
 30
0.0
 11
23.13
 21
15.45
 31
0.0
  0
TEXT
  5
3933
330
392E
100
AcDbEntity
  8
TB
 62
     3
100
AcDbText
 10
22.75624177926581
 20
6.305659393059728
 30
0.0
 40
0.07
  1
SCALE:
 50
90.0
100
AcDbText
  0
LINE
  5
3934
330
392E
100
AcDbEntity
  8
TB
 62
     3
100
AcDbLine
 10
22.86
 20
6.245000000000007
 30
0.0
 11
22.86
 21
7.770000000000002
 31
0.0
  0
TEXT
  5
3935
330
392E
100
AcDbEntity
  8
TB
 62
     3
100
AcDbText
 10
23.02851249551596
 20
6.305659393059728
 30
0.0
 40
0.07
  1
SHEET:      OF
 50
90.0
100
AcDbText
  0
LINE
  5
3936
330
392E
100
AcDbEntity
  8
TB
 62
     3
100
AcDbLine
 10
22.58
 20
13.64999999999999
 30
0.0
 11
23.13
 21
13.64999999999999
 31
0.0
  0
LINE
  5
3937
330
392E
100
AcDbEntity
  8
TB
100
AcDbLine
 10
22.58
 20
6.245000000000007
 30
0.0
 11
22.58
 21
16.38
 31
0.0
  0
LINE
  5
3938
330
392E
100
AcDbEntity
  8
TB
100
AcDbLine
 10
23.13
 20
0.5000000000000058
 30
0.0
 11
23.13
 21
14.63
 31
0.0
  0
LWPOLYLINE
  5
3939
330
392E
100
AcDbEntity
  8
TB
100
AcDbPolyline
 90
        2
 70
     0
 43
0.0
 10
23.13
 20
0.5000000000000059
 10
23.13
 20
15.88
  0
LWPOLYLINE
  5
393A
330
392E
100
AcDbEntity
  8
TB
100
AcDbPolyline
 90
        2
 70
     0
 43
0.0
 10
22.63
 20
16.38
 10
22.05527055715532
 20
16.38
  0
LINE
  5
393B
330
392E
100
AcDbEntity
  8
TB
100
AcDbLine
 10
22.05527055715532
 20
16.38
 30
0.0
 11
22.05527055715532
 21
0.0000000000000059
 31
0.0
  0
LINE
  5
393C
330
392E
100
AcDbEntity
  8
TB
 62
     3
100
AcDbLine
 10
22.58
 20
7.770000000000004
 30
0.0
 11
23.13
 21
7.770000000000004
 31
0.0
  0
LWPOLYLINE
  5
393D
330
392E
100
AcDbEntity
  8
TB
100
AcDbPolyline
 90
        6
 70
     0
 43
0.0
 10
21.93027055715532
 20
16.38
 10
0.5
 20
16.38
 42
0.4142135623730951
 10
0.0
 20
15.88
 10
0.0
 20
0.5
 42
0.4142135623730951
 10
0.5
 20
0.0
 10
21.93027055715532
 20
0.0
  0
LINE
  5
393E
330
392E
100
AcDbEntity
  8
TB
100
AcDbLine
 10
21.93027055715532
 20
16.38
 30
0.0
 11
21.93027055715532
 21
0.0000000000000059
 31
0.0
  0
LWPOLYLINE
  5
393F
330
392E
100
AcDbEntity
  8
TB
100
AcDbPolyline
 90
        6
 70
     0
 43
0.0
 10
22.05527055715531
 20
0.0
 10
22.63
 20
0.0
 42
0.4142135623730951
 10
23.13
 20
0.5
 10
23.13
 20
15.88
 42
0.4142135623730951
 10
22.63
 20
16.38
 10
22.05527055715531
 20
16.38
  0
LINE
  5
3940
330
392E
100
AcDbEntity
  8
TB
100
AcDbLine
 10
21.93027055715532
 20
-0.0000000000000027
 30
0.0
 11
0.4935834155000004
 21
0.0
 31
0.0
  0
LINE
  5
3941
330
392E
100
AcDbEntity
  8
TB
100
AcDbLine
 10
22.05527055715532
 20
10.47804403519833
 30
0.0
 11
23.13
 21
10.47804403519833
 31
0.0
  0
LWPOLYLINE
  5
3942
102
{ACAD_REACTORS
330
3945
102
}
330
392E
100
AcDbEntity
  8
0
100
AcDbPolyline
 90
        4
 70
     1
 43
0.0
 10
22.56873514127288
 20
1.164880466104363
 10
22.12718259871661
 20
1.164880466104363
 10
22.12718259871661
 20
0.7233279235480952
 10
22.56873514127288
 20
0.7233279235480951
  0
LWPOLYLINE
  5
3943
102
{ACAD_REACTORS
330
3945
102
}
330
392E
100
AcDbEntity
  8
0
100
AcDbPolyline
 90
        4
 70
     1
 43
0.0
 10
22.56873514127288
 20
0.7233279235480951
 10
22.56873514127288
 20
0.4289595618439176
 10
22.86310350297706
 20
0.4289595618439176
 10
22.86310350297706
 20
0.7233279235480951
  0
LWPOLYLINE
  5
3944
102
{ACAD_REACTORS
330
3945
102
}
330
392E
100
AcDbEntity
  8
0
100
AcDbPolyline
 90
        4
 70
     1
 43
0.0
 10
22.86310350297706
 20
0.4289595618439176
 10
22.86310350297706
 20
0.2817753809918267
 10
23.01028768382915
 20
0.2817753809918267
 10
23.01028768382915
 20
0.4289595618439176
  0
HATCH
  5
3945
330
392E
100
AcDbEntity
  8
0
100
AcDbHatch
 10
0.0
 20
0.0
 30
0.0
210
0.0
220
0.0
230
1.0
  2
SOLID
 70
     1
 71
     1
 91
        3
 92
        7
 72
     0
 73
     1
 93
        4
 10
22.12718259871661
 20
1.164880466104363
 10
22.12718259871661
 20
0.7233279235480953
 10
22.56873514127288
 20
0.7233279235480948
 10
22.56873514127288
 20
1.164880466104363
 97
        1
330
3942
 92
        7
 72
     0
 73
     1
 93
        4
 10
22.56873514127288
 20
0.7233279235480951
 10
22.56873514127288
 20
0.4289595618439176
 10
22.86310350297706
 20
0.4289595618439177
 10
22.86310350297705
 20
0.7233279235480951
 97
        1
330
3943
 92
        7
 72
     0
 73
     1
 93
        4
 10
22.86310350297706
 20
0.4289595618439176
 10
22.86310350297705
 20
0.2817753809918267
 10
23.01028768382916
 20
0.2817753809918267
 10
23.01028768382915
 20
0.4289595618439176
 97
        1
330
3944
 75
     0
 76
     1
 47
0.0190738167194834
 98
        3
 10
22.29642082565282
 20
0.9991672460854573
 10
22.68664443696888
 20
0.6284190360521094
 10
22.93649984457154
 20
0.3615926693586694
450
        0
451
        0
460
0.0
461
0.0
452
        1
462
1.0
453
        2
463
0.0
 63
     5
421
      255
463
1.0
 63
     7
421
 16777215
470
LINEAR
  0
TEXT
  5
3946
330
392E
100
AcDbEntity
  8
TB
 62
     3
100
AcDbText
 10
22.6014082205021
 20
1.277470937075838
 30
0.0
 40
0.1002375
  1
212 Avenida Fabricante, San Clemente, CA. 92630
 50
90.0
100
AcDbText
  0
TEXT
  5
3947
330
392E
100
AcDbEntity
  8
TB
 62
     3
100
AcDbText
 10
22.80265277658931
 20
1.277470937075838
 30
0.0
 40
0.1002375
  1
800 582-7777 949 492-7777  FAX 949 361-5579
 50
90.0
100
AcDbText
  0
TEXT
  5
3948
330
392E
100
AcDbEntity
  8
TB
 62
     3
100
AcDbText
 10
22.40077235440836
 20
1.277470937075838
 30
0.0
 40
0.15035625
  1
SONANCE
 50
90.0
100
AcDbText
  0
TEXT
  5
3949
330
392E
100
AcDbEntity
  8
TB
 62
     3
100
AcDbText
 10
22.96939141345307
 20
1.277470937075838
 30
0.0
 40
0.1002375
  1
www.sonance.com
 50
90.0
100
AcDbText
  0
TEXT
  5
394A
330
392E
100
AcDbEntity
  8
TB
 62
     3
100
AcDbText
 10
22.75624177926581
 20
7.830659393059725
 30
0.0
 40
0.07
  1
DRAWN BY:
 50
90.0
100
AcDbText
  0
LINE
  5
394B
330
392E
100
AcDbEntity
  8
TB
 62
     3
100
AcDbLine
 10
22.86
 20
7.770000000000004
 30
0.0
 11
22.86
 21
9.578830931448063
 31
0.0
  0
TEXT
  5
394C
330
392E
100
AcDbEntity
  8
TB
 62
     3
100
AcDbText
 10
23.02851249551596
 20
7.830659393059725
 30
0.0
 40
0.07
  1
RELEASED ON:
 50
90.0
100
AcDbText
  0
LINE
  5
394D
330
392E
100
AcDbEntity
  8
TB
 62
     3
100
AcDbLine
 10
22.58
 20
9.578830931448063
 30
0.0
 11
23.13
 21
9.578830931448063
 31
0.0
  0
ENDBLK
  5
394F
330
392E
100
AcDbEntity
  8
0
100
AcDbBlockEnd
  0
BLOCK
  5
3A5E
330
3A5D
100
AcDbEntity
  8
0
100
AcDbBlockBegin
  2
*D5
 70
     1
 10
0.0
 20
0.0
 30
0.0
  3
*D5
  1

  0
LINE
  5
3B1A
330
3A5D
100
AcDbEntity
  8
A-ANNO-DIM
 62
     1
370
    -2
100
AcDbLine
 10
62.57096160969526
 20
84.8182428299124
 30
0.0
 11
62.57096160969526
 21
93.63714046770791
 31
0.0
  0
LINE
  5
3B1B
330
3A5D
100
AcDbEntity
  8
A-ANNO-DIM
 62
     1
370
    -2
100
AcDbLine
 10
48.57096160969487
 20
84.8182428299124
 30
0.0
 11
48.57096160969487
 21
93.63714046770791
 31
0.0
  0
LINE
  5
3B1C
330
3A5D
100
AcDbEntity
  8
A-ANNO-DIM
 62
     1
370
    -2
100
AcDbLine
 10
64.01096160969526
 20
92.83714046770791
 30
0.0
 11
65.45096160969525
 21
92.83714046770791
 31
0.0
  0
LINE
  5
3B1D
330
3A5D
100
AcDbEntity
  8
A-ANNO-DIM
 62
     1
370
    -2
100
AcDbLine
 10
47.13096160969487
 20
92.83714046770791
 30
0.0
 11
45.69096160969487
 21
92.83714046770791
 31
0.0
  0
MTEXT
  5
3B1E
330
3A5D
100
AcDbEntity
  8
A-ANNO-DIM
 62
     4
100
AcDbMText
 10
54.96558081022062
 20
93.47507150219067
 30
0.0
 40
1.0
 41
0.0
 71
     2
 72
     1
  1
\A1;14.00 [355.6]
  7
ARCH
 73
     1
 44
1.0
  0
SOLID
  5
3B1F
330
3A5D
100
AcDbEntity
  8
A-ANNO-DIM
 62
     1
100
AcDbTrace
 10
64.01096160969526
 20
93.0771404677079
 30
0.0
 11
64.01096160969526
 21
92.59714046770792
 31
0.0
 12
62.57096160969526
 22
92.83714046770791
 32
0.0
 13
62.57096160969526
 23
92.83714046770791
 33
0.0
  0
SOLID
  5
3B20
330
3A5D
100
AcDbEntity
  8
A-ANNO-DIM
 62
     1
100
AcDbTrace
 10
47.13096160969487
 20
93.0771404677079
 30
0.0
 11
47.13096160969487
 21
92.59714046770792
 31
0.0
 12
48.57096160969487
 22
92.83714046770791
 32
0.0
 13
48.57096160969487
 23
92.83714046770791
 33
0.0
  0
POINT
  5
3B21
330
3A5D
100
AcDbEntity
  8
Defpoints
 62
     0
100
AcDbPoint
 10
62.57096160969526
 20
84.0182428299124
 30
0.0
  0
POINT
  5
3B22
330
3A5D
100
AcDbEntity
  8
Defpoints
 62
     0
100
AcDbPoint
 10
48.57096160969487
 20
84.0182428299124
 30
0.0
  0
POINT
  5
3B23
330
3A5D
100
AcDbEntity
  8
Defpoints
 62
     0
100
AcDbPoint
 10
48.57096160969487
 20
92.83714046770791
 30
0.0
  0
ENDBLK
  5
3A5F
330
3A5D
100
AcDbEntity
  8
0
100
AcDbBlockEnd
  0
BLOCK
  5
3A78
330
3A77
100
AcDbEntity
  8
0
100
AcDbBlockBegin
  2
*D7
 70
     1
 10
0.0
 20
0.0
 30
0.0
  3
*D7
  1

  0
LINE
  5
3B9F
330
3A77
100
AcDbEntity
  8
A-ANNO-DIM
 62
     1
370
    -2
100
AcDbLine
 10
63.37096160969503
 20
84.01824282991212
 30
0.0
 11
76.64600754541713
 21
84.01824282991212
 31
0.0
  0
LINE
  5
3BA0
330
3A77
100
AcDbEntity
  8
A-ANNO-DIM
 62
     1
370
    -2
100
AcDbLine
 10
63.37096160969505
 20
57.01824282991267
 30
0.0
 11
76.64600754541713
 21
57.01824282991267
 31
0.0
  0
LINE
  5
3BA1
330
3A77
100
AcDbEntity
  8
A-ANNO-DIM
 62
     1
370
    -2
100
AcDbLine
 10
75.84600754541714
 20
82.57824282991212
 30
0.0
 11
75.84600754541714
 21
71.87617386439514
 31
0.0
  0
LINE
  5
3BA2
330
3A77
100
AcDbEntity
  8
A-ANNO-DIM
 62
     1
370
    -2
100
AcDbLine
 10
75.84600754541714
 20
58.45824282991268
 30
0.0
 11
75.84600754541714
 21
69.16031179542962
 31
0.0
  0
MTEXT
  5
3BA3
330
3A77
100
AcDbEntity
  8
A-ANNO-DIM
 62
     4
100
AcDbMText
 10
75.84600754541714
 20
71.15617386439516
 30
0.0
 40
1.0
 41
0.0
 71
     2
 72
     1
  1
\A1;27.00 [685.8]
  7
ARCH
 73
     1
 44
1.0
  0
SOLID
  5
3BA4
330
3A77
100
AcDbEntity
  8
A-ANNO-DIM
 62
     1
100
AcDbTrace
 10
75.60600754541714
 20
82.57824282991212
 30
0.0
 11
76.08600754541713
 21
82.57824282991212
 31
0.0
 12
75.84600754541714
 22
84.01824282991212
 32
0.0
 13
75.84600754541714
 23
84.01824282991212
 33
0.0
  0
SOLID
  5
3BA5
330
3A77
100
AcDbEntity
  8
A-ANNO-DIM
 62
     1
100
AcDbTrace
 10
75.60600754541714
 20
58.45824282991268
 30
0.0
 11
76.08600754541713
 21
58.45824282991268
 31
0.0
 12
75.84600754541714
 22
57.01824282991267
 32
0.0
 13
75.84600754541714
 23
57.01824282991267
 33
0.0
  0
POINT
  5
3BA6
330
3A77
100
AcDbEntity
  8
Defpoints
 62
     0
100
AcDbPoint
 10
62.57096160969503
 20
84.01824282991212
 30
0.0
  0
POINT
  5
3BA7
330
3A77
100
AcDbEntity
  8
Defpoints
 62
     0
100
AcDbPoint
 10
62.57096160969505
 20
57.01824282991267
 30
0.0
  0
POINT
  5
3BA8
330
3A77
100
AcDbEntity
  8
Defpoints
 62
     0
100
AcDbPoint
 10
75.84600754541714
 20
57.01824282991267
 30
0.0
  0
ENDBLK
  5
3A79
330
3A77
100
AcDbEntity
  8
0
100
AcDbBlockEnd
  0
BLOCK
  5
3B5C
330
3B5B
100
AcDbEntity
  8
0
100
AcDbBlockBegin
  2
*D8
 70
     1
 10
0.0
 20
0.0
 30
0.0
  3
*D8
  1

  0
LINE
  5
3B5E
330
3B5B
100
AcDbEntity
  8
A-ANNO-DIM
 62
     1
370
    -2
100
AcDbLine
 10
54.77096160969505
 20
81.39324282991241
 30
0.0
 11
39.76406458473056
 21
81.39324282991241
 31
0.0
  0
LINE
  5
3B5F
330
3B5B
100
AcDbEntity
  8
A-ANNO-DIM
 62
     1
370
    -2
100
AcDbLine
 10
54.77096160969505
 20
71.1432428299124
 30
0.0
 11
39.76406458473055
 21
71.1432428299124
 31
0.0
  0
LINE
  5
3B60
330
3B5B
100
AcDbEntity
  8
A-ANNO-DIM
 62
     1
370
    -2
100
AcDbLine
 10
40.56406458473055
 20
79.95324282991241
 30
0.0
 11
40.56406458473055
 21
77.65783271558972
 31
0.0
  0
LINE
  5
3B61
330
3B5B
100
AcDbEntity
  8
A-ANNO-DIM
 62
     1
370
    -2
100
AcDbLine
 10
40.56406458473055
 20
72.58324282991241
 30
0.0
 11
40.56406458473055
 21
74.9419706466242
 31
0.0
  0
MTEXT
  5
3B62
330
3B5B
100
AcDbEntity
  8
A-ANNO-DIM
 62
     4
100
AcDbMText
 10
40.56406458473055
 20
76.29990168110698
 30
0.0
 40
1.0
 41
0.0
 71
     5
 72
     1
  1
\A1;10.25 [260.4]
  7
ARCH
 73
     1
 44
1.0
  0
SOLID
  5
3B63
330
3B5B
100
AcDbEntity
  8
A-ANNO-DIM
 62
     1
100
AcDbTrace
 10
40.32406458473054
 20
79.95324282991241
 30
0.0
 11
40.80406458473055
 21
79.95324282991241
 31
0.0
 12
40.56406458473055
 22
81.39324282991241
 32
0.0
 13
40.56406458473055
 23
81.39324282991241
 33
0.0
  0
SOLID
  5
3B64
330
3B5B
100
AcDbEntity
  8
A-ANNO-DIM
 62
     1
100
AcDbTrace
 10
40.32406458473054
 20
72.58324282991241
 30
0.0
 11
40.80406458473055
 21
72.58324282991241
 31
0.0
 12
40.56406458473055
 22
71.1432428299124
 32
0.0
 13
40.56406458473055
 23
71.1432428299124
 33
0.0
  0
POINT
  5
3B65
330
3B5B
100
AcDbEntity
  8
Defpoints
 62
     0
100
AcDbPoint
 10
55.57096160969504
 20
81.39324282991241
 30
0.0
  0
POINT
  5
3B66
330
3B5B
100
AcDbEntity
  8
Defpoints
 62
     0
100
AcDbPoint
 10
55.57096160969504
 20
71.1432428299124
 30
0.0
  0
POINT
  5
3B67
330
3B5B
100
AcDbEntity
  8
Defpoints
 62
     0
100
AcDbPoint
 10
40.56406458473055
 20
71.1432428299124
 30
0.0
  0
ENDBLK
  5
3B5D
330
3B5B
100
AcDbEntity
  8
0
100
AcDbBlockEnd
  0
BLOCK
  5
3B6A
330
3B69
100
AcDbEntity
  8
0
100
AcDbBlockBegin
  2
*D9
 70
     1
 10
0.0
 20
0.0
 30
0.0
  3
*D9
  1

  0
LINE
  5
3B6C
330
3B69
100
AcDbEntity
  8
A-ANNO-DIM
 62
     1
370
    -2
100
AcDbLine
 10
63.37096160969526
 20
111.8563040936295
 30
0.0
 11
73.02609747921422
 21
111.8563040936295
 31
0.0
  0
LINE
  5
3B6D
330
3B69
100
AcDbEntity
  8
A-ANNO-DIM
 62
     1
370
    -2
100
AcDbLine
 10
63.37096160969526
 20
117.8563040936295
 30
0.0
 11
73.02609747921422
 21
117.8563040936295
 31
0.0
  0
LINE
  5
3B6E
330
3B69
100
AcDbEntity
  8
A-ANNO-DIM
 62
     1
370
    -2
100
AcDbLine
 10
72.22609747921421
 20
113.2963040936295
 30
0.0
 11
72.22609747921421
 21
113.4266146234138
 31
0.0
  0
LINE
  5
3B6F
330
3B69
100
AcDbEntity
  8
A-ANNO-DIM
 62
     1
370
    -2
100
AcDbLine
 10
72.22609747921421
 20
116.4163040936295
 30
0.0
 11
72.22609747921421
 21
116.1424766923793
 31
0.0
  0
MTEXT
  5
3B70
330
3B69
100
AcDbEntity
  8
A-ANNO-DIM
 62
     4
100
AcDbMText
 10
72.22609747921421
 20
114.7845456578966
 30
0.0
 40
1.0
 41
0.0
 71
     5
 72
     1
  1
\A1;6.00 [152.4]
  7
ARCH
 73
     1
 44
1.0
  0
SOLID
  5
3B71
330
3B69
100
AcDbEntity
  8
A-ANNO-DIM
 62
     1
100
AcDbTrace
 10
71.98609747921422
 20
113.2963040936295
 30
0.0
 11
72.46609747921421
 21
113.2963040936295
 31
0.0
 12
72.22609747921421
 22
111.8563040936295
 32
0.0
 13
72.22609747921421
 23
111.8563040936295
 33
0.0
  0
SOLID
  5
3B72
330
3B69
100
AcDbEntity
  8
A-ANNO-DIM
 62
     1
100
AcDbTrace
 10
71.98609747921422
 20
116.4163040936295
 30
0.0
 11
72.46609747921421
 21
116.4163040936295
 31
0.0
 12
72.22609747921421
 22
117.8563040936295
 32
0.0
 13
72.22609747921421
 23
117.8563040936295
 33
0.0
  0
POINT
  5
3B73
330
3B69
100
AcDbEntity
  8
Defpoints
 62
     0
100
AcDbPoint
 10
62.57096160969526
 20
111.8563040936295
 30
0.0
  0
POINT
  5
3B74
330
3B69
100
AcDbEntity
  8
Defpoints
 62
     0
100
AcDbPoint
 10
62.57096160969526
 20
117.8563040936295
 30
0.0
  0
POINT
  5
3B75
330
3B69
100
AcDbEntity
  8
Defpoints
 62
     0
100
AcDbPoint
 10
72.22609747921421
 20
117.8563040936295
 30
0.0
  0
ENDBLK
  5
3B6B
330
3B69
100
AcDbEntity
  8
0
100
AcDbBlockEnd
  0
BLOCK
  5
3B8A
330
3B89
100
AcDbEntity
  8
0
100
AcDbBlockBegin
  2
*D11
 70
     1
 10
0.0
 20
0.0
 30
0.0
  3
*D11
  1

  0
LINE
  5
3BA9
330
3B89
100
AcDbEntity
  8
A-AENCL-DETAIL
 62
     1
370
    -2
100
AcDbLine
 10
63.37096160969522
 20
84.0182428299124
 30
0.0
 11
69.67231919037958
 21
84.0182428299124
 31
0.0
  0
LINE
  5
3BAA
330
3B89
100
AcDbEntity
  8
A-AENCL-DETAIL
 62
     1
370
    -2
100
AcDbLine
 10
56.62096160969504
 20
76.26824282991241
 30
0.0
 11
69.67231919037958
 21
76.26824282991241
 31
0.0
  0
LINE
  5
3BAB
330
3B89
100
AcDbEntity
  8
A-AENCL-DETAIL
 62
     1
370
    -2
100
AcDbLine
 10
68.87231919037958
 20
85.4582428299124
 30
0.0
 11
68.87231919037958
 21
86.8982428299124
 31
0.0
  0
LINE
  5
3BAC
330
3B89
100
AcDbEntity
  8
A-AENCL-DETAIL
 62
     1
370
    -2
100
AcDbLine
 10
68.87231919037958
 20
74.82824282991241
 30
0.0
 11
68.87231919037958
 21
73.38824282991241
 31
0.0
  0
MTEXT
  5
3BAD
330
3B89
100
AcDbEntity
  8
A-AENCL-DETAIL
 62
     4
100
AcDbMText
 10
68.87231919037958
 20
79.05091029404331
 30
0.0
 40
1.0
 41
0.0
 71
     5
 72
     1
  1
\A1;7.75 [196.9]
  7
ARCH
 73
     1
 44
1.0
  0
SOLID
  5
3BAE
330
3B89
100
AcDbEntity
  8
A-AENCL-DETAIL
 62
     1
100
AcDbTrace
 10
68.63231919037959
 20
85.4582428299124
 30
0.0
 11
69.11231919037958
 21
85.4582428299124
 31
0.0
 12
68.87231919037958
 22
84.0182428299124
 32
0.0
 13
68.87231919037958
 23
84.0182428299124
 33
0.0
  0
SOLID
  5
3BAF
330
3B89
100
AcDbEntity
  8
A-AENCL-DETAIL
 62
     1
100
AcDbTrace
 10
68.63231919037959
 20
74.82824282991241
 30
0.0
 11
69.11231919037958
 21
74.82824282991241
 31
0.0
 12
68.87231919037958
 22
76.26824282991241
 32
0.0
 13
68.87231919037958
 23
76.26824282991241
 33
0.0
  0
POINT
  5
3BB0
330
3B89
100
AcDbEntity
  8
Defpoints
 62
     0
100
AcDbPoint
 10
62.57096160969523
 20
84.0182428299124
 30
0.0
  0
POINT
  5
3BB1
330
3B89
100
AcDbEntity
  8
Defpoints
 62
     0
100
AcDbPoint
 10
55.82096160969505
 20
76.26824282991241
 30
0.0
  0
POINT
  5
3BB2
330
3B89
100
AcDbEntity
  8
Defpoints
 62
     0
100
AcDbPoint
 10
68.87231919037958
 20
76.26824282991241
 30
0.0
  0
ENDBLK
  5
3B8B
330
3B89
100
AcDbEntity
  8
0
100
AcDbBlockEnd
  0
BLOCK
  5
3BD9
330
3BD8
100
AcDbEntity
  8
0
100
AcDbBlockBegin
  2
*D13
 70
     1
 10
0.0
 20
0.0
 30
0.0
  3
*D13
  1

  0
LINE
  5
3BDA
330
3BD8
100
AcDbEntity
  8
0
 62
     0
370
    -2
100
AcDbLine
 10
30.03539042443199
 20
56.33700330793902
 30
0.0
 11
30.03539042443199
 21
57.84930645754536
 31
0.0
  0
LINE
  5
3BDB
330
3BD8
100
AcDbEntity
  8
0
 62
     0
370
    -2
100
AcDbLine
 10
44.03539042443209
 20
56.33700330793903
 30
0.0
 11
44.03539042443209
 21
57.84930645754536
 31
0.0
  0
LINE
  5
3BDC
330
3BD8
100
AcDbEntity
  8
0
 62
     0
370
    -2
100
AcDbLine
 10
30.55539042443199
 20
57.84930645754536
 30
0.0
 11
36.32523532243987
 21
57.84930645754536
 31
0.0
  0
LINE
  5
3BDD
330
3BD8
100
AcDbEntity
  8
0
 62
     0
370
    -2
100
AcDbLine
 10
43.51539042443208
 20
57.84930645754536
 30
0.0
 11
40.8913481708423
 21
57.84930645754536
 31
0.0
  0
SOLID
  5
3BDE
330
3BD8
100
AcDbEntity
  8
0
 62
     0
100
AcDbTrace
 10
30.55539042443199
 20
57.93597312421202
 30
0.0
 11
30.55539042443199
 21
57.76263979087869
 31
0.0
 12
30.03539042443199
 22
57.84930645754536
 32
0.0
 13
30.03539042443199
 23
57.84930645754536
 33
0.0
  0
SOLID
  5
3BDF
330
3BD8
100
AcDbEntity
  8
0
 62
     0
100
AcDbTrace
 10
43.51539042443208
 20
57.93597312421202
 30
0.0
 11
43.51539042443208
 21
57.76263979087869
 31
0.0
 12
44.03539042443209
 22
57.84930645754536
 32
0.0
 13
44.03539042443209
 23
57.84930645754536
 33
0.0
  0
MTEXT
  5
3BE0
330
3BD8
100
AcDbEntity
  8
0
 62
     0
100
AcDbMText
 10
38.60829174664109
 20
58.17323575734142
 30
0.0
 40
0.5
 41
0.0
 71
     2
 72
     1
  1
\A1;14.000 [355.60]
  7
SLDTEXTSTYLE0
 73
     1
 44
1.0
  0
POINT
  5
3BE1
330
3BD8
100
AcDbEntity
  8
Defpoints
 62
     0
100
AcDbPoint
 10
30.03539042443199
 20
56.27450330793902
 30
0.0
  0
POINT
  5
3BE2
330
3BD8
100
AcDbEntity
  8
Defpoints
 62
     0
100
AcDbPoint
 10
44.03539042443209
 20
56.27450330793902
 30
0.0
  0
POINT
  5
3BE3
330
3BD8
100
AcDbEntity
  8
Defpoints
 62
     0
100
AcDbPoint
 10
44.03539042443209
 20
57.84930645754536
 30
0.0
  0
ENDBLK
  5
3BE4
330
3BD8
100
AcDbEntity
  8
0
100
AcDbBlockEnd
  0
BLOCK
  5
3BE6
330
3BE5
100
AcDbEntity
  8
0
100
AcDbBlockBegin
  2
*D14
 70
     1
 10
0.0
 20
0.0
 30
0.0
  3
*D14
  1

  0
LINE
  5
3BE7
330
3BE5
100
AcDbEntity
  8
0
 62
     0
370
    -2
100
AcDbLine
 10
44.09789042443203
 20
56.27450330793892
 30
0.0
 11
48.44483924332972
 21
56.27450330793891
 31
0.0
  0
LINE
  5
3BE8
330
3BE5
100
AcDbEntity
  8
0
 62
     0
370
    -2
100
AcDbLine
 10
44.09789042443203
 20
35.77450330793912
 30
0.0
 11
48.44483924332971
 21
35.77450330793911
 31
0.0
  0
LINE
  5
3BE9
330
3BE5
100
AcDbEntity
  8
0
 62
     0
370
    -2
100
AcDbLine
 10
48.44483924332972
 20
55.75450330793891
 30
0.0
 11
48.44483924332971
 21
47.49553198693614
 31
0.0
  0
LINE
  5
3BEA
330
3BE5
100
AcDbEntity
  8
0
 62
     0
370
    -2
100
AcDbLine
 10
48.44483924332971
 20
36.29450330793911
 30
0.0
 11
48.44483924332971
 21
46.59767338734402
 31
0.0
  0
SOLID
  5
3BEB
330
3BE5
100
AcDbEntity
  8
0
 62
     0
100
AcDbTrace
 10
48.35817257666305
 20
55.75450330793891
 30
0.0
 11
48.53150590999638
 21
55.75450330793891
 31
0.0
 12
48.44483924332972
 22
56.27450330793891
 32
0.0
 13
48.44483924332972
 23
56.27450330793891
 33
0.0
  0
SOLID
  5
3BEC
330
3BE5
100
AcDbEntity
  8
0
 62
     0
100
AcDbTrace
 10
48.35817257666304
 20
36.29450330793911
 30
0.0
 11
48.53150590999637
 21
36.29450330793911
 31
0.0
 12
48.44483924332971
 22
35.77450330793911
 32
0.0
 13
48.44483924332971
 23
35.77450330793911
 33
0.0
  0
MTEXT
  5
3BED
330
3BE5
100
AcDbEntity
  8
0
 62
     0
100
AcDbMText
 10
48.4448392433297
 20
47.37053198693614
 30
0.0
 40
0.5
 41
0.0
 71
     2
 72
     1
  1
\A1;20.500 [520.70]
  7
SLDTEXTSTYLE0
 73
     1
 44
1.0
  0
POINT
  5
3BEE
330
3BE5
100
AcDbEntity
  8
Defpoints
 62
     0
100
AcDbPoint
 10
44.03539042443203
 20
56.27450330793892
 30
0.0
  0
POINT
  5
3BEF
330
3BE5
100
AcDbEntity
  8
Defpoints
 62
     0
100
AcDbPoint
 10
44.03539042443203
 20
35.77450330793912
 30
0.0
  0
POINT
  5
3BF0
330
3BE5
100
AcDbEntity
  8
Defpoints
 62
     0
100
AcDbPoint
 10
48.44483924332971
 20
35.77450330793911
 30
0.0
  0
ENDBLK
  5
3BF1
330
3BE5
100
AcDbEntity
  8
0
100
AcDbBlockEnd
  0
BLOCK
  5
3BF3
330
3BF2
100
AcDbEntity
  8
0
100
AcDbBlockBegin
  2
*D15
 70
     1
 10
0.0
 20
0.0
 30
0.0
  3
*D15
  1

  0
LINE
  5
3BF4
330
3BF2
100
AcDbEntity
  8
0
 62
     0
370
    -2
100
AcDbLine
 10
33.03539042443204
 20
53.71200330793902
 30
0.0
 11
23.73617782600681
 21
53.71200330793902
 31
0.0
  0
LINE
  5
3BF5
330
3BF2
100
AcDbEntity
  8
0
 62
     0
370
    -2
100
AcDbLine
 10
33.03539042443205
 20
45.33700330793902
 30
0.0
 11
23.73617782600681
 21
45.33700330793902
 31
0.0
  0
LINE
  5
3BF6
330
3BF2
100
AcDbEntity
  8
0
 62
     0
370
    -2
100
AcDbLine
 10
23.73617782600681
 20
53.19200330793901
 30
0.0
 11
23.73617782600681
 21
50.49092546102443
 31
0.0
  0
LINE
  5
3BF7
330
3BF2
100
AcDbEntity
  8
0
 62
     0
370
    -2
100
AcDbLine
 10
23.73617782600681
 20
45.85700330793903
 30
0.0
 11
23.73617782600681
 21
49.59306686143232
 31
0.0
  0
SOLID
  5
3BF8
330
3BF2
100
AcDbEntity
  8
0
 62
     0
100
AcDbTrace
 10
23.64951115934015
 20
53.19200330793901
 30
0.0
 11
23.82284449267348
 21
53.19200330793901
 31
0.0
 12
23.73617782600681
 22
53.71200330793902
 32
0.0
 13
23.73617782600681
 23
53.71200330793902
 33
0.0
  0
SOLID
  5
3BF9
330
3BF2
100
AcDbEntity
  8
0
 62
     0
100
AcDbTrace
 10
23.64951115934015
 20
45.85700330793903
 30
0.0
 11
23.82284449267348
 21
45.85700330793903
 31
0.0
 12
23.73617782600681
 22
45.33700330793902
 32
0.0
 13
23.73617782600681
 23
45.33700330793902
 33
0.0
  0
MTEXT
  5
3BFA
330
3BF2
100
AcDbEntity
  8
0
 62
     0
100
AcDbMText
 10
23.73617782600681
 20
50.36592546102443
 30
0.0
 40
0.5
 41
0.0
 71
     2
 72
     1
  1
\A1;8.375 [212.72]
  7
SLDTEXTSTYLE0
 73
     1
 44
1.0
  0
POINT
  5
3BFB
330
3BF2
100
AcDbEntity
  8
Defpoints
 62
     0
100
AcDbPoint
 10
33.09789042443204
 20
53.71200330793902
 30
0.0
  0
POINT
  5
3BFC
330
3BF2
100
AcDbEntity
  8
Defpoints
 62
     0
100
AcDbPoint
 10
33.09789042443205
 20
45.33700330793902
 30
0.0
  0
POINT
  5
3BFD
330
3BF2
100
AcDbEntity
  8
Defpoints
 62
     0
100
AcDbPoint
 10
23.73617782600681
 20
45.33700330793902
 30
0.0
  0
ENDBLK
  5
3BFE
330
3BF2
100
AcDbEntity
  8
0
100
AcDbBlockEnd
  0
BLOCK
  5
3C00
330
3BFF
100
AcDbEntity
  8
0
100
AcDbBlockBegin
  2
*D16
 70
     1
 10
0.0
 20
0.0
 30
0.0
  3
*D16
  1

  0
LINE
  5
3C01
330
3BFF
100
AcDbEntity
  8
0
 62
     0
370
    -2
100
AcDbLine
 10
32.84789042443204
 20
45.52450330793901
 30
0.0
 11
32.84789042443204
 21
40.85612284069097
 31
0.0
  0
LINE
  5
3C02
330
3BFF
100
AcDbEntity
  8
0
 62
     0
370
    -2
100
AcDbLine
 10
41.22289042443204
 20
45.52450330793901
 30
0.0
 11
41.22289042443204
 21
40.85612284069097
 31
0.0
  0
LINE
  5
3C03
330
3BFF
100
AcDbEntity
  8
0
 62
     0
370
    -2
100
AcDbLine
 10
33.36789042443204
 20
40.85612284069097
 30
0.0
 11
35.0024877983301
 21
40.85612284069097
 31
0.0
  0
LINE
  5
3C04
330
3BFF
100
AcDbEntity
  8
0
 62
     0
370
    -2
100
AcDbLine
 10
40.70289042443204
 20
40.85612284069097
 30
0.0
 11
39.28526652028796
 21
40.85612284069097
 31
0.0
  0
SOLID
  5
3C05
330
3BFF
100
AcDbEntity
  8
0
 62
     0
100
AcDbTrace
 10
33.36789042443204
 20
40.94278950735763
 30
0.0
 11
33.36789042443204
 21
40.7694561740243
 31
0.0
 12
32.84789042443204
 22
40.85612284069097
 32
0.0
 13
32.84789042443204
 23
40.85612284069097
 33
0.0
  0
SOLID
  5
3C06
330
3BFF
100
AcDbEntity
  8
0
 62
     0
100
AcDbTrace
 10
40.70289042443204
 20
40.94278950735763
 30
0.0
 11
40.70289042443204
 21
40.7694561740243
 31
0.0
 12
41.22289042443204
 22
40.85612284069097
 32
0.0
 13
41.22289042443204
 23
40.85612284069097
 33
0.0
  0
MTEXT
  5
3C07
330
3BFF
100
AcDbEntity
  8
0
 62
     0
100
AcDbMText
 10
37.14387715930903
 20
41.18005214048703
 30
0.0
 40
0.5
 41
0.0
 71
     2
 72
     1
  1
\A1;8.375 [212.73]
  7
SLDTEXTSTYLE0
 73
     1
 44
1.0
  0
POINT
  5
3C08
330
3BFF
100
AcDbEntity
  8
Defpoints
 62
     0
100
AcDbPoint
 10
32.84789042443204
 20
45.58700330793902
 30
0.0
  0
POINT
  5
3C09
330
3BFF
100
AcDbEntity
  8
Defpoints
 62
     0
100
AcDbPoint
 10
41.22289042443204
 20
45.58700330793902
 30
0.0
  0
POINT
  5
3C0A
330
3BFF
100
AcDbEntity
  8
Defpoints
 62
     0
100
AcDbPoint
 10
41.22289042443204
 20
40.85612284069097
 30
0.0
  0
ENDBLK
  5
3C0B
330
3BFF
100
AcDbEntity
  8
0
100
AcDbBlockEnd
  0
BLOCK
  5
3D1C
330
3D1B
100
AcDbEntity
  8
0
100
AcDbBlockBegin
  2
*D18
 70
     1
 10
0.0
 20
0.0
 30
0.0
  3
*D18
  1

  0
LINE
  5
3DBD
330
3D1B
100
AcDbEntity
  8
A-AENCL-DETAIL
 62
     0
370
    -2
100
AcDbLine
 10
226.356760487105
 20
84.49843457079984
 30
0.0
 11
226.356760487105
 21
86.01073772040619
 31
0.0
  0
LINE
  5
3DBE
330
3D1B
100
AcDbEntity
  8
A-AENCL-DETAIL
 62
     0
370
    -2
100
AcDbLine
 10
240.3567604871051
 20
84.49843457079984
 30
0.0
 11
240.3567604871051
 21
86.01073772040619
 31
0.0
  0
LINE
  5
3DBF
330
3D1B
100
AcDbEntity
  8
A-AENCL-DETAIL
 62
     0
370
    -2
100
AcDbLine
 10
226.876760487105
 20
86.01073772040619
 30
0.0
 11
232.6466053851129
 21
86.01073772040619
 31
0.0
  0
LINE
  5
3DC0
330
3D1B
100
AcDbEntity
  8
A-AENCL-DETAIL
 62
     0
370
    -2
100
AcDbLine
 10
239.8367604871051
 20
86.01073772040619
 30
0.0
 11
237.2127182335153
 21
86.01073772040619
 31
0.0
  0
SOLID
  5
3DC1
330
3D1B
100
AcDbEntity
  8
A-AENCL-DETAIL
 62
     0
100
AcDbTrace
 10
226.876760487105
 20
86.09740438707286
 30
0.0
 11
226.876760487105
 21
85.92407105373951
 31
0.0
 12
226.356760487105
 22
86.01073772040619
 32
0.0
 13
226.356760487105
 23
86.01073772040619
 33
0.0
  0
SOLID
  5
3DC2
330
3D1B
100
AcDbEntity
  8
A-AENCL-DETAIL
 62
     0
100
AcDbTrace
 10
239.8367604871051
 20
86.09740438707286
 30
0.0
 11
239.8367604871051
 21
85.92407105373951
 31
0.0
 12
240.3567604871051
 22
86.01073772040619
 32
0.0
 13
240.3567604871051
 23
86.01073772040619
 33
0.0
  0
MTEXT
  5
3DC3
330
3D1B
100
AcDbEntity
  8
A-AENCL-DETAIL
 62
     0
100
AcDbMText
 10
234.9296618093141
 20
86.33466702020225
 30
0.0
 40
0.5
 41
0.0
 71
     2
 72
     1
  1
\A1;14.000 [355.60]
  7
SLDTEXTSTYLE0
 73
     1
 44
1.0
  0
POINT
  5
3DC4
330
3D1B
100
AcDbEntity
  8
Defpoints
 62
     0
100
AcDbPoint
 10
226.356760487105
 20
84.43593457079984
 30
0.0
  0
POINT
  5
3DC5
330
3D1B
100
AcDbEntity
  8
Defpoints
 62
     0
100
AcDbPoint
 10
240.3567604871051
 20
84.43593457079984
 30
0.0
  0
POINT
  5
3DC6
330
3D1B
100
AcDbEntity
  8
Defpoints
 62
     0
100
AcDbPoint
 10
240.3567604871051
 20
86.01073772040619
 30
0.0
  0
ENDBLK
  5
3D1D
330
3D1B
100
AcDbEntity
  8
0
100
AcDbBlockEnd
  0
BLOCK
  5
3D29
330
3D28
100
AcDbEntity
  8
0
100
AcDbBlockBegin
  2
*D19
 70
     1
 10
0.0
 20
0.0
 30
0.0
  3
*D19
  1

  0
LINE
  5
3DB3
330
3D28
100
AcDbEntity
  8
A-AENCL-DETAIL
 62
     0
370
    -2
100
AcDbLine
 10
240.419260487105
 20
84.43593457079973
 30
0.0
 11
244.7662093060027
 21
84.43593457079973
 31
0.0
  0
LINE
  5
3DB4
330
3D28
100
AcDbEntity
  8
A-AENCL-DETAIL
 62
     0
370
    -2
100
AcDbLine
 10
240.419260487105
 20
63.93593457079993
 30
0.0
 11
244.7662093060027
 21
63.93593457079993
 31
0.0
  0
LINE
  5
3DB5
330
3D28
100
AcDbEntity
  8
A-AENCL-DETAIL
 62
     0
370
    -2
100
AcDbLine
 10
244.7662093060027
 20
83.91593457079974
 30
0.0
 11
244.7662093060027
 21
75.65696324979693
 31
0.0
  0
LINE
  5
3DB6
330
3D28
100
AcDbEntity
  8
A-AENCL-DETAIL
 62
     0
370
    -2
100
AcDbLine
 10
244.7662093060027
 20
64.45593457079993
 30
0.0
 11
244.7662093060027
 21
74.7591046502048
 31
0.0
  0
SOLID
  5
3DB7
330
3D28
100
AcDbEntity
  8
A-AENCL-DETAIL
 62
     0
100
AcDbTrace
 10
244.6795426393361
 20
83.91593457079974
 30
0.0
 11
244.8528759726694
 21
83.91593457079974
 31
0.0
 12
244.7662093060027
 22
84.43593457079973
 32
0.0
 13
244.7662093060027
 23
84.43593457079973
 33
0.0
  0
SOLID
  5
3DB8
330
3D28
100
AcDbEntity
  8
A-AENCL-DETAIL
 62
     0
100
AcDbTrace
 10
244.6795426393361
 20
64.45593457079993
 30
0.0
 11
244.8528759726694
 21
64.45593457079993
 31
0.0
 12
244.7662093060027
 22
63.93593457079993
 32
0.0
 13
244.7662093060027
 23
63.93593457079993
 33
0.0
  0
MTEXT
  5
3DB9
330
3D28
100
AcDbEntity
  8
A-AENCL-DETAIL
 62
     0
100
AcDbMText
 10
244.7662093060027
 20
75.53196324979698
 30
0.0
 40
0.5
 41
0.0
 71
     2
 72
     1
  1
\A1;20.500 [520.70]
  7
SLDTEXTSTYLE0
 73
     1
 44
1.0
  0
POINT
  5
3DBA
330
3D28
100
AcDbEntity
  8
Defpoints
 62
     0
100
AcDbPoint
 10
240.356760487105
 20
84.43593457079973
 30
0.0
  0
POINT
  5
3DBB
330
3D28
100
AcDbEntity
  8
Defpoints
 62
     0
100
AcDbPoint
 10
240.356760487105
 20
63.93593457079993
 30
0.0
  0
POINT
  5
3DBC
330
3D28
100
AcDbEntity
  8
Defpoints
 62
     0
100
AcDbPoint
 10
244.7662093060027
 20
63.93593457079993
 30
0.0
  0
ENDBLK
  5
3D2A
330
3D28
100
AcDbEntity
  8
0
100
AcDbBlockEnd
  0
BLOCK
  5
3D36
330
3D35
100
AcDbEntity
  8
0
100
AcDbBlockBegin
  2
*D20
 70
     1
 10
0.0
 20
0.0
 30
0.0
  3
*D20
  1

  0
LINE
  5
3DA9
330
3D35
100
AcDbEntity
  8
A-AENCL-DETAIL
 62
     0
370
    -2
100
AcDbLine
 10
229.356760487105
 20
81.87343457079984
 30
0.0
 11
220.0575478886798
 21
81.87343457079986
 31
0.0
  0
LINE
  5
3DAA
330
3D35
100
AcDbEntity
  8
A-AENCL-DETAIL
 62
     0
370
    -2
100
AcDbLine
 10
229.356760487105
 20
73.49843457079984
 30
0.0
 11
220.0575478886798
 21
73.49843457079986
 31
0.0
  0
LINE
  5
3DAB
330
3D35
100
AcDbEntity
  8
A-AENCL-DETAIL
 62
     0
370
    -2
100
AcDbLine
 10
220.0575478886798
 20
81.35343457079986
 30
0.0
 11
220.0575478886798
 21
78.65235672388523
 31
0.0
  0
LINE
  5
3DAC
330
3D35
100
AcDbEntity
  8
A-AENCL-DETAIL
 62
     0
370
    -2
100
AcDbLine
 10
220.0575478886798
 20
74.01843457079985
 30
0.0
 11
220.0575478886798
 21
77.75449812429311
 31
0.0
  0
SOLID
  5
3DAD
330
3D35
100
AcDbEntity
  8
A-AENCL-DETAIL
 62
     0
100
AcDbTrace
 10
219.9708812220132
 20
81.35343457079986
 30
0.0
 11
220.1442145553465
 21
81.35343457079986
 31
0.0
 12
220.0575478886798
 22
81.87343457079986
 32
0.0
 13
220.0575478886798
 23
81.87343457079986
 33
0.0
  0
SOLID
  5
3DAE
330
3D35
100
AcDbEntity
  8
A-AENCL-DETAIL
 62
     0
100
AcDbTrace
 10
219.9708812220132
 20
74.01843457079985
 30
0.0
 11
220.1442145553465
 21
74.01843457079985
 31
0.0
 12
220.0575478886798
 22
73.49843457079986
 32
0.0
 13
220.0575478886798
 23
73.49843457079986
 33
0.0
  0
MTEXT
  5
3DAF
330
3D35
100
AcDbEntity
  8
A-AENCL-DETAIL
 62
     0
100
AcDbMText
 10
220.0575478886798
 20
78.52735672388526
 30
0.0
 40
0.5
 41
0.0
 71
     2
 72
     1
  1
\A1;8.375 [212.73]
  7
SLDTEXTSTYLE0
 73
     1
 44
1.0
  0
POINT
  5
3DB0
330
3D35
100
AcDbEntity
  8
Defpoints
 62
     0
100
AcDbPoint
 10
229.419260487105
 20
81.87343457079984
 30
0.0
  0
POINT
  5
3DB1
330
3D35
100
AcDbEntity
  8
Defpoints
 62
     0
100
AcDbPoint
 10
229.419260487105
 20
73.49843457079984
 30
0.0
  0
POINT
  5
3DB2
330
3D35
100
AcDbEntity
  8
Defpoints
 62
     0
100
AcDbPoint
 10
220.0575478886798
 20
73.49843457079986
 30
0.0
  0
ENDBLK
  5
3D37
330
3D35
100
AcDbEntity
  8
0
100
AcDbBlockEnd
  0
BLOCK
  5
3D43
330
3D42
100
AcDbEntity
  8
0
100
AcDbBlockBegin
  2
*D21
 70
     1
 10
0.0
 20
0.0
 30
0.0
  3
*D21
  1

  0
LINE
  5
3D9F
330
3D42
100
AcDbEntity
  8
A-AENCL-DETAIL
 62
     0
370
    -2
100
AcDbLine
 10
229.169260487105
 20
73.68593457079985
 30
0.0
 11
229.169260487105
 21
69.01755410355178
 31
0.0
  0
LINE
  5
3DA0
330
3D42
100
AcDbEntity
  8
A-AENCL-DETAIL
 62
     0
370
    -2
100
AcDbLine
 10
237.5442604871051
 20
73.68593457079985
 30
0.0
 11
237.5442604871051
 21
69.01755410355178
 31
0.0
  0
LINE
  5
3DA1
330
3D42
100
AcDbEntity
  8
A-AENCL-DETAIL
 62
     0
370
    -2
100
AcDbLine
 10
229.689260487105
 20
69.01755410355178
 30
0.0
 11
231.3238578610031
 21
69.01755410355178
 31
0.0
  0
LINE
  5
3DA2
330
3D42
100
AcDbEntity
  8
A-AENCL-DETAIL
 62
     0
370
    -2
100
AcDbLine
 10
237.024260487105
 20
69.01755410355178
 30
0.0
 11
235.6066365829609
 21
69.01755410355178
 31
0.0
  0
SOLID
  5
3DA3
330
3D42
100
AcDbEntity
  8
A-AENCL-DETAIL
 62
     0
100
AcDbTrace
 10
229.689260487105
 20
69.10422077021846
 30
0.0
 11
229.689260487105
 21
68.93088743688512
 31
0.0
 12
229.169260487105
 22
69.01755410355178
 32
0.0
 13
229.169260487105
 23
69.01755410355178
 33
0.0
  0
SOLID
  5
3DA4
330
3D42
100
AcDbEntity
  8
A-AENCL-DETAIL
 62
     0
100
AcDbTrace
 10
237.024260487105
 20
69.10422077021846
 30
0.0
 11
237.024260487105
 21
68.93088743688512
 31
0.0
 12
237.5442604871051
 22
69.01755410355178
 32
0.0
 13
237.5442604871051
 23
69.01755410355178
 33
0.0
  0
MTEXT
  5
3DA5
330
3D42
100
AcDbEntity
  8
A-AENCL-DETAIL
 62
     0
100
AcDbMText
 10
233.465247221982
 20
69.34148340334785
 30
0.0
 40
0.5
 41
0.0
 71
     2
 72
     1
  1
\A1;8.375 [212.73]
  7
SLDTEXTSTYLE0
 73
     1
 44
1.0
  0
POINT
  5
3DA6
330
3D42
100
AcDbEntity
  8
Defpoints
 62
     0
100
AcDbPoint
 10
229.169260487105
 20
73.74843457079984
 30
0.0
  0
POINT
  5
3DA7
330
3D42
100
AcDbEntity
  8
Defpoints
 62
     0
100
AcDbPoint
 10
237.5442604871051
 20
73.74843457079984
 30
0.0
  0
POINT
  5
3DA8
330
3D42
100
AcDbEntity
  8
Defpoints
 62
     0
100
AcDbPoint
 10
237.5442604871051
 20
69.01755410355178
 30
0.0
  0
ENDBLK
  5
3D44
330
3D42
100
AcDbEntity
  8
0
100
AcDbBlockEnd
  0
BLOCK
  5
3DC9
330
3DC8
100
AcDbEntity
  8
0
100
AcDbBlockBegin
  2
*D22
 70
     1
 10
0.0
 20
0.0
 30
0.0
  3
*D22
  1

  0
LINE
  5
3E8E
330
3DC8
100
AcDbEntity
  8
A-ANNO-DIM
 62
     1
370
    -2
100
AcDbLine
 10
50.91129801905546
 20
89.56621573405966
 30
0.0
 11
50.91129801905546
 21
97.52092080849632
 31
0.0
  0
LINE
  5
3E8F
330
3DC8
100
AcDbEntity
  8
A-ANNO-DIM
 62
     1
370
    -2
100
AcDbLine
 10
64.97379801905549
 20
89.56621573405955
 30
0.0
 11
64.97379801905549
 21
97.52092080849632
 31
0.0
  0
LINE
  5
3E90
330
3DC8
100
AcDbEntity
  8
A-ANNO-DIM
 62
     1
370
    -2
100
AcDbLine
 10
49.47129801905546
 20
96.72092080849632
 30
0.0
 11
48.03129801905546
 21
96.72092080849632
 31
0.0
  0
LINE
  5
3E91
330
3DC8
100
AcDbEntity
  8
A-ANNO-DIM
 62
     1
370
    -2
100
AcDbLine
 10
66.41379801905549
 20
96.72092080849632
 30
0.0
 11
67.85379801905548
 21
96.72092080849632
 31
0.0
  0
MTEXT
  5
3E92
330
3DC8
100
AcDbEntity
  8
A-ANNO-DIM
 62
     4
100
AcDbMText
 10
57.94254801905548
 20
96.72092080849632
 30
0.0
 40
1.0
 41
0.0
 71
     5
 72
     1
  1
\A1;14.06 [357.2]
  7
ARCH
 73
     1
 44
1.0
  0
SOLID
  5
3E93
330
3DC8
100
AcDbEntity
  8
A-ANNO-DIM
 62
     1
100
AcDbTrace
 10
49.47129801905546
 20
96.96092080849631
 30
0.0
 11
49.47129801905546
 21
96.48092080849632
 31
0.0
 12
50.91129801905546
 22
96.72092080849632
 32
0.0
 13
50.91129801905546
 23
96.72092080849632
 33
0.0
  0
SOLID
  5
3E94
330
3DC8
100
AcDbEntity
  8
A-ANNO-DIM
 62
     1
100
AcDbTrace
 10
66.41379801905549
 20
96.96092080849631
 30
0.0
 11
66.41379801905549
 21
96.48092080849632
 31
0.0
 12
64.97379801905549
 22
96.72092080849632
 32
0.0
 13
64.97379801905549
 23
96.72092080849632
 33
0.0
  0
POINT
  5
3E95
330
3DC8
100
AcDbEntity
  8
Defpoints
 62
     0
100
AcDbPoint
 10
50.91129801905546
 20
88.76621573405968
 30
0.0
  0
POINT
  5
3E96
330
3DC8
100
AcDbEntity
  8
Defpoints
 62
     0
100
AcDbPoint
 10
64.97379801905549
 20
88.76621573405955
 30
0.0
  0
POINT
  5
3E97
330
3DC8
100
AcDbEntity
  8
Defpoints
 62
     0
100
AcDbPoint
 10
64.97379801905549
 20
96.72092080849632
 30
0.0
  0
ENDBLK
  5
3DCA
330
3DC8
100
AcDbEntity
  8
0
100
AcDbBlockEnd
  0
BLOCK
  5
3DD7
330
3DD6
100
AcDbEntity
  8
0
100
AcDbBlockBegin
  2
*D23
 70
     1
 10
0.0
 20
0.0
 30
0.0
  3
*D23
  1

  0
LINE
  5
3E52
330
3DD6
100
AcDbEntity
  8
A-ANNO-DIM
 62
     1
370
    -2
100
AcDbLine
 10
65.71129801905546
 20
88.76621573405959
 30
0.0
 11
79.22961917339619
 21
88.76621573405959
 31
0.0
  0
LINE
  5
3E53
330
3DD6
100
AcDbEntity
  8
A-ANNO-DIM
 62
     1
370
    -2
100
AcDbLine
 10
65.71129801905569
 20
68.26621573405976
 30
0.0
 11
79.22961917339619
 21
68.26621573405976
 31
0.0
  0
LINE
  5
3E54
330
3DD6
100
AcDbEntity
  8
A-ANNO-DIM
 62
     1
370
    -2
100
AcDbLine
 10
78.42961917339619
 20
87.32621573405959
 30
0.0
 11
78.42961917339619
 21
79.87414676854242
 31
0.0
  0
LINE
  5
3E55
330
3DD6
100
AcDbEntity
  8
A-ANNO-DIM
 62
     1
370
    -2
100
AcDbLine
 10
78.42961917339619
 20
69.70621573405975
 30
0.0
 11
78.42961917339619
 21
77.15828469957689
 31
0.0
  0
MTEXT
  5
3E56
330
3DD6
100
AcDbEntity
  8
A-ANNO-DIM
 62
     4
100
AcDbMText
 10
78.42961917339621
 20
78.51621573405967
 30
0.0
 40
1.0
 41
0.0
 71
     5
 72
     1
  1
\A1;20.50 [520.7]
  7
ARCH
 73
     1
 44
1.0
  0
SOLID
  5
3E57
330
3DD6
100
AcDbEntity
  8
A-ANNO-DIM
 62
     1
100
AcDbTrace
 10
78.1896191733962
 20
87.32621573405959
 30
0.0
 11
78.66961917339619
 21
87.32621573405959
 31
0.0
 12
78.42961917339619
 22
88.76621573405959
 32
0.0
 13
78.42961917339619
 23
88.76621573405959
 33
0.0
  0
SOLID
  5
3E58
330
3DD6
100
AcDbEntity
  8
A-ANNO-DIM
 62
     1
100
AcDbTrace
 10
78.1896191733962
 20
69.70621573405975
 30
0.0
 11
78.66961917339619
 21
69.70621573405975
 31
0.0
 12
78.42961917339619
 22
68.26621573405976
 32
0.0
 13
78.42961917339619
 23
68.26621573405976
 33
0.0
  0
POINT
  5
3E59
330
3DD6
100
AcDbEntity
  8
Defpoints
 62
     0
100
AcDbPoint
 10
64.91129801905547
 20
88.76621573405959
 30
0.0
  0
POINT
  5
3E5A
330
3DD6
100
AcDbEntity
  8
Defpoints
 62
     0
100
AcDbPoint
 10
64.91129801905569
 20
68.26621573405976
 30
0.0
  0
POINT
  5
3E5B
330
3DD6
100
AcDbEntity
  8
Defpoints
 62
     0
100
AcDbPoint
 10
78.42961917339619
 20
68.26621573405976
 30
0.0
  0
ENDBLK
  5
3DD8
330
3DD6
100
AcDbEntity
  8
0
100
AcDbBlockEnd
  0
BLOCK
  5
3DE5
330
3DE4
100
AcDbEntity
  8
0
100
AcDbBlockBegin
  2
*D24
 70
     1
 10
0.0
 20
0.0
 30
0.0
  3
*D24
  1

  0
LINE
  5
3E7A
330
3DE4
100
AcDbEntity
  8
A-ANNO-DIM
 62
     1
370
    -2
100
AcDbLine
 10
53.17379801905552
 20
86.20371573405966
 30
0.0
 11
38.96596728033975
 21
86.20371573405966
 31
0.0
  0
LINE
  5
3E7B
330
3DE4
100
AcDbEntity
  8
A-ANNO-DIM
 62
     1
370
    -2
100
AcDbLine
 10
53.17379801905552
 20
77.82871573405967
 30
0.0
 11
38.96596728033974
 21
77.82871573405967
 31
0.0
  0
LINE
  5
3E7C
330
3DE4
100
AcDbEntity
  8
A-ANNO-DIM
 62
     1
370
    -2
100
AcDbLine
 10
39.76596728033975
 20
87.64371573405966
 30
0.0
 11
39.76596728033975
 21
89.08371573405966
 31
0.0
  0
LINE
  5
3E7D
330
3DE4
100
AcDbEntity
  8
A-ANNO-DIM
 62
     1
370
    -2
100
AcDbLine
 10
39.76596728033974
 20
76.38871573405968
 30
0.0
 11
39.76596728033974
 21
74.94871573405967
 31
0.0
  0
MTEXT
  5
3E7E
330
3DE4
100
AcDbEntity
  8
A-ANNO-DIM
 62
     4
100
AcDbMText
 10
39.76596728033974
 20
81.06344266103581
 30
0.0
 40
1.0
 41
0.0
 71
     5
 72
     1
  1
\A1;8.38 [212.7]\PSQ.
  7
ARCH
 73
     1
 44
1.0
  0
SOLID
  5
3E7F
330
3DE4
100
AcDbEntity
  8
A-ANNO-DIM
 62
     1
100
AcDbTrace
 10
39.52596728033974
 20
87.64371573405966
 30
0.0
 11
40.00596728033975
 21
87.64371573405966
 31
0.0
 12
39.76596728033975
 22
86.20371573405966
 32
0.0
 13
39.76596728033975
 23
86.20371573405966
 33
0.0
  0
SOLID
  5
3E80
330
3DE4
100
AcDbEntity
  8
A-ANNO-DIM
 62
     1
100
AcDbTrace
 10
39.52596728033974
 20
76.38871573405968
 30
0.0
 11
40.00596728033974
 21
76.38871573405968
 31
0.0
 12
39.76596728033974
 22
77.82871573405967
 32
0.0
 13
39.76596728033974
 23
77.82871573405967
 33
0.0
  0
POINT
  5
3E81
330
3DE4
100
AcDbEntity
  8
Defpoints
 62
     0
100
AcDbPoint
 10
53.97379801905552
 20
86.20371573405966
 30
0.0
  0
POINT
  5
3E82
330
3DE4
100
AcDbEntity
  8
Defpoints
 62
     0
100
AcDbPoint
 10
53.97379801905552
 20
77.82871573405967
 30
0.0
  0
POINT
  5
3E83
330
3DE4
100
AcDbEntity
  8
Defpoints
 62
     0
100
AcDbPoint
 10
39.76596728033974
 20
77.82871573405967
 30
0.0
  0
ENDBLK
  5
3DE6
330
3DE4
100
AcDbEntity
  8
0
100
AcDbBlockEnd
  0
BLOCK
  5
3E1B
330
3E1A
100
AcDbEntity
  8
0
100
AcDbBlockBegin
  2
*D25
 70
     1
 10
0.0
 20
0.0
 30
0.0
  3
*D25
  1

  0
LINE
  5
3E66
330
3E1A
100
AcDbEntity
  8
A-ANNO-DIM
 62
     1
370
    -2
100
AcDbLine
 10
65.71129801905555
 20
88.76621573405968
 30
0.0
 11
71.04171391450101
 21
88.76621573405968
 31
0.0
  0
LINE
  5
3E67
330
3E1A
100
AcDbEntity
  8
A-ANNO-DIM
 62
     1
370
    -2
100
AcDbLine
 10
62.64879801905549
 20
86.20371573405966
 30
0.0
 11
71.04171391450101
 21
86.20371573405966
 31
0.0
  0
LINE
  5
3E68
330
3E1A
100
AcDbEntity
  8
A-ANNO-DIM
 62
     1
370
    -2
100
AcDbLine
 10
70.24171391450102
 20
90.20621573405966
 30
0.0
 11
70.24171391450102
 21
91.64621573405966
 31
0.0
  0
LINE
  5
3E69
330
3E1A
100
AcDbEntity
  8
A-ANNO-DIM
 62
     1
370
    -2
100
AcDbLine
 10
70.24171391450102
 20
84.76371573405968
 30
0.0
 11
70.24171391450102
 21
83.32371573405968
 31
0.0
  0
MTEXT
  5
3E6A
330
3E1A
100
AcDbEntity
  8
A-ANNO-DIM
 62
     4
100
AcDbMText
 10
70.24171391450102
 20
87.36777240185034
 30
0.0
 40
1.0
 41
0.0
 71
     5
 72
     1
  1
\A1;2.56 [65.1]
  7
ARCH
 73
     1
 44
1.0
  0
SOLID
  5
3E6B
330
3E1A
100
AcDbEntity
  8
A-ANNO-DIM
 62
     1
100
AcDbTrace
 10
70.00171391450102
 20
90.20621573405966
 30
0.0
 11
70.48171391450101
 21
90.20621573405966
 31
0.0
 12
70.24171391450102
 22
88.76621573405968
 32
0.0
 13
70.24171391450102
 23
88.76621573405968
 33
0.0
  0
SOLID
  5
3E6C
330
3E1A
100
AcDbEntity
  8
A-ANNO-DIM
 62
     1
100
AcDbTrace
 10
70.00171391450102
 20
84.76371573405968
 30
0.0
 11
70.48171391450101
 21
84.76371573405968
 31
0.0
 12
70.24171391450102
 22
86.20371573405966
 32
0.0
 13
70.24171391450102
 23
86.20371573405966
 33
0.0
  0
POINT
  5
3E6D
330
3E1A
100
AcDbEntity
  8
Defpoints
 62
     0
100
AcDbPoint
 10
64.91129801905555
 20
88.76621573405968
 30
0.0
  0
POINT
  5
3E6E
330
3E1A
100
AcDbEntity
  8
Defpoints
 62
     0
100
AcDbPoint
 10
61.84879801905549
 20
86.20371573405966
 30
0.0
  0
POINT
  5
3E6F
330
3E1A
100
AcDbEntity
  8
Defpoints
 62
     0
100
AcDbPoint
 10
70.24171391450102
 20
86.20371573405966
 30
0.0
  0
ENDBLK
  5
3E1C
330
3E1A
100
AcDbEntity
  8
0
100
AcDbBlockEnd
  0
BLOCK
  5
3E3C
330
3E3B
100
AcDbEntity
  8
0
100
AcDbBlockBegin
  2
*D26
 70
     1
 10
0.0
 20
0.0
 30
0.0
  3
*D26
  1

  0
LINE
  5
3E70
330
3E3B
100
AcDbEntity
  8
A-ANNO-DIM
 62
     1
370
    -2
100
AcDbLine
 10
65.71129801905549
 20
121.9693693328981
 30
0.0
 11
77.36909636875331
 21
121.9693693328981
 31
0.0
  0
LINE
  5
3E71
330
3E3B
100
AcDbEntity
  8
A-ANNO-DIM
 62
     1
370
    -2
100
AcDbLine
 10
65.71129801905552
 20
116.7193693328981
 30
0.0
 11
77.36909636875331
 21
116.7193693328981
 31
0.0
  0
LINE
  5
3E72
330
3E3B
100
AcDbEntity
  8
A-ANNO-DIM
 62
     1
370
    -2
100
AcDbLine
 10
76.56909636875332
 20
123.4093693328981
 30
0.0
 11
76.56909636875332
 21
124.8493693328981
 31
0.0
  0
LINE
  5
3E73
330
3E3B
100
AcDbEntity
  8
A-ANNO-DIM
 62
     1
370
    -2
100
AcDbLine
 10
76.56909636875332
 20
115.2793693328981
 30
0.0
 11
76.56909636875332
 21
113.8393693328981
 31
0.0
  0
MTEXT
  5
3E74
330
3E3B
100
AcDbEntity
  8
A-ANNO-DIM
 62
     4
100
AcDbMText
 10
76.56909636875332
 20
119.1895626359368
 30
0.0
 40
1.0
 41
0.0
 71
     5
 72
     1
  1
\A1;5.25 [133.4]
  7
ARCH
 73
     1
 44
1.0
  0
SOLID
  5
3E75
330
3E3B
100
AcDbEntity
  8
A-ANNO-DIM
 62
     1
100
AcDbTrace
 10
76.32909636875332
 20
123.4093693328981
 30
0.0
 11
76.80909636875331
 21
123.4093693328981
 31
0.0
 12
76.56909636875332
 22
121.9693693328981
 32
0.0
 13
76.56909636875332
 23
121.9693693328981
 33
0.0
  0
SOLID
  5
3E76
330
3E3B
100
AcDbEntity
  8
A-ANNO-DIM
 62
     1
100
AcDbTrace
 10
76.32909636875332
 20
115.2793693328981
 30
0.0
 11
76.80909636875331
 21
115.2793693328981
 31
0.0
 12
76.56909636875332
 22
116.7193693328981
 32
0.0
 13
76.56909636875332
 23
116.7193693328981
 33
0.0
  0
POINT
  5
3E77
330
3E3B
100
AcDbEntity
  8
Defpoints
 62
     0
100
AcDbPoint
 10
64.91129801905549
 20
121.9693693328981
 30
0.0
  0
POINT
  5
3E78
330
3E3B
100
AcDbEntity
  8
Defpoints
 62
     0
100
AcDbPoint
 10
64.91129801905552
 20
116.7193693328981
 30
0.0
  0
POINT
  5
3E79
330
3E3B
100
AcDbEntity
  8
Defpoints
 62
     0
100
AcDbPoint
 10
76.56909636875332
 20
116.7193693328981
 30
0.0
  0
ENDBLK
  5
3E3D
330
3E3B
100
AcDbEntity
  8
0
100
AcDbBlockEnd
  0
BLOCK
  5
3EB3
330
3EB2
100
AcDbEntity
  8
0
100
AcDbBlockBegin
  2
*D28
 70
     1
 10
0.0
 20
0.0
 30
0.0
  3
*D28
  1

  0
LINE
  5
3EB4
330
3EB2
100
AcDbEntity
  8
0
 62
     0
370
    -2
100
AcDbLine
 10
65.56001460074091
 20
115.8116397746913
 30
0.0
 11
65.56001460074091
 21
118.2553076703603
 31
0.0
  0
LINE
  5
3EB5
330
3EB2
100
AcDbEntity
  8
0
 62
     0
370
    -2
100
AcDbLine
 10
79.56001460074102
 20
115.8116397746913
 30
0.0
 11
79.56001460074102
 21
118.2553076703603
 31
0.0
  0
LINE
  5
3EB6
330
3EB2
100
AcDbEntity
  8
0
 62
     0
370
    -2
100
AcDbLine
 10
66.60001460074091
 20
118.2553076703603
 30
0.0
 11
67.39753335530406
 21
118.2553076703603
 31
0.0
  0
LINE
  5
3EB7
330
3EB2
100
AcDbEntity
  8
0
 62
     0
370
    -2
100
AcDbLine
 10
78.52001460074102
 20
118.2553076703603
 30
0.0
 11
76.52975905210894
 21
118.2553076703603
 31
0.0
  0
SOLID
  5
3EB8
330
3EB2
100
AcDbEntity
  8
0
 62
     0
100
AcDbTrace
 10
66.60001460074091
 20
118.4286410036937
 30
0.0
 11
66.60001460074091
 21
118.081974337027
 31
0.0
 12
65.56001460074091
 22
118.2553076703603
 32
0.0
 13
65.56001460074091
 23
118.2553076703603
 33
0.0
  0
SOLID
  5
3EB9
330
3EB2
100
AcDbEntity
  8
0
 62
     0
100
AcDbTrace
 10
78.52001460074102
 20
118.4286410036937
 30
0.0
 11
78.52001460074102
 21
118.081974337027
 31
0.0
 12
79.56001460074102
 22
118.2553076703603
 32
0.0
 13
79.56001460074102
 23
118.2553076703603
 33
0.0
  0
MTEXT
  5
3EBA
330
3EB2
100
AcDbEntity
  8
0
 62
     0
100
AcDbMText
 10
71.9636462037065
 20
118.9031662699524
 30
0.0
 40
1.0
 41
0.0
 71
     2
 72
     1
  1
\A1;14.000 [355.60]
  7
SLDTEXTSTYLE0
 73
     1
 44
1.0
  0
POINT
  5
3EBB
330
3EB2
100
AcDbEntity
  8
Defpoints
 62
     0
100
AcDbPoint
 10
65.56001460074091
 20
115.7491397746913
 30
0.0
  0
POINT
  5
3EBC
330
3EB2
100
AcDbEntity
  8
Defpoints
 62
     0
100
AcDbPoint
 10
79.56001460074102
 20
115.7491397746913
 30
0.0
  0
POINT
  5
3EBD
330
3EB2
100
AcDbEntity
  8
Defpoints
 62
     0
100
AcDbPoint
 10
79.56001460074102
 20
118.2553076703603
 30
0.0
  0
ENDBLK
  5
3EBE
330
3EB2
100
AcDbEntity
  8
0
100
AcDbBlockEnd
  0
BLOCK
  5
3EC0
330
3EBF
100
AcDbEntity
  8
0
100
AcDbBlockBegin
  2
*D29
 70
     1
 10
0.0
 20
0.0
 30
0.0
  3
*D29
  1

  0
LINE
  5
3EC1
330
3EBF
100
AcDbEntity
  8
0
 62
     0
370
    -2
100
AcDbLine
 10
69.03001460074095
 20
101.1241397746913
 30
0.0
 11
69.03001460074095
 21
96.57054717898803
 31
0.0
  0
LINE
  5
3EC2
330
3EBF
100
AcDbEntity
  8
0
 62
     0
370
    -2
100
AcDbLine
 10
76.09001460074097
 20
101.1241397746913
 30
0.0
 11
76.09001460074097
 21
96.57054717898803
 31
0.0
  0
LINE
  5
3EC3
330
3EBF
100
AcDbEntity
  8
0
 62
     0
370
    -2
100
AcDbLine
 10
70.07001460074096
 20
96.57054717898803
 30
0.0
 11
75.05001460074097
 21
96.57054717898803
 31
0.0
  0
LINE
  5
3EC4
330
3EBF
100
AcDbEntity
  8
0
 62
     0
370
    -2
100
AcDbLine
 10
76.09001460074097
 20
96.57054717898803
 30
0.0
 11
84.92656286401782
 21
96.57054717898803
 31
0.0
  0
SOLID
  5
3EC5
330
3EBF
100
AcDbEntity
  8
0
 62
     0
100
AcDbTrace
 10
70.07001460074096
 20
96.74388051232137
 30
0.0
 11
70.07001460074096
 21
96.3972138456547
 31
0.0
 12
69.03001460074095
 22
96.57054717898803
 32
0.0
 13
69.03001460074095
 23
96.57054717898803
 33
0.0
  0
SOLID
  5
3EC6
330
3EBF
100
AcDbEntity
  8
0
 62
     0
100
AcDbTrace
 10
75.05001460074097
 20
96.74388051232137
 30
0.0
 11
75.05001460074097
 21
96.3972138456547
 31
0.0
 12
76.09001460074097
 22
96.57054717898803
 32
0.0
 13
76.09001460074097
 23
96.57054717898803
 33
0.0
  0
MTEXT
  5
3EC7
330
3EBF
100
AcDbEntity
  8
0
 62
     0
100
AcDbMText
 10
89.18513560365072
 20
97.21840577858015
 30
0.0
 40
1.0
 41
0.0
 71
     2
 72
     1
  1
\A1;7.060 [179.32]
  7
SLDTEXTSTYLE0
 73
     1
 44
1.0
  0
POINT
  5
3EC8
330
3EBF
100
AcDbEntity
  8
Defpoints
 62
     0
100
AcDbPoint
 10
69.03001460074095
 20
101.1866397746913
 30
0.0
  0
POINT
  5
3EC9
330
3EBF
100
AcDbEntity
  8
Defpoints
 62
     0
100
AcDbPoint
 10
76.09001460074097
 20
101.1866397746913
 30
0.0
  0
POINT
  5
3ECA
330
3EBF
100
AcDbEntity
  8
Defpoints
 62
     0
100
AcDbPoint
 10
76.09001460074097
 20
96.57054717898803
 30
0.0
  0
ENDBLK
  5
3ECB
330
3EBF
100
AcDbEntity
  8
0
100
AcDbBlockEnd
  0
BLOCK
  5
3ECD
330
3ECC
100
AcDbEntity
  8
0
100
AcDbBlockBegin
  2
*D30
 70
     1
 10
0.0
 20
0.0
 30
0.0
  3
*D30
  1

  0
LINE
  5
3ECE
330
3ECC
100
AcDbEntity
  8
0
 62
     0
370
    -2
100
AcDbLine
 10
69.21751460074095
 20
111.8116397746913
 30
0.0
 11
56.74111696294549
 21
111.8116397746913
 31
0.0
  0
LINE
  5
3ECF
330
3ECC
100
AcDbEntity
  8
0
 62
     0
370
    -2
100
AcDbLine
 10
69.21751460074095
 20
100.9366397746913
 30
0.0
 11
56.74111696294549
 21
100.9366397746913
 31
0.0
  0
LINE
  5
3ED0
330
3ECC
100
AcDbEntity
  8
0
 62
     0
370
    -2
100
AcDbLine
 10
56.74111696294549
 20
110.7716397746913
 30
0.0
 11
56.74111696294549
 21
107.4476062377165
 31
0.0
  0
LINE
  5
3ED1
330
3ECC
100
AcDbEntity
  8
0
 62
     0
370
    -2
100
AcDbLine
 10
56.74111696294549
 20
101.9766397746913
 30
0.0
 11
56.74111696294549
 21
105.6518890385323
 31
0.0
  0
SOLID
  5
3ED2
330
3ECC
100
AcDbEntity
  8
0
 62
     0
100
AcDbTrace
 10
56.56778362961216
 20
110.7716397746913
 30
0.0
 11
56.91445029627883
 21
110.7716397746913
 31
0.0
 12
56.74111696294549
 22
111.8116397746913
 32
0.0
 13
56.74111696294549
 23
111.8116397746913
 33
0.0
  0
SOLID
  5
3ED3
330
3ECC
100
AcDbEntity
  8
0
 62
     0
100
AcDbTrace
 10
56.56778362961216
 20
101.9766397746913
 30
0.0
 11
56.91445029627883
 21
101.9766397746913
 31
0.0
 12
56.74111696294549
 22
100.9366397746913
 32
0.0
 13
56.74111696294549
 23
100.9366397746913
 33
0.0
  0
MTEXT
  5
3ED4
330
3ECC
100
AcDbEntity
  8
0
 62
     0
100
AcDbMText
 10
56.74111696294549
 20
107.1976062377165
 30
0.0
 40
1.0
 41
0.0
 71
     2
 72
     1
  1
\A1;10.875 [276.22]
  7
SLDTEXTSTYLE0
 73
     1
 44
1.0
  0
POINT
  5
3ED5
330
3ECC
100
AcDbEntity
  8
Defpoints
 62
     0
100
AcDbPoint
 10
69.28001460074096
 20
111.8116397746913
 30
0.0
  0
POINT
  5
3ED6
330
3ECC
100
AcDbEntity
  8
Defpoints
 62
     0
100
AcDbPoint
 10
69.28001460074096
 20
100.9366397746913
 30
0.0
  0
POINT
  5
3ED7
330
3ECC
100
AcDbEntity
  8
Defpoints
 62
     0
100
AcDbPoint
 10
56.74111696294549
 20
100.9366397746913
 30
0.0
  0
ENDBLK
  5
3ED8
330
3ECC
100
AcDbEntity
  8
0
100
AcDbBlockEnd
  0
BLOCK
  5
3FF9
330
3FF8
100
AcDbEntity
  8
0
100
AcDbBlockBegin
  2
*D32
 70
     1
 10
0.0
 20
0.0
 30
0.0
  3
*D32
  1

  0
LINE
  5
406F
330
3FF8
100
AcDbEntity
  8
A-AENCL-DETAIL
 62
     0
370
    -2
100
AcDbLine
 10
240.4738894069556
 20
98.08728380258322
 30
0.0
 11
240.4738894069556
 21
100.5309516982522
 31
0.0
  0
LINE
  5
4070
330
3FF8
100
AcDbEntity
  8
A-AENCL-DETAIL
 62
     0
370
    -2
100
AcDbLine
 10
254.4738894069558
 20
98.08728380258322
 30
0.0
 11
254.4738894069558
 21
100.5309516982522
 31
0.0
  0
LINE
  5
4071
330
3FF8
100
AcDbEntity
  8
A-AENCL-DETAIL
 62
     0
370
    -2
100
AcDbLine
 10
240.9938894069556
 20
100.5309516982522
 30
0.0
 11
244.59446458572
 21
100.5309516982522
 31
0.0
  0
LINE
  5
4072
330
3FF8
100
AcDbEntity
  8
A-AENCL-DETAIL
 62
     0
370
    -2
100
AcDbLine
 10
253.9538894069557
 20
100.5309516982522
 30
0.0
 11
249.1605774341224
 21
100.5309516982522
 31
0.0
  0
SOLID
  5
4073
330
3FF8
100
AcDbEntity
  8
A-AENCL-DETAIL
 62
     0
100
AcDbTrace
 10
240.9938894069556
 20
100.6176183649189
 30
0.0
 11
240.9938894069556
 21
100.4442850315855
 31
0.0
 12
240.4738894069556
 22
100.5309516982522
 32
0.0
 13
240.4738894069556
 23
100.5309516982522
 33
0.0
  0
SOLID
  5
4074
330
3FF8
100
AcDbEntity
  8
A-AENCL-DETAIL
 62
     0
100
AcDbTrace
 10
253.9538894069557
 20
100.6176183649189
 30
0.0
 11
253.9538894069557
 21
100.4442850315855
 31
0.0
 12
254.4738894069558
 22
100.5309516982522
 32
0.0
 13
254.4738894069558
 23
100.5309516982522
 33
0.0
  0
MTEXT
  5
4075
330
3FF8
100
AcDbEntity
  8
A-AENCL-DETAIL
 62
     0
100
AcDbMText
 10
246.8775210099212
 20
100.8548809980482
 30
0.0
 40
0.5
 41
0.0
 71
     2
 72
     1
  1
\A1;14.000 [355.60]
  7
SLDTEXTSTYLE0
 73
     1
 44
1.0
  0
POINT
  5
4076
330
3FF8
100
AcDbEntity
  8
Defpoints
 62
     0
100
AcDbPoint
 10
240.4738894069556
 20
98.02478380258321
 30
0.0
  0
POINT
  5
4077
330
3FF8
100
AcDbEntity
  8
Defpoints
 62
     0
100
AcDbPoint
 10
254.4738894069558
 20
98.02478380258321
 30
0.0
  0
POINT
  5
4078
330
3FF8
100
AcDbEntity
  8
Defpoints
 62
     0
100
AcDbPoint
 10
254.4738894069558
 20
100.5309516982522
 30
0.0
  0
ENDBLK
  5
3FFA
330
3FF8
100
AcDbEntity
  8
0
100
AcDbBlockEnd
  0
BLOCK
  5
4006
330
4005
100
AcDbEntity
  8
0
100
AcDbBlockBegin
  2
*D33
 70
     1
 10
0.0
 20
0.0
 30
0.0
  3
*D33
  1

  0
LINE
  5
4065
330
4005
100
AcDbEntity
  8
A-AENCL-DETAIL
 62
     0
370
    -2
100
AcDbLine
 10
243.9438894069557
 20
83.39978380258321
 30
0.0
 11
243.9438894069557
 21
78.8461912068799
 31
0.0
  0
LINE
  5
4066
330
4005
100
AcDbEntity
  8
A-AENCL-DETAIL
 62
     0
370
    -2
100
AcDbLine
 10
251.0038894069557
 20
83.39978380258321
 30
0.0
 11
251.0038894069557
 21
78.8461912068799
 31
0.0
  0
LINE
  5
4067
330
4005
100
AcDbEntity
  8
A-AENCL-DETAIL
 62
     0
370
    -2
100
AcDbLine
 10
244.4638894069557
 20
78.8461912068799
 30
0.0
 11
250.4838894069557
 21
78.8461912068799
 31
0.0
  0
LINE
  5
4068
330
4005
100
AcDbEntity
  8
A-AENCL-DETAIL
 62
     0
370
    -2
100
AcDbLine
 10
251.0038894069557
 20
78.8461912068799
 30
0.0
 11
262.1458380781183
 21
78.8461912068799
 31
0.0
  0
SOLID
  5
4069
330
4005
100
AcDbEntity
  8
A-AENCL-DETAIL
 62
     0
100
AcDbTrace
 10
244.4638894069557
 20
78.93285787354658
 30
0.0
 11
244.4638894069557
 21
78.75952454021323
 31
0.0
 12
243.9438894069557
 22
78.8461912068799
 32
0.0
 13
243.9438894069557
 23
78.8461912068799
 33
0.0
  0
SOLID
  5
406A
330
4005
100
AcDbEntity
  8
A-AENCL-DETAIL
 62
     0
100
AcDbTrace
 10
250.4838894069557
 20
78.93285787354658
 30
0.0
 11
250.4838894069557
 21
78.75952454021323
 31
0.0
 12
251.0038894069557
 22
78.8461912068799
 32
0.0
 13
251.0038894069557
 23
78.8461912068799
 33
0.0
  0
MTEXT
  5
406B
330
4005
100
AcDbEntity
  8
A-AENCL-DETAIL
 62
     0
100
AcDbMText
 10
264.0990104098654
 20
79.17012050667597
 30
0.0
 40
0.5
 41
0.0
 71
     2
 72
     1
  1
\A1;7.06 [179.32]
  7
SLDTEXTSTYLE0
 73
     1
 44
1.0
  0
POINT
  5
406C
330
4005
100
AcDbEntity
  8
Defpoints
 62
     0
100
AcDbPoint
 10
243.9438894069557
 20
83.46228380258322
 30
0.0
  0
POINT
  5
406D
330
4005
100
AcDbEntity
  8
Defpoints
 62
     0
100
AcDbPoint
 10
251.0038894069557
 20
83.46228380258322
 30
0.0
  0
POINT
  5
406E
330
4005
100
AcDbEntity
  8
Defpoints
 62
     0
100
AcDbPoint
 10
251.0038894069557
 20
78.8461912068799
 30
0.0
  0
ENDBLK
  5
4007
330
4005
100
AcDbEntity
  8
0
100
AcDbBlockEnd
  0
BLOCK
  5
4013
330
4012
100
AcDbEntity
  8
0
100
AcDbBlockBegin
  2
*D34
 70
     1
 10
0.0
 20
0.0
 30
0.0
  3
*D34
  1

  0
LINE
  5
405B
330
4012
100
AcDbEntity
  8
A-AENCL-DETAIL
 62
     0
370
    -2
100
AcDbLine
 10
244.1313894069557
 20
94.0872838025832
 30
0.0
 11
231.6549917691602
 21
94.0872838025832
 31
0.0
  0
LINE
  5
405C
330
4012
100
AcDbEntity
  8
A-AENCL-DETAIL
 62
     0
370
    -2
100
AcDbLine
 10
244.1313894069557
 20
83.21228380258322
 30
0.0
 11
231.6549917691602
 21
83.21228380258322
 31
0.0
  0
LINE
  5
405D
330
4012
100
AcDbEntity
  8
A-AENCL-DETAIL
 62
     0
370
    -2
100
AcDbLine
 10
231.6549917691602
 20
93.04728380258319
 30
0.0
 11
231.6549917691602
 21
89.72325026560836
 31
0.0
  0
LINE
  5
405E
330
4012
100
AcDbEntity
  8
A-AENCL-DETAIL
 62
     0
370
    -2
100
AcDbLine
 10
231.6549917691602
 20
84.25228380258323
 30
0.0
 11
231.6549917691602
 21
87.92753306642415
 31
0.0
  0
SOLID
  5
405F
330
4012
100
AcDbEntity
  8
A-AENCL-DETAIL
 62
     0
100
AcDbTrace
 10
231.4816584358269
 20
93.04728380258319
 30
0.0
 11
231.8283251024936
 21
93.04728380258319
 31
0.0
 12
231.6549917691602
 22
94.0872838025832
 32
0.0
 13
231.6549917691602
 23
94.0872838025832
 33
0.0
  0
SOLID
  5
4060
330
4012
100
AcDbEntity
  8
A-AENCL-DETAIL
 62
     0
100
AcDbTrace
 10
231.4816584358269
 20
84.25228380258323
 30
0.0
 11
231.8283251024936
 21
84.25228380258323
 31
0.0
 12
231.6549917691602
 22
83.21228380258322
 32
0.0
 13
231.6549917691602
 23
83.21228380258322
 33
0.0
  0
MTEXT
  5
4061
330
4012
100
AcDbEntity
  8
A-AENCL-DETAIL
 62
     0
100
AcDbMText
 10
231.6549917691602
 20
89.47325026560841
 30
0.0
 40
1.0
 41
0.0
 71
     2
 72
     1
  1
\A1;10.875 [276.22]
  7
SLDTEXTSTYLE0
 73
     1
 44
1.0
  0
POINT
  5
4062
330
4012
100
AcDbEntity
  8
Defpoints
 62
     0
100
AcDbPoint
 10
244.1938894069557
 20
94.0872838025832
 30
0.0
  0
POINT
  5
4063
330
4012
100
AcDbEntity
  8
Defpoints
 62
     0
100
AcDbPoint
 10
244.1938894069557
 20
83.21228380258322
 30
0.0
  0
POINT
  5
4064
330
4012
100
AcDbEntity
  8
Defpoints
 62
     0
100
AcDbPoint
 10
231.6549917691602
 20
83.21228380258322
 30
0.0
  0
ENDBLK
  5
4014
330
4012
100
AcDbEntity
  8
0
100
AcDbBlockEnd
  0
BLOCK
  5
407B
330
407A
100
AcDbEntity
  8
0
100
AcDbBlockBegin
  2
*D35
 70
     1
 10
0.0
 20
0.0
 30
0.0
  3
*D35
  1

  0
LINE
  5
40E0
330
407A
100
AcDbEntity
  8
A-ANNO-DIM
 62
     1
370
    -2
100
AcDbLine
 10
57.73220213010013
 20
94.08728380258322
 30
0.0
 11
35.54224349360613
 21
94.08728380258322
 31
0.0
  0
LINE
  5
40E1
330
407A
100
AcDbEntity
  8
A-ANNO-DIM
 62
     1
370
    -2
100
AcDbLine
 10
57.73220213010013
 20
83.21228380258322
 30
0.0
 11
35.54224349360613
 21
83.21228380258322
 31
0.0
  0
LINE
  5
40E2
330
407A
100
AcDbEntity
  8
A-ANNO-DIM
 62
     1
370
    -2
100
AcDbLine
 10
36.34224349360613
 20
92.64728380258324
 30
0.0
 11
36.34224349360613
 21
89.85884430795543
 31
0.0
  0
LINE
  5
40E3
330
407A
100
AcDbEntity
  8
A-ANNO-DIM
 62
     1
370
    -2
100
AcDbLine
 10
36.34224349360613
 20
84.65228380258322
 30
0.0
 11
36.34224349360613
 21
87.14298223898991
 31
0.0
  0
MTEXT
  5
40E4
330
407A
100
AcDbEntity
  8
A-ANNO-DIM
 62
     4
100
AcDbMText
 10
36.34224349360613
 20
88.5009132734727
 30
0.0
 40
1.0
 41
0.0
 71
     5
 72
     1
  1
\A1;10.88 [276.2]
  7
ARCH
 73
     1
 44
1.0
  0
SOLID
  5
40E5
330
407A
100
AcDbEntity
  8
A-ANNO-DIM
 62
     1
100
AcDbTrace
 10
36.10224349360613
 20
92.64728380258324
 30
0.0
 11
36.58224349360614
 21
92.64728380258324
 31
0.0
 12
36.34224349360613
 22
94.08728380258322
 32
0.0
 13
36.34224349360613
 23
94.08728380258322
 33
0.0
  0
SOLID
  5
40E6
330
407A
100
AcDbEntity
  8
A-ANNO-DIM
 62
     1
100
AcDbTrace
 10
36.10224349360613
 20
84.65228380258322
 30
0.0
 11
36.58224349360614
 21
84.65228380258322
 31
0.0
 12
36.34224349360613
 22
83.21228380258322
 32
0.0
 13
36.34224349360613
 23
83.21228380258322
 33
0.0
  0
POINT
  5
40E7
330
407A
100
AcDbEntity
  8
Defpoints
 62
     0
100
AcDbPoint
 10
58.53220213010013
 20
94.08728380258322
 30
0.0
  0
POINT
  5
40E8
330
407A
100
AcDbEntity
  8
Defpoints
 62
     0
100
AcDbPoint
 10
58.53220213010013
 20
83.21228380258322
 30
0.0
  0
POINT
  5
40E9
330
407A
100
AcDbEntity
  8
Defpoints
 62
     0
100
AcDbPoint
 10
36.34224349360613
 20
83.21228380258322
 30
0.0
  0
ENDBLK
  5
407C
330
407A
100
AcDbEntity
  8
0
100
AcDbBlockEnd
  0
BLOCK
  5
4093
330
4092
100
AcDbEntity
  8
0
100
AcDbBlockBegin
  2
*D36
 70
     1
 10
0.0
 20
0.0
 30
0.0
  3
*D36
  1

  0
LINE
  5
40EA
330
4092
100
AcDbEntity
  8
A-ANNO-DIM
 62
     1
370
    -2
100
AcDbLine
 10
54.81220213010008
 20
98.82478380258326
 30
0.0
 11
54.81220213010008
 21
110.2726985971523
 31
0.0
  0
LINE
  5
40EB
330
4092
100
AcDbEntity
  8
A-ANNO-DIM
 62
     1
370
    -2
100
AcDbLine
 10
68.8122021301001
 20
98.82478380258318
 30
0.0
 11
68.8122021301001
 21
110.2726985971523
 31
0.0
  0
LINE
  5
40EC
330
4092
100
AcDbEntity
  8
A-ANNO-DIM
 62
     1
370
    -2
100
AcDbLine
 10
53.37220213010008
 20
109.4726985971524
 30
0.0
 11
51.93220213010008
 21
109.4726985971524
 31
0.0
  0
LINE
  5
40ED
330
4092
100
AcDbEntity
  8
A-ANNO-DIM
 62
     1
370
    -2
100
AcDbLine
 10
70.2522021301001
 20
109.4726985971524
 30
0.0
 11
71.6922021301001
 21
109.4726985971524
 31
0.0
  0
MTEXT
  5
40EE
330
4092
100
AcDbEntity
  8
A-ANNO-DIM
 62
     4
100
AcDbMText
 10
61.83451493990651
 20
109.4726985971524
 30
0.0
 40
1.0
 41
0.0
 71
     5
 72
     1
  1
\A1;14.00 [355.6]
  7
ARCH
 73
     1
 44
1.0
  0
SOLID
  5
40EF
330
4092
100
AcDbEntity
  8
A-ANNO-DIM
 62
     1
100
AcDbTrace
 10
53.37220213010008
 20
109.7126985971524
 30
0.0
 11
53.37220213010008
 21
109.2326985971524
 31
0.0
 12
54.81220213010008
 22
109.4726985971524
 32
0.0
 13
54.81220213010008
 23
109.4726985971524
 33
0.0
  0
SOLID
  5
40F0
330
4092
100
AcDbEntity
  8
A-ANNO-DIM
 62
     1
100
AcDbTrace
 10
70.2522021301001
 20
109.7126985971524
 30
0.0
 11
70.2522021301001
 21
109.2326985971524
 31
0.0
 12
68.8122021301001
 22
109.4726985971524
 32
0.0
 13
68.8122021301001
 23
109.4726985971524
 33
0.0
  0
POINT
  5
40F1
330
4092
100
AcDbEntity
  8
Defpoints
 62
     0
100
AcDbPoint
 10
54.81220213010008
 20
98.02478380258328
 30
0.0
  0
POINT
  5
40F2
330
4092
100
AcDbEntity
  8
Defpoints
 62
     0
100
AcDbPoint
 10
68.8122021301001
 20
98.02478380258317
 30
0.0
  0
POINT
  5
40F3
330
4092
100
AcDbEntity
  8
Defpoints
 62
     0
100
AcDbPoint
 10
68.8122021301001
 20
109.4726985971524
 30
0.0
  0
ENDBLK
  5
4094
330
4092
100
AcDbEntity
  8
0
100
AcDbBlockEnd
  0
BLOCK
  5
40A1
330
40A0
100
AcDbEntity
  8
0
100
AcDbBlockBegin
  2
*D37
 70
     1
 10
0.0
 20
0.0
 30
0.0
  3
*D37
  1

  0
LINE
  5
40F4
330
40A0
100
AcDbEntity
  8
A-ANNO-DIM
 62
     1
370
    -2
100
AcDbLine
 10
69.6122021301001
 20
98.02478380258317
 30
0.0
 11
86.28329080565828
 21
98.02478380258317
 31
0.0
  0
LINE
  5
40F5
330
40A0
100
AcDbEntity
  8
A-ANNO-DIM
 62
     1
370
    -2
100
AcDbLine
 10
69.6122021301003
 20
62.02478380258325
 30
0.0
 11
86.28329080565826
 21
62.02478380258324
 31
0.0
  0
LINE
  5
40F6
330
40A0
100
AcDbEntity
  8
A-ANNO-DIM
 62
     1
370
    -2
100
AcDbLine
 10
85.48329080565828
 20
96.58478380258317
 30
0.0
 11
85.48329080565826
 21
82.80973440567764
 31
0.0
  0
LINE
  5
40F7
330
40A0
100
AcDbEntity
  8
A-ANNO-DIM
 62
     1
370
    -2
100
AcDbLine
 10
85.48329080565826
 20
63.46478380258324
 30
0.0
 11
85.48329080565826
 21
80.09387233671212
 31
0.0
  0
MTEXT
  5
40F8
330
40A0
100
AcDbEntity
  8
A-ANNO-DIM
 62
     4
100
AcDbMText
 10
85.48329080565826
 20
81.45180337119489
 30
0.0
 40
1.0
 41
0.0
 71
     5
 72
     1
  1
\A1;36.00 [914.4]
  7
ARCH
 73
     1
 44
1.0
  0
SOLID
  5
40F9
330
40A0
100
AcDbEntity
  8
A-ANNO-DIM
 62
     1
100
AcDbTrace
 10
85.24329080565829
 20
96.58478380258317
 30
0.0
 11
85.72329080565827
 21
96.58478380258317
 31
0.0
 12
85.48329080565828
 22
98.02478380258317
 32
0.0
 13
85.48329080565828
 23
98.02478380258317
 33
0.0
  0
SOLID
  5
40FA
330
40A0
100
AcDbEntity
  8
A-ANNO-DIM
 62
     1
100
AcDbTrace
 10
85.24329080565827
 20
63.46478380258324
 30
0.0
 11
85.72329080565827
 21
63.46478380258324
 31
0.0
 12
85.48329080565826
 22
62.02478380258324
 32
0.0
 13
85.48329080565826
 23
62.02478380258324
 33
0.0
  0
POINT
  5
40FB
330
40A0
100
AcDbEntity
  8
Defpoints
 62
     0
100
AcDbPoint
 10
68.8122021301001
 20
98.02478380258317
 30
0.0
  0
POINT
  5
40FC
330
40A0
100
AcDbEntity
  8
Defpoints
 62
     0
100
AcDbPoint
 10
68.8122021301003
 20
62.02478380258325
 30
0.0
  0
POINT
  5
40FD
330
40A0
100
AcDbEntity
  8
Defpoints
 62
     0
100
AcDbPoint
 10
85.48329080565826
 20
62.02478380258324
 30
0.0
  0
ENDBLK
  5
40A2
330
40A0
100
AcDbEntity
  8
0
100
AcDbBlockEnd
  0
BLOCK
  5
40AF
330
40AE
100
AcDbEntity
  8
0
100
AcDbBlockBegin
  2
*D38
 70
     1
 10
0.0
 20
0.0
 30
0.0
  3
*D38
  1

  0
LINE
  5
40FE
330
40AE
100
AcDbEntity
  8
A-ANNO-DIM
 62
     1
370
    -2
100
AcDbLine
 10
69.61220213010015
 20
98.02478380258317
 30
0.0
 11
77.86518934617976
 21
98.02478380258317
 31
0.0
  0
LINE
  5
40FF
330
40AE
100
AcDbEntity
  8
A-ANNO-DIM
 62
     1
370
    -2
100
AcDbLine
 10
65.89220213010013
 20
94.08728380258322
 30
0.0
 11
77.86518934617975
 21
94.08728380258322
 31
0.0
  0
LINE
  5
4100
330
40AE
100
AcDbEntity
  8
A-ANNO-DIM
 62
     1
370
    -2
100
AcDbLine
 10
77.06518934617976
 20
99.46478380258318
 30
0.0
 11
77.06518934617976
 21
100.9047838025831
 31
0.0
  0
LINE
  5
4101
330
40AE
100
AcDbEntity
  8
A-ANNO-DIM
 62
     1
370
    -2
100
AcDbLine
 10
77.06518934617974
 20
92.64728380258324
 30
0.0
 11
77.06518934617974
 21
91.20728380258324
 31
0.0
  0
MTEXT
  5
4102
330
40AE
100
AcDbEntity
  8
A-ANNO-DIM
 62
     4
100
AcDbMText
 10
77.06518934617974
 20
96.07234095353199
 30
0.0
 40
1.0
 41
0.0
 71
     5
 72
     1
  1
\A1;3.94 [100.0]
  7
ARCH
 73
     1
 44
1.0
  0
SOLID
  5
4103
330
40AE
100
AcDbEntity
  8
A-ANNO-DIM
 62
     1
100
AcDbTrace
 10
76.82518934617977
 20
99.46478380258318
 30
0.0
 11
77.30518934617975
 21
99.46478380258318
 31
0.0
 12
77.06518934617976
 22
98.02478380258317
 32
0.0
 13
77.06518934617976
 23
98.02478380258317
 33
0.0
  0
SOLID
  5
4104
330
40AE
100
AcDbEntity
  8
A-ANNO-DIM
 62
     1
100
AcDbTrace
 10
76.82518934617975
 20
92.64728380258324
 30
0.0
 11
77.30518934617975
 21
92.64728380258324
 31
0.0
 12
77.06518934617974
 22
94.08728380258322
 32
0.0
 13
77.06518934617974
 23
94.08728380258322
 33
0.0
  0
POINT
  5
4105
330
40AE
100
AcDbEntity
  8
Defpoints
 62
     0
100
AcDbPoint
 10
68.81220213010016
 20
98.02478380258317
 30
0.0
  0
POINT
  5
4106
330
40AE
100
AcDbEntity
  8
Defpoints
 62
     0
100
AcDbPoint
 10
65.09220213010014
 20
94.08728380258322
 30
0.0
  0
POINT
  5
4107
330
40AE
100
AcDbEntity
  8
Defpoints
 62
     0
100
AcDbPoint
 10
77.06518934617974
 20
94.08728380258322
 30
0.0
  0
ENDBLK
  5
40B0
330
40AE
100
AcDbEntity
  8
0
100
AcDbBlockEnd
  0
BLOCK
  5
40C7
330
40C6
100
AcDbEntity
  8
0
100
AcDbBlockBegin
  2
*D39
 70
     1
 10
0.0
 20
0.0
 30
0.0
  3
*D39
  1

  0
LINE
  5
4108
330
40C6
100
AcDbEntity
  8
A-ANNO-DIM
 62
     1
370
    -2
100
AcDbLine
 10
58.28220213010013
 20
82.66228380258322
 30
0.0
 11
58.28220213010013
 21
56.15102829672425
 31
0.0
  0
LINE
  5
4109
330
40C6
100
AcDbEntity
  8
A-ANNO-DIM
 62
     1
370
    -2
100
AcDbLine
 10
65.34220213010013
 20
82.66228380258322
 30
0.0
 11
65.34220213010013
 21
56.15102829672425
 31
0.0
  0
LINE
  5
410A
330
40C6
100
AcDbEntity
  8
A-ANNO-DIM
 62
     1
370
    -2
100
AcDbLine
 10
59.72220213010013
 20
56.95102829672425
 30
0.0
 11
63.90220213010014
 21
56.95102829672425
 31
0.0
  0
MTEXT
  5
410B
330
40C6
100
AcDbEntity
  8
A-ANNO-DIM
 62
     4
100
AcDbMText
 10
49.07736429344845
 20
56.95102829672425
 30
0.0
 40
1.0
 41
0.0
 71
     5
 72
     1
  1
\A1;7.06 [179.3]
  7
ARCH
 73
     1
 44
1.0
  0
SOLID
  5
410C
330
40C6
100
AcDbEntity
  8
A-ANNO-DIM
 62
     1
100
AcDbTrace
 10
59.72220213010013
 20
57.19102829672425
 30
0.0
 11
59.72220213010013
 21
56.71102829672424
 31
0.0
 12
58.28220213010013
 22
56.95102829672425
 32
0.0
 13
58.28220213010013
 23
56.95102829672425
 33
0.0
  0
SOLID
  5
410D
330
40C6
100
AcDbEntity
  8
A-ANNO-DIM
 62
     1
100
AcDbTrace
 10
63.90220213010014
 20
57.19102829672425
 30
0.0
 11
63.90220213010014
 21
56.71102829672424
 31
0.0
 12
65.34220213010013
 22
56.95102829672425
 32
0.0
 13
65.34220213010013
 23
56.95102829672425
 33
0.0
  0
POINT
  5
410E
330
40C6
100
AcDbEntity
  8
Defpoints
 62
     0
100
AcDbPoint
 10
58.28220213010013
 20
83.46228380258322
 30
0.0
  0
POINT
  5
410F
330
40C6
100
AcDbEntity
  8
Defpoints
 62
     0
100
AcDbPoint
 10
65.34220213010013
 20
83.46228380258322
 30
0.0
  0
POINT
  5
4110
330
40C6
100
AcDbEntity
  8
Defpoints
 62
     0
100
AcDbPoint
 10
65.34220213010013
 20
56.95102829672425
 30
0.0
  0
ENDBLK
  5
40C8
330
40C6
100
AcDbEntity
  8
0
100
AcDbBlockEnd
  0
BLOCK
  5
40D4
330
40D3
100
AcDbEntity
  8
0
100
AcDbBlockBegin
  2
*D40
 70
     1
 10
0.0
 20
0.0
 30
0.0
  3
*D40
  1

  0
LINE
  5
4111
330
40D3
100
AcDbEntity
  8
A-ANNO-DIM
 62
     1
370
    -2
100
AcDbLine
 10
69.6122021301001
 20
118.4965533483925
 30
0.0
 11
77.43994247236144
 21
118.4965533483925
 31
0.0
  0
LINE
  5
4112
330
40D3
100
AcDbEntity
  8
A-ANNO-DIM
 62
     1
370
    -2
100
AcDbLine
 10
69.6122021301001
 20
121.9715533483925
 30
0.0
 11
77.43994247236144
 21
121.9715533483925
 31
0.0
  0
LINE
  5
4113
330
40D3
100
AcDbEntity
  8
A-ANNO-DIM
 62
     1
370
    -2
100
AcDbLine
 10
76.63994247236144
 20
117.0565533483925
 30
0.0
 11
76.63994247236144
 21
115.6165533483925
 31
0.0
  0
LINE
  5
4114
330
40D3
100
AcDbEntity
  8
A-ANNO-DIM
 62
     1
370
    -2
100
AcDbLine
 10
76.63994247236144
 20
123.4115533483925
 30
0.0
 11
76.63994247236144
 21
124.8515533483925
 31
0.0
  0
MTEXT
  5
4115
330
40D3
100
AcDbEntity
  8
A-ANNO-DIM
 62
     4
100
AcDbMText
 10
76.63994247236144
 20
120.288044220448
 30
0.0
 40
1.0
 41
0.0
 71
     5
 72
     1
  1
\A1;3.48 [88.3]
  7
ARCH
 73
     1
 44
1.0
  0
SOLID
  5
4116
330
40D3
100
AcDbEntity
  8
A-ANNO-DIM
 62
     1
100
AcDbTrace
 10
76.39994247236145
 20
117.0565533483925
 30
0.0
 11
76.87994247236144
 21
117.0565533483925
 31
0.0
 12
76.63994247236144
 22
118.4965533483925
 32
0.0
 13
76.63994247236144
 23
118.4965533483925
 33
0.0
  0
SOLID
  5
4117
330
40D3
100
AcDbEntity
  8
A-ANNO-DIM
 62
     1
100
AcDbTrace
 10
76.39994247236145
 20
123.4115533483925
 30
0.0
 11
76.87994247236144
 21
123.4115533483925
 31
0.0
 12
76.63994247236144
 22
121.9715533483925
 32
0.0
 13
76.63994247236144
 23
121.9715533483925
 33
0.0
  0
POINT
  5
4118
330
40D3
100
AcDbEntity
  8
Defpoints
 62
     0
100
AcDbPoint
 10
68.8122021301001
 20
118.4965533483925
 30
0.0
  0
POINT
  5
4119
330
40D3
100
AcDbEntity
  8
Defpoints
 62
     0
100
AcDbPoint
 10
68.8122021301001
 20
121.9715533483925
 30
0.0
  0
POINT
  5
411A
330
40D3
100
AcDbEntity
  8
Defpoints
 62
     0
100
AcDbPoint
 10
76.63994247236144
 20
121.9715533483925
 30
0.0
  0
ENDBLK
  5
40D5
330
40D3
100
AcDbEntity
  8
0
100
AcDbBlockEnd
  0
BLOCK
  5
4140
330
413F
100
AcDbEntity
  8
0
100
AcDbBlockBegin
  2
*D42
 70
     1
 10
0.0
 20
0.0
 30
0.0
  3
*D42
  1

  0
LINE
  5
4141
330
413F
100
AcDbEntity
  8
0
 62
     0
370
    -2
100
AcDbLine
 10
8.518500912546299
 20
13.7356157337214
 30
0.0
 11
8.518500912546299
 21
14.02934338418487
 31
0.0
  0
LINE
  5
4142
330
413F
100
AcDbEntity
  8
0
 62
     0
370
    -2
100
AcDbLine
 10
9.39350091254632
 20
13.7356157337214
 30
0.0
 11
9.39350091254632
 21
14.02934338418487
 31
0.0
  0
LINE
  5
4143
330
413F
100
AcDbEntity
  8
0
 62
     0
370
    -2
100
AcDbLine
 10
8.6485009125463
 20
14.02934338418487
 30
0.0
 11
9.263500912546319
 21
14.02934338418487
 31
0.0
  0
LINE
  5
4144
330
413F
100
AcDbEntity
  8
0
 62
     0
370
    -2
100
AcDbLine
 10
9.39350091254632
 20
14.02934338418487
 30
0.0
 11
9.767072120922041
 21
14.02934338418487
 31
0.0
  0
SOLID
  5
4145
330
413F
100
AcDbEntity
  8
0
 62
     0
100
AcDbTrace
 10
8.6485009125463
 20
14.05101005085153
 30
0.0
 11
8.6485009125463
 21
14.0076767175182
 31
0.0
 12
8.518500912546299
 22
14.02934338418487
 32
0.0
 13
8.518500912546299
 23
14.02934338418487
 33
0.0
  0
SOLID
  5
4146
330
413F
100
AcDbEntity
  8
0
 62
     0
100
AcDbTrace
 10
9.263500912546319
 20
14.05101005085153
 30
0.0
 11
9.263500912546319
 21
14.0076767175182
 31
0.0
 12
9.39350091254632
 22
14.02934338418487
 32
0.0
 13
9.39350091254632
 23
14.02934338418487
 33
0.0
  0
MTEXT
  5
4147
330
413F
100
AcDbEntity
  8
0
 62
     0
100
AcDbMText
 10
10.33783622697235
 20
14.11032570913388
 30
0.0
 40
0.125
 41
0.0
 71
     2
 72
     1
  1
\A1;14.000 [355.60]
  7
SLDTEXTSTYLE0
 73
     1
 44
1.0
  0
POINT
  5
4148
330
413F
100
AcDbEntity
  8
Defpoints
 62
     0
100
AcDbPoint
 10
8.518500912546299
 20
13.6731157337214
 30
0.0
  0
POINT
  5
4149
330
413F
100
AcDbEntity
  8
Defpoints
 62
     0
100
AcDbPoint
 10
9.39350091254632
 20
13.6731157337214
 30
0.0
  0
POINT
  5
414A
330
413F
100
AcDbEntity
  8
Defpoints
 62
     0
100
AcDbPoint
 10
9.39350091254632
 20
14.02934338418487
 30
0.0
  0
ENDBLK
  5
414B
330
413F
100
AcDbEntity
  8
0
100
AcDbBlockEnd
  0
BLOCK
  5
414D
330
414C
100
AcDbEntity
  8
0
100
AcDbBlockBegin
  2
*D43
 70
     1
 10
0.0
 20
0.0
 30
0.0
  3
*D43
  1

  0
LINE
  5
414E
330
414C
100
AcDbEntity
  8
0
 62
     0
370
    -2
100
AcDbLine
 10
8.638032162546307
 20
12.6317094837214
 30
0.0
 11
8.067287396684497
 21
12.6317094837214
 31
0.0
  0
LINE
  5
414F
330
414C
100
AcDbEntity
  8
0
 62
     0
370
    -2
100
AcDbLine
 10
8.638032162546307
 20
11.7145219837214
 30
0.0
 11
8.067287396684495
 21
11.7145219837214
 31
0.0
  0
LINE
  5
4150
330
414C
100
AcDbEntity
  8
0
 62
     0
370
    -2
100
AcDbLine
 10
8.067287396684497
 20
12.5017094837214
 30
0.0
 11
8.067287396684497
 21
12.24413682835642
 31
0.0
  0
LINE
  5
4151
330
414C
100
AcDbEntity
  8
0
 62
     0
370
    -2
100
AcDbLine
 10
8.067287396684495
 20
11.8445219837214
 30
0.0
 11
8.067287396684497
 21
12.0196721784584
 31
0.0
  0
SOLID
  5
4152
330
414C
100
AcDbEntity
  8
0
 62
     0
100
AcDbTrace
 10
8.04562073001783
 20
12.5017094837214
 30
0.0
 11
8.088954063351163
 21
12.5017094837214
 31
0.0
 12
8.067287396684497
 22
12.6317094837214
 32
0.0
 13
8.067287396684497
 23
12.6317094837214
 33
0.0
  0
SOLID
  5
4153
330
414C
100
AcDbEntity
  8
0
 62
     0
100
AcDbTrace
 10
8.045620730017828
 20
11.8445219837214
 30
0.0
 11
8.088954063351161
 21
11.8445219837214
 31
0.0
 12
8.067287396684495
 22
11.7145219837214
 32
0.0
 13
8.067287396684495
 23
11.7145219837214
 33
0.0
  0
MTEXT
  5
4154
330
414C
100
AcDbEntity
  8
0
 62
     0
100
AcDbMText
 10
8.067287396684493
 20
12.21288682835643
 30
0.0
 40
0.125
 41
0.0
 71
     2
 72
     1
  1
\A1;14.675 [372.75]
  7
SLDTEXTSTYLE0
 73
     1
 44
1.0
  0
POINT
  5
4155
330
414C
100
AcDbEntity
  8
Defpoints
 62
     0
100
AcDbPoint
 10
8.700532162546307
 20
12.6317094837214
 30
0.0
  0
POINT
  5
4156
330
414C
100
AcDbEntity
  8
Defpoints
 62
     0
100
AcDbPoint
 10
8.700532162546307
 20
11.7145219837214
 30
0.0
  0
POINT
  5
4157
330
414C
100
AcDbEntity
  8
Defpoints
 62
     0
100
AcDbPoint
 10
8.067287396684495
 20
11.7145219837214
 30
0.0
  0
ENDBLK
  5
4158
330
414C
100
AcDbEntity
  8
0
100
AcDbBlockEnd
  0
BLOCK
  5
415A
330
4159
100
AcDbEntity
  8
0
100
AcDbBlockBegin
  2
*D44
 70
     1
 10
0.0
 20
0.0
 30
0.0
  3
*D44
  1

  0
LINE
  5
415B
330
4159
100
AcDbEntity
  8
0
 62
     0
370
    -2
100
AcDbLine
 10
8.684907162546307
 20
11.6676469837214
 30
0.0
 11
8.684907162546307
 21
11.32136617638216
 31
0.0
  0
LINE
  5
415C
330
4159
100
AcDbEntity
  8
0
 62
     0
370
    -2
100
AcDbLine
 10
9.227094662546308
 20
11.6676469837214
 30
0.0
 11
9.227094662546308
 21
11.32136617638216
 31
0.0
  0
LINE
  5
415D
330
4159
100
AcDbEntity
  8
0
 62
     0
370
    -2
100
AcDbLine
 10
8.814907162546308
 20
11.32136617638216
 30
0.0
 11
9.097094662546307
 21
11.32136617638216
 31
0.0
  0
LINE
  5
415E
330
4159
100
AcDbEntity
  8
0
 62
     0
370
    -2
100
AcDbLine
 10
9.227094662546308
 20
11.32136617638216
 30
0.0
 11
9.97493612041535
 21
11.32136617638216
 31
0.0
  0
SOLID
  5
415F
330
4159
100
AcDbEntity
  8
0
 62
     0
100
AcDbTrace
 10
8.814907162546308
 20
11.34303284304883
 30
0.0
 11
8.814907162546308
 21
11.2996995097155
 31
0.0
 12
8.684907162546307
 22
11.32136617638216
 32
0.0
 13
8.684907162546307
 23
11.32136617638216
 33
0.0
  0
SOLID
  5
4160
330
4159
100
AcDbEntity
  8
0
 62
     0
100
AcDbTrace
 10
9.097094662546307
 20
11.34303284304883
 30
0.0
 11
9.097094662546307
 21
11.2996995097155
 31
0.0
 12
9.227094662546308
 22
11.32136617638216
 32
0.0
 13
9.227094662546308
 23
11.32136617638216
 33
0.0
  0
MTEXT
  5
4161
330
4159
100
AcDbEntity
  8
0
 62
     0
100
AcDbMText
 10
10.51028346066008
 20
11.40234850133118
 30
0.0
 40
0.125
 41
0.0
 71
     2
 72
     1
  1
\A1;8.675 [220.35]
  7
SLDTEXTSTYLE0
 73
     1
 44
1.0
  0
POINT
  5
4162
330
4159
100
AcDbEntity
  8
Defpoints
 62
     0
100
AcDbPoint
 10
8.684907162546307
 20
11.7301469837214
 30
0.0
  0
POINT
  5
4163
330
4159
100
AcDbEntity
  8
Defpoints
 62
     0
100
AcDbPoint
 10
9.227094662546308
 20
11.7301469837214
 30
0.0
  0
POINT
  5
4164
330
4159
100
AcDbEntity
  8
Defpoints
 62
     0
100
AcDbPoint
 10
9.227094662546308
 20
11.32136617638216
 30
0.0
  0
ENDBLK
  5
4165
330
4159
100
AcDbEntity
  8
0
100
AcDbBlockEnd
  0
BLOCK
  5
42BF
330
42BE
100
AcDbEntity
  8
0
100
AcDbBlockBegin
  2
*D46
 70
     1
 10
0.0
 20
0.0
 30
0.0
  3
*D46
  1

  0
LINE
  5
433F
330
42BE
100
AcDbEntity
  8
0
 62
     0
370
    -2
100
AcDbLine
 10
305.1102472178737
 20
198.1297699493465
 30
0.0
 11
305.1102472178737
 21
203.766912356762
 31
0.0
  0
LINE
  5
4340
330
42BE
100
AcDbEntity
  8
0
 62
     0
370
    -2
100
AcDbLine
 10
319.1102472178742
 20
198.1297699493465
 30
0.0
 11
319.1102472178742
 21
203.766912356762
 31
0.0
  0
LINE
  5
4341
330
42BE
100
AcDbEntity
  8
0
 62
     0
370
    -2
100
AcDbLine
 10
305.6302472178737
 20
203.766912356762
 30
0.0
 11
318.5902472178742
 21
203.766912356762
 31
0.0
  0
LINE
  5
4342
330
42BE
100
AcDbEntity
  8
0
 62
     0
370
    -2
100
AcDbLine
 10
319.1102472178742
 20
203.766912356762
 30
0.0
 11
361.8008168983635
 21
203.766912356762
 31
0.0
  0
SOLID
  5
4343
330
42BE
100
AcDbEntity
  8
0
 62
     0
100
AcDbTrace
 10
305.6302472178737
 20
203.8535790234286
 30
0.0
 11
305.6302472178737
 21
203.6802456900953
 31
0.0
 12
305.1102472178737
 22
203.766912356762
 32
0.0
 13
305.1102472178737
 23
203.766912356762
 33
0.0
  0
SOLID
  5
4344
330
42BE
100
AcDbEntity
  8
0
 62
     0
100
AcDbTrace
 10
318.5902472178742
 20
203.8535790234286
 30
0.0
 11
318.5902472178742
 21
203.6802456900953
 31
0.0
 12
319.1102472178742
 22
203.766912356762
 32
0.0
 13
319.1102472178742
 23
203.766912356762
 33
0.0
  0
MTEXT
  5
4345
330
42BE
100
AcDbEntity
  8
0
 62
     0
100
AcDbMText
 10
364.0838733225647
 20
204.090841656558
 30
0.0
 40
0.5
 41
0.0
 71
     2
 72
     1
  1
\A1;14.000 [355.60]
  7
SLDTEXTSTYLE0
 73
     1
 44
1.0
  0
POINT
  5
4346
330
42BE
100
AcDbEntity
  8
Defpoints
 62
     0
100
AcDbPoint
 10
305.1102472178737
 20
198.0672699493465
 30
0.0
  0
POINT
  5
4347
330
42BE
100
AcDbEntity
  8
Defpoints
 62
     0
100
AcDbPoint
 10
319.1102472178742
 20
198.0672699493465
 30
0.0
  0
POINT
  5
4348
330
42BE
100
AcDbEntity
  8
Defpoints
 62
     0
100
AcDbPoint
 10
319.1102472178742
 20
203.766912356762
 30
0.0
  0
ENDBLK
  5
42C0
330
42BE
100
AcDbEntity
  8
0
100
AcDbBlockEnd
  0
BLOCK
  5
42CC
330
42CB
100
AcDbEntity
  8
0
100
AcDbBlockBegin
  2
*D47
 70
     1
 10
0.0
 20
0.0
 30
0.0
  3
*D47
  1

  0
LINE
  5
4349
330
42CB
100
AcDbEntity
  8
0
 62
     0
370
    -2
100
AcDbLine
 10
307.9602472178736
 20
181.4047699493464
 30
0.0
 11
297.8908309640848
 21
181.4047699493464
 31
0.0
  0
LINE
  5
434A
330
42CB
100
AcDbEntity
  8
0
 62
     0
370
    -2
100
AcDbLine
 10
307.9602472178736
 20
166.7297699493464
 30
0.0
 11
297.8908309640848
 21
166.7297699493464
 31
0.0
  0
LINE
  5
434B
330
42CB
100
AcDbEntity
  8
0
 62
     0
370
    -2
100
AcDbLine
 10
297.8908309640848
 20
180.8847699493464
 30
0.0
 11
297.8908309640848
 21
174.5161992491429
 31
0.0
  0
LINE
  5
434C
330
42CB
100
AcDbEntity
  8
0
 62
     0
370
    -2
100
AcDbLine
 10
297.8908309640848
 20
167.2497699493464
 30
0.0
 11
297.8908309640848
 21
173.6183406495509
 31
0.0
  0
SOLID
  5
434D
330
42CB
100
AcDbEntity
  8
0
 62
     0
100
AcDbTrace
 10
297.8041642974182
 20
180.8847699493464
 30
0.0
 11
297.9774976307515
 21
180.8847699493464
 31
0.0
 12
297.8908309640848
 22
181.4047699493464
 32
0.0
 13
297.8908309640848
 23
181.4047699493464
 33
0.0
  0
SOLID
  5
434E
330
42CB
100
AcDbEntity
  8
0
 62
     0
100
AcDbTrace
 10
297.8041642974182
 20
167.2497699493464
 30
0.0
 11
297.9774976307515
 21
167.2497699493464
 31
0.0
 12
297.8908309640848
 22
166.7297699493464
 32
0.0
 13
297.8908309640848
 23
166.7297699493464
 33
0.0
  0
MTEXT
  5
434F
330
42CB
100
AcDbEntity
  8
0
 62
     0
100
AcDbMText
 10
297.8908309640848
 20
174.391199249143
 30
0.0
 40
0.5
 41
0.0
 71
     2
 72
     1
  1
\A1;14.675 [372.75]
  7
SLDTEXTSTYLE0
 73
     1
 44
1.0
  0
POINT
  5
4350
330
42CB
100
AcDbEntity
  8
Defpoints
 62
     0
100
AcDbPoint
 10
308.0227472178736
 20
181.4047699493464
 30
0.0
  0
POINT
  5
4351
330
42CB
100
AcDbEntity
  8
Defpoints
 62
     0
100
AcDbPoint
 10
308.0227472178736
 20
166.7297699493464
 30
0.0
  0
POINT
  5
4352
330
42CB
100
AcDbEntity
  8
Defpoints
 62
     0
100
AcDbPoint
 10
297.8908309640848
 20
166.7297699493464
 30
0.0
  0
ENDBLK
  5
42CD
330
42CB
100
AcDbEntity
  8
0
100
AcDbBlockEnd
  0
BLOCK
  5
42D9
330
42D8
100
AcDbEntity
  8
0
100
AcDbBlockBegin
  2
*D48
 70
     1
 10
0.0
 20
0.0
 30
0.0
  3
*D48
  1

  0
LINE
  5
4353
330
42D8
100
AcDbEntity
  8
0
 62
     0
370
    -2
100
AcDbLine
 10
307.7727472178736
 20
166.9172699493464
 30
0.0
 11
307.7727472178736
 21
160.4392770319186
 31
0.0
  0
LINE
  5
4354
330
42D8
100
AcDbEntity
  8
0
 62
     0
370
    -2
100
AcDbLine
 10
316.4477472178738
 20
166.9172699493464
 30
0.0
 11
316.4477472178738
 21
160.4392770319186
 31
0.0
  0
LINE
  5
4355
330
42D8
100
AcDbEntity
  8
0
 62
     0
370
    -2
100
AcDbLine
 10
308.2927472178736
 20
160.4392770319186
 30
0.0
 11
315.9277472178739
 21
160.4392770319186
 31
0.0
  0
LINE
  5
4356
330
42D8
100
AcDbEntity
  8
0
 62
     0
370
    -2
100
AcDbLine
 10
316.4477472178738
 20
160.4392770319186
 30
0.0
 11
359.2799839615854
 21
160.4392770319186
 31
0.0
  0
SOLID
  5
4357
330
42D8
100
AcDbEntity
  8
0
 62
     0
100
AcDbTrace
 10
308.2927472178736
 20
160.5259436985853
 30
0.0
 11
308.2927472178736
 21
160.352610365252
 31
0.0
 12
307.7727472178736
 22
160.4392770319186
 32
0.0
 13
307.7727472178736
 23
160.4392770319186
 33
0.0
  0
SOLID
  5
4358
330
42D8
100
AcDbEntity
  8
0
 62
     0
100
AcDbTrace
 10
315.9277472178739
 20
160.5259436985853
 30
0.0
 11
315.9277472178739
 21
160.352610365252
 31
0.0
 12
316.4477472178738
 22
160.4392770319186
 32
0.0
 13
316.4477472178738
 23
160.4392770319186
 33
0.0
  0
MTEXT
  5
4359
330
42D8
100
AcDbEntity
  8
0
 62
     0
100
AcDbMText
 10
361.4213733225644
 20
160.7632063317147
 30
0.0
 40
0.5
 41
0.0
 71
     2
 72
     1
  1
\A1;8.675 [220.35]
  7
SLDTEXTSTYLE0
 73
     1
 44
1.0
  0
POINT
  5
435A
330
42D8
100
AcDbEntity
  8
Defpoints
 62
     0
100
AcDbPoint
 10
307.7727472178736
 20
166.9797699493464
 30
0.0
  0
POINT
  5
435B
330
42D8
100
AcDbEntity
  8
Defpoints
 62
     0
100
AcDbPoint
 10
316.4477472178738
 20
166.9797699493464
 30
0.0
  0
POINT
  5
435C
330
42D8
100
AcDbEntity
  8
Defpoints
 62
     0
100
AcDbPoint
 10
316.4477472178738
 20
160.4392770319186
 30
0.0
  0
ENDBLK
  5
42DA
330
42D8
100
AcDbEntity
  8
0
100
AcDbBlockEnd
  0
BLOCK
  5
435F
330
435E
100
AcDbEntity
  8
0
100
AcDbBlockBegin
  2
*D49
 70
     1
 10
0.0
 20
0.0
 30
0.0
  3
*D49
  1

  0
LINE
  5
43EB
330
435E
100
AcDbEntity
  8
A-ANNO-DIM
 62
     1
370
    -2
100
AcDbLine
 10
19.38247753486621
 20
95.71333853662819
 30
0.0
 11
19.38247753486621
 21
106.459448315579
 31
0.0
  0
LINE
  5
43EC
330
435E
100
AcDbEntity
  8
A-ANNO-DIM
 62
     1
370
    -2
100
AcDbLine
 10
33.38247753486667
 20
95.71333853662819
 30
0.0
 11
33.38247753486667
 21
106.459448315579
 31
0.0
  0
LINE
  5
43ED
330
435E
100
AcDbEntity
  8
A-ANNO-DIM
 62
     1
370
    -2
100
AcDbLine
 10
17.94247753486621
 20
105.659448315579
 30
0.0
 11
16.50247753486621
 21
105.659448315579
 31
0.0
  0
LINE
  5
43EE
330
435E
100
AcDbEntity
  8
A-ANNO-DIM
 62
     1
370
    -2
100
AcDbLine
 10
34.82247753486666
 20
105.659448315579
 30
0.0
 11
36.26247753486667
 21
105.659448315579
 31
0.0
  0
MTEXT
  5
43EF
330
435E
100
AcDbEntity
  8
A-ANNO-DIM
 62
     4
100
AcDbMText
 10
27.31128212997646
 20
105.659448315579
 30
0.0
 40
1.0
 41
0.0
 71
     5
 72
     1
  1
\A1;14.00 [355.6]
  7
ARCH
 73
     1
 44
1.0
  0
SOLID
  5
43F0
330
435E
100
AcDbEntity
  8
A-ANNO-DIM
 62
     1
100
AcDbTrace
 10
17.94247753486621
 20
105.899448315579
 30
0.0
 11
17.94247753486621
 21
105.419448315579
 31
0.0
 12
19.38247753486621
 22
105.659448315579
 32
0.0
 13
19.38247753486621
 23
105.659448315579
 33
0.0
  0
SOLID
  5
43F1
330
435E
100
AcDbEntity
  8
A-ANNO-DIM
 62
     1
100
AcDbTrace
 10
34.82247753486666
 20
105.899448315579
 30
0.0
 11
34.82247753486666
 21
105.419448315579
 31
0.0
 12
33.38247753486667
 22
105.659448315579
 32
0.0
 13
33.38247753486667
 23
105.659448315579
 33
0.0
  0
POINT
  5
43F2
330
435E
100
AcDbEntity
  8
Defpoints
 62
     0
100
AcDbPoint
 10
19.38247753486621
 20
94.91333853662821
 30
0.0
  0
POINT
  5
43F3
330
435E
100
AcDbEntity
  8
Defpoints
 62
     0
100
AcDbPoint
 10
33.38247753486667
 20
94.91333853662821
 30
0.0
  0
POINT
  5
43F4
330
435E
100
AcDbEntity
  8
Defpoints
 62
     0
100
AcDbPoint
 10
33.38247753486667
 20
105.659448315579
 30
0.0
  0
ENDBLK
  5
4360
330
435E
100
AcDbEntity
  8
0
100
AcDbBlockEnd
  0
BLOCK
  5
436D
330
436C
100
AcDbEntity
  8
0
100
AcDbBlockBegin
  2
*D50
 70
     1
 10
0.0
 20
0.0
 30
0.0
  3
*D50
  1

  0
LINE
  5
43F5
330
436C
100
AcDbEntity
  8
A-ANNO-DIM
 62
     1
370
    -2
100
AcDbLine
 10
34.18247753486621
 20
94.85083853662809
 30
0.0
 11
62.74449682212634
 21
94.85083853662809
 31
0.0
  0
LINE
  5
43F6
330
436C
100
AcDbEntity
  8
A-ANNO-DIM
 62
     1
370
    -2
100
AcDbLine
 10
34.18247753486666
 20
34.8508385366282
 30
0.0
 11
62.74449682212633
 21
34.8508385366282
 31
0.0
  0
LINE
  5
43F7
330
436C
100
AcDbEntity
  8
A-ANNO-DIM
 62
     1
370
    -2
100
AcDbLine
 10
61.94449682212634
 20
93.41083853662809
 30
0.0
 11
61.94449682212633
 21
68.02410023419558
 31
0.0
  0
LINE
  5
43F8
330
436C
100
AcDbEntity
  8
A-ANNO-DIM
 62
     1
370
    -2
100
AcDbLine
 10
61.94449682212632
 20
36.2908385366282
 30
0.0
 11
61.94449682212633
 21
65.30823816523007
 31
0.0
  0
MTEXT
  5
43F9
330
436C
100
AcDbEntity
  8
A-ANNO-DIM
 62
     4
100
AcDbMText
 10
61.94449682212632
 20
66.66616919971284
 30
0.0
 40
1.0
 41
0.0
 71
     5
 72
     1
  1
\A1;60.00 [1524.0]
  7
ARCH
 73
     1
 44
1.0
  0
SOLID
  5
43FA
330
436C
100
AcDbEntity
  8
A-ANNO-DIM
 62
     1
100
AcDbTrace
 10
61.70449682212634
 20
93.41083853662809
 30
0.0
 11
62.18449682212634
 21
93.41083853662809
 31
0.0
 12
61.94449682212634
 22
94.85083853662809
 32
0.0
 13
61.94449682212634
 23
94.85083853662809
 33
0.0
  0
SOLID
  5
43FB
330
436C
100
AcDbEntity
  8
A-ANNO-DIM
 62
     1
100
AcDbTrace
 10
61.70449682212632
 20
36.2908385366282
 30
0.0
 11
62.18449682212632
 21
36.2908385366282
 31
0.0
 12
61.94449682212632
 22
34.8508385366282
 32
0.0
 13
61.94449682212632
 23
34.8508385366282
 33
0.0
  0
POINT
  5
43FC
330
436C
100
AcDbEntity
  8
Defpoints
 62
     0
100
AcDbPoint
 10
33.38247753486621
 20
94.85083853662809
 30
0.0
  0
POINT
  5
43FD
330
436C
100
AcDbEntity
  8
Defpoints
 62
     0
100
AcDbPoint
 10
33.38247753486667
 20
34.8508385366282
 30
0.0
  0
POINT
  5
43FE
330
436C
100
AcDbEntity
  8
Defpoints
 62
     0
100
AcDbPoint
 10
61.94449682212632
 20
34.8508385366282
 30
0.0
  0
ENDBLK
  5
436E
330
436C
100
AcDbEntity
  8
0
100
AcDbBlockEnd
  0
BLOCK
  5
437B
330
437A
100
AcDbEntity
  8
0
100
AcDbBlockBegin
  2
*D51
 70
     1
 10
0.0
 20
0.0
 30
0.0
  3
*D51
  1

  0
LINE
  5
43FF
330
437A
100
AcDbEntity
  8
A-ANNO-DIM
 62
     1
370
    -2
100
AcDbLine
 10
31.26997753486631
 20
78.18833853662806
 30
0.0
 11
45.60957043632804
 21
78.18833853662805
 31
0.0
  0
LINE
  5
4400
330
437A
100
AcDbEntity
  8
A-ANNO-DIM
 62
     1
370
    -2
100
AcDbLine
 10
34.18247753486666
 20
94.85083853662809
 30
0.0
 11
45.60957043632805
 21
94.85083853662809
 31
0.0
  0
LINE
  5
4401
330
437A
100
AcDbEntity
  8
A-ANNO-DIM
 62
     1
370
    -2
100
AcDbLine
 10
44.80957043632804
 20
79.62833853662805
 30
0.0
 11
44.80957043632805
 21
87.24954099877747
 31
0.0
  0
LINE
  5
4402
330
437A
100
AcDbEntity
  8
A-ANNO-DIM
 62
     1
370
    -2
100
AcDbLine
 10
44.80957043632805
 20
93.41083853662809
 30
0.0
 11
44.80957043632805
 21
89.96540306774299
 31
0.0
  0
MTEXT
  5
4403
330
437A
100
AcDbEntity
  8
A-ANNO-DIM
 62
     4
100
AcDbMText
 10
44.80957043632805
 20
88.60747203326026
 30
0.0
 40
1.0
 41
0.0
 71
     5
 72
     1
  1
\A1;16.66 [423.2]
  7
ARCH
 73
     1
 44
1.0
  0
SOLID
  5
4404
330
437A
100
AcDbEntity
  8
A-ANNO-DIM
 62
     1
100
AcDbTrace
 10
44.56957043632804
 20
79.62833853662805
 30
0.0
 11
45.04957043632804
 21
79.62833853662805
 31
0.0
 12
44.80957043632804
 22
78.18833853662805
 32
0.0
 13
44.80957043632804
 23
78.18833853662805
 33
0.0
  0
SOLID
  5
4405
330
437A
100
AcDbEntity
  8
A-ANNO-DIM
 62
     1
100
AcDbTrace
 10
44.56957043632804
 20
93.41083853662809
 30
0.0
 11
45.04957043632805
 21
93.41083853662809
 31
0.0
 12
44.80957043632805
 22
94.85083853662809
 32
0.0
 13
44.80957043632805
 23
94.85083853662809
 33
0.0
  0
POINT
  5
4406
330
437A
100
AcDbEntity
  8
Defpoints
 62
     0
100
AcDbPoint
 10
30.46997753486631
 20
78.18833853662806
 30
0.0
  0
POINT
  5
4407
330
437A
100
AcDbEntity
  8
Defpoints
 62
     0
100
AcDbPoint
 10
33.38247753486667
 20
94.85083853662809
 30
0.0
  0
POINT
  5
4408
330
437A
100
AcDbEntity
  8
Defpoints
 62
     0
100
AcDbPoint
 10
44.80957043632805
 20
94.85083853662809
 30
0.0
  0
ENDBLK
  5
437C
330
437A
100
AcDbEntity
  8
0
100
AcDbBlockEnd
  0
BLOCK
  5
4389
330
4388
100
AcDbEntity
  8
0
100
AcDbBlockBegin
  2
*D52
 70
     1
 10
0.0
 20
0.0
 30
0.0
  3
*D52
  1

  0
LINE
  5
4409
330
4388
100
AcDbEntity
  8
A-ANNO-DIM
 62
     1
370
    -2
100
AcDbLine
 10
22.04497753486657
 20
62.96333853662812
 30
0.0
 11
22.04497753486657
 21
26.76260617994804
 31
0.0
  0
LINE
  5
440A
330
4388
100
AcDbEntity
  8
A-ANNO-DIM
 62
     1
370
    -2
100
AcDbLine
 10
30.7199775348663
 20
62.96333853662812
 30
0.0
 11
30.7199775348663
 21
26.76260617994804
 31
0.0
  0
LINE
  5
440B
330
4388
100
AcDbEntity
  8
A-ANNO-DIM
 62
     1
370
    -2
100
AcDbLine
 10
23.48497753486658
 20
27.56260617994803
 30
0.0
 11
29.2799775348663
 21
27.56260617994803
 31
0.0
  0
MTEXT
  5
440C
330
4388
100
AcDbEntity
  8
A-ANNO-DIM
 62
     4
100
AcDbMText
 10
10.4830638708388
 20
27.56260617994803
 30
0.0
 40
1.0
 41
0.0
 71
     5
 72
     1
  1
\A1;8.68 [220.3]
  7
ARCH
 73
     1
 44
1.0
  0
SOLID
  5
440D
330
4388
100
AcDbEntity
  8
A-ANNO-DIM
 62
     1
100
AcDbTrace
 10
23.48497753486658
 20
27.80260617994803
 30
0.0
 11
23.48497753486658
 21
27.32260617994804
 31
0.0
 12
22.04497753486657
 22
27.56260617994803
 32
0.0
 13
22.04497753486657
 23
27.56260617994803
 33
0.0
  0
SOLID
  5
440E
330
4388
100
AcDbEntity
  8
A-ANNO-DIM
 62
     1
100
AcDbTrace
 10
29.2799775348663
 20
27.80260617994803
 30
0.0
 11
29.2799775348663
 21
27.32260617994804
 31
0.0
 12
30.7199775348663
 22
27.56260617994803
 32
0.0
 13
30.7199775348663
 23
27.56260617994803
 33
0.0
  0
POINT
  5
440F
330
4388
100
AcDbEntity
  8
Defpoints
 62
     0
100
AcDbPoint
 10
22.04497753486657
 20
63.76333853662811
 30
0.0
  0
POINT
  5
4410
330
4388
100
AcDbEntity
  8
Defpoints
 62
     0
100
AcDbPoint
 10
30.7199775348663
 20
63.76333853662811
 30
0.0
  0
POINT
  5
4411
330
4388
100
AcDbEntity
  8
Defpoints
 62
     0
100
AcDbPoint
 10
30.7199775348663
 20
27.56260617994803
 30
0.0
  0
ENDBLK
  5
438A
330
4388
100
AcDbEntity
  8
0
100
AcDbBlockEnd
  0
BLOCK
  5
4396
330
4395
100
AcDbEntity
  8
0
100
AcDbBlockBegin
  2
*D53
 70
     1
 10
0.0
 20
0.0
 30
0.0
  3
*D53
  1

  0
LINE
  5
4412
330
4395
100
AcDbEntity
  8
A-ANNO-DIM
 62
     1
370
    -2
100
AcDbLine
 10
21.49497753486658
 20
63.51333853662811
 30
0.0
 11
8.106439740692572
 21
63.51333853662811
 31
0.0
  0
LINE
  5
4413
330
4395
100
AcDbEntity
  8
A-ANNO-DIM
 62
     1
370
    -2
100
AcDbLine
 10
21.49497753486658
 20
78.18833853662806
 30
0.0
 11
8.106439740692575
 21
78.18833853662806
 31
0.0
  0
LINE
  5
4414
330
4395
100
AcDbEntity
  8
A-ANNO-DIM
 62
     1
370
    -2
100
AcDbLine
 10
8.906439740692572
 20
64.95333853662812
 30
0.0
 11
8.906439740692574
 21
70.32710323406291
 31
0.0
  0
LINE
  5
4415
330
4395
100
AcDbEntity
  8
A-ANNO-DIM
 62
     1
370
    -2
100
AcDbLine
 10
8.906439740692576
 20
76.74833853662807
 30
0.0
 11
8.906439740692574
 21
73.04296530302844
 31
0.0
  0
MTEXT
  5
4416
330
4395
100
AcDbEntity
  8
A-ANNO-DIM
 62
     4
100
AcDbMText
 10
8.906439740692576
 20
71.68503426854567
 30
0.0
 40
1.0
 41
0.0
 71
     5
 72
     1
  1
\A1;14.68 [372.7]
  7
ARCH
 73
     1
 44
1.0
  0
SOLID
  5
4417
330
4395
100
AcDbEntity
  8
A-ANNO-DIM
 62
     1
100
AcDbTrace
 10
8.666439740692572
 20
64.95333853662812
 30
0.0
 11
9.146439740692573
 21
64.95333853662812
 31
0.0
 12
8.906439740692572
 22
63.51333853662811
 32
0.0
 13
8.906439740692572
 23
63.51333853662811
 33
0.0
  0
SOLID
  5
4418
330
4395
100
AcDbEntity
  8
A-ANNO-DIM
 62
     1
100
AcDbTrace
 10
8.666439740692576
 20
76.74833853662807
 30
0.0
 11
9.146439740692576
 21
76.74833853662807
 31
0.0
 12
8.906439740692576
 22
78.18833853662806
 32
0.0
 13
8.906439740692576
 23
78.18833853662806
 33
0.0
  0
POINT
  5
4419
330
4395
100
AcDbEntity
  8
Defpoints
 62
     0
100
AcDbPoint
 10
22.29497753486658
 20
63.51333853662811
 30
0.0
  0
POINT
  5
441A
330
4395
100
AcDbEntity
  8
Defpoints
 62
     0
100
AcDbPoint
 10
22.29497753486658
 20
78.18833853662806
 30
0.0
  0
POINT
  5
441B
330
4395
100
AcDbEntity
  8
Defpoints
 62
     0
100
AcDbPoint
 10
8.906439740692576
 20
78.18833853662806
 30
0.0
  0
ENDBLK
  5
4397
330
4395
100
AcDbEntity
  8
0
100
AcDbBlockEnd
  0
BLOCK
  5
43A4
330
43A3
100
AcDbEntity
  8
0
100
AcDbBlockBegin
  2
*D54
 70
     1
 10
0.0
 20
0.0
 30
0.0
  3
*D54
  1

  0
LINE
  5
441C
330
43A3
100
AcDbEntity
  8
A-ANNO-DIM
 62
     1
370
    -2
100
AcDbLine
 10
34.18247753486621
 20
118.6706348890793
 30
0.0
 11
43.22019677105451
 21
118.6706348890793
 31
0.0
  0
LINE
  5
441D
330
43A3
100
AcDbEntity
  8
A-ANNO-DIM
 62
     1
370
    -2
100
AcDbLine
 10
34.18247753486621
 20
122.1456348890793
 30
0.0
 11
43.22019677105451
 21
122.1456348890793
 31
0.0
  0
LINE
  5
441E
330
43A3
100
AcDbEntity
  8
A-ANNO-DIM
 62
     1
370
    -2
100
AcDbLine
 10
42.42019677105452
 20
117.2306348890793
 30
0.0
 11
42.42019677105452
 21
115.7906348890793
 31
0.0
  0
LINE
  5
441F
330
43A3
100
AcDbEntity
  8
A-ANNO-DIM
 62
     1
370
    -2
100
AcDbLine
 10
42.42019677105452
 20
123.5856348890793
 30
0.0
 11
42.42019677105452
 21
125.0256348890793
 31
0.0
  0
MTEXT
  5
4420
330
43A3
100
AcDbEntity
  8
A-ANNO-DIM
 62
     4
100
AcDbMText
 10
42.42019677105452
 20
120.5537344600039
 30
0.0
 40
1.0
 41
0.0
 71
     5
 72
     1
  1
\A1;3.48 [88.3]
  7
ARCH
 73
     1
 44
1.0
  0
SOLID
  5
4421
330
43A3
100
AcDbEntity
  8
A-ANNO-DIM
 62
     1
100
AcDbTrace
 10
42.18019677105451
 20
117.2306348890793
 30
0.0
 11
42.66019677105452
 21
117.2306348890793
 31
0.0
 12
42.42019677105452
 22
118.6706348890793
 32
0.0
 13
42.42019677105452
 23
118.6706348890793
 33
0.0
  0
SOLID
  5
4422
330
43A3
100
AcDbEntity
  8
A-ANNO-DIM
 62
     1
100
AcDbTrace
 10
42.18019677105451
 20
123.5856348890793
 30
0.0
 11
42.66019677105452
 21
123.5856348890793
 31
0.0
 12
42.42019677105452
 22
122.1456348890793
 32
0.0
 13
42.42019677105452
 23
122.1456348890793
 33
0.0
  0
POINT
  5
4423
330
43A3
100
AcDbEntity
  8
Defpoints
 62
     0
100
AcDbPoint
 10
33.38247753486621
 20
118.6706348890793
 30
0.0
  0
POINT
  5
4424
330
43A3
100
AcDbEntity
  8
Defpoints
 62
     0
100
AcDbPoint
 10
33.38247753486621
 20
122.1456348890793
 30
0.0
  0
POINT
  5
4425
330
43A3
100
AcDbEntity
  8
Defpoints
 62
     0
100
AcDbPoint
 10
42.42019677105452
 20
122.1456348890793
 30
0.0
  0
ENDBLK
  5
43A5
330
43A3
100
AcDbEntity
  8
0
100
AcDbBlockEnd
  0
ENDSEC
  0
SECTION
  2
ENTITIES
  0
INSERT
  5
3950
330
2
100
AcDbEntity
  8
0
100
AcDbBlockReference
  2
SONANCE C title
 10
0.0
 20
0.0
 30
0.0
 41
8.0
 42
8.0
 43
8.0
  0
TEXT
  5
3B81
330
2
100
AcDbEntity
  8
A-ANNO-NOTES
100
AcDbText
 10
182.2519818598505
 20
67.52878205882808
 30
0.0
 40
1.0
  1
A.B.
 50
90.0
  7
ARCH
100
AcDbText
  0
TEXT
  5
3B82
330
2
100
AcDbEntity
  8
A-ANNO-NOTES
100
AcDbText
 10
184.4015385316325
 20
68.89503744557595
 30
0.0
 40
1.0
  1
1APR09
 50
90.0
  7
ARCH
100
AcDbText
  0
TEXT
  5
3B83
330
2
100
AcDbEntity
  8
A-ANNO-NOTES
100
AcDbText
 10
182.1888827877097
 20
53.8080863589468
 30
0.0
 40
1.0
  1
1:8
 50
90.0
  7
ARCH
100
AcDbText
  0
TEXT
  5
3B84
330
2
100
AcDbEntity
  8
A-ANNO-NOTES
100
AcDbText
 10
184.5710906041203
 20
53.72087852257777
 30
0.0
 40
1.0
  1
1
 50
90.0
  7
ARCH
100
AcDbText
  0
TEXT
  5
3B85
330
2
100
AcDbEntity
  8
A-ANNO-NOTES
100
AcDbText
 10
184.5395410680496
 20
56.36618176671902
 30
0.0
 40
1.0
  1
1
 50
90.0
  7
ARCH
100
AcDbText
  0
TEXT
  5
3B86
330
2
100
AcDbEntity
  8
A-ANNO-NOTES
100
AcDbText
 10
178.3232225999766
 20
96.57372788571406
 30
0.0
 40
1.0
  1
LARGE RECTANGLE
 50
90.0
  7
ARCH
100
AcDbText
  0
TEXT
  5
3B87
330
2
100
AcDbEntity
  8
A-ANNO-NOTES
100
AcDbText
 10
179.9783950137696
 20
94.58631274305782
 30
0.0
 40
1.0
  1
ACOUSTIC ENCLOSURE
 50
90.0
  7
ARCH
100
AcDbText
  0
LINE
  5
4214
330
2
100
AcDbEntity
  8
A-AENCL-DETAIL
  6
Continuous
370
     0
100
AcDbLine
 10
19.38247753486621
 20
94.85083853662819
 30
0.0
 11
19.88247753486621
 21
94.3508385366282
 31
0.0
  0
LINE
  5
4215
330
2
100
AcDbEntity
  8
A-AENCL-DETAIL
  6
Continuous
370
     0
100
AcDbLine
 10
19.38247753486621
 20
94.85083853662819
 30
0.0
 11
33.38247753486621
 21
94.85083853662809
 31
0.0
  0
LINE
  5
4216
330
2
100
AcDbEntity
  8
A-AENCL-DETAIL
  6
Continuous
370
     0
100
AcDbLine
 10
19.88247753486621
 20
94.3508385366282
 30
0.0
 11
32.88247753486621
 21
94.35083853662808
 31
0.0
  0
LINE
  5
4217
330
2
100
AcDbEntity
  8
A-AENCL-DETAIL
  6
Continuous
370
     0
100
AcDbLine
 10
32.88247753486621
 20
94.35083853662808
 30
0.0
 11
33.38247753486621
 21
94.85083853662809
 31
0.0
  0
LINE
  5
4218
330
2
100
AcDbEntity
  8
A-AENCL-DETAIL
  6
Continuous
370
     0
100
AcDbLine
 10
32.88247753486621
 20
35.35083853662821
 30
0.0
 11
19.88247753486621
 21
35.35083853662809
 31
0.0
  0
LINE
  5
4219
330
2
100
AcDbEntity
  8
A-AENCL-DETAIL
  6
Continuous
370
     0
100
AcDbLine
 10
33.38247753486621
 20
34.8508385366282
 30
0.0
 11
32.88247753486621
 21
35.35083853662821
 31
0.0
  0
LINE
  5
421A
330
2
100
AcDbEntity
  8
A-AENCL-DETAIL
  6
Continuous
370
     0
100
AcDbLine
 10
19.88247753486621
 20
35.35083853662809
 30
0.0
 11
19.38247753486621
 21
34.85083853662809
 31
0.0
  0
LINE
  5
421B
330
2
100
AcDbEntity
  8
A-AENCL-DETAIL
  6
Continuous
370
     0
100
AcDbLine
 10
33.38247753486621
 20
34.8508385366282
 30
0.0
 11
19.38247753486621
 21
34.85083853662809
 31
0.0
  0
LINE
  5
421C
330
2
100
AcDbEntity
  8
A-AENCL-DETAIL
  6
Continuous
370
     0
100
AcDbLine
 10
32.88247753486621
 20
35.35083853662821
 30
0.0
 11
33.38247753486621
 21
34.8508385366282
 31
0.0
  0
LINE
  5
421D
330
2
100
AcDbEntity
  8
A-AENCL-DETAIL
  6
Continuous
370
     0
100
AcDbLine
 10
32.88247753486667
 20
94.35083853662808
 30
0.0
 11
32.88247753486621
 21
35.35083853662821
 31
0.0
  0
LINE
  5
421E
330
2
100
AcDbEntity
  8
A-AENCL-DETAIL
  6
Continuous
370
     0
100
AcDbLine
 10
33.38247753486667
 20
94.85083853662819
 30
0.0
 11
33.38247753486621
 21
34.8508385366282
 31
0.0
  0
LINE
  5
421F
330
2
100
AcDbEntity
  8
A-AENCL-DETAIL
  6
Continuous
370
     0
100
AcDbLine
 10
33.38247753486667
 20
94.85083853662819
 30
0.0
 11
32.88247753486667
 21
94.35083853662808
 31
0.0
  0
LINE
  5
4220
330
2
100
AcDbEntity
  8
A-AENCL-DETAIL
  6
Continuous
370
     0
100
AcDbLine
 10
19.38247753486621
 20
34.8508385366282
 30
0.0
 11
19.88247753486621
 21
35.35083853662821
 31
0.0
  0
LINE
  5
4221
330
2
100
AcDbEntity
  8
A-AENCL-DETAIL
  6
Continuous
370
     0
100
AcDbLine
 10
19.38247753486621
 20
34.8508385366282
 30
0.0
 11
19.38247753486621
 21
94.85083853662819
 31
0.0
  0
LINE
  5
4222
330
2
100
AcDbEntity
  8
A-AENCL-DETAIL
  6
Continuous
370
     0
100
AcDbLine
 10
19.88247753486621
 20
94.35083853662808
 30
0.0
 11
19.38247753486621
 21
94.85083853662819
 31
0.0
  0
LINE
  5
4223
330
2
100
AcDbEntity
  8
A-AENCL-DETAIL
  6
Continuous
370
     0
100
AcDbLine
 10
19.88247753486621
 20
35.35083853662821
 30
0.0
 11
19.88247753486621
 21
94.35083853662808
 31
0.0
  0
ARC
  5
4224
330
2
100
AcDbEntity
  8
A-AENCL-DETAIL
  6
Continuous
370
     0
100
AcDbCircle
 10
26.38247753486621
 20
73.88833853662811
 30
0.0
 40
2.749999999999993
100
AcDbArc
 50
95.21590857045264
 51
264.7840914295474
  0
LINE
  5
4225
330
2
100
AcDbEntity
  8
A-AENCL-DETAIL
  6
Continuous
370
     0
100
AcDbLine
 10
26.13247753486621
 20
71.14972574910234
 30
0.0
 11
26.13247753486621
 21
70.55195132415395
 31
0.0
  0
ARC
  5
4226
330
2
100
AcDbEntity
  8
A-AENCL-DETAIL
  6
Continuous
370
     0
100
AcDbCircle
 10
26.38247753486621
 20
67.81333853662818
 30
0.0
 40
2.749999999999993
100
AcDbArc
 50
95.21590857045264
 51
264.7840914295474
  0
LINE
  5
4227
330
2
100
AcDbEntity
  8
A-AENCL-DETAIL
  6
Continuous
370
     0
100
AcDbLine
 10
26.13247753486621
 20
65.0747257491023
 30
0.0
 11
26.13247753486621
 21
63.51333853662811
 31
0.0
  0
LINE
  5
4228
330
2
100
AcDbEntity
  8
A-AENCL-DETAIL
  6
Continuous
370
     0
100
AcDbLine
 10
26.13247753486621
 20
78.18833853662806
 30
0.0
 11
26.13247753486621
 21
76.62695132415399
 31
0.0
  0
ARC
  5
4229
330
2
100
AcDbEntity
  8
A-AENCL-DETAIL
  6
Continuous
370
     0
100
AcDbCircle
 10
26.38247753486621
 20
67.81333853662818
 30
0.0
 40
2.749999999999993
100
AcDbArc
 50
275.2159085704526
 51
84.7840914295441
  0
ARC
  5
422A
330
2
100
AcDbEntity
  8
A-AENCL-DETAIL
  6
Continuous
370
     0
100
AcDbCircle
 10
26.38247753486621
 20
73.88833853662811
 30
0.0
 40
2.749999999999993
100
AcDbArc
 50
275.2159085704526
 51
84.7840914295441
  0
LINE
  5
422B
330
2
100
AcDbEntity
  8
A-AENCL-DETAIL
  6
Continuous
370
     0
100
AcDbLine
 10
26.63247753486621
 20
76.62695132415399
 30
0.0
 11
26.63247753486621
 21
78.18833853662806
 31
0.0
  0
LINE
  5
422C
330
2
100
AcDbEntity
  8
A-AENCL-DETAIL
  6
Continuous
370
     0
100
AcDbLine
 10
26.63247753486621
 20
70.55195132415395
 30
0.0
 11
26.63247753486621
 21
71.14972574910234
 31
0.0
  0
LINE
  5
422D
330
2
100
AcDbEntity
  8
A-AENCL-DETAIL
  6
Continuous
370
     0
100
AcDbLine
 10
26.63247753486621
 20
63.51333853662811
 30
0.0
 11
26.63247753486621
 21
65.0747257491023
 31
0.0
  0
ARC
  5
422E
330
2
100
AcDbEntity
  8
A-AENCL-DETAIL
  6
Continuous
370
     0
100
AcDbCircle
 10
26.38247753486621
 20
73.88833853662811
 30
0.0
 40
2.749999999999993
100
AcDbArc
 50
264.7840914295474
 51
275.2159085704526
  0
ARC
  5
422F
330
2
100
AcDbEntity
  8
A-AENCL-DETAIL
  6
Continuous
370
     0
100
AcDbCircle
 10
26.38247753486621
 20
67.81333853662818
 30
0.0
 40
2.749999999999993
100
AcDbArc
 50
84.7840914295441
 51
95.21590857045264
  0
ARC
  5
4230
330
2
100
AcDbEntity
  8
A-AENCL-DETAIL
  6
Continuous
370
     0
100
AcDbCircle
 10
26.38247753486621
 20
67.81333853662818
 30
0.0
 40
2.749999999999993
100
AcDbArc
 50
264.7840914295474
 51
275.2159085704526
  0
ARC
  5
4231
330
2
100
AcDbEntity
  8
A-AENCL-DETAIL
  6
Continuous
370
     0
100
AcDbCircle
 10
26.38247753486621
 20
73.88833853662811
 30
0.0
 40
2.749999999999993
100
AcDbArc
 50
84.7840914295441
 51
95.21590857045264
  0
CIRCLE
  5
4232
330
2
100
AcDbEntity
  8
A-AENCL-DETAIL
  6
Continuous
370
     0
100
AcDbCircle
 10
26.38247753486621
 20
67.81333853662818
 30
0.0
 40
2.625
  0
CIRCLE
  5
4233
330
2
100
AcDbEntity
  8
A-AENCL-DETAIL
  6
Continuous
370
     0
100
AcDbCircle
 10
26.38247753486621
 20
73.88833853662811
 30
0.0
 40
2.625
  0
LINE
  5
4234
330
2
100
AcDbEntity
  8
A-AENCL-DETAIL
  6
Continuous
370
     0
100
AcDbLine
 10
19.88247753486621
 20
94.35083853662808
 30
0.0
 11
19.88247753486621
 21
35.35083853662821
 31
0.0
  0
LINE
  5
4235
330
2
100
AcDbEntity
  8
A-AENCL-DETAIL
  6
Continuous
370
     0
100
AcDbLine
 10
32.88247753486621
 20
94.35083853662808
 30
0.0
 11
19.88247753486621
 21
94.35083853662808
 31
0.0
  0
ARC
  5
4236
330
2
100
AcDbEntity
  8
A-AENCL-DETAIL
  6
Continuous
370
     0
100
AcDbCircle
 10
22.29497753486658
 20
63.76333853662811
 30
0.0
 40
0.2500000000000284
100
AcDbArc
 50
180.0
 51
270.0
  0
ARC
  5
4237
330
2
100
AcDbEntity
  8
A-AENCL-DETAIL
  6
Continuous
370
     0
100
AcDbCircle
 10
30.46997753486631
 20
77.93833853662807
 30
0.0
 40
0.25
100
AcDbArc
 50
0.0
 51
90.0
  0
LINE
  5
4238
330
2
100
AcDbEntity
  8
A-AENCL-DETAIL
  6
Continuous
370
     0
100
AcDbLine
 10
22.29497753486658
 20
63.51333853662811
 30
0.0
 11
30.46997753486631
 21
63.51333853662811
 31
0.0
  0
LINE
  5
4239
330
2
100
AcDbEntity
  8
A-AENCL-DETAIL
  6
Continuous
370
     0
100
AcDbLine
 10
22.04497753486612
 20
77.93833853662807
 30
0.0
 11
22.04497753486612
 21
63.76333853662811
 31
0.0
  0
LINE
  5
423A
330
2
100
AcDbEntity
  8
A-AENCL-DETAIL
  6
Continuous
370
     0
100
AcDbLine
 10
30.46997753486631
 20
78.18833853662806
 30
0.0
 11
22.29497753486658
 21
78.18833853662806
 31
0.0
  0
ARC
  5
423B
330
2
100
AcDbEntity
  8
A-AENCL-DETAIL
  6
Continuous
370
     0
100
AcDbCircle
 10
30.46997753486631
 20
63.76333853662811
 30
0.0
 40
0.2500000000000284
100
AcDbArc
 50
270.0
 51
0.0
  0
ARC
  5
423C
330
2
100
AcDbEntity
  8
A-AENCL-DETAIL
  6
Continuous
370
     0
100
AcDbCircle
 10
22.29497753486658
 20
77.93833853662807
 30
0.0
 40
0.2500000000000284
100
AcDbArc
 50
90.0
 51
180.0
  0
LINE
  5
423D
330
2
100
AcDbEntity
  8
A-AENCL-DETAIL
  6
Continuous
370
     0
100
AcDbLine
 10
30.7199775348663
 20
63.76333853662811
 30
0.0
 11
30.7199775348663
 21
77.93833853662807
 31
0.0
  0
LINE
  5
423E
330
2
100
AcDbEntity
  8
A-AENCL-DETAIL
  6
Continuous
370
     0
100
AcDbLine
 10
32.88247753486621
 20
35.35083853662821
 30
0.0
 11
32.88247753486621
 21
94.35083853662808
 31
0.0
  0
LINE
  5
423F
330
2
100
AcDbEntity
  8
A-AENCL-DETAIL
  6
Continuous
370
     0
100
AcDbLine
 10
19.88247753486621
 20
35.35083853662821
 30
0.0
 11
32.88247753486621
 21
35.35083853662821
 31
0.0
  0
LINE
  5
4243
330
2
100
AcDbEntity
  8
A-AENCL-DETAIL
  6
Continuous
370
     0
100
AcDbLine
 10
77.17050637906414
 20
94.85083853662819
 30
0.0
 11
80.64550637906449
 21
94.85083853662819
 31
0.0
  0
LINE
  5
4244
330
2
100
AcDbEntity
  8
A-AENCL-DETAIL
  6
Continuous
370
     0
100
AcDbLine
 10
80.64550637906449
 20
34.85083853662809
 30
0.0
 11
77.17050637906414
 21
34.85083853662809
 31
0.0
  0
LINE
  5
4245
330
2
100
AcDbEntity
  8
A-AENCL-DETAIL
  6
Continuous
370
     0
100
AcDbLine
 10
80.64550637906449
 20
94.85083853662819
 30
0.0
 11
77.17050637906414
 21
94.85083853662819
 31
0.0
  0
LINE
  5
4246
330
2
100
AcDbEntity
  8
A-AENCL-DETAIL
  6
Continuous
370
     0
100
AcDbLine
 10
80.64550637906449
 20
34.8508385366282
 30
0.0
 11
80.64550637906449
 21
94.85083853662819
 31
0.0
  0
LINE
  5
4247
330
2
100
AcDbEntity
  8
A-AENCL-DETAIL
  6
Continuous
370
     0
100
AcDbLine
 10
77.17050637906414
 20
34.8508385366282
 30
0.0
 11
80.64550637906449
 21
34.8508385366282
 31
0.0
  0
LINE
  5
4248
330
2
100
AcDbEntity
  8
A-AENCL-DETAIL
  6
Continuous
370
     0
100
AcDbLine
 10
77.17050637906414
 20
94.85083853662819
 30
0.0
 11
77.17050637906414
 21
34.8508385366282
 31
0.0
  0
LINE
  5
4249
330
2
100
AcDbEntity
  8
A-AENCL-DETAIL
  6
Continuous
370
     0
100
AcDbLine
 10
112.2216877821414
 20
94.3508385366282
 30
0.0
 11
112.7216877821414
 21
94.85083853662819
 31
0.0
  0
LINE
  5
424A
330
2
100
AcDbEntity
  8
A-AENCL-DETAIL
  6
Continuous
370
     0
100
AcDbLine
 10
99.22168778214098
 20
94.35083853662808
 30
0.0
 11
112.2216877821414
 21
94.3508385366282
 31
0.0
  0
LINE
  5
424B
330
2
100
AcDbEntity
  8
A-AENCL-DETAIL
  6
Continuous
370
     0
100
AcDbLine
 10
98.72168778214144
 20
94.85083853662809
 30
0.0
 11
99.22168778214098
 21
94.35083853662808
 31
0.0
  0
LINE
  5
424C
330
2
100
AcDbEntity
  8
A-AENCL-DETAIL
  6
Continuous
370
     0
100
AcDbLine
 10
98.72168778214144
 20
94.85083853662809
 30
0.0
 11
112.7216877821414
 21
94.85083853662819
 31
0.0
  0
LINE
  5
424D
330
2
100
AcDbEntity
  8
A-AENCL-DETAIL
  6
Continuous
370
     0
100
AcDbLine
 10
112.7216877821414
 20
34.85083853662809
 30
0.0
 11
112.221687782141
 21
35.35083853662809
 31
0.0
  0
LINE
  5
424E
330
2
100
AcDbEntity
  8
A-AENCL-DETAIL
  6
Continuous
370
     0
100
AcDbLine
 10
112.7216877821414
 20
34.85083853662809
 30
0.0
 11
98.72168778214144
 21
34.8508385366282
 31
0.0
  0
LINE
  5
424F
330
2
100
AcDbEntity
  8
A-AENCL-DETAIL
  6
Continuous
370
     0
100
AcDbLine
 10
112.221687782141
 20
35.35083853662809
 30
0.0
 11
99.22168778214098
 21
35.35083853662821
 31
0.0
  0
LINE
  5
4250
330
2
100
AcDbEntity
  8
A-AENCL-DETAIL
  6
Continuous
370
     0
100
AcDbLine
 10
99.22168778214098
 20
35.35083853662821
 30
0.0
 11
98.72168778214144
 21
34.8508385366282
 31
0.0
  0
LINE
  5
4251
330
2
100
AcDbEntity
  8
A-AENCL-DETAIL
  6
Continuous
370
     0
100
AcDbLine
 10
98.72168778214144
 20
34.8508385366282
 30
0.0
 11
98.72168778214097
 21
94.85083853662819
 31
0.0
  0
LINE
  5
4252
330
2
100
AcDbEntity
  8
A-AENCL-DETAIL
  6
Continuous
370
     0
100
AcDbLine
 10
99.22168778214098
 20
94.35083853662808
 30
0.0
 11
98.72168778214097
 21
94.85083853662819
 31
0.0
  0
LINE
  5
4253
330
2
100
AcDbEntity
  8
A-AENCL-DETAIL
  6
Continuous
370
     0
100
AcDbLine
 10
99.22168778214143
 20
35.35083853662821
 30
0.0
 11
99.22168778214098
 21
94.35083853662808
 31
0.0
  0
LINE
  5
4254
330
2
100
AcDbEntity
  8
A-AENCL-DETAIL
  6
Continuous
370
     0
100
AcDbLine
 10
98.72168778214144
 20
34.8508385366282
 30
0.0
 11
99.22168778214143
 21
35.35083853662821
 31
0.0
  0
LINE
  5
4255
330
2
100
AcDbEntity
  8
A-AENCL-DETAIL
  6
Continuous
370
     0
100
AcDbLine
 10
112.221687782141
 20
35.35083853662821
 30
0.0
 11
112.7216877821414
 21
34.8508385366282
 31
0.0
  0
LINE
  5
4256
330
2
100
AcDbEntity
  8
A-AENCL-DETAIL
  6
Continuous
370
     0
100
AcDbLine
 10
112.2216877821414
 20
94.35083853662808
 30
0.0
 11
112.221687782141
 21
35.35083853662821
 31
0.0
  0
LINE
  5
4257
330
2
100
AcDbEntity
  8
A-AENCL-DETAIL
  6
Continuous
370
     0
100
AcDbLine
 10
112.7216877821414
 20
94.85083853662819
 30
0.0
 11
112.7216877821414
 21
34.8508385366282
 31
0.0
  0
LINE
  5
4258
330
2
100
AcDbEntity
  8
A-AENCL-DETAIL
  6
Continuous
370
     0
100
AcDbLine
 10
112.7216877821414
 20
94.85083853662819
 30
0.0
 11
112.2216877821414
 21
94.35083853662808
 31
0.0
  0
LINE
  5
4259
330
2
100
AcDbEntity
  8
A-AENCL-DETAIL
  6
Continuous
370
     0
100
AcDbLine
 10
112.2216877821414
 20
35.35083853662821
 30
0.0
 11
112.2216877821414
 21
94.35083853662808
 31
0.0
  0
LINE
  5
425A
330
2
100
AcDbEntity
  8
A-AENCL-DETAIL
  6
Continuous
370
     0
100
AcDbLine
 10
99.22168778214098
 20
94.35083853662808
 30
0.0
 11
99.22168778214098
 21
35.35083853662821
 31
0.0
  0
LINE
  5
425B
330
2
100
AcDbEntity
  8
A-AENCL-DETAIL
  6
Continuous
370
     0
100
AcDbLine
 10
99.22168778214098
 20
35.35083853662821
 30
0.0
 11
112.2216877821414
 21
35.35083853662821
 31
0.0
  0
LINE
  5
425C
330
2
100
AcDbEntity
  8
A-AENCL-DETAIL
  6
Continuous
370
     0
100
AcDbLine
 10
112.2216877821414
 20
94.35083853662808
 30
0.0
 11
99.22168778214098
 21
94.35083853662808
 31
0.0
  0
LINE
  5
4269
330
2
100
AcDbEntity
  8
A-AENCL-DETAIL
  6
Continuous
370
     0
100
AcDbLine
 10
33.38247753486621
 20
122.1456348890793
 30
0.0
 11
19.38247753486621
 21
122.1456348890793
 31
0.0
  0
LINE
  5
426A
330
2
100
AcDbEntity
  8
A-AENCL-DETAIL
  6
Continuous
370
     0
100
AcDbLine
 10
33.38247753486621
 20
118.6706348890793
 30
0.0
 11
33.38247753486621
 21
122.1456348890793
 31
0.0
  0
LINE
  5
426B
330
2
100
AcDbEntity
  8
A-AENCL-DETAIL
  6
Continuous
370
     0
100
AcDbLine
 10
19.38247753486621
 20
118.6706348890793
 30
0.0
 11
33.38247753486621
 21
118.6706348890793
 31
0.0
  0
LINE
  5
426C
330
2
100
AcDbEntity
  8
A-AENCL-DETAIL
  6
Continuous
370
     0
100
AcDbLine
 10
19.38247753486621
 20
122.1456348890793
 30
0.0
 11
19.38247753486621
 21
118.6706348890793
 31
0.0
  0
LINE
  5
426D
330
2
100
AcDbEntity
  8
A-AENCL-DETAIL
  6
Continuous
370
     0
100
AcDbLine
 10
33.38247753486621
 20
122.1456348890793
 30
0.0
 11
33.38247753486621
 21
118.6706348890793
 31
0.0
  0
LINE
  5
426E
330
2
100
AcDbEntity
  8
A-AENCL-DETAIL
  6
Continuous
370
     0
100
AcDbLine
 10
19.38247753486621
 20
118.6706348890793
 30
0.0
 11
19.38247753486621
 21
122.1456348890793
 31
0.0
  0
LINE
  5
426F
330
2
100
AcDbEntity
  8
A-AENCL-DETAIL
  6
Continuous
370
     0
100
AcDbLine
 10
163.6619858863955
 20
35.59374641348006
 30
0.0
 11
161.7351199076624
 21
34.48139036112161
 31
0.0
  0
LINE
  5
4270
330
2
100
AcDbEntity
  8
A-AENCL-DETAIL
  6
Continuous
370
     0
100
AcDbLine
 10
163.3172713305671
 20
33.77213581397564
 30
0.0
 11
163.3172713305671
 21
34.16993571839464
 31
0.0
  0
LINE
  5
4271
330
2
100
AcDbEntity
  8
A-AENCL-DETAIL
  6
Continuous
370
     0
100
AcDbLine
 10
163.3172713305671
 20
34.16993571839464
 30
0.0
 11
162.9727291758572
 21
33.9710357661852
 31
0.0
  0
LINE
  5
4272
330
2
100
AcDbEntity
  8
A-AENCL-DETAIL
  6
Continuous
370
     0
100
AcDbLine
 10
163.6619858863955
 20
35.7978484414358
 30
0.0
 11
163.4852091910989
 21
35.89989945541356
 31
0.0
  0
LINE
  5
4273
330
2
100
AcDbEntity
  8
A-AENCL-DETAIL
  6
Continuous
370
     0
100
AcDbLine
 10
161.7351199076624
 20
34.48139036112161
 30
0.0
 11
161.3815665170691
 21
34.68549238907736
 31
0.0
  0
LINE
  5
4274
330
2
100
AcDbEntity
  8
A-AENCL-DETAIL
  6
Continuous
370
     0
100
AcDbLine
 10
163.4852091910989
 20
35.89989945541356
 30
0.0
 11
161.3815665170691
 21
34.68549238907736
 31
0.0
  0
LINE
  5
4275
330
2
100
AcDbEntity
  8
A-AENCL-DETAIL
  6
Continuous
370
     0
100
AcDbLine
 10
168.7885100499979
 20
58.63081875650369
 30
0.0
 11
158.8890151133864
 21
64.34567553926285
 31
0.0
  0
LINE
  5
4276
330
2
100
AcDbEntity
  8
A-AENCL-DETAIL
  6
Continuous
370
     0
100
AcDbLine
 10
166.3313139853749
 20
57.21230966221174
 30
0.0
 11
168.7885100499979
 21
58.63081875650369
 31
0.0
  0
LINE
  5
4277
330
2
100
AcDbEntity
  8
A-AENCL-DETAIL
  6
Continuous
370
     0
100
AcDbLine
 10
156.4318190487633
 20
62.9271664449709
 30
0.0
 11
166.3313139853749
 21
57.21230966221174
 31
0.0
  0
LINE
  5
4278
330
2
100
AcDbEntity
  8
A-AENCL-DETAIL
  6
Continuous
370
     0
100
AcDbLine
 10
158.8890151133864
 20
64.34567553926285
 30
0.0
 11
156.4318190487633
 21
62.9271664449709
 31
0.0
  0
LINE
  5
4279
330
2
100
AcDbEntity
  8
A-AENCL-DETAIL
  6
Continuous
370
     0
100
AcDbLine
 10
156.4318190487633
 20
62.9271664449709
 30
0.0
 11
156.7853724393562
 21
62.31479401107231
 31
0.0
  0
LINE
  5
427A
330
2
100
AcDbEntity
  8
A-AENCL-DETAIL
  6
Continuous
370
     0
100
AcDbLine
 10
165.9777605947815
 20
57.00814128422462
 30
0.0
 11
166.3313139853749
 21
57.21230966221174
 31
0.0
  0
LINE
  5
427B
330
2
100
AcDbEntity
  8
A-AENCL-DETAIL
  6
Continuous
370
     0
100
AcDbLine
 10
156.7853724393562
 20
62.31479401107231
 30
0.0
 11
165.9777605947815
 21
57.00814128422462
 31
0.0
  0
LINE
  5
427C
330
2
100
AcDbEntity
  8
A-AENCL-DETAIL
  6
Continuous
370
     0
100
AcDbLine
 10
156.7853724393562
 20
14.13888610981291
 30
0.0
 11
156.4318190487633
 21
13.9347177318258
 31
0.0
  0
LINE
  5
427D
330
2
100
AcDbEntity
  8
A-AENCL-DETAIL
  6
Continuous
370
     0
100
AcDbLine
 10
165.9777605947815
 20
8.832233382965455
 30
0.0
 11
156.7853724393562
 21
14.13888610981291
 31
0.0
  0
LINE
  5
427E
330
2
100
AcDbEntity
  8
A-AENCL-DETAIL
  6
Continuous
370
     0
100
AcDbLine
 10
166.3313139853749
 20
8.219860949066969
 30
0.0
 11
165.9777605947815
 21
8.832233382965455
 31
0.0
  0
LINE
  5
427F
330
2
100
AcDbEntity
  8
A-AENCL-DETAIL
  6
Continuous
370
     0
100
AcDbLine
 10
166.3313139853749
 20
8.219860949066969
 30
0.0
 11
156.4318190487633
 21
13.9347177318258
 31
0.0
  0
LINE
  5
4280
330
2
100
AcDbEntity
  8
A-AENCL-DETAIL
  6
Continuous
370
     0
100
AcDbLine
 10
168.7885100499979
 20
9.638370043358918
 30
0.0
 11
166.3313139853749
 21
8.219860949066969
 31
0.0
  0
LINE
  5
4281
330
2
100
AcDbEntity
  8
A-AENCL-DETAIL
  6
Continuous
370
     0
100
AcDbLine
 10
165.9777605947815
 20
8.832233382965455
 30
0.0
 11
166.3313139853749
 21
8.219860949066855
 31
0.0
  0
LINE
  5
4282
330
2
100
AcDbEntity
  8
A-AENCL-DETAIL
  6
Continuous
370
     0
100
AcDbLine
 10
165.9777605947815
 20
57.0081412842245
 30
0.0
 11
165.9777605947815
 21
8.832233382965455
 31
0.0
  0
LINE
  5
4283
330
2
100
AcDbEntity
  8
A-AENCL-DETAIL
  6
Continuous
370
     0
100
AcDbLine
 10
166.3313139853749
 20
57.21230966221174
 30
0.0
 11
166.3313139853749
 21
8.219860949066855
 31
0.0
  0
LINE
  5
4284
330
2
100
AcDbEntity
  8
A-AENCL-DETAIL
  6
Continuous
370
     0
100
AcDbLine
 10
166.3313139853749
 20
57.21230966221174
 30
0.0
 11
165.9777605947815
 21
57.0081412842245
 31
0.0
  0
LINE
  5
4285
330
2
100
AcDbEntity
  8
A-AENCL-DETAIL
  6
Continuous
370
     0
100
AcDbLine
 10
168.7885100499979
 20
9.638370043358804
 30
0.0
 11
168.7885100499979
 21
58.63081875650369
 31
0.0
  0
LINE
  5
4286
330
2
100
AcDbEntity
  8
A-AENCL-DETAIL
  6
Continuous
370
     0
100
AcDbLine
 10
166.3313139853749
 20
8.219860949066855
 30
0.0
 11
168.7885100499979
 21
9.638370043358804
 31
0.0
  0
LINE
  5
4287
330
2
100
AcDbEntity
  8
A-AENCL-DETAIL
  6
Continuous
370
     0
100
AcDbLine
 10
168.7885100499979
 20
58.63081875650369
 30
0.0
 11
166.3313139853749
 21
57.21230966221174
 31
0.0
  0
LINE
  5
4288
330
2
100
AcDbEntity
  8
A-AENCL-DETAIL
  6
Continuous
370
     0
100
AcDbLine
 10
156.4318190487633
 20
13.9347177318258
 30
0.0
 11
156.7853724393562
 21
14.13888610981303
 31
0.0
  0
LINE
  5
4289
330
2
100
AcDbEntity
  8
A-AENCL-DETAIL
  6
Continuous
370
     0
100
AcDbLine
 10
156.4318190487633
 20
13.9347177318258
 30
0.0
 11
156.4318190487629
 21
62.9271664449709
 31
0.0
  0
LINE
  5
428A
330
2
100
AcDbEntity
  8
A-AENCL-DETAIL
  6
Continuous
370
     0
100
AcDbLine
 10
156.7853724393562
 20
62.31479401107231
 30
0.0
 11
156.4318190487629
 21
62.9271664449709
 31
0.0
  0
LINE
  5
428B
330
2
100
AcDbEntity
  8
A-AENCL-DETAIL
  6
Continuous
370
     0
100
AcDbLine
 10
156.7853724393562
 20
14.13888610981303
 30
0.0
 11
156.7853724393562
 21
62.31479401107231
 31
0.0
  0
LINE
  5
428C
330
2
100
AcDbEntity
  8
A-AENCL-DETAIL
  6
Continuous
370
     0
100
AcDbLine
 10
156.4318190487629
 20
62.9271664449709
 30
0.0
 11
158.8890151133864
 21
64.34567553926285
 31
0.0
  0
LINE
  5
428D
330
2
100
AcDbEntity
  8
A-AENCL-DETAIL
  6
Continuous
370
     0
100
AcDbLine
 10
158.8890151133864
 20
47.9030460726326
 30
0.0
 11
158.8890151133864
 21
36.3285137141205
 31
0.0
  0
ARC
  5
428E
330
2
100
AcDbEntity
  8
A-AENCL-DETAIL
  6
Continuous
370
     0
100
AcDbCircle
 10
164.3726169339252
 20
38.26630683347196
 30
0.0
 40
1.567912445543231
100
AcDbArc
 50
243.048643321844
 51
272.7792587891507
  0
ARC
  5
428F
330
2
100
AcDbEntity
  8
A-AENCL-DETAIL
  6
Continuous
370
     0
100
AcDbCircle
 10
161.5121281052948
 20
38.26692988422758
 30
0.0
 40
3.751289202296272
100
AcDbArc
 50
38.48221951274854
 51
55.0334306301101
  0
LINE
  5
4290
330
2
100
AcDbEntity
  8
A-AENCL-DETAIL
  6
Continuous
370
     0
100
AcDbLine
 10
163.6619858863955
 20
41.34106101355587
 30
0.0
 11
163.6619858863955
 21
41.82916822782772
 31
0.0
  0
ARC
  5
4291
330
2
100
AcDbEntity
  8
A-AENCL-DETAIL
  6
Continuous
370
     0
100
AcDbCircle
 10
164.3726169339247
 20
43.22679226567743
 30
0.0
 40
1.567912445542867
100
AcDbArc
 50
243.0486433218437
 51
272.779258789154
  0
LINE
  5
4292
330
2
100
AcDbEntity
  8
A-AENCL-DETAIL
  6
Continuous
370
     0
100
AcDbLine
 10
163.6619858863955
 20
33.5731363367189
 30
0.0
 11
163.6619858863955
 21
36.8686827956218
 31
0.0
  0
LWPOLYLINE
  5
4293
330
2
100
AcDbEntity
  8
A-AENCL-DETAIL
  6
Continuous
370
     0
100
AcDbPolyline
 90
       29
 70
   128
 43
0.0
 10
161.7814495925549
 20
46.23327918979589
 10
161.7508053376677
 20
46.18399217715387
 10
161.6919091399795
 20
46.07090277591157
 10
161.6423527972938
 20
45.94789960596199
 10
161.6023944086701
 20
45.81562329170651
 10
161.5722420851571
 20
45.67476275388389
 10
161.5520528659135
 20
45.52605162153611
 10
161.5419319003144
 20
45.37026441112675
 10
161.5419319003144
 20
45.20821249270818
 10
161.5520528659135
 20
45.04073986414903
 10
161.5722420851571
 20
44.86871875542931
 10
161.6023944086701
 20
44.69304508589732
 10
161.6423527972938
 20
44.51463379814732
 10
161.6919091399795
 20
44.33441409282102
 10
161.7508053376677
 20
44.15332458915043
 10
161.8187346475215
 20
43.97230843644604
 10
161.8953432805001
 20
43.79230840199227
 10
161.9802322439618
 20
43.61426196093259
 10
162.0729594196959
 20
43.43909641371612
 10
162.1730418665597
 20
43.26772405653764
 10
162.27995833573
 20
43.10103742992135
 10
162.3931519854668
 20
42.93990467019637
 10
162.5120332812553
 20
42.78516498807426
 10
162.6359830662154
 20
42.63762429787675
 10
162.7643557857909
 20
42.49805102017728
 10
162.8964828499215
 20
42.36717207971719
 10
163.0316761151939
 20
42.24566911944077
 10
163.1692314688207
 20
42.13417495036629
 10
163.3084324958022
 20
42.03327025578334
  0
LINE
  5
4294
330
2
100
AcDbEntity
  8
A-AENCL-DETAIL
  6
Continuous
370
     0
100
AcDbLine
 10
163.3084324958022
 20
42.03327025578334
 30
0.0
 11
163.3084324958022
 21
41.5451630415115
 31
0.0
  0
LWPOLYLINE
  5
4295
330
2
100
AcDbEntity
  8
A-AENCL-DETAIL
  6
Continuous
370
     0
100
AcDbPolyline
 90
       42
 70
   128
 43
0.0
 10
163.3084324958022
 20
41.5451630415115
 10
163.1692314688207
 20
41.60497643170072
 10
163.0316761151939
 20
41.65230029338727
 10
162.8964828499215
 20
41.6868881547075
 10
162.7643557857909
 20
41.70855987536083
 10
162.6359830662154
 20
41.71720258481684
 10
162.5120332812553
 20
41.7127712701656
 10
162.3931519854668
 20
41.69528901055469
 10
162.27995833573
 20
41.66484685698811
 10
162.1730418665597
 20
41.62160335811461
 10
162.0729594196959
 20
41.56578373447621
 10
161.9802322439618
 20
41.49767870551545
 10
161.8953432805001
 20
41.41764297545194
 10
161.8187346475215
 20
41.32609338591442
 10
161.7508053376677
 20
41.22350674494805
 10
161.6919091399795
 20
41.11041734370565
 10
161.6423527972938
 20
40.98741417375606
 10
161.6023944086701
 20
40.85513785950058
 10
161.5722420851571
 20
40.71427732167797
 10
161.5520528659135
 20
40.56556618933018
 10
161.5419319003144
 20
40.40977897892083
 10
161.5419319003144
 20
40.24772706050225
 10
161.5520528659135
 20
40.0802544319431
 10
161.5722420851571
 20
39.90823332322339
 10
161.6023944086701
 20
39.7325596536914
 10
161.6423527972938
 20
39.55414836594128
 10
161.6919091399795
 20
39.37392866061509
 10
161.7508053376677
 20
39.1928391569445
 10
161.8187346475215
 20
39.01182300424011
 10
161.8953432805001
 20
38.83182296978635
 10
161.9802322439618
 20
38.65377652872667
 10
162.0729594196959
 20
38.4786109815102
 10
162.1730418665597
 20
38.30723862433172
 10
162.27995833573
 20
38.14055199771542
 10
162.3931519854668
 20
37.97941923799044
 10
162.5120332812553
 20
37.82467955586833
 10
162.6359830662154
 20
37.67713886567094
 10
162.7643557857909
 20
37.53756558797136
 10
162.8964828499215
 20
37.40668664751126
 10
163.0316761151939
 20
37.28518368723485
 10
163.1692314688207
 20
37.17368951816036
 10
163.3084324958022
 20
37.07278482357742
  0
LINE
  5
4296
330
2
100
AcDbEntity
  8
A-AENCL-DETAIL
  6
Continuous
370
     0
100
AcDbLine
 10
163.3084324958022
 20
37.07278482357742
 30
0.0
 11
163.3084324958022
 21
35.7978484414358
 31
0.0
  0
LINE
  5
4297
330
2
100
AcDbEntity
  8
A-AENCL-DETAIL
  6
Continuous
370
     0
100
AcDbLine
 10
163.8387625816922
 20
41.93121924180559
 30
0.0
 11
163.6619858863955
 21
41.82916822782772
 31
0.0
  0
ARC
  5
4298
330
2
100
AcDbEntity
  8
A-AENCL-DETAIL
  6
Continuous
370
     0
100
AcDbCircle
 10
164.9527002400591
 20
44.26909535069216
 30
0.0
 40
2.589695311659329
100
AcDbArc
 50
235.4819716667724
 51
244.5234048659271
  0
LINE
  5
4299
330
2
100
AcDbEntity
  8
A-AENCL-DETAIL
  6
Continuous
370
     0
100
AcDbLine
 10
163.3084324958022
 20
42.03327025578334
 30
0.0
 11
163.4852091910989
 21
42.13532126976121
 31
0.0
  0
LINE
  5
429A
330
2
100
AcDbEntity
  8
A-AENCL-DETAIL
  6
Continuous
370
     0
100
AcDbLine
 10
163.3084324958022
 20
37.07278482357742
 30
0.0
 11
163.4852091910989
 21
37.17483583755529
 31
0.0
  0
LINE
  5
429B
330
2
100
AcDbEntity
  8
A-AENCL-DETAIL
  6
Continuous
370
     0
100
AcDbLine
 10
163.4852091910989
 20
41.64721405548937
 30
0.0
 11
163.3084324958022
 21
41.5451630415115
 31
0.0
  0
ARC
  5
429C
330
2
100
AcDbEntity
  8
A-AENCL-DETAIL
  6
Continuous
370
     0
100
AcDbCircle
 10
162.4515242543848
 20
39.46229069784568
 30
0.0
 40
2.41710459582678
100
AcDbArc
 50
59.94772513209996
 51
64.68121824267862
  0
LINE
  5
429D
330
2
100
AcDbEntity
  8
A-AENCL-DETAIL
  6
Continuous
370
     0
100
AcDbLine
 10
163.8387625816922
 20
36.97073380959955
 30
0.0
 11
163.6619858863955
 21
36.8686827956218
 31
0.0
  0
ARC
  5
429E
330
2
100
AcDbEntity
  8
A-AENCL-DETAIL
  6
Continuous
370
     0
100
AcDbCircle
 10
164.9527002400587
 20
39.30860991848579
 30
0.0
 40
2.589695311658872
100
AcDbArc
 50
235.4819716667718
 51
244.5234048659271
  0
LINE
  5
429F
330
2
100
AcDbEntity
  8
A-AENCL-DETAIL
  6
Continuous
370
     0
100
AcDbLine
 10
163.4852091910989
 20
42.13532126976121
 30
0.0
 11
163.4852091910989
 21
41.64721405548937
 31
0.0
  0
LINE
  5
42A0
330
2
100
AcDbEntity
  8
A-AENCL-DETAIL
  6
Continuous
370
     0
100
AcDbLine
 10
163.4852091910989
 20
37.17483583755529
 30
0.0
 11
163.4852091910989
 21
35.89989945541356
 31
0.0
  0
LINE
  5
42A1
330
2
100
AcDbEntity
  8
A-AENCL-DETAIL
  6
Continuous
370
     0
100
AcDbLine
 10
165.9777605947815
 20
8.832233382965455
 30
0.0
 11
165.9777605947815
 21
57.00814128422462
 31
0.0
  0
LINE
  5
42A2
330
2
100
AcDbEntity
  8
A-AENCL-DETAIL
  6
Continuous
370
     0
100
AcDbLine
 10
156.7853724393562
 20
62.31479401107231
 30
0.0
 11
156.7853724393562
 21
14.13888610981303
 31
0.0
  0
LINE
  5
42A3
330
2
100
AcDbEntity
  8
A-AENCL-DETAIL
  6
Continuous
370
     0
100
AcDbLine
 10
165.9777605947815
 20
57.00814128422462
 30
0.0
 11
156.7853724393562
 21
62.31479401107231
 31
0.0
  0
LINE
  5
42A4
330
2
100
AcDbEntity
  8
A-AENCL-DETAIL
  6
Continuous
370
     0
100
AcDbLine
 10
156.7853724393562
 20
14.13888610981303
 30
0.0
 11
165.9777605947815
 21
8.832233382965455
 31
0.0
  0
ARC
  5
42A5
330
2
100
AcDbEntity
  8
A-AENCL-DETAIL
  6
Continuous
370
     0
100
AcDbCircle
 10
158.6982948790141
 20
36.47357586967371
 30
0.0
 40
0.3842012018930713
100
AcDbArc
 50
182.6054784856557
 51
237.3945216599668
  0
LINE
  5
42A6
330
2
100
AcDbEntity
  8
A-AENCL-DETAIL
  6
Continuous
370
     0
100
AcDbLine
 10
158.491267548969
 20
36.14992443965935
 30
0.0
 11
164.2718654851692
 21
32.81285628258399
 31
0.0
  0
ARC
  5
42A7
330
2
100
AcDbEntity
  8
A-AENCL-DETAIL
  6
Continuous
370
     0
100
AcDbCircle
 10
164.3408735886091
 20
32.8974586723524
 30
0.0
 40
0.1091772993571105
100
AcDbArc
 50
230.796714764286
 51
9.21403699046111
  0
LINE
  5
42A8
330
2
100
AcDbEntity
  8
A-AENCL-DETAIL
  6
Continuous
370
     0
100
AcDbLine
 10
164.4486421804654
 20
32.91494047157755
 30
0.0
 11
164.4486421804654
 21
44.48940648005804
 31
0.0
  0
ARC
  5
42A9
330
2
100
AcDbEntity
  8
A-AENCL-DETAIL
  6
Continuous
370
     0
100
AcDbCircle
 10
164.0648381551236
 20
44.47194126699298
 30
0.0
 40
0.384201201892941
100
AcDbArc
 50
2.605478485647541
 51
57.3945216599812
  0
LINE
  5
42AA
330
2
100
AcDbEntity
  8
A-AENCL-DETAIL
  6
Continuous
370
     0
100
AcDbLine
 10
164.2718654851692
 20
44.79559269700735
 30
0.0
 11
158.491267548969
 21
48.1326608540827
 31
0.0
  0
ARC
  5
42AB
330
2
100
AcDbEntity
  8
A-AENCL-DETAIL
  6
Continuous
370
     0
100
AcDbCircle
 10
158.4222594455291
 20
48.04805846431418
 30
0.0
 40
0.1091772993571363
100
AcDbArc
 50
50.79671476430643
 51
189.2140369904516
  0
LINE
  5
42AC
330
2
100
AcDbEntity
  8
A-AENCL-DETAIL
  6
Continuous
370
     0
100
AcDbLine
 10
158.3144908536724
 20
48.03057666508903
 30
0.0
 11
158.3144908536724
 21
36.45611065660864
 31
0.0
  0
LINE
  5
42AD
330
2
100
AcDbEntity
  8
A-AENCL-DETAIL
  6
Continuous
370
     0
100
AcDbLine
 10
158.3144908536724
 20
36.45611065660864
 30
0.0
 11
158.6680442442657
 21
36.66021268456427
 31
0.0
  0
LINE
  5
42AE
330
2
100
AcDbEntity
  8
A-AENCL-DETAIL
  6
Continuous
370
     0
100
AcDbLine
 10
158.6680442442657
 20
48.03060984010483
 30
0.0
 11
158.6680442442657
 21
36.66021268456427
 31
0.0
  0
LINE
  5
42AF
330
2
100
AcDbEntity
  8
A-AENCL-DETAIL
  6
Continuous
370
     0
100
AcDbLine
 10
158.8448209395624
 20
36.35402646761497
 30
0.0
 11
158.491267548969
 21
36.14992443965935
 31
0.0
  0
LINE
  5
42B0
330
2
100
AcDbEntity
  8
A-AENCL-DETAIL
  6
Continuous
370
     0
100
AcDbLine
 10
161.3815665170691
 20
34.68549238907736
 30
0.0
 11
161.5583432123658
 21
34.78754340305511
 31
0.0
  0
LINE
  5
42B1
330
2
100
AcDbEntity
  8
A-AENCL-DETAIL
  6
Continuous
370
     0
100
AcDbLine
 10
161.7351199076624
 20
34.48139036112161
 30
0.0
 11
161.3815665170691
 21
34.68549238907736
 31
0.0
  0
LINE
  5
42B2
330
2
100
AcDbEntity
  8
A-AENCL-DETAIL
  6
Continuous
370
     0
100
AcDbLine
 10
161.9118966029587
 20
34.58344137509949
 30
0.0
 11
161.7351199076624
 21
34.48139036112161
 31
0.0
  0
LINE
  5
42B3
330
2
100
AcDbEntity
  8
A-AENCL-DETAIL
  6
Continuous
370
     0
100
AcDbLine
 10
158.8448209395624
 20
36.35402646761497
 30
0.0
 11
161.5583432123658
 21
34.78754340305511
 31
0.0
  0
LINE
  5
42B4
330
2
100
AcDbEntity
  8
A-AENCL-DETAIL
  6
Continuous
370
     0
100
AcDbLine
 10
161.9118966029587
 20
34.58344137509949
 30
0.0
 11
164.4486421804654
 21
33.11900932451749
 31
0.0
  0
ARC
  5
42B5
330
2
100
AcDbEntity
  8
A-AENCL-DETAIL
  6
Continuous
370
     0
100
AcDbCircle
 10
159.0518482696075
 20
36.67767789762934
 30
0.0
 40
0.3842012018929972
100
AcDbArc
 50
182.6054784856451
 51
237.3945216599735
  0
ARC
  5
42B6
330
2
100
AcDbEntity
  8
A-AENCL-DETAIL
  6
Continuous
370
     0
100
AcDbCircle
 10
163.6248632992815
 20
45.45359244537235
 30
0.0
 40
1.876098757691278
100
AcDbArc
 50
157.549053018499
 51
181.3195220826356
  0
LWPOLYLINE
  5
42B7
330
2
100
AcDbEntity
  8
A-AENCL-DETAIL
  6
Continuous
370
     0
100
AcDbPolyline
 90
       29
 70
   128
 43
0.0
 10
164.4486421804654
 20
41.78266828344237
 10
164.373354042284
 20
41.7916249894638
 10
164.2416469454638
 20
41.81703730110473
 10
164.1071481751905
 20
41.85504019858012
 10
163.9705431063666
 20
41.90544002783542
 10
163.8325278471111
 20
41.96797996289354
 10
163.6938056915492
 20
42.04234131458065
 10
163.5550835359868
 20
42.12814515449383
 10
163.4170682767312
 20
42.22495424593285
 10
163.2804632079073
 20
42.33227527195833
 10
163.1459644376341
 20
42.44956134922199
 10
163.0142573408143
 20
42.57621481475825
 10
162.886013066623
 20
42.71159027153839
 10
162.7618851184861
 20
42.85499787726553
 10
162.6425060239739
 20
43.00570685965283
 10
162.5284841115886
 20
43.1629492402717
 10
162.4204004108587
 20
43.32592374799355
 10
162.3188056915492
 20
43.49379990208411
 10
162.2242176570607
 20
43.6657222441429
 10
162.137118306337
 20
43.84081469732302
 10
162.0579514777032
 20
44.01818503061758
 10
161.9871205871723
 20
44.1969294054652
 10
161.9249865727256
 20
44.37613698150346
 10
161.8718660550589
 20
44.55489455800296
 10
161.828029724154
 20
44.7322912273288
 10
161.7937009599045
 20
44.90742301671696
 10
161.7690546938247
 20
45.07939749471256
 10
161.7542165176369
 20
45.24733831879586
 10
161.7492620432858
 20
45.41038970102261
  0
LWPOLYLINE
  5
42B8
330
2
100
AcDbEntity
  8
A-AENCL-DETAIL
  6
Continuous
370
     0
100
AcDbPolyline
 90
       28
 70
   128
 43
0.0
 10
161.9260387385825
 20
45.41038970102261
 10
161.9309904344009
 20
45.25107155744286
 10
161.9458191024168
 20
45.08688633879183
 10
161.9704456252698
 20
44.91871004424945
 10
162.0047386098053
 20
44.74743996711242
 10
162.0485150881141
 20
44.57398990734634
 10
162.1015414937424
 20
44.39928529606709
 10
162.1635349078733
 20
44.22425825796574
 10
162.2341645688198
 20
44.0498426380202
 10
162.3130536367816
 20
43.87696901902768
 10
162.3997812044472
 20
43.70655975654313
 10
162.4938845427186
 20
43.53952405771361
 10
162.5948615695706
 20
43.37675313026397
 10
162.7021735288745
 20
43.21911542751877
 10
162.8152478648967
 20
43.06745201482783
 10
162.9334812771299
 20
42.92257208211845
 10
163.0562429391639
 20
42.78524862651727
 10
163.1828778644162
 20
42.65621432807598
 10
163.3127104007685
 20
42.53615764060657
 10
163.4450478354647
 20
42.42571911848176
 10
163.5791840910319
 20
42.32548799900087
 10
163.7144034925095
 20
42.23599905855382
 10
163.849984585885
 20
42.15772975935715
 10
163.9852039873626
 20
42.0910977019871
 10
164.1193402429298
 20
42.0364583972996
 10
164.251677677626
 20
41.99410336962637
 10
164.3815102139783
 20
41.96425860136549
 10
164.4486421804654
 20
41.95362694634479
  0
ARC
  5
42B9
330
2
100
AcDbEntity
  8
A-AENCL-DETAIL
  6
Continuous
370
     0
100
AcDbCircle
 10
163.7933589644676
 20
45.44099691967869
 30
0.0
 40
1.867571050277075
100
AcDbArc
 50
159.8599617132395
 51
180.9390501980119
  0
LWPOLYLINE
  5
42BA
330
2
100
AcDbEntity
  8
A-AENCL-DETAIL
  6
Continuous
370
     0
100
AcDbPolyline
 90
       39
 70
   128
 43
0.0
 10
164.4486421804654
 20
36.82218285123645
 10
164.373354042284
 20
36.83113955725787
 10
164.2416469454638
 20
36.85655186889881
 10
164.1071481751905
 20
36.8945547663742
 10
163.9705431063666
 20
36.9449545956295
 10
163.8325278471111
 20
37.00749453068761
 10
163.6938056915492
 20
37.08185588237473
 10
163.5550835359868
 20
37.16765972228791
 10
163.4170682767312
 20
37.26446881372692
 10
163.2804632079073
 20
37.37178983975241
 10
163.1459644376341
 20
37.48907591701607
 10
163.0142573408143
 20
37.61572938255233
 10
162.886013066623
 20
37.75110483933247
 10
162.7618851184861
 20
37.8945124450596
 10
162.6425060239739
 20
38.04522142744691
 10
162.5284841115886
 20
38.20246380806577
 10
162.4204004108587
 20
38.36543831578751
 10
162.3188056915492
 20
38.53331446987818
 10
162.2242176570607
 20
38.70523681193697
 10
162.137118306337
 20
38.8803292651171
 10
162.0579514777032
 20
39.05769959841166
 10
161.9871205871723
 20
39.23644397325927
 10
161.9249865727256
 20
39.41565154929754
 10
161.8718660550589
 20
39.59440912579703
 10
161.828029724154
 20
39.77180579512288
 10
161.7937009599045
 20
39.94693758451104
 10
161.7690546938247
 20
40.11891206250663
 10
161.7542165176373
 20
40.28685288658993
 10
161.7492620432858
 20
40.44990426881679
 10
161.7542165176373
 20
40.60723533671807
 10
161.7690546938247
 20
40.75804436723546
 10
161.7937009599045
 20
40.90156287211778
 10
161.828029724154
 20
41.03705951396159
 10
161.8718660550589
 20
41.16384383293859
 10
161.9249865727256
 20
41.28126976522105
 10
161.9871205871723
 20
41.38873893517427
 10
162.0579514777032
 20
41.4857037045424
 10
162.137118306337
 20
41.57166996308695
 10
162.2185796056214
 20
41.64190699345818
  0
LWPOLYLINE
  5
42BB
330
2
100
AcDbEntity
  8
A-AENCL-DETAIL
  6
Continuous
370
     0
100
AcDbPolyline
 90
       41
 70
   128
 43
0.0
 10
162.6110362702366
 20
41.71736335057881
 10
162.5948615695706
 20
41.71133443579219
 10
162.4938845427186
 20
41.66514910195167
 10
162.3997812044472
 20
41.60676280482289
 10
162.3130536367816
 20
41.53648706056332
 10
162.2341645688198
 20
41.45469682067482
 10
162.1635349078733
 20
41.36182847147586
 10
162.1015414937424
 20
41.2583775057908
 10
162.0485150881141
 20
41.1448958792821
 10
162.0047386098053
 20
41.02198906552757
 10
161.9704456252698
 20
40.89031282555708
 10
161.9458191024168
 20
40.7505697090836
 10
161.9309904344009
 20
40.60350530609662
 10
161.9260387385825
 20
40.44990426881668
 10
161.9309904344009
 20
40.29058612523693
 10
161.9458191024168
 20
40.1264009065859
 10
161.9704456252698
 20
39.95822461204353
 10
162.0047386098053
 20
39.7869545349065
 10
162.0485150881141
 20
39.61350447514042
 10
162.1015414937424
 20
39.43879986386117
 10
162.1635349078733
 20
39.26377282575982
 10
162.2341645688198
 20
39.08935720581428
 10
162.3130536367816
 20
38.91648358682164
 10
162.3997812044472
 20
38.7460743243372
 10
162.4938845427186
 20
38.57903862550756
 10
162.5948615695706
 20
38.41626769805805
 10
162.7021735288745
 20
38.25862999531285
 10
162.8152478648967
 20
38.10696658262191
 10
162.9334812771299
 20
37.96208664991264
 10
163.0562429391639
 20
37.82476319431135
 10
163.1828778644162
 20
37.69572889587016
 10
163.3127104007685
 20
37.57567220840065
 10
163.4450478354647
 20
37.46523368627584
 10
163.5791840910319
 20
37.36500256679494
 10
163.7144034925095
 20
37.2755136263479
 10
163.849984585885
 20
37.19724432715123
 10
163.9852039873626
 20
37.13061226978118
 10
164.1193402429298
 20
37.0759729650938
 10
164.251677677626
 20
37.03361793742033
 10
164.3815102139783
 20
37.00377316915956
 10
164.4486421804654
 20
36.99314151413887
  0
LINE
  5
42BC
330
2
100
AcDbEntity
  8
A-AENCL-DETAIL
  6
Continuous
370
     0
100
AcDbLine
 10
158.4912962824887
 20
48.13264426657486
 30
0.0
 11
158.3144908536724
 21
48.03057666508903
 31
0.0
  0
LINE
  5
42BD
330
2
100
AcDbEntity
  8
A-AENCL-DETAIL
  6
Continuous
370
     0
100
AcDbLine
 10
164.2718654851692
 20
32.81285628258399
 30
0.0
 11
164.4486421781307
 21
32.91490729521399
 31
0.0
  0
DIMENSION
  5
435D
330
2
100
AcDbEntity
  8
A-ANNO-DIM
100
AcDbDimension
  2
*D49
 10
33.38247753486667
 20
105.659448315579
 30
0.0
 11
27.31128212997646
 21
105.659448315579
 31
0.0
 70
   160
 71
     5
 42
14.00000000000045
  3
00
100
AcDbAlignedDimension
 13
19.38247753486621
 23
94.91333853662821
 33
0.0
 14
33.38247753486667
 24
94.91333853662821
 34
0.0
100
AcDbRotatedDimension
  0
DIMENSION
  5
436B
330
2
100
AcDbEntity
  8
A-ANNO-DIM
100
AcDbDimension
  2
*D50
 10
61.94449682212632
 20
34.8508385366282
 30
0.0
 11
61.94449682212632
 21
66.66616919971284
 31
0.0
 70
   160
 71
     5
 42
59.99999999999989
  3
00
100
AcDbAlignedDimension
 13
33.38247753486621
 23
94.85083853662809
 33
0.0
 14
33.38247753486667
 24
34.8508385366282
 34
0.0
 50
90.0
100
AcDbRotatedDimension
  0
DIMENSION
  5
4379
330
2
100
AcDbEntity
  8
A-ANNO-DIM
100
AcDbDimension
  2
*D51
 10
44.80957043632805
 20
94.85083853662809
 30
0.0
 11
44.80957043632805
 21
88.60747203326026
 31
0.0
 70
   160
 71
     5
 42
16.66250000000004
  3
00
100
AcDbAlignedDimension
 13
30.46997753486631
 23
78.18833853662806
 33
0.0
 14
33.38247753486667
 24
94.85083853662809
 34
0.0
 50
90.0
100
AcDbRotatedDimension
  0
DIMENSION
  5
4387
330
2
100
AcDbEntity
  8
A-ANNO-DIM
100
AcDbDimension
  2
*D52
 10
30.7199775348663
 20
27.56260617994803
 30
0.0
 11
10.4830638708388
 21
27.56260617994803
 31
0.0
 70
   160
 71
     5
 42
8.674999999999727
  3
00
100
AcDbAlignedDimension
 13
22.04497753486657
 23
63.76333853662811
 33
0.0
 14
30.7199775348663
 24
63.76333853662811
 34
0.0
100
AcDbRotatedDimension
  0
DIMENSION
  5
4394
330
2
100
AcDbEntity
  8
A-ANNO-DIM
100
AcDbDimension
  2
*D53
 10
8.906439740692576
 20
78.18833853662806
 30
0.0
 11
8.906439740692576
 21
71.68503426854567
 31
0.0
 70
   160
 71
     5
 42
14.67499999999995
  3
00
100
AcDbAlignedDimension
 13
22.29497753486658
 23
63.51333853662811
 33
0.0
 14
22.29497753486658
 24
78.18833853662806
 34
0.0
 50
90.0
100
AcDbRotatedDimension
  0
DIMENSION
  5
43A2
330
2
100
AcDbEntity
  8
A-ANNO-DIM
100
AcDbDimension
  2
*D54
 10
42.42019677105452
 20
122.1456348890793
 30
0.0
 11
42.42019677105452
 21
120.5537344600039
 31
0.0
 70
   160
 71
     5
 42
3.475000000000022
  3
00
100
AcDbAlignedDimension
 13
33.38247753486621
 23
118.6706348890793
 33
0.0
 14
33.38247753486621
 24
122.1456348890793
 34
0.0
 50
90.0
100
AcDbRotatedDimension
  0
VIEWPORT
  5
1F38
102
{ACAD_XDICTIONARY
360
1F39
102
}
330
1F31
100
AcDbEntity
 67
     1
  8
0
100
AcDbViewport
 10
5.249999639556165
 20
3.999999883606678
 30
0.0
 40
15.08289652418326
 41
8.992999745766949
 68
     1
 69
     1
 12
5.249999639556165
 22
3.999999883606678
 13
0.0
 23
0.0
 14
0.5
 24
0.5
 15
0.5
 25
0.5
 16
0.0
 26
0.0
 36
1.0
 17
0.0
 27
0.0
 37
0.0
 42
50.0
 43
0.0
 44
0.0
 45
8.992999745766949
 50
0.0
 51
0.0
 72
  1000
 90
   819232
  1

281
     0
 71
     1
 74
     0
110
0.0
120
0.0
130
0.0
111
1.0
121
0.0
131
0.0
112
0.0
122
1.0
132
0.0
 79
     0
146
0.0
170
     0
  0
ENDSEC
  0
SECTION
  2
OBJECTS
  0
DICTIONARY
  5
7
330
0
100
AcDbDictionary
281
     1
  3
ACAD_COLOR
350
74
  3
ACAD_GROUP
350
1F
  3
ACAD_LAYOUT
350
B
  3
ACAD_MATERIAL
350
73
  3
ACAD_MLEADERSTYLE
350
471
  3
ACAD_MLINESTYLE
350
20
  3
ACAD_PLOTSETTINGS
350
21
  3
ACAD_PLOTSTYLENAME
350
6
  3
ACAD_SCALELIST
350
44F
  3
ACAD_TABLESTYLE
350
44D
  3
ACAD_VISUALSTYLE
350
43C
  3
AcadDim
350
428
  3
ACDB_RECOMPOSE_DATA
350
4CD
  3
AcDbVariableDictionary
350
4EA
  0
DICTIONARY
  5
4CF
330
19
100
AcDbDictionary
280
     1
281
     1
  0
DICTIONARY
  5
5AB
330
10
100
AcDbDictionary
280
     1
281
     1
  3
ACAD_LAYERFILTERS
360
387A
  3
ACAD_LAYERSTATES
360
1F3F
  3
ACLYDICTIONARY
360
3879
  0
DICTIONARY
  5
483
330
4
100
AcDbDictionary
280
     1
281
     1
  3
ADSK_XREC_LAYER_RECONCILED
360
484
  0
DICTIONARY
  5
48B
330
1F8
100
AcDbDictionary
280
     1
281
     1
  3
ADSK_XREC_LAYER_RECONCILED
360
48C
  0
DICTIONARY
  5
48D
330
1FB
100
AcDbDictionary
280
     1
281
     1
  3
ADSK_XREC_LAYER_RECONCILED
360
48E
  0
DICTIONARY
  5
38EA
330
216
100
AcDbDictionary
280
     1
281
     1
  3
ADSK_XREC_LAYER_RECONCILED
360
38EB
  0
DICTIONARY
  5
38F2
330
386E
100
AcDbDictionary
280
     1
281
     1
  3
ADSK_XREC_LAYER_RECONCILED
360
38F3
  0
DICTIONARY
  5
392D
330
392C
100
AcDbDictionary
280
     1
281
     1
  0
DICTIONARY
  5
1F39
330
1F38
100
AcDbDictionary
280
     1
281
     1
  3
ASDK_XREC_ANNOTATION_SCALE_INFO
360
1F3A
  0
DICTIONARY
  5
74
102
{ACAD_REACTORS
330
7
102
}
330
7
100
AcDbDictionary
281
     1
  0
DICTIONARY
  5
1F
102
{ACAD_REACTORS
330
7
102
}
330
7
100
AcDbDictionary
281
     1
  0
DICTIONARY
  5
B
102
{ACAD_REACTORS
330
7
102
}
330
7
100
AcDbDictionary
281
     1
  3
Layout1
350
1F32
  3
Model
350
A
  0
DICTIONARY
  5
73
102
{ACAD_REACTORS
330
7
102
}
330
7
100
AcDbDictionary
281
     1
  3
ByBlock
350
22B
  3
ByLayer
350
22E
  3
Global
350
231
  0
DICTIONARY
  5
471
102
{ACAD_REACTORS
330
7
102
}
330
7
100
AcDbDictionary
281
     1
  3
Standard
350
472
  0
DICTIONARY
  5
20
102
{ACAD_REACTORS
330
7
102
}
330
7
100
AcDbDictionary
281
     1
  3
Standard
350
23
  0
DICTIONARY
  5
21
102
{ACAD_REACTORS
330
7
102
}
330
7
100
AcDbDictionary
281
     1
  3
A size Postscript
350
226
  3
B size HP 500
350
227
  3
C Size HP 500
350
228
  3
D Size HP 500
350
229
  3
E Size HP 500
350
22A
  0
ACDBDICTIONARYWDFLT
  5
6
102
{ACAD_REACTORS
330
7
102
}
330
7
100
AcDbDictionary
281
     1
  3
Normal
350
5
100
AcDbDictionaryWithDefault
340
5
  0
DICTIONARY
  5
44F
102
{ACAD_REACTORS
330
7
102
}
330
7
100
AcDbDictionary
281
     1
  3
A0
350
450
  3
A1
350
451
  3
A2
350
452
  3
A3
350
453
  3
A4
350
454
  3
A5
350
455
  3
A6
350
456
  3
A7
350
457
  3
A8
350
458
  3
A9
350
459
  3
B0
350
45A
  3
B1
350
45B
  3
B2
350
45C
  3
B3
350
45D
  3
B4
350
45E
  3
B5
350
45F
  3
B6
350
460
  3
B7
350
461
  3
B8
350
462
  3
B9
350
463
  3
C0
350
464
  3
C1
350
465
  3
C2
350
466
  3
C3
350
467
  3
C4
350
468
  3
C5
350
469
  3
C6
350
46A
  3
C7
350
46B
  3
C8
350
46C
  3
C9
350
46D
  3
D0
350
46E
  3
D1
350
46F
  3
D2
350
470
  0
DICTIONARY
  5
44D
102
{ACAD_REACTORS
330
7
102
}
330
7
100
AcDbDictionary
281
     1
  3
Standard
350
44E
  0
DICTIONARY
  5
43C
102
{ACAD_REACTORS
330
7
102
}
330
7
100
AcDbDictionary
281
     1
  3
2dWireframe
350
442
  3
3D Hidden
350
444
  3
3dWireframe
350
443
  3
Basic
350
441
  3
Brighten
350
448
  3
ColorChange
350
44C
  3
Conceptual
350
445
  3
Dim
350
447
  3
Facepattern
350
44B
  3
Flat
350
43D
  3
FlatWithEdges
350
43E
  3
Gouraud
350
43F
  3
GouraudWithEdges
350
440
  3
Linepattern
350
44A
  3
Realistic
350
446
  3
Thicken
350
449
  0
XRECORD
  5
428
102
{ACAD_REACTORS
330
7
102
}
330
7
100
AcDbXrecord
280
     1
 90
   990106
  3

 60
     0
 61
     0
 62
     1
 63
     3
 64
     0
 65
     0
 66
     0
 67
     3
 68
     1
 69
     0
 70
     0
 71
     0
 72
     0
 40
0.0
170
     0
340
0
  0
XRECORD
  5
4CD
102
{ACAD_REACTORS
330
7
102
}
330
7
100
AcDbXrecord
280
     1
 90
        1
330
44E
  0
DICTIONARY
  5
4EA
102
{ACAD_REACTORS
330
7
102
}
330
7
100
AcDbDictionary
281
     1
  3
CANNOSCALE
350
4ED
  3
CMLEADERSTYLE
350
4EC
  3
CTABLESTYLE
350
4EB
  3
DIMASSOC
350
62B
  3
INDEXCTL
350
62A
  3
LAYEREVAL
350
3916
  3
LAYERNOTIFY
350
3917
  3
LIGHTINGUNITS
350
384D
  3
MSLTSCALE
350
384C
  3
SORTENTS
350
629
  0
DICTIONARY
  5
387A
102
{ACAD_REACTORS
330
5AB
102
}
330
5AB
100
AcDbDictionary
281
     1
  0
DICTIONARY
  5
1F3F
102
{ACAD_REACTORS
330
5AB
102
}
330
5AB
100
AcDbDictionary
281
     1
  0
DICTIONARY
  5
3879
102
{ACAD_REACTORS
330
5AB
102
}
330
5AB
100
AcDbDictionary
281
     1
1001
ACAD
1000
<All
  0
XRECORD
  5
484
102
{ACAD_REACTORS
330
483
102
}
330
483
100
AcDbXrecord
280
     1
290
     1
  0
XRECORD
  5
48C
102
{ACAD_REACTORS
330
48B
102
}
330
48B
100
AcDbXrecord
280
     1
290
     1
  0
XRECORD
  5
48E
102
{ACAD_REACTORS
330
48D
102
}
330
48D
100
AcDbXrecord
280
     1
290
     1
  0
XRECORD
  5
38EB
102
{ACAD_REACTORS
330
38EA
102
}
330
38EA
100
AcDbXrecord
280
     1
290
     1
  0
XRECORD
  5
38F3
102
{ACAD_REACTORS
330
38F2
102
}
330
38F2
100
AcDbXrecord
280
     1
290
     1
  0
XRECORD
  5
1F3A
102
{ACAD_REACTORS
330
1F39
102
}
330
1F39
100
AcDbXrecord
280
     1
 90
        1
340
450
  0
LAYOUT
  5
1F32
102
{ACAD_XDICTIONARY
360
1F43
102
}
102
{ACAD_REACTORS
330
B
102
}
330
B
100
AcDbPlotSettings
  1

  2
none_device
  4
Letter_(8.50_x_11.00_Inches)
  6

 40
6.349999904632568
 41
6.349999904632568
 42
6.350006103515625
 43
6.350006103515625
 44
215.8999938964844
 45
279.3999938964844
 46
0.0
 47
0.0
 48
0.0
 49
0.0
140
0.0
141
0.0
142
1.0
143
1.0
 70
   688
 72
     0
 73
     1
 74
     5
  7
CAD Dwg's.ctb
 75
    16
147
1.0
 76
     0
 77
     2
 78
   300
148
0.0
149
0.0
100
AcDbLayout
  1
Layout1
 70
     1
 71
     1
 10
-0.2500002402958907
 20
-0.2499999962453767
 11
10.74999951940822
 21
8.249999763458733
 12
0.0
 22
0.0
 32
0.0
 14
1.000000000000000E+20
 24
1.000000000000000E+20
 34
1.000000000000000E+20
 15
-1.000000000000000E+20
 25
-1.000000000000000E+20
 35
-1.000000000000000E+20
146
0.0
 13
0.0
 23
0.0
 33
0.0
 16
1.0
 26
0.0
 36
0.0
 17
0.0
 27
1.0
 37
0.0
 76
     0
330
1F31
331
1F38
1001
ACAD_PSEXT
1000
None
1000
None
1000
Not applicable
1000
The layout will not be plotted unless a new plotter configuration name is selected.
1070
     0
  0
LAYOUT
  5
A
102
{ACAD_REACTORS
330
B
102
}
330
B
100
AcDbPlotSettings
  1

  2
Adobe PDF.pc3
  4
Letter
  6

 40
3.174999952316284
 41
3.174999952316284
 42
3.175003051757812
 43
3.17498779296875
 44
215.8999938964844
 45
279.3999938964844
 46
3.009385626588922
 47
0.0
 48
0.0
 49
0.0
140
0.0
141
0.0
142
1.0
143
8.744852916879025
 70
 11956
 72
     0
 73
     0
 74
     1
  7
CAD Dwg's.ctb
 75
     0
147
0.1143529810627041
 76
     0
 77
     2
 78
   300
148
0.1357607437129218
149
0.1821316256629984
100
AcDbLayout
  1
Model
 70
     1
 71
     0
 10
0.0
 20
0.0
 11
12.0
 21
9.0
 12
0.0
 22
0.0
 32
0.0
 14
0.0
 24
0.0
 34
0.0
 15
0.0
 25
0.0
 35
0.0
146
0.0
 13
0.0
 23
0.0
 33
0.0
 16
1.0
 26
0.0
 36
0.0
 17
0.0
 27
1.0
 37
0.0
 76
     0
330
2
331
43A
1001
ACAD_PSEXT
1000
Adobe PDF.pc3
1000
Adobe PDF Converter
1000
My Documents
1000
Creates Adobe PDF
1070
     0
  0
MATERIAL
  5
22B
102
{ACAD_XDICTIONARY
360
444B
102
}
102
{ACAD_REACTORS
330
73
102
}
330
73
100
AcDbMaterial
  1
ByBlock
 73
     1
 78
     1
172
     1
176
     1
270
     1
274
     1
  0
MATERIAL
  5
22E
102
{ACAD_XDICTIONARY
360
444D
102
}
102
{ACAD_REACTORS
330
73
102
}
330
73
100
AcDbMaterial
  1
ByLayer
 73
     1
 78
     1
172
     1
176
     1
270
     1
274
     1
  0
MATERIAL
  5
231
102
{ACAD_XDICTIONARY
360
444F
102
}
102
{ACAD_REACTORS
330
73
102
}
330
73
100
AcDbMaterial
  1
Global
 73
     1
 78
     1
172
     1
176
     1
270
     1
274
     1
  0
MLEADERSTYLE
  5
472
102
{ACAD_REACTORS
330
471
102
}
330
471
100
AcDbMLeaderStyle
170
     2
171
     1
172
     0
 90
        2
 40
0.0
 41
0.0
173
     1
 91
-1056964608
340
15
 92
       -2
290
     1
 42
0.09
291
     1
 43
0.36
  3
Standard
 44
0.18
300

342
12
174
     1
178
     6
175
     1
176
     0
 93
-1056964608
 45
0.18
292
     0
297
     0
 46
0.18
 94
-1056964608
 47
1.0
 49
1.0
140
1.0
293
     1
141
0.0
294
     1
177
     0
142
1.0
295
     0
296
     0
143
0.125
1001
ACAD_MLEADERVER
1070
     2
  0
MLINESTYLE
  5
23
102
{ACAD_REACTORS
330
20
102
}
330
20
100
AcDbMlineStyle
  2
STANDARD
 70
     0
  3

 62
   256
 51
90.0
 52
90.0
 71
     2
 49
0.5
 62
   256
  6
BYLAYER
 49
-0.5
 62
   256
  6
BYLAYER
  0
PLOTSETTINGS
  5
226
102
{ACAD_REACTORS
330
21
102
}
330
21
100
AcDbPlotSettings
  1
A SIze Postscript
  2
Postscript.pc3
  4
ANSI_A_(8.50_x_11.00_Inches)
  6

 40
5.027082920074462
 41
5.027082920074462
 42
9.345077514648437
 43
5.11175537109375
 44
215.8999938964844
 45
279.3999938964844
 46
14.478
 47
0.0
 48
0.0
 49
0.0
140
0.0
141
0.0
142
1.0
143
0.7977416634697921
 70
  1716
 72
     0
 73
     1
 74
     1
  7
Postscript B&W.ctb
 75
     0
147
1.253538640128787
 76
     0
 77
     2
 78
   300
148
-48.59238357873678
149
-65.01231139895075
  0
PLOTSETTINGS
  5
227
102
{ACAD_REACTORS
330
21
102
}
330
21
100
AcDbPlotSettings
  1
B size HP 500
  2
500ps.pc3
  4
User1307
  6

 40
5.079999923706054
 41
31.75
 42
5.03765869140625
 43
16.93331909179687
 44
457.1576538085937
 45
304.71533203125
 46
0.0
 47
0.0
 48
0.0
 49
0.0
140
0.0
141
0.0
142
1.0
143
0.2245122754966107
 70
  1712
 72
     0
 73
     0
 74
     1
  7
HP 500.ctb
 75
     0
147
4.454099437494214
 76
     0
 77
     2
 78
   300
148
-58.98709794630657
149
-95.72555301185412
  0
PLOTSETTINGS
  5
228
102
{ACAD_REACTORS
330
21
102
}
330
21
100
AcDbPlotSettings
  1
C Size HP 500
  2
500ps.pc3
  4
User1308
  6

 40
5.079999923706054
 41
17.01799964904785
 42
5.03765869140625
 43
31.66531372070313
 44
609.5576782226562
 45
457.1153259277344
 46
0.0
 47
0.0
 48
0.0
 49
0.0
140
0.0
141
0.0
142
1.0
143
0.167432876144293
 70
  1712
 72
     0
 73
     0
 74
     1
  7
HP 500.ctb
 75
     0
147
5.97254268712558
 76
     0
 77
     2
 78
   300
148
-58.98709794630657
149
-95.72555301185412
  0
PLOTSETTINGS
  5
229
102
{ACAD_REACTORS
330
21
102
}
330
21
100
AcDbPlotSettings
  1
D Size HP 500
  2
500ps.pc3
  4
User1309
  6

 40
12.69999980926513
 41
17.01799964904785
 42
5.03765869140625
 43
57.3193359375
 44
914.357666015625
 45
609.5153198242187
 46
0.0
 47
0.0
 48
0.0
 49
0.0
140
0.0
141
0.0
142
1.0
143
0.1119381295506152
 70
  1712
 72
     0
 73
     0
 74
     1
  7
HP 500.ctb
 75
     0
147
8.933506429083475
 76
     0
 77
     2
 78
   300
148
-58.98709794630657
149
-95.72555301185412
  0
PLOTSETTINGS
  5
22A
102
{ACAD_REACTORS
330
21
102
}
330
21
100
AcDbPlotSettings
  1
E Size HP 500
  2
500ps.pc3
  4
User286
  6

 40
22.85999870300293
 41
17.01799964904785
 42
22.817626953125
 43
16.9334716796875
 44
883.8776245117188
 45
1126.151489257812
 46
0.0
 47
0.0
 48
0.0
 49
0.0
140
0.0
141
0.0
142
1.0
143
0.0918933939858256
 70
  1712
 72
     0
 73
     1
 74
     1
  7
HP 500.ctb
 75
     0
147
10.88217505770054
 76
     0
 77
     2
 78
   300
148
-58.98709794630657
149
-95.72555301185412
  0
ACDBPLACEHOLDER
  5
5
102
{ACAD_REACTORS
330
6
102
}
330
6
  0
SCALE
  5
450
102
{ACAD_REACTORS
330
44F
102
}
330
44F
100
AcDbScale
 70
     0
300
1:1
140
1.0
141
1.0
290
     1
  0
SCALE
  5
451
102
{ACAD_REACTORS
330
44F
102
}
330
44F
100
AcDbScale
 70
     0
300
1:2
140
1.0
141
2.0
290
     0
  0
SCALE
  5
452
102
{ACAD_REACTORS
330
44F
102
}
330
44F
100
AcDbScale
 70
     0
300
1:4
140
1.0
141
4.0
290
     0
  0
SCALE
  5
453
102
{ACAD_REACTORS
330
44F
102
}
330
44F
100
AcDbScale
 70
     0
300
1:5
140
1.0
141
5.0
290
     0
  0
SCALE
  5
454
102
{ACAD_REACTORS
330
44F
102
}
330
44F
100
AcDbScale
 70
     0
300
1:8
140
1.0
141
8.0
290
     0
  0
SCALE
  5
455
102
{ACAD_REACTORS
330
44F
102
}
330
44F
100
AcDbScale
 70
     0
300
1:10
140
1.0
141
10.0
290
     0
  0
SCALE
  5
456
102
{ACAD_REACTORS
330
44F
102
}
330
44F
100
AcDbScale
 70
     0
300
1:16
140
1.0
141
16.0
290
     0
  0
SCALE
  5
457
102
{ACAD_REACTORS
330
44F
102
}
330
44F
100
AcDbScale
 70
     0
300
1:20
140
1.0
141
20.0
290
     0
  0
SCALE
  5
458
102
{ACAD_REACTORS
330
44F
102
}
330
44F
100
AcDbScale
 70
     0
300
1:30
140
1.0
141
30.0
290
     0
  0
SCALE
  5
459
102
{ACAD_REACTORS
330
44F
102
}
330
44F
100
AcDbScale
 70
     0
300
1:40
140
1.0
141
40.0
290
     0
  0
SCALE
  5
45A
102
{ACAD_REACTORS
330
44F
102
}
330
44F
100
AcDbScale
 70
     0
300
1:50
140
1.0
141
50.0
290
     0
  0
SCALE
  5
45B
102
{ACAD_REACTORS
330
44F
102
}
330
44F
100
AcDbScale
 70
     0
300
1:100
140
1.0
141
100.0
290
     0
  0
SCALE
  5
45C
102
{ACAD_REACTORS
330
44F
102
}
330
44F
100
AcDbScale
 70
     0
300
2:1
140
2.0
141
1.0
290
     0
  0
SCALE
  5
45D
102
{ACAD_REACTORS
330
44F
102
}
330
44F
100
AcDbScale
 70
     0
300
4:1
140
4.0
141
1.0
290
     0
  0
SCALE
  5
45E
102
{ACAD_REACTORS
330
44F
102
}
330
44F
100
AcDbScale
 70
     0
300
8:1
140
8.0
141
1.0
290
     0
  0
SCALE
  5
45F
102
{ACAD_REACTORS
330
44F
102
}
330
44F
100
AcDbScale
 70
     0
300
10:1
140
10.0
141
1.0
290
     0
  0
SCALE
  5
460
102
{ACAD_REACTORS
330
44F
102
}
330
44F
100
AcDbScale
 70
     0
300
100:1
140
100.0
141
1.0
290
     0
  0
SCALE
  5
461
102
{ACAD_REACTORS
330
44F
102
}
330
44F
100
AcDbScale
 70
     0
300
1/128" = 1'-0"
140
0.0078125
141
12.0
290
     0
  0
SCALE
  5
462
102
{ACAD_REACTORS
330
44F
102
}
330
44F
100
AcDbScale
 70
     0
300
1/64" = 1'-0"
140
0.015625
141
12.0
290
     0
  0
SCALE
  5
463
102
{ACAD_REACTORS
330
44F
102
}
330
44F
100
AcDbScale
 70
     0
300
1/32" = 1'-0"
140
0.03125
141
12.0
290
     0
  0
SCALE
  5
464
102
{ACAD_REACTORS
330
44F
102
}
330
44F
100
AcDbScale
 70
     0
300
1/16" = 1'-0"
140
0.0625
141
12.0
290
     0
  0
SCALE
  5
465
102
{ACAD_REACTORS
330
44F
102
}
330
44F
100
AcDbScale
 70
     0
300
3/32" = 1'-0"
140
0.09375
141
12.0
290
     0
  0
SCALE
  5
466
102
{ACAD_REACTORS
330
44F
102
}
330
44F
100
AcDbScale
 70
     0
300
1/8" = 1'-0"
140
0.125
141
12.0
290
     0
  0
SCALE
  5
467
102
{ACAD_REACTORS
330
44F
102
}
330
44F
100
AcDbScale
 70
     0
300
3/16" = 1'-0"
140
0.1875
141
12.0
290
     0
  0
SCALE
  5
468
102
{ACAD_REACTORS
330
44F
102
}
330
44F
100
AcDbScale
 70
     0
300
1/4" = 1'-0"
140
0.25
141
12.0
290
     0
  0
SCALE
  5
469
102
{ACAD_REACTORS
330
44F
102
}
330
44F
100
AcDbScale
 70
     0
300
3/8" = 1'-0"
140
0.375
141
12.0
290
     0
  0
SCALE
  5
46A
102
{ACAD_REACTORS
330
44F
102
}
330
44F
100
AcDbScale
 70
     0
300
1/2" = 1'-0"
140
0.5
141
12.0
290
     0
  0
SCALE
  5
46B
102
{ACAD_REACTORS
330
44F
102
}
330
44F
100
AcDbScale
 70
     0
300
3/4" = 1'-0"
140
0.75
141
12.0
290
     0
  0
SCALE
  5
46C
102
{ACAD_REACTORS
330
44F
102
}
330
44F
100
AcDbScale
 70
     0
300
1" = 1'-0"
140
1.0
141
12.0
290
     0
  0
SCALE
  5
46D
102
{ACAD_REACTORS
330
44F
102
}
330
44F
100
AcDbScale
 70
     0
300
1-1/2" = 1'-0"
140
1.5
141
12.0
290
     0
  0
SCALE
  5
46E
102
{ACAD_REACTORS
330
44F
102
}
330
44F
100
AcDbScale
 70
     0
300
3" = 1'-0"
140
3.0
141
12.0
290
     0
  0
SCALE
  5
46F
102
{ACAD_REACTORS
330
44F
102
}
330
44F
100
AcDbScale
 70
     0
300
6" = 1'-0"
140
6.0
141
12.0
290
     0
  0
SCALE
  5
470
102
{ACAD_REACTORS
330
44F
102
}
330
44F
100
AcDbScale
 70
     0
300
1'-0" = 1'-0"
140
12.0
141
12.0
290
     0
  0
TABLESTYLE
  5
44E
102
{ACAD_XDICTIONARY
360
4CB
102
}
102
{ACAD_REACTORS
330
44D
102
}
330
44D
100
AcDbTableStyle
  3
Standard
 70
     0
 71
     0
 40
0.06
 41
0.06
280
     0
281
     0
  7
Standard
140
0.18
170
     2
 62
     0
 63
     7
283
     0
274
    -2
284
     1
 64
     0
275
    -2
285
     1
 65
     0
276
    -2
286
     1
 66
     0
277
    -2
287
     1
 67
     0
278
    -2
288
     1
 68
     0
279
    -2
289
     1
 69
     0
  7
Standard
140
0.25
170
     5
 62
     0
 63
     7
283
     0
274
    -2
284
     1
 64
     0
275
    -2
285
     1
 65
     0
276
    -2
286
     1
 66
     0
277
    -2
287
     1
 67
     0
278
    -2
288
     1
 68
     0
279
    -2
289
     1
 69
     0
  7
Standard
140
0.18
170
     5
 62
     0
 63
     7
283
     0
274
    -2
284
     1
 64
     0
275
    -2
285
     1
 65
     0
276
    -2
286
     1
 66
     0
277
    -2
287
     1
 67
     0
278
    -2
288
     1
 68
     0
279
    -2
289
     1
 69
     0
  0
VISUALSTYLE
  5
442
102
{ACAD_REACTORS
330
43C
102
}
330
43C
100
AcDbVisualStyle
  2
2dWireframe
 70
     4
 71
     0
 72
     2
 73
     0
 90
        0
 40
-0.6
 41
-30.0
 62
     5
 63
     7
421
 16777215
 74
     1
 91
        4
 64
     7
 65
   257
 75
     1
175
     1
 42
1.0
 92
        0
 66
   257
 43
1.0
 76
     1
 77
     6
 78
     2
 67
     7
 79
     5
170
     0
171
     0
290
     0
174
     0
 93
        1
 44
0.0
173
     0
291
     0
 45
0.0
1001
ACAD
1000
AcDbSavedByObjectVersion
1070
     0
  0
VISUALSTYLE
  5
444
102
{ACAD_REACTORS
330
43C
102
}
330
43C
100
AcDbVisualStyle
  2
3D Hidden
 70
     6
 71
     1
 72
     2
 73
     2
 90
        0
 40
-0.6
 41
-30.0
 62
     5
 63
     7
421
 16777215
 74
     2
 91
        2
 64
     7
 65
   257
 75
     2
175
     1
 42
40.0
 92
        0
 66
   257
 43
1.0
 76
     1
 77
     6
 78
     2
 67
     7
 79
     3
170
     0
171
     0
290
     0
174
     0
 93
        1
 44
0.0
173
     0
291
     0
 45
0.0
1001
ACAD
1000
AcDbSavedByObjectVersion
1070
     0
  0
VISUALSTYLE
  5
443
102
{ACAD_REACTORS
330
43C
102
}
330
43C
100
AcDbVisualStyle
  2
3dWireframe
 70
     5
 71
     0
 72
     2
 73
     0
 90
        0
 40
-0.6
 41
-30.0
 62
     5
 63
     7
421
 16777215
 74
     1
 91
        4
 64
     7
 65
   257
 75
     1
175
     1
 42
1.0
 92
        0
 66
   257
 43
1.0
 76
     1
 77
     6
 78
     2
 67
     7
 79
     5
170
     0
171
     0
290
     0
174
     0
 93
        1
 44
0.0
173
     0
291
     0
 45
0.0
1001
ACAD
1000
AcDbSavedByObjectVersion
1070
     0
  0
VISUALSTYLE
  5
441
102
{ACAD_REACTORS
330
43C
102
}
330
43C
100
AcDbVisualStyle
  2
Basic
 70
     7
 71
     1
 72
     0
 73
     1
 90
        0
 40
-0.6
 41
-30.0
 62
     5
 63
     7
421
 16777215
 74
     0
 91
        4
 64
     7
 65
   257
 75
     1
175
     1
 42
1.0
 92
        8
 66
     7
 43
1.0
 76
     1
 77
     6
 78
     2
 67
     7
 79
     5
170
     0
171
     0
290
     0
174
     0
 93
        1
 44
0.0
173
     0
291
     1
 45
0.0
1001
ACAD
1000
AcDbSavedByObjectVersion
1070
     0
  0
VISUALSTYLE
  5
448
102
{ACAD_REACTORS
330
43C
102
}
330
43C
100
AcDbVisualStyle
  2
Brighten
 70
    12
 71
     2
 72
     2
 73
     0
 90
        0
 40
-0.6
 41
-30.0
 62
     5
 63
     7
421
 16777215
 74
     1
 91
        4
 64
     7
 65
   257
 75
     1
175
     1
 42
1.0
 92
        8
 66
     7
 43
1.0
 76
     1
 77
     6
 78
     2
 67
     7
 79
     5
170
     0
171
     0
290
     0
174
     0
 93
        1
 44
50.0
173
     0
291
     1
 45
0.0
1001
ACAD
1000
AcDbSavedByObjectVersion
1070
     0
  0
VISUALSTYLE
  5
44C
102
{ACAD_REACTORS
330
43C
102
}
330
43C
100
AcDbVisualStyle
  2
ColorChange
 70
    16
 71
     2
 72
     2
 73
     3
 90
        0
 40
-0.6
 41
-30.0
 62
     5
 63
     8
421
  8421504
 74
     1
 91
        4
 64
     7
 65
   257
 75
     1
175
     1
 42
1.0
 92
        8
 66
     8
424
  8421504
 43
1.0
 76
     1
 77
     6
 78
     2
 67
     7
 79
     5
170
     0
171
     0
290
     0
174
     0
 93
        1
 44
0.0
173
     0
291
     1
 45
0.0
1001
ACAD
1000
AcDbSavedByObjectVersion
1070
     0
  0
VISUALSTYLE
  5
445
102
{ACAD_REACTORS
330
43C
102
}
330
43C
100
AcDbVisualStyle
  2
Conceptual
 70
     9
 71
     3
 72
     2
 73
     0
 90
        0
 40
-0.6
 41
-30.0
 62
     5
 63
     7
421
 16777215
 74
     2
 91
        2
 64
     7
 65
   257
 75
     1
175
     1
 42
40.0
 92
        8
 66
     7
 43
1.0
 76
     1
 77
     6
 78
     2
 67
     7
 79
     3
170
     0
171
     0
290
     0
174
     0
 93
        1
 44
0.0
173
     0
291
     0
 45
0.0
1001
ACAD
1000
AcDbSavedByObjectVersion
1070
     0
  0
VISUALSTYLE
  5
447
102
{ACAD_REACTORS
330
43C
102
}
330
43C
100
AcDbVisualStyle
  2
Dim
 70
    11
 71
     2
 72
     2
 73
     0
 90
        0
 40
-0.6
 41
-30.0
 62
     5
 63
     7
421
 16777215
 74
     1
 91
        4
 64
     7
 65
   257
 75
     1
175
     1
 42
1.0
 92
        8
 66
     7
 43
1.0
 76
     1
 77
     6
 78
     2
 67
     7
 79
     5
170
     0
171
     0
290
     0
174
     0
 93
        1
 44
-50.0
173
     0
291
     1
 45
0.0
1001
ACAD
1000
AcDbSavedByObjectVersion
1070
     0
  0
VISUALSTYLE
  5
44B
102
{ACAD_REACTORS
330
43C
102
}
330
43C
100
AcDbVisualStyle
  2
Facepattern
 70
    15
 71
     2
 72
     2
 73
     0
 90
        0
 40
-0.6
 41
-30.0
 62
     5
 63
     7
421
 16777215
 74
     1
 91
        4
 64
     7
 65
   257
 75
     1
175
     1
 42
1.0
 92
        8
 66
     7
 43
1.0
 76
     1
 77
     6
 78
     2
 67
     7
 79
     5
170
     0
171
     0
290
     0
174
     0
 93
        1
 44
0.0
173
     0
291
     1
 45
0.0
1001
ACAD
1000
AcDbSavedByObjectVersion
1070
     0
  0
VISUALSTYLE
  5
43D
102
{ACAD_REACTORS
330
43C
102
}
330
43C
100
AcDbVisualStyle
  2
Flat
 70
     0
 71
     2
 72
     1
 73
     1
 90
        2
 40
-0.6
 41
30.0
 62
     5
 63
     7
421
 16777215
 74
     0
 91
        4
 64
     7
 65
   257
 75
     1
175
     1
 42
1.0
 92
        8
 66
     7
 43
1.0
 76
     1
 77
     6
 78
     2
 67
     7
 79
     5
170
     0
171
     0
290
     0
174
     0
 93
       13
 44
0.0
173
     0
291
     1
 45
0.0
1001
ACAD
1000
AcDbSavedByObjectVersion
1070
     0
  0
VISUALSTYLE
  5
43E
102
{ACAD_REACTORS
330
43C
102
}
330
43C
100
AcDbVisualStyle
  2
FlatWithEdges
 70
     1
 71
     2
 72
     1
 73
     1
 90
        2
 40
-0.6
 41
30.0
 62
     5
 63
     7
421
 16777215
 74
     1
 91
        4
 64
     7
 65
   257
 75
     1
175
     1
 42
1.0
 92
        0
 66
   257
 43
1.0
 76
     1
 77
     6
 78
     2
 67
     7
 79
     5
170
     0
171
     0
290
     0
174
     0
 93
       13
 44
0.0
173
     0
291
     1
 45
0.0
1001
ACAD
1000
AcDbSavedByObjectVersion
1070
     0
  0
VISUALSTYLE
  5
43F
102
{ACAD_REACTORS
330
43C
102
}
330
43C
100
AcDbVisualStyle
  2
Gouraud
 70
     2
 71
     2
 72
     2
 73
     1
 90
        2
 40
-0.6
 41
30.0
 62
     5
 63
     7
421
 16777215
 74
     0
 91
        4
 64
     7
 65
   257
 75
     1
175
     1
 42
1.0
 92
        0
 66
     7
 43
1.0
 76
     1
 77
     6
 78
     2
 67
     7
 79
     5
170
     0
171
     0
290
     0
174
     0
 93
       13
 44
0.0
173
     0
291
     1
 45
0.0
1001
ACAD
1000
AcDbSavedByObjectVersion
1070
     0
  0
VISUALSTYLE
  5
440
102
{ACAD_REACTORS
330
43C
102
}
330
43C
100
AcDbVisualStyle
  2
GouraudWithEdges
 70
     3
 71
     2
 72
     2
 73
     1
 90
        2
 40
-0.6
 41
30.0
 62
     5
 63
     7
421
 16777215
 74
     1
 91
        4
 64
     7
 65
   257
 75
     1
175
     1
 42
1.0
 92
        0
 66
   257
 43
1.0
 76
     1
 77
     6
 78
     2
 67
     7
 79
     5
170
     0
171
     0
290
     0
174
     0
 93
       13
 44
0.0
173
     0
291
     1
 45
0.0
1001
ACAD
1000
AcDbSavedByObjectVersion
1070
     0
  0
VISUALSTYLE
  5
44A
102
{ACAD_REACTORS
330
43C
102
}
330
43C
100
AcDbVisualStyle
  2
Linepattern
 70
    14
 71
     2
 72
     2
 73
     0
 90
        0
 40
-0.6
 41
-30.0
 62
     5
 63
     7
421
 16777215
 74
     1
 91
        4
 64
     7
 65
   257
 75
     7
175
     7
 42
1.0
 92
        8
 66
     7
 43
1.0
 76
     1
 77
     6
 78
     2
 67
     7
 79
     5
170
     0
171
     0
290
     0
174
     0
 93
        1
 44
0.0
173
     0
291
     1
 45
0.0
1001
ACAD
1000
AcDbSavedByObjectVersion
1070
     0
  0
VISUALSTYLE
  5
446
102
{ACAD_REACTORS
330
43C
102
}
330
43C
100
AcDbVisualStyle
  2
Realistic
 70
     8
 71
     2
 72
     2
 73
     0
 90
        0
 40
-0.6
 41
-30.0
 62
     5
 63
     7
421
 16777215
 74
     1
 91
        0
 64
     7
 65
   257
 75
     1
175
     1
 42
1.0
 92
        8
 66
     8
424
  7895160
 43
1.0
 76
     1
 77
     6
 78
     2
 67
     7
 79
     5
170
     0
171
     0
290
     0
174
     0
 93
       13
 44
0.0
173
     0
291
     0
 45
0.0
1001
ACAD
1000
AcDbSavedByObjectVersion
1070
     0
  0
VISUALSTYLE
  5
449
102
{ACAD_REACTORS
330
43C
102
}
330
43C
100
AcDbVisualStyle
  2
Thicken
 70
    13
 71
     2
 72
     2
 73
     0
 90
        0
 40
-0.6
 41
-30.0
 62
     5
 63
     7
421
 16777215
 74
     1
 91
        4
 64
     7
 65
   257
 75
     1
175
     1
 42
1.0
 92
       12
 66
     7
 43
1.0
 76
     1
 77
     6
 78
     2
 67
     7
 79
     5
170
     0
171
     0
290
     0
174
     0
 93
        1
 44
0.0
173
     0
291
     1
 45
0.0
1001
ACAD
1000
AcDbSavedByObjectVersion
1070
     0
  0
DICTIONARYVAR
  5
4ED
102
{ACAD_REACTORS
330
4EA
102
}
330
4EA
100
DictionaryVariables
280
     0
  1
1:1
  0
DICTIONARYVAR
  5
4EC
102
{ACAD_REACTORS
330
4EA
102
}
330
4EA
100
DictionaryVariables
280
     0
  1
STANDARD
  0
DICTIONARYVAR
  5
4EB
102
{ACAD_REACTORS
330
4EA
102
}
330
4EA
100
DictionaryVariables
280
     0
  1
STANDARD
  0
DICTIONARYVAR
  5
62B
102
{ACAD_REACTORS
330
4EA
102
}
330
4EA
100
DictionaryVariables
280
     0
  1
1
  0
DICTIONARYVAR
  5
62A
102
{ACAD_REACTORS
330
4EA
102
}
330
4EA
100
DictionaryVariables
280
     0
  1
0
  0
DICTIONARYVAR
  5
3916
102
{ACAD_REACTORS
330
4EA
102
}
330
4EA
100
DictionaryVariables
280
     0
  1
1
  0
DICTIONARYVAR
  5
3917
102
{ACAD_REACTORS
330
4EA
102
}
330
4EA
100
DictionaryVariables
280
     0
  1
15
  0
DICTIONARYVAR
  5
384D
102
{ACAD_REACTORS
330
4EA
102
}
330
4EA
100
DictionaryVariables
280
     0
  1
0
  0
DICTIONARYVAR
  5
384C
102
{ACAD_REACTORS
330
4EA
102
}
330
4EA
100
DictionaryVariables
280
     0
  1
0
  0
DICTIONARYVAR
  5
629
102
{ACAD_REACTORS
330
4EA
102
}
330
4EA
100
DictionaryVariables
280
     0
  1
127
  0
DICTIONARY
  5
1F43
330
1F32
100
AcDbDictionary
280
     1
281
     1
  3
ADSK_XREC_LAYOUTTHUMBNAIL
360
1F44
  0
DICTIONARY
  5
444B
330
22B
100
AcDbDictionary
280
     1
281
     1
  3
ACAD_XREC_ROUNDTRIP
360
444C
  0
DICTIONARY
  5
444D
330
22E
100
AcDbDictionary
280
     1
281
     1
  3
ACAD_XREC_ROUNDTRIP
360
444E
  0
DICTIONARY
  5
444F
330
231
100
AcDbDictionary
280
     1
281
     1
  3
ACAD_XREC_ROUNDTRIP
360
4450
  0
DICTIONARY
  5
4CB
330
44E
100
AcDbDictionary
280
     1
281
     1
  3
ACAD_ROUNDTRIP_2008_TABLESTYLE_CELLSTYLEMAP
360
444A
  3
ACAD_XREC_ROUNDTRIP
360
4451
  0
XRECORD
  5
1F44
102
{ACAD_REACTORS
330
1F43
102
}
330
1F43
100
AcDbXrecord
280
     1
310
28000000B40000008B0000000100080000000000BC610000000000000000000000010000000000000000000000000000FFFFFF000000000000000000000000000000000000000000000000000000000000000000330000006600000099000000CC000000FF00000000330000333300006633000099330000CC330000FF3300
310
0000660000336600006666000099660000CC660000FF66000000990000339900006699000099990000CC990000FF99000000CC000033CC000066CC000099CC0000CCCC0000FFCC000000FF000033FF000066FF000099FF0000CCFF0000FFFF000000003300330033006600330099003300CC003300FF003300003333003333
310
33006633330099333300CC333300FF33330000663300336633006666330099663300CC663300FF66330000993300339933006699330099993300CC993300FF99330000CC330033CC330066CC330099CC3300CCCC3300FFCC330000FF330033FF330066FF330099FF3300CCFF3300FFFF330000006600330066006600660099
310
006600CC006600FF00660000336600333366006633660099336600CC336600FF33660000666600336666006666660099666600CC666600FF66660000996600339966006699660099996600CC996600FF99660000CC660033CC660066CC660099CC6600CCCC6600FFCC660000FF660033FF660066FF660099FF6600CCFF6600
310
FFFF660000009900330099006600990099009900CC009900FF00990000339900333399006633990099339900CC339900FF33990000669900336699006666990099669900CC669900FF66990000999900339999006699990099999900CC999900FF99990000CC990033CC990066CC990099CC9900CCCC9900FFCC990000FF99
310
0033FF990066FF990099FF9900CCFF9900FFFF99000000CC003300CC006600CC009900CC00CC00CC00FF00CC000033CC003333CC006633CC009933CC00CC33CC00FF33CC000066CC003366CC006666CC009966CC00CC66CC00FF66CC000099CC003399CC006699CC009999CC00CC99CC00FF99CC0000CCCC0033CCCC0066CC
310
CC0099CCCC00CCCCCC00FFCCCC0000FFCC0033FFCC0066FFCC0099FFCC00CCFFCC00FFFFCC000000FF003300FF006600FF009900FF00CC00FF00FF00FF000033FF003333FF006633FF009933FF00CC33FF00FF33FF000066FF003366FF006666FF009966FF00CC66FF00FF66FF000099FF003399FF006699FF009999FF00CC
310
99FF00FF99FF0000CCFF0033CCFF0066CCFF0099CCFF00CCCCFF00FFCCFF0000FFFF0033FFFF0066FFFF0099FFFF00CCFFFF00FFFFFF00000000000D0D0D001A1A1A00282828003535350043434300505050005D5D5D006B6B6B00787878008686860093939300A1A1A100AEAEAE00BBBBBB00C9C9C900D6D6D600E4E4E400
310
F1F1F100FFFFFF0000000000000000000000000000000000000000000000000000000000000000000000000000000000F5F5F5F5F5F5F5F5F5F5F5F5F5F5F5F5F5F5F5F5F5F5F5F5F5F5F5F5F5F5F5F5F5F5F5F5F5F5F5F5F5F5F5F5F5F5F5F5F5F5F5F5F5F5F5F5F5F5F5F5F5F5F5F5F5F5F5F5F5F5F5F5F5F5F5F5F5F5F5
310
F5F5F5F5F5F5F5F5F5F5F5F5F5F5F5F5F5F5F5F5F5F5F5F5F5F5F5F5F5F5F5F5F5F5F5F5F5F5F5F5F5F5F5F5F5F5F5F5F5F5F5F5F5F5F5F5F5F5F5F5F5F5F5F5F5F5F5F5F5F5F5F5F5F5F5F5F5F5F5F5F5F5F5F5F5F5F5F5F5F5F5F5F5F5F5F5F5F5F5F5F5F5E2E2E2E2E2E2E2E2E2E2E2E2E2E2E2E2E2E2E2E2E2E2E2E2E2
310
E2E2E2E2E2E2E2E2E2E2E2E2E2E2E2E2E2E2E2E2E2E2E2E2E2E2E2E2E2E2E2E2E2E2E2E2E2E2E2E2E2E2E2E2E2E2E2E2E2E2E2E2E2E2E2E2E2E2E2E2E2E2E2E2E2E2E2E2E2E2E2E2E2E2E2E2E2E2E2E2E2E2E2E2E2E2E2E2E2E2E2E2E2E2E2E2E2E2E2E2E2E2E2E2E2E2E2E2E2E2E2E2E2E2E2E2E2E2E2E2E2E2E2E2E2E2E2
310
E2E2E2E2E2E2E2E2E2E2E2E2E2E2E2E2E2E2E2E2E2E2E2E2E2E2F5F5E2E2E2E2E2E2E2E2E2E2E2E2E2E2E2E2E2E2E2E2E2E2E2E2E2E2E2E2E2E2E2E2E2E2E2E2E2E2E2E2E2E2E2E2E2E2E2E2E2E2E2E2E2E2E2E2E2E2E2E2E2E2E2E2E2E2E2E2E2E2E2E2E2E2E2E2E2E2E2E2E2E2E2E2E2E2E2E2E2E2E2E2E2E2E2E2E2E2E2
310
E2E2E2E2E2E2E2E2E2E2E2E2E2E2E2E2E2E2E2E2E2E2E2E2E2E2E2E2E2E2E2E2E2E2E2E2E2E2E2E2E2E2E2E2E2E2E2E2E2E2E2E2E2E2E2E2E2E2E2E2E2E2E2E2E2E2E2E2E2E2E2E2E2E2E2E2E2E2E2F5F5E2E2E2E2E2E2E2E2E2E2E2E2E2E2E2E2E2E2E2E2E2E2E2E2E2E2E2E2E2E2E2E2E2E2E2E2E2E2E2E2E2E2E2E2E2E2
310
E2E2E2E2E2E2E2E2E2E2E2E2E2E2E2E2E2E2E2E2E2E2E2E2E2E2E2E2E2E2E2E2E2E2E2E2E2E2E2E2E2E2E2E2E2E2E2E2E2E2E2E2E2E2E2E2E2E2E2E2E2E2E2E2E2E2E2E2E2E2E2E2E2E2E2E2E2E2E2E2E2E2E2E2E2E2E2E2E2E2E2E2E2E2E2E2E2E2E2E2E2E2E2E2E2E2E2E2E2E2E2E2E2E2E2E2E2E2E2E2E2E2E2E2E2E2E2
310
E2E2E2E2E2F5F5E2E2E2E2E2E2E2E2E2E2E2E2E2E2E2E2E2E2E2E2E2E2E2E2E2E2E2E2E2E2E2E2E2E2E2E2E2E2E2E2E2E2E2E2E2E2E2E2E2E2E2E2E2E2E2E2E2E2E2E2E2E2E2E2E2E2E2E2E2E2E2E2E2E2E2E2E2E2E2E2E2E2E2E2E2E2E2E2E2E2E2E2E2E2E2E2E2E2E2E2E2E2E2E2E2E2E2E2E2E2E2E2E2E2E2E2E2E2E2E2
310
E2E2E2E2E2E2E2E2E2E2E2E2E2E2E2E2E2E2E2E2E2E2E2E2E2E2E2E2E2E2E2E2E2E2E2E2E2E2E2E2E2E2E2E2E2E2E2E2E2E2E2E2E2E2E2E2E2E2F5F5E2E2E2F5F5F5F5F5F5F5F5E2E2E2E2E2E2E2E2E2F5F5F5F5F5F5F5F5F5F5F5F5F5F5F5F5E2E2E2E2E2E2E2E2E2F5F5F5F5F5F5F5F5F5F5F5F5F5F5F5E2E2E2E2E2E2E2
310
E2E2F5F5F5F5F5F5F5F5F5F5F5F5F5F5F5F5E2E2E2E2E2E2E2E2F5F5F5F5F5F5F5F5F5F5F5F5F5F5F5F5E2E2E2E2E2E2E2E2E2F5F5F5F5F5F5F5F5F5F5F5F5F5F5F5E2E2E2E2E2E2E2E2E2F5F5F5F5F5F5F5F5F5F5F5F5F5F5F5F5E2E2E2E2E2E2E2E2E2F5F5F5F5F5F5F5F5E2E2E2F5F5E2E2E2F5E2E2E2E2E2E2E2E2E2E2
310
E2E2E2E2E2E2E2E2E2E2E2E2E2E2E2E2E2E2E2E2E2E2E2E2E2E2E2E2E2E2E2E2E2E2E2E2E2E2E2E2E2E2E2E2E2E2E2E2E2E2E2E2E2E2E2E2E2E2E2E2E2E2E2E2E2E2E2E2E2E2E2E2E2E2E2E2E2E2E2E2E2E2E2E2E2E2E2E2E2E2E2E2E2E2E2E2E2E2E2E2E2E2E2E2E2E2E2E2E2E2E2E2E2E2E2E2E2E2E2E2E2E2E2E2E2E2E2
310
E2E2E2E2E2E2E2E2E2E2E2E2E2E2E2E2E2E2E2E2E2E2E2E2E2E2E2E2E2E2E2E2E2F5E2E2E2F5F5E2E2E2F5E2E2E2E2E2E2E2E2E2E2E2E2E2E2E2E2E2E2E2E2E2E2E2E2E2E2E2E2E2E2E2E2E2E2E2E2E2E2E2E2E2E2E2E2E2E2E2E2E2E2E2E2E2E2E2E2E2E2E2E2E2E2E2E2E2E2E2E2E2E2E2E2E2E2E2E2E2E2E2E2E2E2E2E2
310
E2E2E2E2E2E2E2E2E2E2E2E2E2E2E2E2E2E2E2E2E2E2E2E2E2E2E2E2E2E2E2E2E2E2E2E2E2E2E2E2E2E2E2E2E2E2E2E2E2E2E2E2E2E2E2E2E2E2E2E2E2E2E2E2E2E2E2E2E2E2E2E2E2E2E2E2E2E2E2E2E2E2E2E2E2E2F5E2E2E2F5F5E2E2E2F5E2E2E2E2E2E2E2E2E2E2E2E2E2E2E2E2E2E2E2E2E2E2E2E2E2E2E2E2E2E2E2
310
E2E2E2E2E2E2E2E2E2E2E2E2E2E2E2E2E2E2E2E2E2E2E2E2E2E2E2E2E2E2E2E2E2E2E2E2E2E2E2E2E2E2E2E2E2E2E2E2E2E2E2E2E2E2E2E2E2E2E2E2E2E2E2E2E2E2E2E2E2E2E2E2E2E2E2E2E2E2E2E2E2E2E2E2E2E2E2E2E2E2E2E2E2E2E2E2E2E2E2E2E2E2E2E2E2E2E2E2E2E2E2E2E2E2E2E2E2E2E2E2E2E2E2E2E2E2E2
310
E2E2E2E2E2E2E2E2E2E2E2E2F5E2E2E2F5F5E2E2E2F5E2E2E2E2E2E2E2E2E2E2E2E2E2E2E2E2E2E2E2E2E2E2E2E2E2E2E2E2E2E2E2E2E2E2E2E2E2E2E2E2E2E2E2E2E2E2E2E2E2E2E2E2E2E2E2E2E2E2E2E2E2E2E2E2E2E2E2E2E2E2E2E2E2E2E2E2E2E2E2E2E2E2E2E2E2E2E2E2E2E2E2E2E2E2E2E2E2E2E2E2E2E2E2E2E2
310
E2E2E2E2E2E2E2E2E2E2E2E2E2E2E2E2E2E2E2E2E2E2E2E2E2E2E2E2E2E2E2E2E2E2E2E2E2E2E2E2E2E2E2E2E2E2E2E2E2E2E2E2E2E2E2E2E2E2E2E2E2E2E2E2E2F5E2E2E2F5F5E2E2E2F5E2E2E2E2E2E2E2E2E2E2E2E2E2E2E2E2E2E2E2E2E2E2E2E2E2E2E2E2E2E2E2E2E2E2E2E2E2E2E2E2E2E2E2E2E2E2E2E2E2E2E2E2
310
E2E2E2E2E2E2E2E2E2E2E2E2E2E2E2E2E2E2E2E2E2E2E2E2E2E2E2E2E2E2E2E2E2E2E2E2E2E2E2E2E2E2E2E2E2E2E2E2E2E2E2E2E2E2E2E2E2E2E2E2E2E2E2E2E2E2E2E2E2E2E2E2E2E2E2E2E2E2E2E2E2E2E2E2E2E2E2E2E2E2E2E2E2E2E2E2E2E2E2E2E2E2E2E2E2E2E2E2E2E2E2E2E2E2E2E2E2E2F5E2E2E2F5F5E2E2E2
310
F5E2E2E2E2E2E2E2E2E2E2E2E2E2E2E2E2E2E2E2E2E2E2E2E2E2E2E2E2E2E2E2E2E2E2E2E2E2E2E2E2E2E2E2E2E2E2E2E2E2E2E2E2E2E2E2E2E2E2E2E2E2E2E2E2E2E2E2E2E2E2E2E2E2E2E2E2E2E2E2E2E2E2E2E2E2E2E2E2E2E2E2E2E2E2E2E2E2E2E2E2E2E2E2E2E2E2E2E2E2E2E2E2E2E2E2E2E2E2E2E2E2E2E2E2E2E2
310
E2E2E2E2E2E2E2E2E2E2E2E2E2E2E2E2E2E2E2E2E2E2E2E2E2E2E2E2E2E2E2E2E2E2E2E2E2E2E2E2E2E2E2E2F5E2E2E2F5F5E2E2E2F5E2E2E2E2E2E2E2E2E2E2E2E2E2E2E2E2E2E2E2E2E2E2E2E2E2E2E2E2E2E2E2E2E2E2E2E2E2E2E2E2E2E2E2E2E2E2E2E2E2E2E2E2E2E2E2E2E2E2E2E2E2E2E2E2E2E2E2E2E2E2E2E2E2
310
E2E2E2E2E2E2E2E2E2E2E2E2E2E2E2E2E2E2E2E2E2E2E2E2E2E2E2E2E2E2E2E2E2E2E2E2E2E2E2E2E2E2E2E2E2E2E2E2E2E2E2E2E2E2E2E2E2E2E2E2E2E2E2E2E2E2E2E2E2E2E2E2E2E2E2E2E2E2E2E2E2E2E2E2E2E2E2E2E2E2E2E2E2E2E2E2E2F5E2E2E2F5F5E2E2E2F5E2E2E2E2E2E2E2E2E2E2E2E2E2E2E2E2E2E2E2E2
310
E2E2E2E2E2E2E2E2E2E2E2E2E2E2E2E2E2E2E2E2E2E2E2E2E2E2E2E2E2E2E2E2E2E2E2E2E2E2E2E2E2E2E2E2E2E2E2E2E2E2E2E2E2E2E2E2E2E2E2E2E2E2E2E2E2E2E2E2E2E2E2E2E2E2E2E2E2E2E2E2E2E2E2E2E2E2E2E2E2E2E2E2E2E2E2E2E2E2E2E2E2E2E2E2E2E2E2E2E2E2E2E2E2E2E2E2E2E2E2E2E2E2E2E2E2E2E2
310
E2E2E2E2E2E2E2E2E2E2E2E2E2E2E2E2E2E2E2E2E2E2E2F5E2E2E2F5F5E2E2E2E2E2E2E2E2E2E2E2E2E2E2E2E2E2E2E2E2E2E2E2E2E2E2E2E2E2E2E2E2E2E2E2E2E2E2E2E2E2E2E2E2E2E2E2E2E2E2E2E2E2E2E2E2E2E2E2E2E2E2E2E2E2E2E2E2E2E2E2E2E2E2E2E2E2E2E2E2E2E2E2E2E2E2E2E2E2E2E2E2E2E2E2E2E2E2
310
E2E2E2E2E2E2E2E2E2E2E2E2E2E2E2E2E2E2E2E2E2E2E2E2E2E2E2E2E2E2E2E2E2E2E2E2E2E2E2E2E2E2E2E2E2E2E2E2E2E2E2E2E2E2E2E2E2E2E2E2E2E2E2E2E2E2E2E2E2E2E2E2E2E2E2E2E2E2E2E2F5F5E2E2E2E2E2E2E2E2E2E2E2E2E2E2E2E2E2E2E2E2E2E2E2E2E2E2E2E2E2E2E2E2E2E2E2E2E2E2E2E2E2E2E2E2E2
310
E2E2E2E2E2E2E2E2E2E2E2E2E2E2E2E2E2E2E2E2E2E2E2E2E2E2E2E2E2E2E2E2E2E2E2E2E2E2E2E2E2E2E2E2E2E2E2E2E2E2E2E2E2E2E2E2E2E2E2E2E2E2E2E2E2E2E2E2E2E2E2E2E2E2E2E2E2E2E2E2E2E2E2E2E2E2E2E2E2E2E2E2E2E2E2E2E2E2E2E2E2E2E2E2E2E2E2E2E2E2E2E2E2E2E2E2E2E2E2E2E2E2E2E2E2E2E2
310
E2E2E2E2E2E2F5F5E2E2E2E2E2E2E2E2E2E2E2E2E2E2E2E2E2E2E2E2E2E2E2E2E2E2E2E2E2E2E2E2E2E2E2E2E2E2E2E2E2E2E2E2E2E2E2E2E2E2E2E2E2E2E2E2E2E2E2E2E2E2E2E2E2E2E2E2E2E2E2E2E2E2E2E2E2E2E2E2E2E2E2E2E2E2E2E2E2E2E2E2E2E2E2E2E2E2E2E2E2E2E2E2E2E2E2E2E2E2E2E2E2E2E2E2E2E2E2
310
E2E2E2E2E2E2E2E2E2E2E2E2E2E2E2E2E2E2E2E2E2E2E2E2E2E2E2E2E2E2E2E2E2E2E2E2E2E2E2E2E2E2E2E2E2E2E2E2E2E2E2E2E2E2E2E2E2E2E2F5F5E2E2E2E2E2E2E2E2E2E2E2E2E2E2E2E2E2E2E2E2E2E2E2E2E2E2E2E2E2E2E2E2E2E2E2E2E2E2E2E2E2E2E2E2E2E2E2E2E2E2E2E2E2E2E2E2E2E2E2E2E2E2E2E2E2E2
310
E2E2E2E2E2E2E2E2E2E2E2E2E2E2E2E2E2E2E2E2E2E2E2E2E2E2E2E2E2E2E2E2E2E2E2E2E2E2E2E2E2E2E2E2E2E2E2E2E2E2E2E2E2E2E2E2E2E2E2E2E2E2E2E2E2E2E2E2E2E2E2E2E2E2E2E2E2E2E2E2E2E2E2E2E2E2E2E2E2E2E2E2E2E2E2E2E2E2E2E2E2E2E2E2E2E2E2E2E2E2E2E2F5F5E2E2E2E2E2E2E2E2E2E2E2E2E2
310
E2E2E2E2E2E2E2E2E2E2E2E2E2E2E2E2E2E2E2E2E2E2E2E2E2E2E2E2E2E2E2E2E2E2E2E2E2E2E2E2E2E2E2E2E2E2E2E2E2E2E2E2E2E2E2E2E2E2E2E2E2E2E2E2E2E2E2E2E2E2E2E2E2E2E2E2E2E2E2E2E2E2E2E2E2E2E2E2E2E2E2E2E2E2E2E2E2E2E2E2E2E2E2E2E2E2E2E2E2E2E2E2E2E2E2E2E2E2E2E2E2E2E2E2E2E2E2
310
E2E2E2E2E2E2E2E2E2E2E2E2E2E2E2E2E2E2E2E2E2E2E2E2E2E2E2E2E2E2E2E2E2E2E2E2E2E2F5F5E2E2E2E2E2E2E2E2E2E2E2E2E2E2E2E2E2E2E2E2E2E2E2E2E2E2E2E2E2E2E2E2E2E2E2E2E2E2E2E2E2E2E2E2E2E2E2E2E2E2E2E2E2E2E2E2E2E2E2E2E2E2E2E2E2E2E2E2E2E2E2E2E2E2E2E2E2E2E2E2E2E2E2E2E2E2E2
310
E2E2E2E2E2E2E2E2E2E2E2E2E2E2E2E2E2E2E2E2E2E2E2E2E2E2E2E2E2E2E2E2E2E2E2E2E2E2E2E2E2E2E2E2E2E2E2E2E2E2E2E2E2E2E2E2E2E2E2E2E2E2E2E2E2E2E2E2E2E2E2E2E2E2E2E2E2E2E2E2E2E2E2E2E2E2E2E2E2E2E2F5F5E2E2E2E2E2E2E2E2E2E2E2E2E2E2E2E2E2E2E2E2E2E2E2E2E2E2E2E2E2E2E2E2E2E2
310
E2E2E2E2E2E2E2E2E2E2E2E2E2E2E2E2E2E2E2E2E2E2E2E2E2E2E2E2E2E2E2E2E2E2E2E2E2E2E2E2E2E2E2E2E2E2E2E2E2E2E2E2E2E2E2E2E2E2E2E2E2E2E2E2E2E2E2E2E2E2E2E2E2E2E2E2E2E2E2E2E2E2E2E2E2E2E2E2E2E2E2E2E2E2E2E2E2E2E2E2E2E2E2E2E2E2E2E2E2E2E2E2E2E2E2E2E2E2E2E2E2E2E2E2E2E2E2
310
E2E2E2E2E2E2E2E2E2E2E2E2E2E2E2E2E2F5F5E2E2E2E2E2E2E2E2E2E2E2E2E2E2E2E2E2E2E2E2E2E2E2E2E2E2E2E2E2E2E2E2E2E2E2E2E2E2E2E2E2E2E2E2E2E2E2E2E2E2E2E2E2E2E2E2E2E2E2E2E2E2E2E2E2E2E2E2E2E2E2E2E2E2E2E2E2E2E2E2E2E2E2E2E2E2E2E2E2E2E2E2E2E2E2E2E2E2E2E2E2E2E2E2E2E2E2E2
310
E2E2E2E2E2E2E2E2E2E2E2E2E2E2E2E2E2E2E2E2E2E2E2E2E2E2E2E2E2E2E2E2E2E2E2E2E2E2E2E2E2E2E2E2E2E2E2E2E2E2E2E2E2E2E2E2E2E2E2E2E2E2E2E2E2E2E2E2E2E2F5F5E2E2E2E2E2E2E2E2E2E2E2E2E2E2E2E2E2E2E2E2E2E2E2E2E2E2E2E2E2E2E2E2E2E2E2E2E2E2E2E2E2E2E2E2E2E2E2E2E2E2E2E2E2E2E2
310
E2E2E2E2E2E2E2E2E2E2E2E2E2E2E2E2E2E2E2E2E2E2E2E2E2E2E2E2E2E2E2E2E2E2E2E2E2E2E2E2E2E2E2E2E2E2E2E2E2E2E2E2E2E2E2E2E2E2E2E2E2E2E2E2E2E2E2E2E2E2E2E2E2E2E2E2E2E2E2E2E2E2E2E2E2E2E2E2E2E2E2E2E2E2E2E2E2E2E2E2E2E2E2E2E2E2E2E2E2E2E2E2E2E2E2E2E2E2E2E2E2E2E2F5F5E2E2
310
E2F5E2E2E2E2E2E2E2E2E2E2E2E2E2E2E2E2E2E2E2E2E2E2E2E2E2E2E2E2E2E2E2E2E2E2E2E2E2E2E2E2E2E2E2E2E2E2E2E2E2E2E2E2E2E2E2E2E2E2E2E2E2E2E2E2E2E2E2E2E2E2E2E2E2E2E2E2E2E2E2E2E2E2E2E2E2E2E2E2E2E2E2E2E2E2E2E2E2E2E2E2E2E2E2E2E2E2E2E2E2E2E2E2E2E2E2E2E2E2E2E2E2E2E2E2E2
310
E2E2E2E2E2E2E2E2E2E2E2E2E2E2E2E2E2E2E2E2E2E2E2E2E2E2E2E2E2E2E2E2E2E2E2E2E2E2E2E2E2E2E2E2E2F5E2E2E2F5F5E2E2E2F5E2E2E2E2E2E2E2E2E2E2E2E2E2E2E2E2E2E2E2E2E2E2E2E2E2E2E2E2E2E2E2E2E2E2E2E2E2E2E2E2E2E2E2E2E2E2E2E2E2E2E2E2E2E2E2E2E2E2E2E2E2E2E2E2E2E2E2E2E2E2E2E2
310
E2E2E2E2E2E2E2E2E2E2E2E2E2E2E2E2E2E2E2E2E2E2E2E2E2E2E2E2E2E2E2E2E2E2E2E2E2E2E2E2E2E2E2E2E2E2E2E2E2E2E2E2E2E2E2E2E2E2E2E2E2E2E2E2E2E2E2E2E2E2E2E2E2E2E2E2E2E2E2E2E2E2E2E2E2E2E2E2E2E2E2E2E2E2E2E2E2E2F5E2E2E2F5F5E2E2E2F5E2E2E2E2E2E2E2E2E2E2E2E2E2E2E2E2E2E2E2
310
E2E2E2E2E2E2E2E2E2E2E2E2E2E2E2E2E2E2E2E2E2E2E2E2E2E2E2E2E2E2E2E2E2E2E2E2E2E2E2E2E2E2E2E2E2E2E2E2E2E2E2E2E2E2E2E2E2E2E2E2E2E2E2E2E2E2E2E2E2E2E2E2E2E2E2E2E2E2E2E2E2E2E2E2E2E2E2E2E2E2E2E2E2E2E2E2E2E2E2E2E2E2E2E2E2E2E2E2E2E2E2E2E2E2E2E2E2E2E2E2E2E2E2E2E2E2E2
310
E2E2E2E2E2E2E2E2E2E2E2E2E2E2E2E2E2E2E2E2E2E2E2E2F5E2E2E2F5F5E2E2E2F5E2E2E2E2E2E2E2E2E2E2E2E2E2E2E2E2E2E2E2E2E2E2E2E2E2E2E2E2E2E2E2E2E2E2E2E2E2E2E2E2E2E2E2E2E2E2E2E2E2E2E2E2E2E2E2E2E2E2E2E2E2E2E2E2E2E2E2E2E2E2E2E2E2E2E2E2E2E2E2E2E2E2E2E2E2E2E2E2E2E2E2E2E2
310
E2E2E2E2E2E2E2E2E2E2E2E2E2E2E2E2E2E2E2E2E2E2E2E2E2E2E2E2E2E2E2E2E2E2E2E2E2E2E2E2E2E2E2E2E2E2E2E2E2E2E2E2E2E2E2E2E2E2E2E2E2E2E2E2E2E2E2E2E2E2E2E2E2E2E2E2E2F5E2E2E2F5F5E2E2E2F5E2E2E2E2E2E2E2E2E2E2E2E2E2E2E2E2E2E2E2E2E2E2E2E2E2E2E2E2E2E2E2E2E2E2E2E2E2E2E2E2
310
E2E2E2E2E2E2E2E2E2E2E2E2E2E2E2E2E2E2E2E2E2E2E2E2E2E2E2E2E2E2E2E2E2E2E2E2E2E2E2E2E2E2E2E2E2E2E2E2E2E2E2E2E2E2E2E2E2E2E2E2E2E2E2E2E2E2E2E2E2E2E2E2E2E2E2E2E2E2E2E2E2E2E2E2E2E2E2E2E2E2E2E2E2E2E2E2E2E2E2E2E2E2E2E2E2E2E2E2E2E2E2E2E2E2E2E2E2E2E2E2E2E2E2E2E2E2E2
310
E2E2E2F5E2E2E2F5F5E2E2E2F5E2E2E2E2E2E2E2E2E2E2E2E2E2E2E2E2E2E2E2E2E2E2E2E2E2E2E2E2E2E2E2E2E2E2E2E2E2E2E2E2E2E2E2E2E2E2E2E2E2E2E2E2E2E2E2E2E2E2E2E2E2E2E2E2E2E2E2E2E2E2E2E2E2E2E2E2E2E2E2E2E2E2E2E2E2E2E2E2E2E2E2E2E2E2E2E2E2E2E2E2E2E2E2E2E2E2E2E2E2E2E2E2E2E2
310
E2E2E2E2E2E2E2E2E2E2E2E2E2E2E2E2E2E2E2E2E2E2E2E2E2E2E2E2E2E2E2E2E2E2E2E2E2E2E2E2E2E2E2E2E2E2E2E2E2E2E2E2E2E2E2E2F5E2E2E2F5F5E2E2E2F5E2E2E2E2E2E2E2E2E2E2E2E2E2E2E2E2E2E2E2E2E2E2E2E2E2E2E2E2E2E2E2E2E2E2E2E2E2E2E2E2E2E2E2E2E2E2E2E2E2E2E2E2E2E2E2E2E2E2E2E2E2
310
E2E2E2E2E2E2E2E2E2E2E2E2E2E2E2E2E2E2E2E2E2E2E2E2E2E2E2E2E2E2E2E2E2E2E2E2E2E2E2E2E2E2E2E2E2E2E2E2E2E2E2E2E2E2E2E2E2E2E2E2E2E2E2E2E2E2E2E2E2E2E2E2E2E2E2E2E2E2E2E2E2E2E2E2E2E2E2E2E2E2E2E2E2E2E2E2E2E2E2E2E2E2E2E2E2E2E2E2E2F5E2E2E2F5F5E2E2E2F5E2E2E2E2E2E2E2E2
310
E2E2E2E2E2E2E2E2E2E2E2E2E2E2E2E2E2E2E2E2E2E2E2E2E2E2E2E2E2E2E2E2E2E2E2E2E2E2E2E2E2E2E2E2E2E2E2E2E2E2E2E2E2E2E2E2E2E2E2E2E2E2E2E2E2E2E2E2E2E2E2E2E2E2E2E2E2E2E2E2E2E2E2E2E2E2E2E2E2E2E2E2E2E2E2E2E2E2E2E2E2E2E2E2E2E2E2E2E2E2E2E2E2E2E2E2E2E2E2E2E2E2E2E2E2E2E2
310
E2E2E2E2E2E2E2E2E2E2E2E2E2E2E2E2E2E2E2E2E2E2E2E2E2E2E2E2E2E2E2E2E2E2E2F5E2E2E2F5F5E2E2E2F5E2E2E2E2E2E2E2E2E2E2E2E2E2E2E2E2E2E2E2E2E2E2E2E2E2E2E2E2E2E2E2E2E2E2E2E2E2E2E2E2E2E2E2E2E2E2E2E2E2E2E2E2E2E2E2E2E2E2E2E2E2E2E2E2E2E2E2E2E2E2E2E2E2E2E2E2E2E2E2E2E2E2
310
E2E2E2E2E2E2E2E2E2E2E2E2E2E2E2E2E2E2E2E2E2E2E2E2E2E2E2E2E2E2E2E2E2E2E2E2E2E2E2E2E2E2E2E2E2E2E2E2E2E2E2E2E2E2E2E2E2E2E2E2E2E2E2E2E2E2E2E2E2E2E2E2E2E2E2E2E2E2E2E2E2E2E2E2E2E2E2E2F5E2E2E2F5F5E2E2E2F5E2E2E2E2E2E2E2E2E2E2E2E2E2E2E2E2E2E2E2E2E2E2E2E2E2E2E2E2E2
310
E2E2E2E2E2E2E2E2E2E2E2E2E2E2E2E2E2E2E2E2E2E2E2E2E2E2E2E2E2E2E2E2E2E2E2E2E2E2E2E2E2E2E2E2E2E2E2E2E2E2E2E2E2E2E2E2E2E2E2E2E2E2E2E2E2E2E2E2E2E2E2E2E2E2E2E2E2E2E2E2E2E2E2E2E2E2E2E2E2E2E2E2E2E2E2E2E2E2E2E2E2E2E2E2E2E2E2E2E2E2E2E2E2E2E2E2E2E2E2E2E2E2E2E2E2E2E2
310
E2E2E2E2E2E2E2E2E2E2E2E2E2E2F5E2E2E2F5F5E2E2E2F5E2E2E2E2E2E2E2E2E2E2E2E2E2E2E2E2E2E2E2E2E2E2E2E2E2E2E2E2E2E2E2E2E2E2E2E2E2E2E2E2E2E2E2E2E2E2E2E2E2E2E2E2E2E2E2E2E2E2E2E2E2E2E2E2E2E2E2E2E2E2E2E2E2E2E2E2E2E2E2E2E2E2E2E2E2E2E2E2E2E2E2E2E2E2E2E2E2E2E2E2E2E2E2
310
E2E2E2E2E2E2E2E2E2E2E2E2E2E2E2E2E2E2E2E2E2E2E2E2E2E2E2E2E2E2E2E2E2E2E2E2E2E2E2E2E2E2E2E2E2E2E2E2E2E2E2E2E2E2E2E2E2E2E2E2E2E2E2E2E2E2E2F5E2E2E2F5F5E2E2E2F5E2E2E2E2E2E2E2E2E2E2E2E2E2E2E2E2E2E2E2E2E2E2E2E2E2E2E2E2E2E2E2E2E2E2E2E2E2E2E2E2E2E2E2E2E2E2E2E2E2E2
310
E2E2E2E2E2E2E2E2E2E2E2E2E2E2E2E2E2E2E2E2E2E2E2E2E2E2E2E2E2E2E2E2E2E2E2E2E2E2E2E2E2E2E2E2E2E2E2E2E2E2E2E2E2E2E2E2E2E2E2E2E2E2E2E2E2E2E2E2E2E2E2E2E2E2E2E2E2E2E2E2E2E2E2E2E2E2E2E2E2E2E2E2E2E2E2E2E2E2E2E2E2E2E2E2E2E2E2E2E2E2E2E2E2E2E2E2E2E2E2E2F5E2E2E2F5F5E2
310
E2E2F5E2E2E2E2E2E2E2E2E2E2E2E2E2E2E2E2E2E2E2E2E2E2E2E2E2E2E2E2E2E2E2E2E2E2E2E2E2E2E2E2E2E2E2E2E2E2E2E2E2E2E2E2E2E2E2E2E2E2E2E2E2E2E2E2E2E2E2E2E2E2E2E2E2E2E2E2E2E2E2E2E2E2E2E2E2E2E2E2E2E2E2E2E2E2E2E2E2E2E2E2E2E2E2E2E2E2E2E2E2E2E2E2E2E2E2E2E2E2E2E2E2E2E2E2
310
E2E2E2E2E2E2E2E2E2E2E2E2E2E2E2E2E2E2E2E2E2E2E2E2E2E2E2E2E2E2E2E2E2E2E2E2E2E2E2E2E2E2E2E2E2E2F5E2E2E2F5F5E2E2E2F5E2E2E2E2E2E2E2E2E2E2E2E2E2E2E2E2E2E2E2E2E2E2E2E2E2E2E2E2E2E2E2E2E2E2E2E2E2E2E2E2E2E2E2E2E2E2E2E2E2E2E2E2E2E2E2E2E2E2E2E2E2E2E2E2E2E2E2E2E2E2E2
310
E2E2E2E2E2E2E2E2E2E2E2E2E2E2E2E2E2E2E2E2E2E2E2E2E2E2E2E2E2E2E2E2E2E2E2E2E2E2E2E2E2E2E2E2E2E2E2E2E2E2E2E2E2E2E2E2E2E2E2E2E2E2E2E2E2E2E2E2E2E2E2E2E2E2E2E2E2E2E2E2E2E2E2E2E2E2E2E2E2E2E2E2E2E2E2E2E2E2E2F5E2E2E2F5F5E2E2E2F5E2E2E2E2E2E2E2E2E2E2E2E2E2E2E2E2E2E2
310
E2E2E2E2E2E2E2E2E2E2E2E2E2E2E2E2E2E2E2E2E2E2E2E2E2E2E2E2E2E2E2E2E2E2E2E2E2E2E2E2E2E2E2E2E2E2E2E2E2E2E2E2E2E2E2E2E2E2E2E2E2E2E2E2E2E2E2E2E2E2E2E2E2E2E2E2E2E2E2E2E2E2E2E2E2E2E2E2E2E2E2E2E2E2E2E2E2E2E2E2E2E2E2E2E2E2E2E2E2E2E2E2E2E2E2E2E2E2E2E2E2E2E2E2E2E2E2
310
E2E2E2E2E2E2E2E2E2E2E2E2E2E2E2E2E2E2E2E2E2E2E2E2E2F5E2E2E2F5F5E2E2E2F5E2E2E2E2E2E2E2E2E2E2E2E2E2E2E2E2E2E2E2E2E2E2E2E2E2E2E2E2E2E2E2E2E2E2E2E2E2E2E2E2E2E2E2E2E2E2E2E2E2E2E2E2E2E2E2E2E2E2E2E2E2E2E2E2E2E2E2E2E2E2E2E2E2E2E2E2E2E2E2E2E2E2E2E2E2E2E2E2E2E2E2E2
310
E2E2E2E2E2E2E2E2E2E2E2E2E2E2E2E2E2E2E2E2E2E2E2E2E2E2E2E2E2E2E2E2E2E2E2E2E2E2E2E2E2E2E2E2E2E2E2E2E2E2E2E2E2E2E2E2E2E2E2E2E2E2E2E2E2E2E2E2E2E2E2E2E2E2E2E2E2E2F5E2E2E2F5F5E2E2E2F5E2E2E2E2E2E2E2E2E2E2E2E2E2E2E2E2E2E2E2E2E2E2E2E2E2E2E2E2E2E2E2E2E2E2E2E2E2E2E2
310
E2E2E2E2E2E2E2E2E2E2E2E2E2E2E2E2E2E2E2E2E2E2E2E2E2E2E2E2E2E2E2E2E2E2E2E2E2E2E2E2E2E2E2E2E2E2E2E2E2E2E2E2E2E2E2E2E2E2E2E2E2E2E2E2E2E2E2E2E2E2E2E2E2E2E2E2E2E2E2E2E2E2E2E2E2E2E2E2E2E2E2E2E2E2E2E2E2E2E2E2E2E2E2E2E2E2E2E2E2E2E2E2E2E2E2E2E2E2E2E2E2E2E2E2E2E2E2
310
E2E2E2E2F5E2E2E2F5F5E2E2E2E2E2E2E2E2E2E2E2E2E2E2E2E2E2E2E2E2E2E2E2E2E2E2E2E2E2E2E2E2E2E2E2E2E2E2E2E2E2E2E2E2E2E2E2E2E2E2E2E2E2E2E2E2E2E2E2E2E2E2E2E2E2E2E2E2E2E2E2E2E2E2E2E2E2E2E2E2E2E2E2E2E2E2E2E2E2E2E2E2E2E2E2E2E2E2E2E2E2E2E2E2E2E2E2E2E2E2E2E2E2E2E2E2E2
310
E2E2E2E2E2E2E2E2E2E2E2E2E2E2E2E2E2E2E2E2E2E2E2E2E2E2E2E2E2E2E2E2E2E2E2E2E2E2E2E2E2E2E2E2E2E2E2E2E2E2E2E2E2E2E2E2E2E2E2E2E2F5F5E2E2E2E2E2E2E2E2E2E2E2E2E2E2E2E2E2E2E2E2E2E2E2E2E2E2E2E2E2E2E2E2E2E2E2E2E2E2E2E2E2E2E2E2E2E2E2E2E2E2E2E2E2E2E2E2E2E2E2E2E2E2E2E2
310
E2E2E2E2E2E2E2E2E2E2E2E2E2E2E2E2E2E2E2E2E2E2E2E2E2E2E2E2E2E2E2E2E2E2E2E2E2E2E2E2E2E2E2E2E2E2E2E2E2E2E2E2E2E2E2E2E2E2E2E2E2E2E2E2E2E2E2E2E2E2E2E2E2E2E2E2E2E2E2E2E2E2E2E2E2E2E2E2E2E2E2E2E2E2E2E2E2E2E2E2E2E2E2E2E2E2E2E2E2E2E2E2E2E2F5F5E2E2E2E2E2E2E2E2E2E2E2
310
E2E2E2E2E2E2E2E2E2E2E2E2E2E2E2E2E2E2E2E2E2E2E2E2E2E2E2E2E2E2E2E2E2E2E2E2E2E2E2E2E2E2E2E2E2E2E2E2E2E2E2E2E2E2E2E2E2E2E2E2E2E2E2E2E2E2E2E2E2E2E2E2E2E2E2E2E2E2E2E2E2E2E2E2E2E2E2E2E2E2E2E2E2E2E2E2E2E2E2E2E2E2E2E2E2E2E2E2E2E2E2E2E2E2E2E2E2E2E2E2E2E2E2E2E2E2E2
310
E2E2E2E2E2E2E2E2E2E2E2E2E2E2E2E2E2E2E2E2E2E2E2E2E2E2E2E2E2E2E2E2E2E2E2E2E2E2E2E2F5F5E2E2E2E2E2E2E2E2E2E2E2E2E2E2E2E2E2E2E2E2E2E2E2E2E2E2E2E2E2E2E2E2E2E2E2E2E2E2E2E2E2E2E2E2E2E2E2E2E2E2E2E2E2E2E2E2E2E2E2E2E2E2E2E2E2E2E2E2E2E2E2E2E2E2E2E2E2E2E2E2E2E2E2E2E2
310
E2E2E2E2E2E2E2E2E2E2E2E2E2E2E2E2E2E2E2E2E2E2E2E2E2E2E2E2E2E2E2E2E2E2E2E2E2E2E2E2E2E2E2E2E2E2E2E2E2E2E2E2E2E2E2E2E2E2E2E2E2E2E2E2E2E2E2E2E2E2E2E2E2E2E2E2E2E2E2E2E2E2E2E2E2E2E2E2E2E2E2E2E2F5F5E2E2E2E2E2E2E2E2E2E2E2E2E2E2E2E2E2E2E2E2E2E2E2E2E2E2E2E2E2E2E2E2
310
E2E2E2E2E2E2E2E2E2E2E2E2E2E2E2E2E2E2E2E2E2E2E2E2E2E2E2E2E2E2E2E2E2E2E2E2E2E2E2E2E2E2E2E2E2E2E2E2E2E2E2E2E2E2E2E2E2E2E2E2E2E2E2E2E2E2E2E2E2E2E2E2E2E2E2E2E2E2E2E2E2E2E2E2E2E2E2E2E2E2E2E2E2E2E2E2E2E2E2E2E2E2E2E2E2E2E2E2E2E2E2E2E2E2E2E2E2E2E2E2E2E2E2E2E2E2E2
310
E2E2E2E2E2E2E2E2E2E2E2E2E2E2E2E2E2E2E2F5F5E2E2E2E2E2E2E2E2E2E2E2E2E2E2E2E2E2E2E2E2E2E2E2E2E2E2E2E2E2E2E2E2E2E2E2E2E2E2E2E2E2E2E2E2E2E2E2E2E2E2E2E2E2E2E2E2E2E2E2E2E2E2E2E2E2E2E2E2E2E2E2E2E2E2E2E2E2E2E2E2E2E2E2E2E2E2E2E2E2E2E2E2E2E2E2E2E2E2E2E2E2E2E2E2E2E2
310
E2E2E2E2E2E2E2E2E2E2E2E2E2E2E2E2E2E2E2E2E2E2E2E2E2E2E2E2E2E2E2E2E2E2E2E2E2E2E2E2E2E2E2E2E2E2E2E2E2E2E2E2E2E2E2E2E2E2E2E2E2E2E2E2E2E2E2E2E2E2E2E2F5F5E2E2E2E2E2E2E2E2E2E2E2E2E2E2E2E2E2E2E2E2E2E2E2E2E2E2E2E2E2E2E2E2E2E2E2E2E2E2E2E2E2E2E2E2E2E2E2E2E2E2E2E2E2
310
E2E2E2E2E2E2E2E2E2E2E2E2E2E2E2E2E2E2E2E2E2E2E2E2E2E2E2E2E2E2E2E2E2E2E2E2E2E2E2E2E2E2E2E2E2E2E2E2E2E2E2E2E2E2E2E2E2E2E2E2E2E2E2E2E2E2E2E2E2E2E2E2E2E2E2E2E2E2E2E2E2E2E2E2E2E2E2E2E2E2E2E2E2E2E2E2E2E2E2E2E2E2E2E2E2E2E2E2E2E2E2E2E2E2E2E2E2E2E2E2E2E2E2E2E2F5F5
310
E2E2E2E2E2E2E2E2E2E2E2E2E2E2E2E2E2E2E2E2E2E2E2E2E2E2E2E2E2E2E2E2E2E2E2E2E2E2E2E2E2E2E2E2E2E2E2E2E2E2E2E2E2E2E2E2E2E2E2E2E2E2E2E2E2E2E2E2E2E2E2E2E2E2E2E2E2E2E2E2E2E2E2E2E2E2E2E2E2E2E2E2E2E2E2E2E2E2E2E2E2E2E2E2E2E2E2E2E2E2E2E2E2E2E2E2E2E2E2E2E2E2E2E2E2E2E2
310
E2E2E2E2E2E2E2E2E2E2E2E2E2E2E2E2E2E2E2E2E2E2E2E2E2E2E2E2E2E2E2E2E2E2E2E2E2E2E2E2E2E2E2E2E2E2E2E2E2E2E2F5F5E2E2E2E2E2E2E2E2E2E2E2E2E2E2E2E2E2E2E2E2E2E2E2E2E2E2E2E2E2E2E2E2E2E2E2E2E2E2E2E2E2E2E2E2E2E2E2E2E2E2E2E2E2E2E2E2E2E2E2E2E2E2E2E2E2E2E2E2E2E2E2E2E2E2
310
E2E2E2E2E2E2E2E2E2E2E2E2E2E2E2E2E2E2E2E2E2E2E2E2E2E2E2E2E2E2E2E2E2E2E2E2E2E2E2E2E2E2E2E2E2E2E2E2E2E2E2E2E2E2E2E2E2E2E2E2E2E2E2E2E2E2E2E2E2E2E2E2E2E2E2E2E2E2E2E2E2E2E2E2E2E2E2E2E2E2E2E2E2E2E2E2E2E2E2E2E2E2E2E2F5F5E2E2E2F5E2E2E2E2E2E2E2E2E2E2E2E2E2E2E2E2E2
310
E2E2E2E2E2E2E2E2E2E2E2E2E2E2E2E2E2E2E2E2E2E2E2E2E2E2E2E2E2E2E2E2E2E2E2E2E2E2E2E2E2E2E2E2E2E2E2E2E2E2E2E2E2E2E2E2E2E2E2E2E2E2E2E2E2E2E2E2E2E2E2E2E2E2E2E2E2E2E2E2E2E2E2E2E2E2E2E2E2E2E2E2E2E2E2E2E2E2E2E2E2E2E2E2E2E2E2E2E2E2E2E2E2E2E2E2E2E2E2E2E2E2E2E2E2E2E2
310
E2E2E2E2E2E2E2E2E2E2E2E2E2E2E2E2E2E2E2E2E2E2E2E2E2E2F5E2E2E2F5F5E2E2E2F5E2E2E2E2E2E2E2E2E2E2E2E2E2E2E2E2E2E2E2E2E2E2E2E2E2E2E2E2E2E2E2E2E2E2E2E2E2E2E2E2E2E2E2E2E2E2E2E2E2E2E2E2E2E2E2E2E2E2E2E2E2E2E2E2E2E2E2E2E2E2E2E2E2E2E2E2E2E2E2E2E2E2E2E2E2E2E2E2E2E2E2
310
E2E2E2E2E2E2E2E2E2E2E2E2E2E2E2E2E2E2E2E2E2E2E2E2E2E2E2E2E2E2E2E2E2E2E2E2E2E2E2E2E2E2E2E2E2E2E2E2E2E2E2E2E2E2E2E2E2E2E2E2E2E2E2E2E2E2E2E2E2E2E2E2E2E2E2E2E2E2E2F5E2E2E2F5F5E2E2E2F5E2E2E2E2E2E2E2E2E2E2E2E2E2E2E2E2E2E2E2E2E2E2E2E2E2E2E2E2E2E2E2E2E2E2E2E2E2E2
310
E2E2E2E2E2E2E2E2E2E2E2E2E2E2E2E2E2E2E2E2E2E2E2E2E2E2E2E2E2E2E2E2E2E2E2E2E2E2E2E2E2E2E2E2E2E2E2E2E2E2E2E2E2E2E2E2E2E2E2E2E2E2E2E2E2E2E2E2E2E2E2E2E2E2E2E2E2E2E2E2E2E2E2E2E2E2E2E2E2E2E2E2E2E2E2E2E2E2E2E2E2E2E2E2E2E2E2E2E2E2E2E2E2E2E2E2E2E2E2E2E2E2E2E2E2E2E2
310
E2E2E2E2E2F5E2E2E2F5F5E2E2E2F5E2E2E2E2E2E2E2E2E2E2E2E2E2E2E2E2E2E2E2E2E2E2E2E2E2E2E2E2E2E2E2E2E2E2E2E2E2E2E2E2E2E2E2E2E2E2E2E2E2E2E2E2E2E2E2E2E2E2E2E2E2E2E2E2E2E2E2E2E2E2E2E2E2E2E2E2E2E2E2E2E2E2E2E2E2E2E2E2E2E2E2E2E2E2E2E2E2E2E2E2E2E2E2E2E2E2E2E2E2E2E2E2
310
E2E2E2E2E2E2E2E2E2E2E2E2E2E2E2E2E2E2E2E2E2E2E2E2E2E2E2E2E2E2E2E2E2E2E2E2E2E2E2E2E2E2E2E2E2E2E2E2E2E2E2E2E2E2E2E2E2E2F5E2E2E2F5F5E2E2E2F5E2E2E2E2E2E2E2E2E2E2E2E2E2E2E2E2E2E2E2E2E2E2E2E2E2E2E2E2E2E2E2E2E2E2E2E2E2E2E2E2E2E2E2E2E2E2E2E2E2E2E2E2E2E2E2E2E2E2E2
310
E2E2E2E2E2E2E2E2E2E2E2E2E2E2E2E2E2E2E2E2E2E2E2E2E2E2E2E2E2E2E2E2E2E2E2E2E2E2E2E2E2E2E2E2E2E2E2E2E2E2E2E2E2E2E2E2E2E2E2E2E2E2E2E2E2E2E2E2E2E2E2E2E2E2E2E2E2E2E2E2E2E2E2E2E2E2E2E2E2E2E2E2E2E2E2E2E2E2E2E2E2E2E2E2E2E2E2E2E2E2E2F5E2E2E2F5F5E2E2E2F5E2E2E2E2E2E2
310
E2E2E2E2E2E2E2E2E2E2E2E2E2E2E2E2E2E2E2E2E2E2E2E2E2E2E2E2E2E2E2E2E2E2E2E2E2E2E2E2E2E2E2E2E2E2E2E2E2E2E2E2E2E2E2E2E2E2E2E2E2E2E2E2E2E2E2E2E2E2E2E2E2E2E2E2E2E2E2E2E2E2E2E2E2E2E2E2E2E2E2E2E2E2E2E2E2E2E2E2E2E2E2E2E2E2E2E2E2E2E2E2E2E2E2E2E2E2E2E2E2E2E2E2E2E2E2
310
E2E2E2E2E2E2E2E2E2E2E2E2E2E2E2E2E2E2E2E2E2E2E2E2E2E2E2E2E2E2E2E2E2E2E2E2E2F5E2E2E2F5F5E2E2E2F5E2E2E2E2E2E2E2E2E2E2E2E2E2E2E2E2E2E2E2E2E2E2E2E2E2E2E2E2E2E2E2E2E2E2E2E2E2E2E2E2E2E2E2E2E2E2E2E2E2E2E2E2E2E2E2E2E2E2E2E2E2E2E2E2E2E2E2E2E2E2E2E2E2E2E2E2E2E2E2E2
310
E2E2E2E2E2E2E2E2E2E2E2E2E2E2E2E2E2E2E2E2E2E2E2E2E2E2E2E2E2E2E2E2E2E2E2E2E2E2E2E2E2E2E2E2E2E2E2E2E2E2E2E2E2E2E2E2E2E2E2E2E2E2E2E2E2E2E2E2E2E2E2E2E2E2E2E2E2E2E2E2E2E2E2E2E2E2E2E2E2E2F5E2E2E2F5F5E2E2E2F5E2E2E2E2E2E2E2E2E2E2E2E2E2E2E2E2E2E2E2E2E2E2E2E2E2E2E2
310
E2E2E2E2E2E2E2E2E2E2E2E2E2E2E2E2E2E2E2E2E2E2E2E2E2E2E2E2E2E2E2E2E2E2E2E2E2E2E2E2E2E2E2E2E2E2E2E2E2E2E2E2E2E2E2E2E2E2E2E2E2E2E2E2E2E2E2E2E2E2E2E2E2E2E2E2E2E2E2E2E2E2E2E2E2E2E2E2E2E2E2E2E2E2E2E2E2E2E2E2E2E2E2E2E2E2E2E2E2E2E2E2E2E2E2E2E2E2E2E2E2E2E2E2E2E2E2
310
E2E2E2E2E2E2E2E2E2E2E2E2E2E2E2E2F5E2E2E2F5F5E2E2E2F5E2E2E2E2E2E2E2E2E2E2E2E2E2E2E2E2E2E2E2E2E2E2E2E2E2E2E2E2E2E2E2E2E2E2E2E2E2E2E2E2E2E2E2E2E2E2E2E2E2E2E2E2E2E2E2E2E2E2E2E2E2E2E2E2E2E2E2E2E2E2E2E2E2E2E2E2E2E2E2E2E2E2E2E2E2E2E2E2E2E2E2E2E2E2E2E2E2E2E2E2E2
310
E2E2E2E2E2E2E2E2E2E2E2E2E2E2E2E2E2E2E2E2E2E2E2E2E2E2E2E2E2E2E2E2E2E2E2E2E2E2E2E2E2E2E2E2E2E2E2E2E2E2E2E2E2E2E2E2E2E2E2E2E2E2E2E2E2E2E2E2E2F5E2E2E2F5F5E2E2E2F5E2E2E2E2E2E2E2E2E2E2E2E2E2E2E2E2E2E2E2E2E2E2E2E2E2E2E2E2E2E2E2E2E2E2E2E2E2E2E2E2E2E2E2E2E2E2E2E2
310
E2E2E2E2E2E2E2E2E2E2E2E2E2E2E2E2E2E2E2E2E2E2E2E2E2E2E2E2E2E2E2E2E2E2E2E2E2E2E2E2E2E2E2E2E2E2E2E2E2E2E2E2E2E2E2E2E2E2E2E2E2E2E2E2E2E2E2E2E2E2E2E2E2E2E2E2E2E2E2E2E2E2E2E2E2E2E2E2E2E2E2E2E2E2E2E2E2E2E2E2E2E2E2E2E2E2E2E2E2E2E2E2E2E2E2E2E2E2E2E2E2E2F5E2E2E2F5
310
F5E2E2E2F5E2E2E2E2E2E2E2E2E2E2E2E2E2E2E2E2E2E2E2E2E2E2E2E2E2E2E2E2E2E2E2E2E2E2E2E2E2E2E2E2E2E2E2E2E2E2E2E2E2E2E2E2E2E2E2E2E2E2E2E2E2E2E2E2E2E2E2E2E2E2E2E2E2E2E2E2E2E2E2E2E2E2E2E2E2E2E2E2E2E2E2E2E2E2E2E2E2E2E2E2E2E2E2E2E2E2E2E2E2E2E2E2E2E2E2E2E2E2E2E2E2E2
310
E2E2E2E2E2E2E2E2E2E2E2E2E2E2E2E2E2E2E2E2E2E2E2E2E2E2E2E2E2E2E2E2E2E2E2E2E2E2E2E2E2E2E2E2E2E2E2E2F5E2E2E2F5F5E2E2E2F5E2E2E2E2E2E2E2E2E2E2E2E2E2E2E2E2E2E2E2E2E2E2E2E2E2E2E2E2E2E2E2E2E2E2E2E2E2E2E2E2E2E2E2E2E2E2E2E2E2E2E2E2E2E2E2E2E2E2E2E2E2E2E2E2E2E2E2E2E2
310
E2E2E2E2E2E2E2E2E2E2E2E2E2E2E2E2E2E2E2E2E2E2E2E2E2E2E2E2E2E2E2E2E2E2E2E2E2E2E2E2E2E2E2E2E2E2E2E2E2E2E2E2E2E2E2E2E2E2E2E2E2E2E2E2E2E2E2E2E2E2E2E2E2E2E2E2E2E2E2E2E2E2E2E2E2E2E2E2E2E2E2E2E2E2E2E2E2E2E2E2E2F5E2E2E2F5F5E2E2E2F5E2E2E2E2E2E2E2E2E2E2E2E2E2E2E2E2
310
E2E2E2E2E2E2E2E2E2E2E2E2E2E2E2E2E2E2E2E2E2E2E2E2E2E2E2E2E2E2E2E2E2E2E2E2E2E2E2E2E2E2E2E2E2E2E2E2E2E2E2E2E2E2E2E2E2E2E2E2E2E2E2E2E2E2E2E2E2E2E2E2E2E2E2E2E2E2E2E2E2E2E2E2E2E2E2E2E2E2E2E2E2E2E2E2E2E2E2E2E2E2E2E2E2E2E2E2E2E2E2E2E2E2E2E2E2E2E2E2E2E2E2E2E2E2E2
310
E2E2E2E2E2E2E2E2E2E2E2E2E2E2E2E2E2E2E2E2E2E2E2E2E2E2E2F5E2E2E2F5F5E2E2E2F5E2E2E2E2E2E2E2E2E2E2E2E2E2E2E2E2E2E2E2E2E2E2E2E2E2E2E2E2E2E2E2E2E2E2E2E2E2E2E2E2E2E2E2E2E2E2E2E2E2E2E2E2E2E2E2E2E2E2E2E2E2E2E2E2E2E2E2E2E2E2E2E2E2E2E2E2E2E2E2E2E2E2E2E2E2E2E2E2E2E2
310
E2E2E2E2E2E2E2E2E2E2E2E2E2E2E2E2E2E2E2E2E2E2E2E2E2E2E2E2E2E2E2E2E2E2E2E2E2E2E2E2E2E2E2E2E2E2E2E2E2E2E2E2E2E2E2E2E2E2E2E2E2E2E2E2E2E2E2E2E2E2E2E2E2E2E2E2E2E2E2E2F5E2E2E2F5F5E2E2E2F5E2E2E2E2E2E2E2E2E2E2E2E2E2E2E2E2E2E2E2E2E2E2E2E2E2E2E2E2E2E2E2E2E2E2E2E2E2
310
E2E2E2E2E2E2E2E2E2E2E2E2E2E2E2E2E2E2E2E2E2E2E2E2E2E2E2E2E2E2E2E2E2E2E2E2E2E2E2E2E2E2E2E2E2E2E2E2E2E2E2E2E2E2E2E2E2E2E2E2E2E2E2E2E2E2E2E2E2E2E2E2E2E2E2E2E2E2E2E2E2E2E2E2E2E2E2E2E2E2E2E2E2E2E2E2E2E2E2E2E2E2E2E2E2E2E2E2E2E2E2E2E2E2E2E2E2E2E2E2E2E2E2E2E2E2E2
310
E2E2E2E2E2E2F5E2E2E2F5F5E2E2E2F5E2E2E2E2E2E2E2E2E2E2E2E2E2E2E2E2E2E2E2E2E2E2E2E2E2E2E2E2E2E2E2E2E2E2E2E2E2E2E2E2E2E2E2E2E2E2E2E2E2E2E2E2E2E2E2E2E2E2E2E2E2E2E2E2E2E2E2E2E2E2E2E2E2E2E2E2E2E2E2E2E2E2E2E2E2E2E2E2E2E2E2E2E2E2E2E2E2E2E2E2E2E2E2E2E2E2E2E2E2E2E2
310
E2E2E2E2E2E2E2E2E2E2E2E2E2E2E2E2E2E2E2E2E2E2E2E2E2E2E2E2E2E2E2E2E2E2E2E2E2E2E2E2E2E2E2E2E2E2E2E2E2E2E2E2E2E2E2E2E2E2E2F5E2E2E2F5F5E2E2E2E2E2E2E2E2E2E2E2E2E2E2E2E2E2E2E2E2E2E2E2E2E2E2E2E2E2E2E2E2E2E2E2E2E2E2E2E2E2E2E2E2E2E2E2E2E2E2E2E2E2E2E2E2E2E2E2E2E2E2
310
E2E2E2E2E2E2E2E2E2E2E2E2E2E2E2E2E2E2E2E2E2E2E2E2E2E2E2E2E2E2E2E2E2E2E2E2E2E2E2E2E2E2E2E2E2E2E2E2E2E2E2E2E2E2E2E2E2E2E2E2E2E2E2E2E2E2E2E2E2E2E2E2E2E2E2E2E2E2E2E2E2E2E2E2E2E2E2E2E2E2E2E2E2E2E2E2E2E2E2E2E2E2E2E2E2E2E2E2E2E2E2E2E2E2E2E2F5F5E2E2E2E2E2E2E2E2E2
310
E2E2E2E2E2E2E2E2E2E2E2E2E2E2E2E2E2E2E2E2E2E2E2E2E2E2E2E2E2E2E2E2E2E2E2E2E2E2E2E2E2E2E2E2E2E2E2E2E2E2E2E2E2E2E2E2E2E2E2E2E2E2E2E2E2E2E2E2E2E2E2E2E2E2E2E2E2E2E2E2E2E2E2E2E2E2E2E2E2E2E2E2E2E2E2E2E2E2E2E2E2E2E2E2E2E2E2E2E2E2E2E2E2E2E2E2E2E2E2E2E2E2E2E2E2E2E2
310
E2E2E2E2E2E2E2E2E2E2E2E2E2E2E2E2E2E2E2E2E2E2E2E2E2E2E2E2E2E2E2E2E2E2E2E2E2E2E2E2E2E2F5F5E2E2E2E2E2E2E2E2E2E2E2E2E2E2E2E2E2E2E2E2E2E2E2E2E2E2E2E2E2E2E2E2E2E2E2E2E2E2E2E2E2E2E2E2E2E2E2E2E2E2E2E2E2E2E2E2E2E2E2E2E2E2E2E2E2E2E2E2E2E2E2E2E2E2E2E2E2E2E2E2E2E2E2
310
E2E2E2E2E2E2E2E2E2E2E2E2E2E2E2E2E2E2E2E2E2E2E2E2E2E2E2E2E2E2E2E2E2E2E2E2E2E2E2E2E2E2E2E2E2E2E2E2E2E2E2E2E2E2E2E2E2E2E2E2E2E2E2E2E2E2E2E2E2E2E2E2E2E2E2E2E2E2E2E2E2E2E2E2E2E2E2E2E2E2E2E2E2E2E2F5F5E2E2E2E2E2E2E2E2E2E2E2E2E2E2E2E2E2E2E2E2E2E2E2E2E2E2E2E2E2E2
310
E2E2E2E2E2E2E2E2E2E2E2E2E2E2E2E2E2E2E2E2E2E2E2E2E2E2E2E2E2E2E2E2E2E2E2E2E2E2E2E2E2E2E2E2E2E2E2E2E2E2E2E2E2E2E2E2E2E2E2E2E2E2E2E2E2E2E2E2E2E2E2E2E2E2E2E2E2E2E2E2E2E2E2E2E2E2E2E2E2E2E2E2E2E2E2E2E2E2E2E2E2E2E2E2E2E2E2E2E2E2E2E2E2E2E2E2E2E2E2E2E2E2E2E2E2E2E2
310
E2E2E2E2E2E2E2E2E2E2E2E2E2E2E2E2E2E2E2E2E2F5F5E2E2E2E2E2E2E2E2E2E2E2E2E2E2E2E2E2E2E2E2E2E2E2E2E2E2E2E2E2E2E2E2E2E2E2E2E2E2E2E2E2E2E2E2E2E2E2E2E2E2E2E2E2E2E2E2E2E2E2E2E2E2E2E2E2E2E2E2E2E2E2E2E2E2E2E2E2E2E2E2E2E2E2E2E2E2E2E2E2E2E2E2E2E2E2E2E2E2E2E2E2E2E2E2
310
E2E2E2E2E2E2E2E2E2E2E2E2E2E2E2E2E2E2E2E2E2E2E2E2E2E2E2E2E2E2E2E2E2E2E2E2E2E2E2E2E2E2E2E2E2E2E2E2E2E2E2E2E2E2E2E2E2E2E2E2E2E2E2E2E2E2E2E2E2E2E2E2E2E2F5F5E2E2E2E2E2E2E2E2E2E2E2E2E2E2E2E2E2E2E2E2E2E2E2E2E2E2E2E2E2E2E2E2E2E2E2E2E2E2E2E2E2E2E2E2E2E2E2E2E2E2E2
310
E2E2E2E2E2E2E2E2E2E2E2E2E2E2E2E2E2E2E2E2E2E2E2E2E2E2E2E2E2E2E2E2E2E2E2E2E2E2E2E2E2E2E2E2E2E2E2E2E2E2E2E2E2E2E2E2E2E2E2E2E2E2E2E2E2E2E2E2E2E2E2E2E2E2E2E2E2E2E2E2E2E2E2E2E2E2E2E2E2E2E2E2E2E2E2E2E2E2E2E2E2E2E2E2E2E2E2E2E2E2E2E2E2E2E2E2E2E2E2E2E2E2E2E2E2E2E2
310
F5F5E2E2E2E2E2E2E2E2E2E2E2E2E2E2E2E2E2E2E2E2E2E2E2E2E2E2E2E2E2E2E2E2E2E2E2E2E2E2E2E2E2E2E2E2E2E2E2E2E2E2E2E2E2E2E2E2E2E2E2E2E2E2E2E2E2E2E2E2E2E2E2E2E2E2E2E2E2E2E2E2E2E2E2E2E2E2E2E2E2E2E2E2E2E2E2E2E2E2E2E2E2E2E2E2E2E2E2E2E2E2E2E2E2E2E2E2E2E2E2E2E2E2E2E2E2
310
E2E2E2E2E2E2E2E2E2E2E2E2E2E2E2E2E2E2E2E2E2E2E2E2E2E2E2E2E2E2E2E2E2E2E2E2E2E2E2E2E2E2E2E2E2E2E2E2E2E2E2E2E2F5F5E2E2E2E2E2E2E2E2E2E2E2E2E2E2E2E2E2E2E2E2E2E2E2E2E2E2E2E2E2E2E2E2E2E2E2E2E2E2E2E2E2E2E2E2E2E2E2E2E2E2E2E2E2E2E2E2E2E2E2E2E2E2E2E2E2E2E2E2E2E2E2E2
310
E2E2E2E2E2E2E2E2E2E2E2E2E2E2E2E2E2E2E2E2E2E2E2E2E2E2E2E2E2E2E2E2E2E2E2E2E2E2E2E2E2E2E2E2E2E2E2E2E2E2E2E2E2E2E2E2E2E2E2E2E2E2E2E2E2E2E2E2E2E2E2E2E2E2E2E2E2E2E2E2E2E2E2E2E2E2E2E2E2E2E2E2E2E2E2E2E2E2E2E2E2E2E2E2E2E2F5F5E2E2E2E2E2E2E2E2E2E2E2E2E2E2E2E2E2E2E2
310
E2E2E2E2E2E2E2E2E2E2E2E2E2E2E2E2E2E2E2E2E2E2E2E2E2E2E2E2E2E2E2E2E2E2E2E2E2E2E2E2E2E2E2E2E2E2E2E2E2E2E2E2E2E2E2E2E2E2E2E2E2E2E2E2E2E2E2E2E2E2E2E2E2E2E2E2E2E2E2E2E2E2E2E2E2E2E2E2E2E2E2E2E2E2E2E2E2E2E2E2E2E2E2E2E2E2E2E2E2E2E2E2E2E2E2E2E2E2E2E2E2E2E2E2E2E2E2
310
E2E2E2E2E2E2E2E2E2E2E2E2E2E2E2E2E2E2E2E2E2E2E2E2E2E2E2E2E2E2E2E2F5F5E2E2E2E2E2E2E2E2E2E2E2E2E2E2E2E2E2E2E2E2E2E2E2E2E2E2E2E2E2E2E2E2E2E2E2E2E2E2E2E2E2E2E2E2E2E2E2E2E2E2E2E2E2E2E2E2E2E2E2E2E2E2E2E2E2E2E2E2E2E2E2E2E2E2E2E2E2E2E2E2E2E2E2E2E2E2E2E2E2E2E2E2E2
310
E2E2E2E2E2E2E2E2E2E2E2E2E2E2E2E2E2E2E2E2E2E2E2E2E2E2E2E2E2E2E2E2E2E2E2E2E2E2E2E2E2E2E2E2E2E2E2E2E2E2E2E2E2E2E2E2E2E2E2E2E2E2E2E2E2E2E2E2E2E2E2E2E2E2E2E2E2E2E2E2E2E2E2E2E2F5F5E2E2E2F5E2E2E2E2E2E2E2E2E2E2E2E2E2E2E2E2E2E2E2E2E2E2E2E2E2E2E2E2E2E2E2E2E2E2E2E2
310
E2E2E2E2E2E2E2E2E2E2E2E2E2E2E2E2E2E2E2E2E2E2E2E2E2E2E2E2E2E2E2E2E2E2E2E2E2E2E2E2E2E2E2E2E2E2E2E2E2E2E2E2E2E2E2E2E2E2E2E2E2E2E2E2E2E2E2E2E2E2E2E2E2E2E2E2E2E2E2E2E2E2E2E2E2E2E2E2E2E2E2E2E2E2E2E2E2E2E2E2E2E2E2E2E2E2E2E2E2E2E2E2E2E2E2E2E2E2E2E2E2E2E2E2E2E2E2
310
E2E2E2E2E2E2E2F5E2E2E2F5F5E2E2E2F5E2E2E2E2E2E2E2E2E2E2E2E2E2E2E2E2E2E2E2E2E2E2E2E2E2E2E2E2E2E2E2E2E2E2E2E2E2E2E2E2E2E2E2E2E2E2E2E2E2E2E2E2E2E2E2E2E2E2E2E2E2E2E2E2E2E2E2E2E2E2E2E2E2E2E2E2E2E2E2E2E2E2E2E2E2E2E2E2E2E2E2E2E2E2E2E2E2E2E2E2E2E2E2E2E2E2E2E2E2E2
310
E2E2E2E2E2E2E2E2E2E2E2E2E2E2E2E2E2E2E2E2E2E2E2E2E2E2E2E2E2E2E2E2E2E2E2E2E2E2E2E2E2E2E2E2E2E2E2E2E2E2E2E2E2E2E2E2E2E2E2E2F5E2E2E2F5F5E2E2E2F5E2E2E2E2E2E2E2E2E2E2E2E2E2E2E2E2E2E2E2E2E2E2E2E2E2E2E2E2E2E2E2E2E2E2E2E2E2E2E2E2E2E2E2E2E2E2E2E2E2E2E2E2E2E2E2E2E2
310
E2E2E2E2E2E2E2E2E2E2E2E2E2E2E2E2E2E2E2E2E2E2E2E2E2E2E2E2E2E2E2E2E2E2E2E2E2E2E2E2E2E2E2E2E2E2E2E2E2E2E2E2E2E2E2E2E2E2E2E2E2E2E2E2E2E2E2E2E2E2E2E2E2E2E2E2E2E2E2E2E2E2E2E2E2E2E2E2E2E2E2E2E2E2E2E2E2E2E2E2E2E2E2E2E2E2E2E2E2E2E2E2E2F5E2E2E2F5F5E2E2E2F5E2E2E2E2
310
E2E2E2E2E2E2E2E2E2E2E2E2E2E2E2E2E2E2E2E2E2E2E2E2E2E2E2E2E2E2E2E2E2E2E2E2E2E2E2E2E2E2E2E2E2E2E2E2E2E2E2E2E2E2E2E2E2E2E2E2E2E2E2E2E2E2E2E2E2E2E2E2E2E2E2E2E2E2E2E2E2E2E2E2E2E2E2E2E2E2E2E2E2E2E2E2E2E2E2E2E2E2E2E2E2E2E2E2E2E2E2E2E2E2E2E2E2E2E2E2E2E2E2E2E2E2E2
310
E2E2E2E2E2E2E2E2E2E2E2E2E2E2E2E2E2E2E2E2E2E2E2E2E2E2E2E2E2E2E2E2E2E2E2E2E2E2E2F5E2E2E2F5F5E2E2E2F5E2E2E2E2E2E2E2E2E2E2E2E2E2E2E2E2E2E2E2E2E2E2E2E2E2E2E2E2E2E2E2E2E2E2E2E2E2E2E2E2E2E2E2E2E2E2E2E2E2E2E2E2E2E2E2E2E2E2E2E2E2E2E2E2E2E2E2E2E2E2E2E2E2E2E2E2E2E2
310
E2E2E2E2E2E2E2E2E2E2E2E2E2E2E2E2E2E2E2E2E2E2E2E2E2E2E2E2E2E2E2E2E2E2E2E2E2E2E2E2E2E2E2E2E2E2E2E2E2E2E2E2E2E2E2E2E2E2E2E2E2E2E2E2E2E2E2E2E2E2E2E2E2E2E2E2E2E2E2E2E2E2E2E2E2E2E2E2E2E2E2E2F5E2E2E2F5F5E2E2E2F5E2E2E2E2E2E2E2E2E2E2E2E2E2E2E2E2E2E2E2E2E2E2E2E2E2
310
E2E2E2E2E2E2E2E2E2E2E2E2E2E2E2E2E2E2E2E2E2E2E2E2E2E2E2E2E2E2E2E2E2E2E2E2E2E2E2E2E2E2E2E2E2E2E2E2E2E2E2E2E2E2E2E2E2E2E2E2E2E2E2E2E2E2E2E2E2E2E2E2E2E2E2E2E2E2E2E2E2E2E2E2E2E2E2E2E2E2E2E2E2E2E2E2E2E2E2E2E2E2E2E2E2E2E2E2E2E2E2E2E2E2E2E2E2E2E2E2E2E2E2E2E2E2E2
310
E2E2E2E2E2E2E2E2E2E2E2E2E2E2E2E2E2E2F5E2E2E2F5F5E2E2E2F5E2E2E2E2E2E2E2E2E2E2E2E2E2E2E2E2E2E2E2E2E2E2E2E2E2E2E2E2E2E2E2E2E2E2E2E2E2E2E2E2E2E2E2E2E2E2E2E2E2E2E2E2E2E2E2E2E2E2E2E2E2E2E2E2E2E2E2E2E2E2E2E2E2E2E2E2E2E2E2E2E2E2E2E2E2E2E2E2E2E2E2E2E2E2E2E2E2E2E2
310
E2E2E2E2E2E2E2E2E2E2E2E2E2E2E2E2E2E2E2E2E2E2E2E2E2E2E2E2E2E2E2E2E2E2E2E2E2E2E2E2E2E2E2E2E2E2E2E2E2E2E2E2E2E2E2E2E2E2E2E2E2E2E2E2E2E2E2E2E2E2E2F5E2E2E2F5F5E2E2E2F5E2E2E2E2E2E2E2E2E2E2E2E2E2E2E2E2E2E2E2E2E2E2E2E2E2E2E2E2E2E2E2E2E2E2E2E2E2E2E2E2E2E2E2E2E2E2
310
E2E2E2E2E2E2E2E2E2E2E2E2E2E2E2E2E2E2E2E2E2E2E2E2E2E2E2E2E2E2E2E2E2E2E2E2E2E2E2E2E2E2E2E2E2E2E2E2E2E2E2E2E2E2E2E2E2E2E2E2E2E2E2E2E2E2E2E2E2E2E2E2E2E2E2E2E2E2E2E2E2E2E2E2E2E2E2E2E2E2E2E2E2E2E2E2E2E2E2E2E2E2E2E2E2E2E2E2E2E2E2E2E2E2E2E2E2E2E2E2E2E2E2E2F5E2E2
310
E2F5F5E2E2E2F5E2E2E2E2E2E2E2E2E2E2E2E2E2E2E2E2E2E2E2E2E2E2E2E2E2E2E2E2E2E2E2E2E2E2E2E2E2E2E2E2E2E2E2E2E2E2E2E2E2E2E2E2E2E2E2E2E2E2E2E2E2E2E2E2E2E2E2E2E2E2E2E2E2E2E2E2E2E2E2E2E2E2E2E2E2E2E2E2E2E2E2E2E2E2E2E2E2E2E2E2E2E2E2E2E2E2E2E2E2E2E2E2E2E2E2E2E2E2E2E2
310
E2E2E2E2E2E2E2E2E2E2E2E2E2E2E2E2E2E2E2E2E2E2E2E2E2E2E2E2E2E2E2E2E2E2E2E2E2E2E2E2E2E2E2E2E2E2E2E2E2E2F5E2E2E2F5F5E2E2E2F5E2E2E2E2E2E2E2E2E2E2E2E2E2E2E2E2E2E2E2E2E2E2E2E2E2E2E2E2E2E2E2E2E2E2E2E2E2E2E2E2E2E2E2E2E2E2E2E2E2E2E2E2E2E2E2E2E2E2E2E2E2E2E2E2E2E2E2
310
E2E2E2E2E2E2E2E2E2E2E2E2E2E2E2E2E2E2E2E2E2E2E2E2E2E2E2E2E2E2E2E2E2E2E2E2E2E2E2E2E2E2E2E2E2E2E2E2E2E2E2E2E2E2E2E2E2E2E2E2E2E2E2E2E2E2E2E2E2E2E2E2E2E2E2E2E2E2E2E2E2E2E2E2E2E2E2E2E2E2E2E2E2E2E2E2E2E2E2E2E2E2E2F5E2E2E2F5F5E2E2E2F5E2E2E2E2E2E2E2E2E2E2E2E2E2E2
310
E2E2E2E2E2E2E2E2E2E2E2E2E2E2E2E2E2E2E2E2E2E2E2E2E2E2E2E2E2E2E2E2E2E2E2E2E2E2E2E2E2E2E2E2E2E2E2E2E2E2E2E2E2E2E2E2E2E2E2E2E2E2E2E2E2E2E2E2E2E2E2E2E2E2E2E2E2E2E2E2E2E2E2E2E2E2E2E2E2E2E2E2E2E2E2E2E2E2E2E2E2E2E2E2E2E2E2E2E2E2E2E2E2E2E2E2E2E2E2E2E2E2E2E2E2E2E2
310
E2E2E2E2E2E2E2E2E2E2E2E2E2E2E2E2E2E2E2E2E2E2E2E2E2E2E2E2E2F5E2E2E2F5F5E2E2E2F5E2E2E2E2E2E2E2E2E2E2E2E2E2E2E2E2E2E2E2E2E2E2E2E2E2E2E2E2E2E2E2E2E2E2E2E2E2E2E2E2E2E2E2E2E2E2E2E2E2E2E2E2E2E2E2E2E2E2E2E2E2E2E2E2E2E2E2E2E2E2E2E2E2E2E2E2E2E2E2E2E2E2E2E2E2E2E2E2
310
E2E2E2E2E2E2E2E2E2E2E2E2E2E2E2E2E2E2E2E2E2E2E2E2E2E2E2E2E2E2E2E2E2E2E2E2E2E2E2E2E2E2E2E2E2E2E2E2E2E2E2E2E2E2E2E2E2E2E2E2E2E2E2E2E2E2E2E2E2E2E2E2E2E2E2E2E2E2E2E2E2E2F5E2E2E2F5F5E2E2E2F5E2E2E2E2E2E2E2E2E2E2E2E2E2E2E2E2E2E2E2E2E2E2E2E2E2E2E2E2E2E2E2E2E2E2E2
310
E2E2E2E2E2E2E2E2E2E2E2E2E2E2E2E2E2E2E2E2E2E2E2E2E2E2E2E2E2E2E2E2E2E2E2E2E2E2E2E2E2E2E2E2E2E2E2E2E2E2E2E2E2E2E2E2E2E2E2E2E2E2E2E2E2E2E2E2E2E2E2E2E2E2E2E2E2E2E2E2E2E2E2E2E2E2E2E2E2E2E2E2E2E2E2E2E2E2E2E2E2E2E2E2E2E2E2E2E2E2E2E2E2E2E2E2E2E2E2E2E2E2E2E2E2E2E2
310
E2E2E2E2E2E2E2E2F5E2E2E2F5F5E2E2E2F5E2E2E2E2E2E2E2E2E2E2E2E2E2E2E2E2E2E2E2E2E2E2E2E2E2E2E2E2E2E2E2E2E2E2E2E2E2E2E2E2E2E2E2E2E2E2E2E2E2E2E2E2E2E2E2E2E2E2E2E2E2E2E2E2E2E2E2E2E2E2E2E2E2E2E2E2E2E2E2E2E2E2E2E2E2E2E2E2E2E2E2E2E2E2E2E2E2E2E2E2E2E2E2E2E2E2E2E2E2
310
E2E2E2E2E2E2E2E2E2E2E2E2E2E2E2E2E2E2E2E2E2E2E2E2E2E2E2E2E2E2E2E2E2E2E2E2E2E2E2E2E2E2E2E2E2E2E2E2E2E2E2E2E2E2E2E2E2E2E2E2E2F5E2E2E2F5F5E2E2E2F5E2E2E2E2E2E2E2E2E2E2E2E2E2E2E2E2E2E2E2E2E2E2E2E2E2E2E2E2E2E2E2E2E2E2E2E2E2E2E2E2E2E2E2E2E2E2E2E2E2E2E2E2E2E2E2E2
310
E2E2E2E2E2E2E2E2E2E2E2E2E2E2E2E2E2E2E2E2E2E2E2E2E2E2E2E2E2E2E2E2E2E2E2E2E2E2E2E2E2E2E2E2E2E2E2E2E2E2E2E2E2E2E2E2E2E2E2E2E2E2E2E2E2E2E2E2E2E2E2E2E2E2E2E2E2E2E2E2E2E2E2E2E2E2E2E2E2E2E2E2E2E2E2E2E2E2E2E2E2E2E2E2E2E2E2E2E2E2E2E2E2E2F5E2E2E2F5F5E2E2E2F5E2E2E2
310
E2E2E2E2E2E2E2E2E2E2E2E2E2E2E2E2E2E2E2E2E2E2E2E2E2E2E2E2E2E2E2E2E2E2E2E2E2E2E2E2E2E2E2E2E2E2E2E2E2E2E2E2E2E2E2E2E2E2E2E2E2E2E2E2E2E2E2E2E2E2E2E2E2E2E2E2E2E2E2E2E2E2E2E2E2E2E2E2E2E2E2E2E2E2E2E2E2E2E2E2E2E2E2E2E2E2E2E2E2E2E2E2E2E2E2E2E2E2E2E2E2E2E2E2E2E2E2
310
E2E2E2E2E2E2E2E2E2E2E2E2E2E2E2E2E2E2E2E2E2E2E2E2E2E2E2E2E2E2E2E2E2E2E2E2E2E2E2E2F5E2E2E2F5F5E2E2E2E2E2E2E2E2E2E2E2E2E2E2E2E2E2E2E2E2E2E2E2E2E2E2E2E2E2E2E2E2E2E2E2E2E2E2E2E2E2E2E2E2E2E2E2E2E2E2E2E2E2E2E2E2E2E2E2E2E2E2E2E2E2E2E2E2E2E2E2E2E2E2E2E2E2E2E2E2E2
310
E2E2E2E2E2E2E2E2E2E2E2E2E2E2E2E2E2E2E2E2E2E2E2E2E2E2E2E2E2E2E2E2E2E2E2E2E2E2E2E2E2E2E2E2E2E2E2E2E2E2E2E2E2E2E2E2E2E2E2E2E2E2E2E2E2E2E2E2E2E2E2E2E2E2E2E2E2E2E2E2E2E2E2E2E2E2E2E2E2E2E2E2E2E2E2E2E2F5F5E2E2E2E2E2E2E2E2E2E2E2E2E2E2E2E2E2E2E2E2E2E2E2E2E2E2E2E2
310
E2E2E2E2E2E2E2E2E2E2E2E2E2E2E2E2E2E2E2E2E2E2E2E2E2E2E2E2E2E2E2E2E2E2E2E2E2E2E2E2E2E2E2E2E2E2E2E2E2E2E2E2E2E2E2E2E2E2E2E2E2E2E2E2E2E2E2E2E2E2E2E2E2E2E2E2E2E2E2E2E2E2E2E2E2E2E2E2E2E2E2E2E2E2E2E2E2E2E2E2E2E2E2E2E2E2E2E2E2E2E2E2E2E2E2E2E2E2E2E2E2E2E2E2E2E2E2
310
E2E2E2E2E2E2E2E2E2E2E2E2E2E2E2E2E2E2E2E2E2E2E2F5F5E2E2E2E2E2E2E2E2E2E2E2E2E2E2E2E2E2E2E2E2E2E2E2E2E2E2E2E2E2E2E2E2E2E2E2E2E2E2E2E2E2E2E2E2E2E2E2E2E2E2E2E2E2E2E2E2E2E2E2E2E2E2E2E2E2E2E2E2E2E2E2E2E2E2E2E2E2E2E2E2E2E2E2E2E2E2E2E2E2E2E2E2E2E2E2E2E2E2E2E2E2E2
310
E2E2E2E2E2E2E2E2E2E2E2E2E2E2E2E2E2E2E2E2E2E2E2E2E2E2E2E2E2E2E2E2E2E2E2E2E2E2E2E2E2E2E2E2E2E2E2E2E2E2E2E2E2E2E2E2E2E2E2E2E2E2E2E2E2E2E2E2E2E2E2E2E2E2E2E2F5F5E2E2E2E2E2E2E2E2E2E2E2E2E2E2E2E2E2E2E2E2E2E2E2E2E2E2E2E2E2E2E2E2E2E2E2E2E2E2E2E2E2E2E2E2E2E2E2E2E2
310
E2E2E2E2E2E2E2E2E2E2E2E2E2E2E2E2E2E2E2E2E2E2E2E2E2E2E2E2E2E2E2E2E2E2E2E2E2E2E2E2E2E2E2E2E2E2E2E2E2E2E2E2E2E2E2E2E2E2E2E2E2E2E2E2E2E2E2E2E2E2E2E2E2E2E2E2E2E2E2E2E2E2E2E2E2E2E2E2E2E2E2E2E2E2E2E2E2E2E2E2E2E2E2E2E2E2E2E2E2E2E2E2E2E2E2E2E2E2E2E2E2E2E2E2E2E2E2
310
E2E2F5F5E2E2E2E2E2E2E2E2E2E2E2E2E2E2E2E2E2E2E2E2E2E2E2E2E2E2E2E2E2E2E2E2E2E2E2E2E2E2E2E2E2E2E2E2E2E2E2E2E2E2E2E2E2E2E2E2E2E2E2E2E2E2E2E2E2E2E2E2E2E2E2E2E2E2E2E2E2E2E2E2E2E2E2E2E2E2E2E2E2E2E2E2E2E2E2E2E2E2E2E2E2E2E2E2E2E2E2E2E2E2E2E2E2E2E2E2E2E2E2E2E2E2E2
310
E2E2E2E2E2E2E2E2E2E2E2E2E2E2E2E2E2E2E2E2E2E2E2E2E2E2E2E2E2E2E2E2E2E2E2E2E2E2E2E2E2E2E2E2E2E2E2E2E2E2E2E2E2E2E2F5F5E2E2E2E2E2E2E2E2E2E2E2E2E2E2E2E2E2E2E2E2E2E2E2E2E2E2E2E2E2E2E2E2E2E2E2E2E2E2E2E2E2E2E2E2E2E2E2E2E2E2E2E2E2E2E2E2E2E2E2E2E2E2E2E2E2E2E2E2E2E2
310
E2E2E2E2E2E2E2E2E2E2E2E2E2E2E2E2E2E2E2E2E2E2E2E2E2E2E2E2E2E2E2E2E2E2E2E2E2E2E2E2E2E2E2E2E2E2E2E2E2E2E2E2E2E2E2E2E2E2E2E2E2E2E2E2E2E2E2E2E2E2E2E2E2E2E2E2E2E2E2E2E2E2E2E2E2E2E2E2E2E2E2E2E2E2E2E2E2E2E2E2E2E2E2E2E2E2E2E2F5F5E2E2E2E2E2E2E2E2E2E2E2E2E2E2E2E2E2
310
E2E2E2E2E2E2E2E2E2E2E2E2E2E2E2E2E2E2E2E2E2E2E2E2E2E2E2E2E2E2E2E2E2E2E2E2E2E2E2E2E2E2E2E2E2E2E2E2E2E2E2E2E2E2E2E2E2E2E2E2E2E2E2E2E2E2E2E2E2E2E2E2E2E2E2E2E2E2E2E2E2E2E2E2E2E2E2E2E2E2E2E2E2E2E2E2E2E2E2E2E2E2E2E2E2E2E2E2E2E2E2E2E2E2E2E2E2E2E2E2E2E2E2E2E2E2E2
310
E2E2E2E2E2E2E2E2E2E2E2E2E2E2E2E2E2E2E2E2E2E2E2E2E2E2E2E2E2E2E2E2E2E2F5F5E2E2E2E2E2E2E2E2E2E2E2E2E2E2E2E2E2E2E2E2E2E2E2E2E2E2E2E2E2E2E2E2E2E2E2E2E2E2E2E2E2E2E2E2E2E2E2E2E2E2E2E2E2E2E2E2E2E2E2E2E2E2E2E2E2E2E2E2E2E2E2E2E2E2E2E2E2E2E2E2E2E2E2E2E2E2E2E2E2E2E2
310
E2E2E2E2E2E2E2E2E2E2E2E2E2E2E2E2E2E2E2E2E2E2E2E2E2E2E2E2E2E2E2E2E2E2E2E2E2E2E2E2E2E2E2E2E2E2E2E2E2E2E2E2E2E2E2E2E2E2E2E2E2E2E2E2E2E2E2E2E2E2E2E2E2E2E2E2E2E2E2E2E2E2E2E2E2E2E2F5F5E2E2E2E2E2E2E2E2E2E2E2E2E2E2E2E2E2E2E2E2E2E2E2E2E2E2E2E2E2E2E2E2E2E2E2E2E2E2
310
E2E2E2E2E2E2E2E2E2E2E2E2E2E2E2E2E2E2E2E2E2E2E2E2E2E2E2E2E2E2E2E2E2E2E2E2E2E2E2E2E2E2E2E2E2E2E2E2E2E2E2E2E2E2E2E2E2E2E2E2E2E2E2E2E2E2E2E2E2E2E2E2E2E2E2E2E2E2E2E2E2E2E2E2E2E2E2E2E2E2E2E2E2E2E2E2E2E2E2E2E2E2E2E2E2E2E2E2E2E2E2E2E2E2E2E2E2E2E2E2E2E2E2E2E2E2E2
310
E2E2E2E2E2E2E2E2E2E2E2E2E2F5F5E2E2E2F5E2E2E2E2E2E2E2E2E2E2E2E2E2E2E2E2E2E2E2E2E2E2E2E2E2E2E2E2E2E2E2E2E2E2E2E2E2E2E2E2E2E2E2E2E2E2E2E2E2E2E2E2E2E2E2E2E2E2E2E2E2E2E2E2E2E2E2E2E2E2E2E2E2E2E2E2E2E2E2E2E2E2E2E2E2E2E2E2E2E2E2E2E2E2E2E2E2E2E2E2E2E2E2E2E2E2E2E2
310
E2E2E2E2E2E2E2E2E2E2E2E2E2E2E2E2E2E2E2E2E2E2E2E2E2E2E2E2E2E2E2E2E2E2E2E2E2E2E2E2E2E2E2E2E2E2E2E2E2E2E2E2E2E2E2E2E2E2E2E2E2E2F5E2E2E2F5F5E2E2E2F5E2E2E2E2E2E2E2E2E2E2E2E2E2E2E2E2E2E2E2E2E2E2E2E2E2E2E2E2E2E2E2E2E2E2E2E2E2E2E2E2E2E2E2E2E2E2E2E2E2E2E2E2E2E2E2
310
E2E2E2E2E2E2E2E2E2E2E2E2E2E2E2E2E2E2E2E2E2E2E2E2E2E2E2E2E2E2E2E2E2E2E2E2E2E2E2E2E2E2E2E2E2E2E2E2E2E2E2E2E2E2E2E2E2E2E2E2E2E2E2E2E2E2E2E2E2E2E2E2E2E2E2E2E2E2E2E2E2E2E2E2E2E2E2E2E2E2E2E2E2E2E2E2E2E2E2E2E2E2E2E2E2E2E2E2E2E2E2E2E2E2E2F5E2E2E2F5F5E2E2E2F5E2E2
310
E2E2E2E2E2E2E2E2E2E2E2E2E2E2E2E2E2E2E2E2E2E2E2E2E2E2E2E2E2E2E2E2E2E2E2E2E2E2E2E2E2E2E2E2E2E2E2E2E2E2E2E2E2E2E2E2E2E2E2E2E2E2E2E2E2E2E2E2E2E2E2E2E2E2E2E2E2E2E2E2E2E2E2E2E2E2E2E2E2E2E2E2E2E2E2E2E2E2E2E2E2E2E2E2E2E2E2E2E2E2E2E2E2E2E2E2E2E2E2E2E2E2E2E2E2E2E2
310
E2E2E2E2E2E2E2E2E2E2E2E2E2E2E2E2E2E2E2E2E2E2E2E2E2E2E2E2E2E2E2E2E2E2E2E2E2E2E2E2E2F5E2E2E2F5F5E2E2E2F5E2E2E2E2E2E2E2E2E2E2E2E2E2E2E2E2E2E2E2E2E2E2E2E2E2E2E2E2E2E2E2E2E2E2E2E2E2E2E2E2E2E2E2E2E2E2E2E2E2E2E2E2E2E2E2E2E2E2E2E2E2E2E2E2E2E2E2E2E2E2E2E2E2E2E2E2
310
E2E2E2E2E2E2E2E2E2E2E2E2E2E2E2E2E2E2E2E2E2E2E2E2E2E2E2E2E2E2E2E2E2E2E2E2E2E2E2E2E2E2E2E2E2E2E2E2E2E2E2E2E2E2E2E2E2E2E2E2E2E2E2E2E2E2E2E2E2E2E2E2E2E2E2E2E2E2E2E2E2E2E2E2E2E2E2E2E2E2E2E2E2E2F5E2E2E2F5F5E2E2E2F5E2E2E2E2E2E2E2E2E2E2E2E2E2E2E2E2E2E2E2E2E2E2E2
310
E2E2E2E2E2E2E2E2E2E2E2E2E2E2E2E2E2E2E2E2E2E2E2E2E2E2E2E2E2E2E2E2E2E2E2E2E2E2E2E2E2E2E2E2E2E2E2E2E2E2E2E2E2E2E2E2E2E2E2E2E2E2E2E2E2E2E2E2E2E2E2E2E2E2E2E2E2E2E2E2E2E2E2E2E2E2E2E2E2E2E2E2E2E2E2E2E2E2E2E2E2E2E2E2E2E2E2E2E2E2E2E2E2E2E2E2E2E2E2E2E2E2E2E2E2E2E2
310
E2E2E2E2E2E2E2E2E2E2E2E2E2E2E2E2E2E2E2E2F5E2E2E2F5F5E2E2E2F5E2E2E2E2E2E2E2E2E2E2E2E2E2E2E2E2E2E2E2E2E2E2E2E2E2E2E2E2E2E2E2E2E2E2E2E2E2E2E2E2E2E2E2E2E2E2E2E2E2E2E2E2E2E2E2E2E2E2E2E2E2E2E2E2E2E2E2E2E2E2E2E2E2E2E2E2E2E2E2E2E2E2E2E2E2E2E2E2E2E2E2E2E2E2E2E2E2
310
E2E2E2E2E2E2E2E2E2E2E2E2E2E2E2E2E2E2E2E2E2E2E2E2E2E2E2E2E2E2E2E2E2E2E2E2E2E2E2E2E2E2E2E2E2E2E2E2E2E2E2E2E2E2E2E2E2E2E2E2E2E2E2E2E2E2E2E2E2E2E2E2E2F5E2E2E2F5F5E2E2E2F5E2E2E2E2E2E2E2E2E2E2E2E2E2E2E2E2E2E2E2E2E2E2E2E2E2E2E2E2E2E2E2E2E2E2E2E2E2E2E2E2E2E2E2E2
310
E2E2E2E2E2E2E2E2E2E2E2E2E2E2E2E2E2E2E2E2E2E2E2E2E2E2E2E2E2E2E2E2E2E2E2E2E2E2E2E2E2E2E2E2E2E2E2E2E2E2E2E2E2E2E2E2E2E2E2E2E2E2E2E2E2E2E2E2E2E2E2E2E2E2E2E2E2E2E2E2E2E2E2E2E2E2E2E2E2E2E2E2E2E2E2E2E2E2E2E2E2E2E2E2E2E2E2E2E2E2E2E2E2E2E2E2E2E2E2E2E2E2E2E2E2E2F5
310
E2E2E2F5F5E2E2E2F5E2E2E2E2E2E2E2E2E2E2E2E2E2E2E2E2E2E2E2E2E2E2E2E2E2E2E2E2E2E2E2E2E2E2E2E2E2E2E2E2E2E2E2E2E2E2E2E2E2E2E2E2E2E2E2E2E2E2E2E2E2E2E2E2E2E2E2E2E2E2E2E2E2E2E2E2E2E2E2E2E2E2E2E2E2E2E2E2E2E2E2E2E2E2E2E2E2E2E2E2E2E2E2E2E2E2E2E2E2E2E2E2E2E2E2E2E2E2
310
E2E2E2E2E2E2E2E2E2E2E2E2E2E2E2E2E2E2E2E2E2E2E2E2E2E2E2E2E2E2E2E2E2E2E2E2E2E2E2E2E2E2E2E2E2E2E2E2E2E2E2E2F5E2E2E2F5F5E2E2E2F5E2E2E2E2E2E2E2E2E2E2E2E2E2E2E2E2E2E2E2E2E2E2E2E2E2E2E2E2E2E2E2E2E2E2E2E2E2E2E2E2E2E2E2E2E2E2E2E2E2E2E2E2E2E2E2E2E2E2E2E2E2E2E2E2E2
310
E2E2E2E2E2E2E2E2E2E2E2E2E2E2E2E2E2E2E2E2E2E2E2E2E2E2E2E2E2E2E2E2E2E2E2E2E2E2E2E2E2E2E2E2E2E2E2E2E2E2E2E2E2E2E2E2E2E2E2E2E2E2E2E2E2E2E2E2E2E2E2E2E2E2E2E2E2E2E2E2E2E2E2E2E2E2E2E2E2E2E2E2E2E2E2E2E2E2E2E2E2E2E2E2E2F5E2E2E2F5F5E2E2E2F5E2E2E2E2E2E2E2E2E2E2E2E2
310
E2E2E2E2E2E2E2E2E2E2E2E2E2E2E2E2E2E2E2E2E2E2E2E2E2E2E2E2E2E2E2E2E2E2E2E2E2E2E2E2E2E2E2E2E2E2E2E2E2E2E2E2E2E2E2E2E2E2E2E2E2E2E2E2E2E2E2E2E2E2E2E2E2E2E2E2E2E2E2E2E2E2E2E2E2E2E2E2E2E2E2E2E2E2E2E2E2E2E2E2E2E2E2E2E2E2E2E2E2E2E2E2E2E2E2E2E2E2E2E2E2E2E2E2E2E2E2
310
E2E2E2E2E2E2E2E2E2E2E2E2E2E2E2E2E2E2E2E2E2E2E2E2E2E2E2E2E2E2E2F5E2E2E2F5F5E2E2E2F5E2E2E2E2E2E2E2E2E2E2E2E2E2E2E2E2E2E2E2E2E2E2E2E2E2E2E2E2E2E2E2E2E2E2E2E2E2E2E2E2E2E2E2E2E2E2E2E2E2E2E2E2E2E2E2E2E2E2E2E2E2E2E2E2E2E2E2E2E2E2E2E2E2E2E2E2E2E2E2E2E2E2E2E2E2E2
310
E2E2E2E2E2E2E2E2E2E2E2E2E2E2E2E2E2E2E2E2E2E2E2E2E2E2E2E2E2E2E2E2E2E2E2E2E2E2E2E2E2E2E2E2E2E2E2E2E2E2E2E2E2E2E2E2E2E2E2E2E2E2E2E2E2E2E2E2E2E2E2E2E2E2E2E2E2E2E2E2E2E2E2E2F5E2E2E2F5F5E2E2E2F5E2E2E2E2E2E2E2E2E2E2E2E2E2E2E2E2E2E2E2E2E2E2E2E2E2E2E2E2E2E2E2E2E2
310
E2E2E2E2E2E2E2E2E2E2E2E2E2E2E2E2E2E2E2E2E2E2E2E2E2E2E2E2E2E2E2E2E2E2E2E2E2E2E2E2E2E2E2E2E2E2E2E2E2E2E2E2E2E2E2E2E2E2E2E2E2E2E2E2E2E2E2E2E2E2E2E2E2E2E2E2E2E2E2E2E2E2E2E2E2E2E2E2E2E2E2E2E2E2E2E2E2E2E2E2E2E2E2E2E2E2E2E2E2E2E2E2E2E2E2E2E2E2E2E2E2E2E2E2E2E2E2
310
E2E2E2E2E2E2E2E2E2E2F5E2E2E2F5F5E2E2E2F5E2E2E2E2E2E2E2E2E2E2E2E2E2E2E2E2E2E2E2E2E2E2E2E2E2E2E2E2E2E2E2E2E2E2E2E2E2E2E2E2E2E2E2E2E2E2E2E2E2E2E2E2E2E2E2E2E2E2E2E2E2E2E2E2E2E2E2E2E2E2E2E2E2E2E2E2E2E2E2E2E2E2E2E2E2E2E2E2E2E2E2E2E2E2E2E2E2E2E2E2E2E2E2E2E2E2E2
310
E2E2E2E2E2E2E2E2E2E2E2E2E2E2E2E2E2E2E2E2E2E2E2E2E2E2E2E2E2E2E2E2E2E2E2E2E2E2E2E2E2E2E2E2E2E2E2E2E2E2E2E2E2E2E2E2E2E2E2E2E2E2E2F5E2E2E2F5F5E2E2E2F5E2E2E2E2E2E2E2E2E2E2E2E2E2E2E2E2E2E2E2E2E2E2E2E2E2E2E2E2E2E2E2E2E2E2E2E2E2E2E2E2E2E2E2E2E2E2E2E2E2E2E2E2E2E2
310
E2E2E2E2E2E2E2E2E2E2E2E2E2E2E2E2E2E2E2E2E2E2E2E2E2E2E2E2E2E2E2E2E2E2E2E2E2E2E2E2E2E2E2E2E2E2E2E2E2E2E2E2E2E2E2E2E2E2E2E2E2E2E2E2E2E2E2E2E2E2E2E2E2E2E2E2E2E2E2E2E2E2E2E2E2E2E2E2E2E2E2E2E2E2E2E2E2E2E2E2E2E2E2E2E2E2E2E2E2E2E2E2E2E2E2E2F5E2E2E2F5F5E2E2E2F5E2
310
E2E2E2E2E2E2E2E2E2E2E2E2E2E2E2E2E2E2E2E2E2E2E2E2E2E2E2E2E2E2E2E2E2E2E2E2E2E2E2E2E2E2E2E2E2E2E2E2E2E2E2E2E2E2E2E2E2E2E2E2E2E2E2E2E2E2E2E2E2E2E2E2E2E2E2E2E2E2E2E2E2E2E2E2E2E2E2E2E2E2E2E2E2E2E2E2E2E2E2E2E2E2E2E2E2E2E2E2E2E2E2E2E2E2E2E2E2E2E2E2E2E2E2E2E2E2E2
310
E2E2E2E2E2E2E2E2E2E2E2E2E2E2E2E2E2E2E2E2E2E2E2E2E2E2E2E2E2E2E2E2E2E2E2E2E2E2E2E2E2E2F5E2E2E2F5F5E2E2E2F5E2E2E2E2E2E2E2E2E2E2E2E2E2E2E2E2E2E2E2E2E2E2E2E2E2E2E2E2E2E2E2E2E2E2E2E2E2E2E2E2E2E2E2E2E2E2E2E2E2E2E2E2E2E2E2E2E2E2E2E2E2E2E2E2E2E2E2E2E2E2E2E2E2E2E2
310
E2E2E2E2E2E2E2E2E2E2E2E2E2E2E2E2E2E2E2E2E2E2E2E2E2E2E2E2E2E2E2E2E2E2E2E2E2E2E2E2E2E2E2E2E2E2E2E2E2E2E2E2E2E2E2E2E2E2E2E2E2E2E2E2E2E2E2E2E2E2E2E2E2E2E2E2E2E2E2E2E2E2E2E2E2E2E2E2E2E2E2E2E2E2E2F5E2E2E2F5F5E2E2E2F5E2E2E2E2E2E2E2E2E2E2E2E2E2E2E2E2E2E2E2E2E2E2
310
E2E2E2E2E2E2E2E2E2E2E2E2E2E2E2E2E2E2E2E2E2E2E2E2E2E2E2E2E2E2E2E2E2E2E2E2E2E2E2E2E2E2E2E2E2E2E2E2E2E2E2E2E2E2E2E2E2E2E2E2E2E2E2E2E2E2E2E2E2E2E2E2E2E2E2E2E2E2E2E2E2E2E2E2E2E2E2E2E2E2E2E2E2E2E2E2E2E2E2E2E2E2E2E2E2E2E2E2E2E2E2E2E2E2E2E2E2E2E2E2E2E2E2E2E2E2E2
310
E2E2E2E2E2E2E2E2E2E2E2E2E2E2E2E2E2E2E2E2E2F5E2E2E2F5F5E2E2E2E2E2E2E2E2E2E2E2E2E2E2E2E2E2E2E2E2E2E2E2E2E2E2E2E2E2E2E2E2E2E2E2E2E2E2E2E2E2E2E2E2E2E2E2E2E2E2E2E2E2E2E2E2E2E2E2E2E2E2E2E2E2E2E2E2E2E2E2E2E2E2E2E2E2E2E2E2E2E2E2E2E2E2E2E2E2E2E2E2E2E2E2E2E2E2E2E2
310
E2E2E2E2E2E2E2E2E2E2E2E2E2E2E2E2E2E2E2E2E2E2E2E2E2E2E2E2E2E2E2E2E2E2E2E2E2E2E2E2E2E2E2E2E2E2E2E2E2E2E2E2E2E2E2E2E2E2E2E2E2E2E2E2E2E2E2E2E2E2E2E2E2E2E2E2E2E2F5F5E2E2E2E2E2E2E2E2E2E2E2E2E2E2E2E2E2E2E2E2E2E2E2E2E2E2E2E2E2E2E2E2E2E2E2E2E2E2E2E2E2E2E2E2E2E2E2
310
E2E2E2E2E2E2E2E2E2E2E2E2E2E2E2E2E2E2E2E2E2E2E2E2E2E2E2E2E2E2E2E2E2E2E2E2E2E2E2E2E2E2E2E2E2E2E2E2E2E2E2E2E2E2E2E2E2E2E2E2E2E2E2E2E2E2E2E2E2E2E2E2E2E2E2E2E2E2E2E2E2E2E2E2E2E2E2E2E2E2E2E2E2E2E2E2E2E2E2E2E2E2E2E2E2E2E2E2E2E2E2E2E2E2E2E2E2E2E2E2E2E2E2E2E2E2E2
310
E2E2E2E2F5F5E2E2E2E2E2E2E2E2E2E2E2E2E2E2E2E2E2E2E2E2E2E2E2E2E2E2E2E2E2E2E2E2E2E2E2E2E2E2E2E2E2E2E2E2E2E2E2E2E2E2E2E2E2E2E2E2E2E2E2E2E2E2E2E2E2E2E2E2E2E2E2E2E2E2E2E2E2E2E2E2E2E2E2E2E2E2E2E2E2E2E2E2E2E2E2E2E2E2E2E2E2E2E2E2E2E2E2E2E2E2E2E2E2E2E2E2E2E2E2E2E2
310
E2E2E2E2E2E2E2E2E2E2E2E2E2E2E2E2E2E2E2E2E2E2E2E2E2E2E2E2E2E2E2E2E2E2E2E2E2E2E2E2E2E2E2E2E2E2E2E2E2E2E2E2E2E2E2E2E2F5F5E2E2E2E2E2E2E2E2E2E2E2E2E2E2E2E2E2E2E2E2E2E2E2E2E2E2E2E2E2E2E2E2E2E2E2E2E2E2E2E2E2E2E2E2E2E2E2E2E2E2E2E2E2E2E2E2E2E2E2E2E2E2E2E2E2E2E2E2
310
E2E2E2E2E2E2E2E2E2E2E2E2E2E2E2E2E2E2E2E2E2E2E2E2E2E2E2E2E2E2E2E2E2E2E2E2E2E2E2E2E2E2E2E2E2E2E2E2E2E2E2E2E2E2E2E2E2E2E2E2E2E2E2E2E2E2E2E2E2E2E2E2E2E2E2E2E2E2E2E2E2E2E2E2E2E2E2E2E2E2E2E2E2E2E2E2E2E2E2E2E2E2E2E2E2E2E2E2E2E2F5F5E2E2E2E2E2E2E2E2E2E2E2E2E2E2E2
310
E2E2E2E2E2E2E2E2E2E2E2E2E2E2E2E2E2E2E2E2E2E2E2E2E2E2E2E2E2E2E2E2E2E2E2E2E2E2E2E2E2E2E2E2E2E2E2E2E2E2E2E2E2E2E2E2E2E2E2E2E2E2E2E2E2E2E2E2E2E2E2E2E2E2E2E2E2E2E2E2E2E2E2E2E2E2E2E2E2E2E2E2E2E2E2E2E2E2E2E2E2E2E2E2E2E2E2E2E2E2E2E2E2E2E2E2E2E2E2E2E2E2E2E2E2E2E2
310
E2E2E2E2E2E2E2E2E2E2E2E2E2E2E2E2E2E2E2E2E2E2E2E2E2E2E2E2E2E2E2E2E2E2E2E2F5F5E2E2E2E2E2E2E2E2E2E2E2E2E2E2E2E2E2E2E2E2E2E2E2E2E2E2E2E2E2E2E2E2E2E2E2E2E2E2E2E2E2E2E2E2E2E2E2E2E2E2E2E2E2E2E2E2E2E2E2E2E2E2E2E2E2E2E2E2E2E2E2E2E2E2E2E2E2E2E2E2E2E2E2E2E2E2E2E2E2
310
E2E2E2E2E2E2E2E2E2E2E2E2E2E2E2E2E2E2E2E2E2E2E2E2E2E2E2E2E2E2E2E2E2E2E2E2E2E2E2E2E2E2E2E2E2E2E2E2E2E2E2E2E2E2E2E2E2E2E2E2E2E2E2E2E2E2E2E2E2E2E2E2E2E2E2E2E2E2E2E2E2E2E2E2E2E2E2E2E2F5F5E2E2E2E2E2E2E2E2E2E2E2E2E2E2E2E2E2E2E2E2E2E2E2E2E2E2E2E2E2E2E2E2E2E2E2E2
310
E2E2E2E2E2E2E2E2E2E2E2E2E2E2E2E2E2E2E2E2E2E2E2E2E2E2E2E2E2E2E2E2E2E2E2E2E2E2E2E2E2E2E2E2E2E2E2E2E2E2E2E2E2E2E2E2E2E2E2E2E2E2E2E2E2E2E2E2E2E2E2E2E2E2E2E2E2E2E2E2E2E2E2E2E2E2E2E2E2E2E2E2E2E2E2E2E2E2E2E2E2E2E2E2E2E2E2E2E2E2E2E2E2E2E2E2E2E2E2E2E2E2E2E2E2E2E2
310
E2E2E2E2E2E2E2E2E2E2E2E2E2E2E2F5F5E2E2E2E2E2E2E2E2E2E2E2E2E2E2E2E2E2E2E2E2E2E2E2E2E2E2E2E2E2E2E2E2E2E2E2E2E2E2E2E2E2E2E2E2E2E2E2E2E2E2E2E2E2E2E2E2E2E2E2E2E2E2E2E2E2E2E2E2E2E2E2E2E2E2E2E2E2E2E2E2E2E2E2E2E2E2E2E2E2E2E2E2E2E2E2E2E2E2E2E2E2E2E2E2E2E2E2E2E2E2
310
E2E2E2E2E2E2E2E2E2E2E2E2E2E2E2E2E2E2E2E2E2E2E2E2E2E2E2E2E2E2E2E2E2E2E2E2E2E2E2E2E2E2E2E2E2E2E2E2E2E2E2E2E2E2E2E2E2E2E2E2E2E2E2E2E2E2E2E2F5F5E2E2E2E2E2E2E2E2E2E2E2E2E2E2E2E2E2E2E2E2E2E2E2E2E2E2E2E2E2E2E2E2E2E2E2E2E2E2E2E2E2E2E2E2E2E2E2E2E2E2E2E2E2E2E2E2E2
310
E2E2E2E2E2E2E2E2E2E2E2E2E2E2E2E2E2E2E2E2E2E2E2E2E2E2E2E2E2E2E2E2E2E2E2E2E2E2E2E2E2E2E2E2E2E2E2E2E2E2E2E2E2E2E2E2E2E2E2E2E2E2E2E2E2E2E2E2E2E2E2E2E2E2E2E2E2E2E2E2E2E2E2E2E2E2E2E2E2E2E2E2E2E2E2E2E2E2E2E2E2E2E2E2E2E2E2E2E2E2E2E2E2E2E2E2E2E2E2E2E2F5F5E2E2E2F5
310
E2E2E2E2E2E2E2E2E2E2E2E2E2E2E2E2E2E2E2E2E2E2E2E2E2E2E2E2E2E2E2E2E2E2E2E2E2E2E2E2E2E2E2E2E2E2E2E2E2E2E2E2E2E2E2E2E2E2E2E2E2E2E2E2E2E2E2E2E2E2E2E2E2E2E2E2E2E2E2E2E2E2E2E2E2E2E2E2E2E2E2E2E2E2E2E2E2E2E2E2E2E2E2E2E2E2E2E2E2E2E2E2E2E2E2E2E2E2E2E2E2E2E2E2E2E2E2
310
E2E2E2E2E2E2E2E2E2E2E2E2E2E2E2E2E2E2E2E2E2E2E2E2E2E2E2E2E2E2E2E2E2E2E2E2E2E2E2E2E2E2E2F5E2E2E2F5F5E2E2E2F5E2E2E2E2E2E2E2E2E2E2E2E2E2E2E2E2E2E2E2E2E2E2E2E2E2E2E2E2E2E2E2E2E2E2E2E2E2E2E2E2E2E2E2E2E2E2E2E2E2E2E2E2E2E2E2E2E2E2E2E2E2E2E2E2E2E2E2E2E2E2E2E2E2E2
310
E2E2E2E2E2E2E2E2E2E2E2E2E2E2E2E2E2E2E2E2E2E2E2E2E2E2E2E2E2E2E2E2E2E2E2E2E2E2E2E2E2E2E2E2E2E2E2E2E2E2E2E2E2E2E2E2E2E2E2E2E2E2E2E2E2E2E2E2E2E2E2E2E2E2E2E2E2E2E2E2E2E2E2E2E2E2E2E2E2E2E2E2E2E2E2E2F5E2E2E2F5F5E2E2E2F5E2E2E2E2E2E2E2E2E2E2E2E2E2E2E2E2E2E2E2E2E2
310
E2E2E2E2E2E2E2E2E2E2E2E2E2E2E2E2E2E2E2E2E2E2E2E2E2E2E2E2E2E2E2E2E2E2E2E2E2E2E2E2E2E2E2E2E2E2E2E2E2E2E2E2E2E2E2E2E2E2E2E2E2E2E2E2E2E2E2E2E2E2E2E2E2E2E2E2E2E2E2E2E2E2E2E2E2E2E2E2E2E2E2E2E2E2E2E2E2E2E2E2E2E2E2E2E2E2E2E2E2E2E2E2E2E2E2E2E2E2E2E2E2E2E2E2E2E2E2
310
E2E2E2E2E2E2E2E2E2E2E2E2E2E2E2E2E2E2E2E2E2E2F5E2E2E2F5F5E2E2E2F5E2E2E2E2E2E2E2E2E2E2E2E2E2E2E2E2E2E2E2E2E2E2E2E2E2E2E2E2E2E2E2E2E2E2E2E2E2E2E2E2E2E2E2E2E2E2E2E2E2E2E2E2E2E2E2E2E2E2E2E2E2E2E2E2E2E2E2E2E2E2E2E2E2E2E2E2E2E2E2E2E2E2E2E2E2E2E2E2E2E2E2E2E2E2E2
310
E2E2E2E2E2E2E2E2E2E2E2E2E2E2E2E2E2E2E2E2E2E2E2E2E2E2E2E2E2E2E2E2E2E2E2E2E2E2E2E2E2E2E2E2E2E2E2E2E2E2E2E2E2E2E2E2E2E2E2E2E2E2E2E2E2E2E2E2E2E2E2E2E2E2E2F5E2E2E2F5F5E2E2E2F5E2E2E2E2E2E2E2E2E2E2E2E2E2E2E2E2E2E2E2E2E2E2E2E2E2E2E2E2E2E2E2E2E2E2E2E2E2E2E2E2E2E2
310
E2E2E2E2E2E2E2E2E2E2E2E2E2E2E2E2E2E2E2E2E2E2E2E2E2E2E2E2E2E2E2E2E2E2E2E2E2E2E2E2E2E2E2E2E2E2E2E2E2E2E2E2E2E2E2E2E2E2E2E2E2E2E2E2E2E2E2E2E2E2E2E2E2E2E2E2E2E2E2E2E2E2E2E2E2E2E2E2E2E2E2E2E2E2E2E2E2E2E2E2E2E2E2E2E2E2E2E2E2E2E2E2E2E2E2E2E2E2E2E2E2E2E2E2E2E2E2
310
E2F5E2E2E2F5F5E2E2E2F5E2E2E2E2E2E2E2E2E2E2E2E2E2E2E2E2E2E2E2E2E2E2E2E2E2E2E2E2E2E2E2E2E2E2E2E2E2E2E2E2E2E2E2E2E2E2E2E2E2E2E2E2E2E2E2E2E2E2E2E2E2E2E2E2E2E2E2E2E2E2E2E2E2E2E2E2E2E2E2E2E2E2E2E2E2E2E2E2E2E2E2E2E2E2E2E2E2E2E2E2E2E2E2E2E2E2E2E2E2E2E2E2E2E2E2E2
310
E2E2E2E2E2E2E2E2E2E2E2E2E2E2E2E2E2E2E2E2E2E2E2E2E2E2E2E2E2E2E2E2E2E2E2E2E2E2E2E2E2E2E2E2E2E2E2E2E2E2E2E2E2E2F5E2E2E2F5F5E2E2E2F5E2E2E2E2E2E2E2E2E2E2E2E2E2E2E2E2E2E2E2E2E2E2E2E2E2E2E2E2E2E2E2E2E2E2E2E2E2E2E2E2E2E2E2E2E2E2E2E2E2E2E2E2E2E2E2E2E2E2E2E2E2E2E2
310
E2E2E2E2E2E2E2E2E2E2E2E2E2E2E2E2E2E2E2E2E2E2E2E2E2E2E2E2E2E2E2E2E2E2E2E2E2E2E2E2E2E2E2E2E2E2E2E2E2E2E2E2E2E2E2E2E2E2E2E2E2E2E2E2E2E2E2E2E2E2E2E2E2E2E2E2E2E2E2E2E2E2E2E2E2E2E2E2E2E2E2E2E2E2E2E2E2E2E2E2E2E2E2E2E2E2E2F5E2E2E2F5F5E2E2E2F5E2E2E2E2E2E2E2E2E2E2
310
E2E2E2E2E2E2E2E2E2E2E2E2E2E2E2E2E2E2E2E2E2E2E2E2E2E2E2E2E2E2E2E2E2E2E2E2E2E2E2E2E2E2E2E2E2E2E2E2E2E2E2E2E2E2E2E2E2E2E2E2E2E2E2E2E2E2E2E2E2E2E2E2E2E2E2E2E2E2E2E2E2E2E2E2E2E2E2E2E2E2E2E2E2E2E2E2E2E2E2E2E2E2E2E2E2E2E2E2E2E2E2E2E2E2E2E2E2E2E2E2E2E2E2E2E2E2E2
310
E2E2E2E2E2E2E2E2E2E2E2E2E2E2E2E2E2E2E2E2E2E2E2E2E2E2E2E2E2E2E2E2E2F5E2E2E2F5F5E2E2E2F5F5F5F5F5F5F5F5E2E2E2E2E2E2E2E2E2F5F5F5F5F5F5F5F5F5F5F5F5F5F5F5F5E2E2E2E2E2E2E2E2E2F5F5F5F5F5F5F5F5F5F5F5F5F5F5F5E2E2E2E2E2E2E2E2E2F5F5F5F5F5F5F5F5F5F5F5F5F5F5F5F5E2E2E2
310
E2E2E2E2E2F5F5F5F5F5F5F5F5F5F5F5F5F5F5F5F5E2E2E2E2E2E2E2E2E2F5F5F5F5F5F5F5F5F5F5F5F5F5F5F5E2E2E2E2E2E2E2E2E2F5F5F5F5F5F5F5F5F5F5F5F5F5F5F5F5E2E2E2E2E2E2E2E2E2F5F5F5F5F5F5F5F5E2E2E2F5F5E2E2E2E2E2E2E2E2E2E2E2E2E2E2E2E2E2E2E2E2E2E2E2E2E2E2E2E2E2E2E2E2E2E2E2
310
E2E2E2E2E2E2E2E2E2E2E2E2E2E2E2E2E2E2E2E2E2E2E2E2E2E2E2E2E2E2E2E2E2E2E2E2E2E2E2E2E2E2E2E2E2E2E2E2E2E2E2E2E2E2E2E2E2E2E2E2E2E2E2E2E2E2E2E2E2E2E2E2E2E2E2E2E2E2E2E2E2E2E2E2E2E2E2E2E2E2E2E2E2E2E2E2E2E2E2E2E2E2E2E2E2E2E2E2E2E2E2E2E2E2E2E2E2E2E2E2E2E2E2E2E2E2E2
310
E2E2E2E2E2E2E2E2E2E2E2E2E2E2E2E2F5F5E2E2E2E2E2E2E2E2E2E2E2E2E2E2E2E2E2E2E2E2E2E2E2E2E2E2E2E2E2E2E2E2E2E2E2E2E2E2E2E2E2E2E2E2E2E2E2E2E2E2E2E2E2E2E2E2E2E2E2E2E2E2E2E2E2E2E2E2E2E2E2E2E2E2E2E2E2E2E2E2E2E2E2E2E2E2E2E2E2E2E2E2E2E2E2E2E2E2E2E2E2E2E2E2E2E2E2E2E2
310
E2E2E2E2E2E2E2E2E2E2E2E2E2E2E2E2E2E2E2E2E2E2E2E2E2E2E2E2E2E2E2E2E2E2E2E2E2E2E2E2E2E2E2E2E2E2E2E2E2E2E2E2E2E2E2E2E2E2E2E2E2E2E2E2E2E2E2E2E2F5F5E2E2E2E2E2E2E2E2E2E2E2E2E2E2E2E2E2E2E2E2E2E2E2E2E2E2E2E2E2E2E2E2E2E2E2E2E2E2E2E2E2E2E2E2E2E2E2E2E2E2E2E2E2E2E2E2
310
E2E2E2E2E2E2E2E2E2E2E2E2E2E2E2E2E2E2E2E2E2E2E2E2E2E2E2E2E2E2E2E2E2E2E2E2E2E2E2E2E2E2E2E2E2E2E2E2E2E2E2E2E2E2E2E2E2E2E2E2E2E2E2E2E2E2E2E2E2E2E2E2E2E2E2E2E2E2E2E2E2E2E2E2E2E2E2E2E2E2E2E2E2E2E2E2E2E2E2E2E2E2E2E2E2E2E2E2E2E2E2E2E2E2E2E2E2E2E2E2E2E2F5F5E2E2E2
310
E2E2E2E2E2E2E2E2E2E2E2E2E2E2E2E2E2E2E2E2E2E2E2E2E2E2E2E2E2E2E2E2E2E2E2E2E2E2E2E2E2E2E2E2E2E2E2E2E2E2E2E2E2E2E2E2E2E2E2E2E2E2E2E2E2E2E2E2E2E2E2E2E2E2E2E2E2E2E2E2E2E2E2E2E2E2E2E2E2E2E2E2E2E2E2E2E2E2E2E2E2E2E2E2E2E2E2E2E2E2E2E2E2E2E2E2E2E2E2E2E2E2E2E2E2E2E2
310
E2E2E2E2E2E2E2E2E2E2E2E2E2E2E2E2E2E2E2E2E2E2E2E2E2E2E2E2E2E2E2E2E2E2E2E2E2E2E2E2E2E2E2E2E2E2E2E2F5
  0
XRECORD
  5
444C
102
{ACAD_REACTORS
330
444B
102
}
330
444B
100
AcDbXrecord
280
     1
102
MATERIAL
148
0.0
149
0.0
149
0.0
 93
        0
 94
       63
282
     0
 72
     1
 77
     1
171
     1
175
     1
179
     1
273
     0
  0
XRECORD
  5
444E
102
{ACAD_REACTORS
330
444D
102
}
330
444D
100
AcDbXrecord
280
     1
102
MATERIAL
148
0.0
149
0.0
149
0.0
 93
        0
 94
       63
282
     0
 72
     1
 77
     1
171
     1
175
     1
179
     1
273
     0
  0
XRECORD
  5
4450
102
{ACAD_REACTORS
330
444F
102
}
330
444F
100
AcDbXrecord
280
     1
102
MATERIAL
148
0.0
149
0.0
149
0.0
 93
        0
 94
       63
282
     0
 72
     1
 77
     1
171
     1
175
     1
179
     1
273
     0
  0
CELLSTYLEMAP
  5
444A
102
{ACAD_REACTORS
330
4CB
102
}
330
4CB
100
AcDbCellStyleMap
 90
        3
300
CELLSTYLE
  1
TABLEFORMAT_BEGIN
 90
        5
170
     1
 91
        0
 92
    32768
 62
   257
 93
        1
300
CONTENTFORMAT
  1
CONTENTFORMAT_BEGIN
 90
        0
 91
        0
 92
      512
 93
        0
300

 40
0.0
140
1.0
 94
        5
 62
     0
340
12
144
0.25
309
CONTENTFORMAT_END
171
     0
 94
        0
309
TABLEFORMAT_END
  1
CELLSTYLE_BEGIN
 90
        1
 91
        1
300
_TITLE
309
CELLSTYLE_END
300
CELLSTYLE
  1
TABLEFORMAT_BEGIN
 90
        5
170
     1
 91
        0
 92
        0
 62
   257
 93
        1
300
CONTENTFORMAT
  1
CONTENTFORMAT_BEGIN
 90
        0
 91
        0
 92
      512
 93
        0
300

 40
0.0
140
1.0
 94
        5
 62
     0
340
12
144
0.18
309
CONTENTFORMAT_END
171
     0
 94
        0
309
TABLEFORMAT_END
  1
CELLSTYLE_BEGIN
 90
        2
 91
        1
300
_HEADER
309
CELLSTYLE_END
300
CELLSTYLE
  1
TABLEFORMAT_BEGIN
 90
        5
170
     1
 91
        0
 92
        0
 62
   257
 93
        1
300
CONTENTFORMAT
  1
CONTENTFORMAT_BEGIN
 90
        0
 91
        0
 92
      512
 93
        0
300

 40
0.0
140
1.0
 94
        2
 62
     0
340
12
144
0.18
309
CONTENTFORMAT_END
171
     0
 94
        0
309
TABLEFORMAT_END
  1
CELLSTYLE_BEGIN
 90
        3
 91
        2
300
_DATA
309
CELLSTYLE_END
  0
XRECORD
  5
4451
102
{ACAD_REACTORS
330
4CB
102
}
330
4CB
100
AcDbXrecord
280
     1
102
ACAD_ROUNDTRIP_PRE2007_TABLESTYLE
 90
      512
 91
        0
  1

 92
      512
 93
        0
  2

 94
      512
 95
        0
  3

  0
ENDSEC
  0
EOF
