  0
SECTION
  2
HEADER
  9
$ACADVER
  1
AC1018
  9
$ACADMAINTVER
 70
   104
  9
$DWGCODEPAGE
  3
ANSI_936
  9
$LASTSAVEDBY
  1
dc2015
  9
$INSBASE
 10
0.0
 20
0.0
 30
0.0
  9
$EXTMIN
 10
12.53685332102032
 20
7.556408664642276
 30
0.0
  9
$EXTMAX
 10
892.5368533210203
 20
597.5564086646425
 30
0.0
  9
$LIMMIN
 10
0.0
 20
0.0
  9
$LIMMAX
 10
420.0
 20
297.0
  9
$ORTHOMODE
 70
     0
  9
$REGENMODE
 70
     1
  9
$FILLMODE
 70
     1
  9
$QTEXTMODE
 70
     0
  9
$MIRRTEXT
 70
     0
  9
$LTSCALE
 40
0.5
  9
$ATTMODE
 70
     1
  9
$TEXTSIZE
 40
2.5
  9
$TRACEWID
 40
1.0
  9
$TEXTSTYLE
  7
Standard
  9
$CLAYER
  8
zhonxingxian
  9
$CELTYPE
  6
ByLayer
  9
$CECOLOR
 62
   256
  9
$CELTSCALE
 40
1.0
  9
$DISPSILH
 70
     0
  9
$DIMSCALE
 40
1.0
  9
$DIMASZ
 40
10.0
  9
$DIMEXO
 40
0.0625
  9
$DIMDLI
 40
0.38
  9
$DIMRND
 40
0.0
  9
$DIMDLE
 40
0.0
  9
$DIMEXE
 40
0.18
  9
$DIMTP
 40
0.0
  9
$DIMTM
 40
0.0
  9
$DIMTXT
 40
7.5
  9
$DIMCEN
 40
0.2
  9
$DIMTSZ
 40
0.0
  9
$DIMTOL
 70
     0
  9
$DIMLIM
 70
     0
  9
$DIMTIH
 70
     0
  9
$DIMTOH
 70
     0
  9
$DIMSE1
 70
     0
  9
$DIMSE2
 70
     0
  9
$DIMTAD
 70
     1
  9
$DIMZIN
 70
     0
  9
$DIMBLK
  1

  9
$DIMASO
 70
     1
  9
$DIMSHO
 70
     1
  9
$DIMPOST
  1
mm
  9
$DIMAPOST
  1
"
  9
$DIMALT
 70
     1
  9
$DIMALTD
 70
     2
  9
$DIMALTF
 40
0.03937
  9
$DIMLFAC
 40
1.0
  9
$DIMTOFL
 70
     0
  9
$DIMTVP
 40
0.0
  9
$DIMTIX
 70
     0
  9
$DIMSOXD
 70
     0
  9
$DIMSAH
 70
     0
  9
$DIMBLK1
  1

  9
$DIMBLK2
  1

  9
$DIMSTYLE
  2
mm
  9
$DIMCLRD
 70
     0
  9
$DIMCLRE
 70
     0
  9
$DIMCLRT
 70
     0
  9
$DIMTFAC
 40
1.0
  9
$DIMGAP
 40
5.0
  9
$DIMJUST
 70
     0
  9
$DIMSD1
 70
     0
  9
$DIMSD2
 70
     0
  9
$DIMTOLJ
 70
     1
  9
$DIMTZIN
 70
     0
  9
$DIMALTZ
 70
     0
  9
$DIMALTTZ
 70
     0
  9
$DIMUPT
 70
     0
  9
$DIMDEC
 70
     0
  9
$DIMTDEC
 70
     0
  9
$DIMALTU
 70
     2
  9
$DIMALTTD
 70
     2
  9
$DIMTXSTY
  7
Standard
  9
$DIMAUNIT
 70
     0
  9
$DIMADEC
 70
     0
  9
$DIMALTRND
 40
0.0
  9
$DIMAZIN
 70
     0
  9
$DIMDSEP
 70
    46
  9
$DIMATFIT
 70
     3
  9
$DIMFRAC
 70
     0
  9
$DIMLDRBLK
  1

  9
$DIMLUNIT
 70
     2
  9
$DIMLWD
 70
    -2
  9
$DIMLWE
 70
    -2
  9
$DIMTMOVE
 70
     0
  9
$LUNITS
 70
     2
  9
$LUPREC
 70
     4
  9
$SKETCHINC
 40
1.0
  9
$FILLETRAD
 40
15.0
  9
$AUNITS
 70
     0
  9
$AUPREC
 70
     0
  9
$MENU
  1
.
  9
$ELEVATION
 40
0.0
  9
$PELEVATION
 40
0.0
  9
$THICKNESS
 40
0.0
  9
$LIMCHECK
 70
     0
  9
$CHAMFERA
 40
0.0
  9
$CHAMFERB
 40
0.0
  9
$CHAMFERC
 40
0.0
  9
$CHAMFERD
 40
0.0
  9
$SKPOLY
 70
     0
  9
$TDCREATE
 40
2459779.749085648
  9
$TDUCREATE
 40
2459779.415752315
  9
$TDUPDATE
 40
2459788.580601852
  9
$TDUUPDATE
 40
2459788.247268519
  9
$TDINDWG
 40
1.6145138889
  9
$TDUSRTIMER
 40
1.6145138889
  9
$USRTIMER
 70
     1
  9
$ANGBASE
 50
0.0
  9
$ANGDIR
 70
     0
  9
$PDMODE
 70
     0
  9
$PDSIZE
 40
0.0
  9
$PLINEWID
 40
0.0
  9
$SPLFRAME
 70
     0
  9
$SPLINETYPE
 70
     6
  9
$SPLINESEGS
 70
     8
  9
$HANDSEED
  5
1985
  9
$SURFTAB1
 70
     6
  9
$SURFTAB2
 70
     6
  9
$SURFTYPE
 70
     6
  9
$SURFU
 70
     6
  9
$SURFV
 70
     6
  9
$UCSBASE
  2

  9
$UCSNAME
  2

  9
$UCSORG
 10
0.0
 20
0.0
 30
0.0
  9
$UCSXDIR
 10
1.0
 20
0.0
 30
0.0
  9
$UCSYDIR
 10
0.0
 20
1.0
 30
0.0
  9
$UCSORTHOREF
  2

  9
$UCSORTHOVIEW
 70
     0
  9
$UCSORGTOP
 10
0.0
 20
0.0
 30
0.0
  9
$UCSORGBOTTOM
 10
0.0
 20
0.0
 30
0.0
  9
$UCSORGLEFT
 10
0.0
 20
0.0
 30
0.0
  9
$UCSORGRIGHT
 10
0.0
 20
0.0
 30
0.0
  9
$UCSORGFRONT
 10
0.0
 20
0.0
 30
0.0
  9
$UCSORGBACK
 10
0.0
 20
0.0
 30
0.0
  9
$PUCSBASE
  2

  9
$PUCSNAME
  2

  9
$PUCSORG
 10
0.0
 20
0.0
 30
0.0
  9
$PUCSXDIR
 10
1.0
 20
0.0
 30
0.0
  9
$PUCSYDIR
 10
0.0
 20
1.0
 30
0.0
  9
$PUCSORTHOREF
  2

  9
$PUCSORTHOVIEW
 70
     0
  9
$PUCSORGTOP
 10
0.0
 20
0.0
 30
0.0
  9
$PUCSORGBOTTOM
 10
0.0
 20
0.0
 30
0.0
  9
$PUCSORGLEFT
 10
0.0
 20
0.0
 30
0.0
  9
$PUCSORGRIGHT
 10
0.0
 20
0.0
 30
0.0
  9
$PUCSORGFRONT
 10
0.0
 20
0.0
 30
0.0
  9
$PUCSORGBACK
 10
0.0
 20
0.0
 30
0.0
  9
$USERI1
 70
     0
  9
$USERI2
 70
     0
  9
$USERI3
 70
     0
  9
$USERI4
 70
     0
  9
$USERI5
 70
     0
  9
$USERR1
 40
0.0
  9
$USERR2
 40
0.0
  9
$USERR3
 40
0.0
  9
$USERR4
 40
0.0
  9
$USERR5
 40
0.0
  9
$WORLDVIEW
 70
     1
  9
$SHADEDGE
 70
     3
  9
$SHADEDIF
 70
    70
  9
$TILEMODE
 70
     1
  9
$MAXACTVP
 70
    64
  9
$PINSBASE
 10
0.0
 20
0.0
 30
0.0
  9
$PLIMCHECK
 70
     0
  9
$PEXTMIN
 10
0.0
 20
0.0
 30
0.0
  9
$PEXTMAX
 10
0.0
 20
0.0
 30
0.0
  9
$PLIMMIN
 10
0.0
 20
0.0
  9
$PLIMMAX
 10
12.0
 20
9.0
  9
$UNITMODE
 70
     0
  9
$VISRETAIN
 70
     1
  9
$PLINEGEN
 70
     0
  9
$PSLTSCALE
 70
     1
  9
$TREEDEPTH
 70
  3020
  9
$CMLSTYLE
  2
Standard
  9
$CMLJUST
 70
     0
  9
$CMLSCALE
 40
20.0
  9
$PROXYGRAPHICS
 70
     1
  9
$MEASUREMENT
 70
     1
  9
$CELWEIGHT
370
   100
  9
$ENDCAPS
280
     0
  9
$JOINSTYLE
280
     0
  9
$LWDISPLAY
290
     0
  9
$INSUNITS
 70
     4
  9
$HYPERLINKBASE
  1

  9
$STYLESHEET
  1

  9
$XEDIT
290
     1
  9
$CEPSNTYPE
380
     0
  9
$PSTYLEMODE
290
     1
  9
$FINGERPRINTGUID
  2
{33A91832-EA13-9D4D-911B-4DC6E06B4099}
  9
$VERSIONGUID
  2
{3CD28D03-3ECE-7A43-AAAC-7B78C2E79831}
  9
$EXTNAMES
290
     1
  9
$PSVPSCALE
 40
0.0
  9
$OLESTARTUP
290
     0
  9
$SORTENTS
280
   127
  9
$INDEXCTL
280
     0
  9
$HIDETEXT
280
     1
  9
$XCLIPFRAME
290
     0
  9
$HALOGAP
280
     0
  9
$OBSCOLOR
 70
   257
  9
$OBSLTYPE
280
     0
  9
$INTERSECTIONDISPLAY
280
     0
  9
$INTERSECTIONCOLOR
 70
   257
  9
$DIMASSOC
280
     2
  9
$PROJECTNAME
  1

  0
ENDSEC
  0
SECTION
  2
CLASSES
  0
CLASS
  1
ACDBDICTIONARYWDFLT
  2
AcDbDictionaryWithDefault
  3
ObjectDBX Classes
 90
        0
 91
        1
280
     0
281
     0
  0
CLASS
  1
DICTIONARYVAR
  2
AcDbDictionaryVar
  3
ObjectDBX Classes
 90
        0
 91
       16
280
     0
281
     0
  0
CLASS
  1
TABLESTYLE
  2
AcDbTableStyle
  3
ObjectDBX Classes
 90
     4095
 91
        1
280
     0
281
     0
  0
CLASS
  1
MATERIAL
  2
AcDbMaterial
  3
ObjectDBX Classes
 90
     1153
 91
        3
280
     0
281
     0
  0
CLASS
  1
VISUALSTYLE
  2
AcDbVisualStyle
  3
ObjectDBX Classes
 90
     4095
 91
       24
280
     0
281
     0
  0
CLASS
  1
SCALE
  2
AcDbScale
  3
ObjectDBX Classes
 90
     1153
 91
       17
280
     0
281
     0
  0
CLASS
  1
MLEADERSTYLE
  2
AcDbMLeaderStyle
  3
ACDB_MLEADERSTYLE_CLASS
 90
     4095
 91
        2
280
     0
281
     0
  0
CLASS
  1
CELLSTYLEMAP
  2
AcDbCellStyleMap
  3
ObjectDBX Classes
 90
     1152
 91
        4
280
     0
281
     0
  0
CLASS
  1
EXACXREFPANELOBJECT
  2
ExAcXREFPanelObject
  3
EXAC_ESW
 90
     1025
 91
        0
280
     0
281
     0
  0
CLASS
  1
NPOCOLLECTION
  2
AcDbImpNonPersistentObjectsCollection
  3
ObjectDBX Classes
 90
     1153
 91
        0
280
     0
281
     0
  0
CLASS
  1
LAYER_INDEX
  2
AcDbLayerIndex
  3
ObjectDBX Classes
 90
        0
 91
        0
280
     0
281
     0
  0
CLASS
  1
SPATIAL_INDEX
  2
AcDbSpatialIndex
  3
ObjectDBX Classes
 90
        0
 91
        0
280
     0
281
     0
  0
CLASS
  1
IDBUFFER
  2
AcDbIdBuffer
  3
ObjectDBX Classes
 90
        0
 91
        0
280
     0
281
     0
  0
CLASS
  1
ACDBSECTIONVIEWSTYLE
  2
AcDbSectionViewStyle
  3
ObjectDBX Classes
 90
     1025
 91
        1
280
     0
281
     0
  0
CLASS
  1
ACDBDETAILVIEWSTYLE
  2
AcDbDetailViewStyle
  3
ObjectDBX Classes
 90
     1025
 91
        1
280
     0
281
     0
  0
CLASS
  1
DIMASSOC
  2
AcDbDimAssoc
  3
"AcDbDimAssoc|Product Desc:     AcDim ARX App For Dimension|Company:          Autodesk, Inc.|WEB Address:      www.autodesk.com"
 90
        0
 91
       35
280
     0
281
     0
  0
CLASS
  1
SORTENTSTABLE
  2
AcDbSortentsTable
  3
ObjectDBX Classes
 90
        0
 91
        3
280
     0
281
     0
  0
CLASS
  1
ACDB_ALDIMOBJECTCONTEXTDATA_CLASS
  2
AcDbAlignedDimensionObjectContextData
  3
ObjectDBX Classes
 90
     1153
 91
        2
280
     0
281
     0
  0
CLASS
  1
ACDBASSOCNETWORK
  2
AcDbAssocNetwork
  3
ObjectDBX Classes
 90
     1025
 91
        2
280
     0
281
     0
  0
CLASS
  1
ACDBASSOCACTION
  2
AcDbAssocAction
  3
ObjectDBX Classes
 90
     1025
 91
        1
280
     0
281
     0
  0
CLASS
  1
ACDBASSOCROTATEDDIMACTIONBODY
  2
AcDbAssocRotatedDimActionBody
  3
ObjectDBX Classes
 90
     1025
 91
        1
280
     0
281
     0
  0
CLASS
  1
ACDBASSOCOSNAPPOINTREFACTIONPARAM
  2
AcDbAssocOsnapPointRefActionParam
  3
ObjectDBX Classes
 90
     1025
 91
        2
280
     0
281
     0
  0
CLASS
  1
ACDBASSOCEDGEACTIONPARAM
  2
AcDbAssocEdgeActionParam
  3
ObjectDBX Classes
 90
     1025
 91
        4
280
     0
281
     0
  0
CLASS
  1
ACDBASSOCGEOMDEPENDENCY
  2
AcDbAssocGeomDependency
  3
ObjectDBX Classes
 90
     1025
 91
        4
280
     0
281
     0
  0
CLASS
  1
ACDBASSOCDEPENDENCY
  2
AcDbAssocDependency
  3
ObjectDBX Classes
 90
     1025
 91
        1
280
     0
281
     0
  0
ENDSEC
  0
SECTION
  2
TABLES
  0
TABLE
  2
VPORT
  5
8
330
0
100
AcDbSymbolTable
 70
     1
  0
VPORT
  5
EA
330
8
100
AcDbSymbolTableRecord
100
AcDbViewportTableRecord
  2
*Active
 70
     0
 10
0.0
 20
0.0
 11
1.0
 21
1.0
 12
650.080798583971
 22
292.7372522793645
 13
0.0
 23
0.0
 14
10.0
 24
10.0
 15
10.0
 25
10.0
 16
0.0
 26
0.0
 36
1.0
 17
0.0
 27
0.0
 37
0.0
 40
589.9936348907296
 41
1.439024390243902
 42
50.0
 43
0.0
 44
0.0
 50
0.0
 51
0.0
 71
     0
 72
  1000
 73
     1
 74
     3
 75
     0
 76
     1
 77
     0
 78
     0
281
     0
 65
     1
110
0.0
120
0.0
130
0.0
111
1.0
121
0.0
131
0.0
112
0.0
122
1.0
132
0.0
 79
     0
146
0.0
1001
ACAD_NAV_VCDISPLAY
1070
     3
  0
ENDTAB
  0
TABLE
  2
LTYPE
  5
5
330
0
100
AcDbSymbolTable
 70
     5
  0
LTYPE
  5
14
330
5
100
AcDbSymbolTableRecord
100
AcDbLinetypeTableRecord
  2
ByBlock
 70
     0
  3

 72
    65
 73
     0
 40
0.0
  0
LTYPE
  5
15
330
5
100
AcDbSymbolTableRecord
100
AcDbLinetypeTableRecord
  2
ByLayer
 70
     0
  3

 72
    65
 73
     0
 40
0.0
  0
LTYPE
  5
16
330
5
100
AcDbSymbolTableRecord
100
AcDbLinetypeTableRecord
  2
Continuous
 70
     0
  3
Solid line
 72
    65
 73
     0
 40
0.0
  0
LTYPE
  5
2AE
330
5
100
AcDbSymbolTableRecord
100
AcDbLinetypeTableRecord
  2
ACAD_ISO03W100
 70
     0
  3
ISO dash space __    __    __    __    __    __
 72
    65
 73
     2
 40
30.0
 49
12.0
 74
     0
 49
-18.0
 74
     0
  0
LTYPE
  5
D7C
330
5
100
AcDbSymbolTableRecord
100
AcDbLinetypeTableRecord
  2
ACAD_ISO04W100
 70
     0
  3
ISO long-dash dot ____ . ____ . ____ . ____ . _
 72
    65
 73
     4
 40
30.0
 49
24.0
 74
     0
 49
-3.0
 74
     0
 49
0.0
 74
     0
 49
-3.0
 74
     0
  0
ENDTAB
  0
TABLE
  2
LAYER
  5
2
102
{ACAD_XDICTIONARY
360
1FF
102
}
330
0
100
AcDbSymbolTable
 70
     5
  0
LAYER
  5
10
102
{ACAD_XDICTIONARY
360
13C
102
}
330
2
100
AcDbSymbolTableRecord
100
AcDbLayerTableRecord
  2
0
 70
     0
 62
     7
  6
Continuous
370
    -3
390
F
  0
LAYER
  5
2AF
330
2
100
AcDbSymbolTableRecord
100
AcDbLayerTableRecord
  2
Defpoints
 70
     0
 62
     7
  6
Continuous
290
     0
370
    -3
390
F
  0
LAYER
  5
2B0
330
2
100
AcDbSymbolTableRecord
100
AcDbLayerTableRecord
  2
axis
 70
     0
 62
     7
  6
Continuous
370
    -3
390
F
1001
AcAecLayerStandard
1000

1000

1001
AcCmTransparency
1071
        0
  0
LAYER
  5
2B1
330
2
100
AcDbSymbolTableRecord
100
AcDbLayerTableRecord
  2
xuxian
 70
     0
 62
     7
  6
ACAD_ISO03W100
370
    -3
390
F
1001
AcAecLayerStandard
1000

1000

1001
AcCmTransparency
1071
        0
  0
LAYER
  5
F63
330
2
100
AcDbSymbolTableRecord
100
AcDbLayerTableRecord
  2
zhonxingxian
 70
     0
 62
     7
  6
Continuous
370
    -3
390
F
1001
AcAecLayerStandard
1000

1000

1001
AcCmTransparency
1071
        0
  0
ENDTAB
  0
TABLE
  2
STYLE
  5
3
330
0
100
AcDbSymbolTable
 70
     3
  0
STYLE
  5
11
330
3
100
AcDbSymbolTableRecord
100
AcDbTextStyleTableRecord
  2
Standard
 70
     0
 40
0.0
 41
1.0
 50
0.0
 71
     0
 42
2.5
  3
arial.ttf
  4

1001
ACAD
1000
Arial
1071
       34
  0
STYLE
  5
132
330
3
100
AcDbSymbolTableRecord
100
AcDbTextStyleTableRecord
  2
Annotative
 70
     0
 40
0.0
 41
1.0
 50
0.0
 71
     0
 42
2.5
  3
arial.ttf
  4

1001
AcadAnnotative
1000
AnnotativeData
1002
{
1070
     1
1070
     1
1002
}
1001
ACAD
1000
Arial
1071
       34
  0
STYLE
  5
D7B
330
3
100
AcDbSymbolTableRecord
100
AcDbTextStyleTableRecord
  2

 70
     1
 40
0.0
 41
1.0
 50
0.0
 71
     0
 42
2.5
  3
ltypeshp.shx
  4

  0
ENDTAB
  0
TABLE
  2
VIEW
  5
6
330
0
100
AcDbSymbolTable
 70
     4
  0
ENDTAB
  0
TABLE
  2
UCS
  5
7
330
0
100
AcDbSymbolTable
 70
     0
  0
ENDTAB
  0
TABLE
  2
APPID
  5
9
330
0
100
AcDbSymbolTable
 70
    14
  0
APPID
  5
12
330
9
100
AcDbSymbolTableRecord
100
AcDbRegAppTableRecord
  2
ACAD
 70
     0
  0
APPID
  5
9E
330
9
100
AcDbSymbolTableRecord
100
AcDbRegAppTableRecord
  2
ACAD_PSEXT
 70
     0
  0
APPID
  5
133
330
9
100
AcDbSymbolTableRecord
100
AcDbRegAppTableRecord
  2
AcadAnnoPO
 70
     0
  0
APPID
  5
134
330
9
100
AcDbSymbolTableRecord
100
AcDbRegAppTableRecord
  2
AcadAnnotative
 70
     0
  0
APPID
  5
135
330
9
100
AcDbSymbolTableRecord
100
AcDbRegAppTableRecord
  2
ACAD_DSTYLE_DIMJAG
 70
     0
  0
APPID
  5
136
330
9
100
AcDbSymbolTableRecord
100
AcDbRegAppTableRecord
  2
ACAD_DSTYLE_DIMTALN
 70
     0
  0
APPID
  5
165
330
9
100
AcDbSymbolTableRecord
100
AcDbRegAppTableRecord
  2
ACAD_MLEADERVER
 70
     0
  0
APPID
  5
217
330
9
100
AcDbSymbolTableRecord
100
AcDbRegAppTableRecord
  2
ACAD_NAV_VCDISPLAY
 70
     0
  0
APPID
  5
2B3
330
9
100
AcDbSymbolTableRecord
100
AcDbRegAppTableRecord
  2
ACAD_DSTYLE_DIMBREAK
 70
     0
  0
APPID
  5
2B4
330
9
100
AcDbSymbolTableRecord
100
AcDbRegAppTableRecord
  2
AcAecLayerStandard
 70
     0
  0
APPID
  5
2B5
330
9
100
AcDbSymbolTableRecord
100
AcDbRegAppTableRecord
  2
AcCmTransparency
 70
     0
  0
APPID
  5
BFB
330
9
100
AcDbSymbolTableRecord
100
AcDbRegAppTableRecord
  2
ACAD_EXEMPT_FROM_CAD_STANDARDS
 70
     0
  0
APPID
  5
D38
330
9
100
AcDbSymbolTableRecord
100
AcDbRegAppTableRecord
  2
AcadAnnoMonitorAlertIconDisabled
 70
     0
  0
APPID
  5
14D5
330
9
100
AcDbSymbolTableRecord
100
AcDbRegAppTableRecord
  2
ACAD_DSTYLE_DIMRADIAL_EXTENSION
 70
     0
  0
ENDTAB
  0
TABLE
  2
DIMSTYLE
  5
A
330
0
100
AcDbSymbolTable
 70
     5
100
AcDbDimStyleTable
 71
     3
340
2B2
340
27
340
137
  0
DIMSTYLE
105
1B0
330
A
100
AcDbSymbolTableRecord
100
AcDbDimStyleTableRecord
  2
Standard
 70
     0
340
11
  0
DIMSTYLE
105
137
330
A
100
AcDbSymbolTableRecord
100
AcDbDimStyleTableRecord
  2
Annotative
 70
     0
 40
0.0
 41
2.5
 42
0.625
 43
3.75
 44
1.25
 73
     0
 74
     0
 77
     1
 78
     8
140
2.5
141
2.5
143
0.03937007874016
147
0.625
171
     3
172
     1
271
     2
272
     2
274
     3
278
    44
283
     0
284
     8
340
11
1001
AcadAnnotative
1000
AnnotativeData
1002
{
1070
     1
1070
     1
1002
}
1001
ACAD_DSTYLE_DIMJAG
1070
   388
1040
1.5
1001
ACAD_DSTYLE_DIMTALN
1070
   392
1070
     0
  0
DIMSTYLE
105
27
102
{ACAD_REACTORS
330
1414
330
1417
330
1700
330
179D
102
}
330
A
100
AcDbSymbolTableRecord
100
AcDbDimStyleTableRecord
  2
ISO-25
 70
     0
 41
2.5
 42
0.625
 43
3.75
 44
1.25
 77
     1
 78
     8
140
5.0
141
2.5
143
0.03937007874016
147
0.625
171
     3
172
     1
271
     2
272
     2
274
     3
278
    44
283
     0
284
     8
340
11
1001
ACAD_DSTYLE_DIMJAG
1070
   388
1040
1.5
1001
ACAD_DSTYLE_DIMTALN
1070
   392
1070
     0
  0
DIMSTYLE
105
2B2
102
{ACAD_REACTORS
330
160E
330
1626
102
}
330
A
100
AcDbSymbolTableRecord
100
AcDbDimStyleTableRecord
  2
mm
 70
     0
  3
mm
  4
"
 41
10.0
 73
     0
 74
     0
 77
     1
140
7.5
141
0.2
143
0.03937
147
5.0
170
     1
271
     0
272
     0
340
11
1001
ACAD_DSTYLE_DIMBREAK
1070
   391
1040
0.125
1001
ACAD_DSTYLE_DIMJAG
1070
   388
1040
1.5
1001
ACAD_DSTYLE_DIMTALN
1070
   392
1070
     0
  0
ENDTAB
  0
TABLE
  2
BLOCK_RECORD
  5
1
330
0
100
AcDbSymbolTable
 70
    37
  0
BLOCK_RECORD
  5
1F
102
{ACAD_XDICTIONARY
360
1CE
102
}
330
1
100
AcDbSymbolTableRecord
100
AcDbBlockTableRecord
  2
*Model_Space
340
22
  0
BLOCK_RECORD
  5
D2
330
1
100
AcDbSymbolTableRecord
100
AcDbBlockTableRecord
  2
*Paper_Space
340
D3
  0
BLOCK_RECORD
  5
D6
330
1
100
AcDbSymbolTableRecord
100
AcDbBlockTableRecord
  2
*Paper_Space0
340
D7
  0
BLOCK_RECORD
  5
12DF
330
1
100
AcDbSymbolTableRecord
100
AcDbBlockTableRecord
  2
*D1
340
0
  0
BLOCK_RECORD
  5
12EB
330
1
100
AcDbSymbolTableRecord
100
AcDbBlockTableRecord
  2
*D2
340
0
  0
BLOCK_RECORD
  5
12F8
330
1
100
AcDbSymbolTableRecord
100
AcDbBlockTableRecord
  2
*D3
340
0
  0
BLOCK_RECORD
  5
1305
330
1
100
AcDbSymbolTableRecord
100
AcDbBlockTableRecord
  2
*D4
340
0
  0
BLOCK_RECORD
  5
1311
330
1
100
AcDbSymbolTableRecord
100
AcDbBlockTableRecord
  2
*D5
340
0
  0
BLOCK_RECORD
  5
131D
330
1
100
AcDbSymbolTableRecord
100
AcDbBlockTableRecord
  2
*D6
340
0
  0
BLOCK_RECORD
  5
1355
330
1
100
AcDbSymbolTableRecord
100
AcDbBlockTableRecord
  2
*D7
340
0
  0
BLOCK_RECORD
  5
1361
330
1
100
AcDbSymbolTableRecord
100
AcDbBlockTableRecord
  2
*D8
340
0
  0
BLOCK_RECORD
  5
136E
330
1
100
AcDbSymbolTableRecord
100
AcDbBlockTableRecord
  2
*D9
340
0
  0
BLOCK_RECORD
  5
137B
330
1
100
AcDbSymbolTableRecord
100
AcDbBlockTableRecord
  2
*D10
340
0
  0
BLOCK_RECORD
  5
1387
330
1
100
AcDbSymbolTableRecord
100
AcDbBlockTableRecord
  2
*D11
340
0
  0
BLOCK_RECORD
  5
1393
330
1
100
AcDbSymbolTableRecord
100
AcDbBlockTableRecord
  2
*D12
340
0
  0
BLOCK_RECORD
  5
141B
330
1
100
AcDbSymbolTableRecord
100
AcDbBlockTableRecord
  2
*D14
340
0
  0
BLOCK_RECORD
  5
1427
330
1
100
AcDbSymbolTableRecord
100
AcDbBlockTableRecord
  2
*D15
340
0
  0
BLOCK_RECORD
  5
1433
330
1
100
AcDbSymbolTableRecord
100
AcDbBlockTableRecord
  2
*D16
340
0
  0
BLOCK_RECORD
  5
143F
330
1
100
AcDbSymbolTableRecord
100
AcDbBlockTableRecord
  2
*D17
340
0
  0
BLOCK_RECORD
  5
144B
330
1
100
AcDbSymbolTableRecord
100
AcDbBlockTableRecord
  2
*D18
340
0
  0
BLOCK_RECORD
  5
1458
330
1
100
AcDbSymbolTableRecord
100
AcDbBlockTableRecord
  2
*D19
340
0
  0
BLOCK_RECORD
  5
149C
330
1
100
AcDbSymbolTableRecord
100
AcDbBlockTableRecord
  2
*D20
340
0
  0
BLOCK_RECORD
  5
14B4
330
1
100
AcDbSymbolTableRecord
100
AcDbBlockTableRecord
  2
*D21
340
0
  0
BLOCK_RECORD
  5
14D7
330
1
100
AcDbSymbolTableRecord
100
AcDbBlockTableRecord
  2
*D23
340
0
  0
BLOCK_RECORD
  5
14EB
330
1
100
AcDbSymbolTableRecord
100
AcDbBlockTableRecord
  2
*D24
340
0
  0
BLOCK_RECORD
  5
14FF
330
1
100
AcDbSymbolTableRecord
100
AcDbBlockTableRecord
  2
*D25
340
0
  0
BLOCK_RECORD
  5
1513
330
1
100
AcDbSymbolTableRecord
100
AcDbBlockTableRecord
  2
*D26
340
0
  0
BLOCK_RECORD
  5
15F3
330
1
100
AcDbSymbolTableRecord
100
AcDbBlockTableRecord
  2
*D27
340
0
  0
BLOCK_RECORD
  5
160F
330
1
100
AcDbSymbolTableRecord
100
AcDbBlockTableRecord
  2
*D28
340
0
  0
BLOCK_RECORD
  5
1627
330
1
100
AcDbSymbolTableRecord
100
AcDbBlockTableRecord
  2
*D29
340
0
  0
BLOCK_RECORD
  5
16D5
330
1
100
AcDbSymbolTableRecord
100
AcDbBlockTableRecord
  2
*D30
340
0
  0
BLOCK_RECORD
  5
1701
330
1
100
AcDbSymbolTableRecord
100
AcDbBlockTableRecord
  2
*D32
340
0
  0
BLOCK_RECORD
  5
1734
330
1
100
AcDbSymbolTableRecord
100
AcDbBlockTableRecord
  2
*D33
340
0
  0
BLOCK_RECORD
  5
17A1
330
1
100
AcDbSymbolTableRecord
100
AcDbBlockTableRecord
  2
*D34
340
0
  0
BLOCK_RECORD
  5
17B8
330
1
100
AcDbSymbolTableRecord
100
AcDbBlockTableRecord
  2
*D35
340
0
  0
BLOCK_RECORD
  5
17D2
330
1
100
AcDbSymbolTableRecord
100
AcDbBlockTableRecord
  2
*D36
340
0
  0
ENDTAB
  0
ENDSEC
  0
SECTION
  2
BLOCKS
  0
BLOCK
  5
20
330
1F
100
AcDbEntity
  8
0
100
AcDbBlockBegin
  2
*Model_Space
 70
     0
 10
0.0
 20
0.0
 30
0.0
  3
*Model_Space
  1

  0
ENDBLK
  5
21
330
1F
100
AcDbEntity
  8
0
100
AcDbBlockEnd
  0
BLOCK
  5
D4
330
D2
100
AcDbEntity
 67
     1
  8
0
100
AcDbBlockBegin
  2
*Paper_Space
 70
     0
 10
0.0
 20
0.0
 30
0.0
  3
*Paper_Space
  1

  0
ENDBLK
  5
D5
330
D2
100
AcDbEntity
 67
     1
  8
0
100
AcDbBlockEnd
  0
BLOCK
  5
D8
330
D6
100
AcDbEntity
 67
     1
  8
0
100
AcDbBlockBegin
  2
*Paper_Space0
 70
     0
 10
0.0
 20
0.0
 30
0.0
  3
*Paper_Space0
  1

  0
ENDBLK
  5
D9
330
D6
100
AcDbEntity
 67
     1
  8
0
100
AcDbBlockEnd
  0
BLOCK
  5
12E0
330
12DF
100
AcDbEntity
  8
0
100
AcDbBlockBegin
  2
*D1
 70
     1
 10
0.0
 20
0.0
 30
0.0
  3
*D1
  1

  0
LINE
  5
12E2
330
12DF
100
AcDbEntity
  8
axis
 62
     0
440
 16777216
370
    -2
100
AcDbLine
 10
552.3279888472863
 20
418.8648001082817
 30
0.0
 11
552.4657633775129
 21
418.8648001082817
 31
0.0
  0
LINE
  5
12E3
330
12DF
100
AcDbEntity
  8
axis
 62
     0
440
 16777216
370
    -2
100
AcDbLine
 10
552.3279888472863
 20
158.8648001082816
 30
0.0
 11
552.4657633775131
 21
158.8648001082816
 31
0.0
  0
LINE
  5
12E4
330
12DF
100
AcDbEntity
  8
axis
 62
     0
440
 16777216
370
    -2
100
AcDbLine
 10
552.285763377513
 20
408.8648001082817
 30
0.0
 11
552.2857633775131
 21
168.8648001082816
 31
0.0
  0
SOLID
  5
12E5
330
12DF
100
AcDbEntity
  8
axis
 62
     0
440
 16777216
100
AcDbTrace
 10
550.6190967108464
 20
408.8648001082817
 30
0.0
 11
553.9524300441796
 21
408.8648001082817
 31
0.0
 12
552.285763377513
 22
418.8648001082817
 32
0.0
 13
552.285763377513
 23
418.8648001082817
 33
0.0
  0
SOLID
  5
12E6
330
12DF
100
AcDbEntity
  8
axis
 62
     0
440
 16777216
100
AcDbTrace
 10
550.6190967108465
 20
168.8648001082816
 30
0.0
 11
553.9524300441797
 21
168.8648001082816
 31
0.0
 12
552.2857633775131
 22
158.8648001082816
 32
0.0
 13
552.2857633775131
 23
158.8648001082816
 33
0.0
  0
MTEXT
  5
12E7
330
12DF
100
AcDbEntity
  8
axis
 62
     0
440
 16777216
100
AcDbMText
 10
542.479317265644
 20
246.2735827827446
 30
0.0
 40
7.5
 41
0.0
 71
     5
 72
     1
  1
\A1;260mm [10.24"]
 11
0.0000000000000001
 21
1.0
 31
0.0
 73
     1
 44
1.0
  0
POINT
  5
12E8
330
12DF
100
AcDbEntity
  8
Defpoints
 62
     0
440
 16777216
100
AcDbPoint
 10
552.2654888472864
 20
418.8648001082817
 30
0.0
  0
POINT
  5
12E9
330
12DF
100
AcDbEntity
  8
Defpoints
 62
     0
440
 16777216
100
AcDbPoint
 10
552.2654888472864
 20
158.8648001082816
 30
0.0
  0
POINT
  5
12EA
330
12DF
100
AcDbEntity
  8
Defpoints
 62
     0
440
 16777216
100
AcDbPoint
 10
552.2857633775131
 20
158.8648001082816
 30
0.0
  0
ENDBLK
  5
12E1
330
12DF
100
AcDbEntity
  8
0
100
AcDbBlockEnd
  0
BLOCK
  5
12EC
330
12EB
100
AcDbEntity
  8
0
100
AcDbBlockBegin
  2
*D2
 70
     1
 10
0.0
 20
0.0
 30
0.0
  3
*D2
  1

  0
LINE
  5
12EE
330
12EB
100
AcDbEntity
  8
axis
 62
     0
440
 16777216
 48
0.2
370
    -2
100
AcDbLine
 10
509.8573740500568
 20
524.8648001082815
 30
0.0
 11
510.4823740500632
 21
524.8648001082815
 31
0.0
  0
LINE
  5
12EF
330
12EB
100
AcDbEntity
  8
axis
 62
     0
440
 16777216
 48
0.2
370
    -2
100
AcDbLine
 10
578.6792625671325
 20
461.3648001082815
 30
0.0
 11
507.9823740500631
 21
461.3648001082815
 31
0.0
  0
LINE
  5
12F0
330
12EB
100
AcDbEntity
  8
axis
 62
     0
440
 16777216
 48
0.2
370
    -2
100
AcDbLine
 10
509.2323740500631
 20
522.3648001082815
 30
0.0
 11
509.2323740500631
 21
497.017426302006
 31
0.0
  0
LINE
  5
12F1
330
12EB
100
AcDbEntity
  8
axis
 62
     0
440
 16777216
 48
0.2
370
    -2
100
AcDbLine
 10
509.2323740500631
 20
463.8648001082815
 30
0.0
 11
509.2323740500631
 21
489.2121739145571
 31
0.0
  0
SOLID
  5
12F2
330
12EB
100
AcDbEntity
  8
axis
 62
     0
440
 16777216
 48
0.2
100
AcDbTrace
 10
508.8157073833965
 20
522.3648001082815
 30
0.0
 11
509.6490407167299
 21
522.3648001082815
 31
0.0
 12
509.2323740500631
 22
524.8648001082815
 32
0.0
 13
509.2323740500631
 23
524.8648001082815
 33
0.0
  0
SOLID
  5
12F3
330
12EB
100
AcDbEntity
  8
axis
 62
     0
440
 16777216
 48
0.2
100
AcDbTrace
 10
508.8157073833965
 20
463.8648001082815
 30
0.0
 11
509.6490407167299
 21
463.8648001082815
 31
0.0
 12
509.2323740500631
 22
461.3648001082815
 32
0.0
 13
509.2323740500631
 23
461.3648001082815
 33
0.0
  0
MTEXT
  5
12F4
330
12EB
100
AcDbEntity
  8
axis
 62
     0
440
 16777216
 48
0.2
100
AcDbMText
 10
509.2323740500632
 20
493.1148001082812
 30
0.0
 40
5.0
 41
0.0
 71
     5
 72
     1
  1
2.5''  63.5mm Suggested
 73
     1
 44
1.0
  0
POINT
  5
12F5
330
12EB
100
AcDbEntity
  8
Defpoints
 62
     0
440
 16777216
 48
0.2
100
AcDbPoint
 10
509.2323740500567
 20
524.8648001082815
 30
0.0
  0
POINT
  5
12F6
330
12EB
100
AcDbEntity
  8
Defpoints
 62
     0
440
 16777216
 48
0.2
100
AcDbPoint
 10
579.3042625671326
 20
461.3648001082815
 30
0.0
  0
POINT
  5
12F7
330
12EB
100
AcDbEntity
  8
Defpoints
 62
     0
440
 16777216
 48
0.2
100
AcDbPoint
 10
509.2323740500631
 20
461.3648001082815
 30
0.0
  0
ENDBLK
  5
12ED
330
12EB
100
AcDbEntity
  8
0
100
AcDbBlockEnd
  0
BLOCK
  5
12F9
330
12F8
100
AcDbEntity
  8
0
100
AcDbBlockBegin
  2
*D3
 70
     1
 10
0.0
 20
0.0
 30
0.0
  3
*D3
  1

  0
LINE
  5
12FB
330
12F8
100
AcDbEntity
  8
axis
 62
     0
440
 16777216
 48
0.2
370
    -2
100
AcDbLine
 10
537.0240533529397
 20
524.8648001082815
 30
0.0
 11
537.6490533529459
 21
524.8648001082815
 31
0.0
  0
LINE
  5
12FC
330
12F8
100
AcDbEntity
  8
axis
 62
     0
440
 16777216
 48
0.2
370
    -2
100
AcDbLine
 10
509.8573740500573
 20
575.6648001082814
 30
0.0
 11
537.6490533529459
 21
575.6648001082814
 31
0.0
  0
LINE
  5
12FD
330
12F8
100
AcDbEntity
  8
axis
 62
     0
440
 16777216
 48
0.2
370
    -2
100
AcDbLine
 10
536.3990533529459
 20
527.3648001082815
 30
0.0
 11
536.3990533529459
 21
546.362173914557
 31
0.0
  0
LINE
  5
12FE
330
12F8
100
AcDbEntity
  8
axis
 62
     0
440
 16777216
 48
0.2
370
    -2
100
AcDbLine
 10
536.3990533529459
 20
573.1648001082815
 30
0.0
 11
536.3990533529459
 21
554.167426302006
 31
0.0
  0
SOLID
  5
12FF
330
12F8
100
AcDbEntity
  8
axis
 62
     0
440
 16777216
 48
0.2
100
AcDbTrace
 10
535.9823866862792
 20
527.3648001082815
 30
0.0
 11
536.8157200196125
 21
527.3648001082815
 31
0.0
 12
536.3990533529459
 22
524.8648001082815
 32
0.0
 13
536.3990533529459
 23
524.8648001082815
 33
0.0
  0
SOLID
  5
1300
330
12F8
100
AcDbEntity
  8
axis
 62
     0
440
 16777216
 48
0.2
100
AcDbTrace
 10
535.9823866862792
 20
573.1648001082815
 30
0.0
 11
536.8157200196125
 21
573.1648001082815
 31
0.0
 12
536.3990533529459
 22
575.6648001082814
 32
0.0
 13
536.3990533529459
 23
575.6648001082814
 33
0.0
  0
MTEXT
  5
1301
330
12F8
100
AcDbEntity
  8
axis
 62
     0
440
 16777216
 48
0.2
100
AcDbMText
 10
536.3990533529459
 20
550.2648001082812
 30
0.0
 40
5.0
 41
0.0
 71
     5
 72
     1
  1
2''  50.8mm Suggested
 73
     1
 44
1.0
  0
POINT
  5
1302
330
12F8
100
AcDbEntity
  8
Defpoints
 62
     0
440
 16777216
 48
0.2
100
AcDbPoint
 10
536.3990533529397
 20
524.8648001082815
 30
0.0
  0
POINT
  5
1303
330
12F8
100
AcDbEntity
  8
Defpoints
 62
     0
440
 16777216
 48
0.2
100
AcDbPoint
 10
509.2323740500574
 20
575.6648001082814
 30
0.0
  0
POINT
  5
1304
330
12F8
100
AcDbEntity
  8
Defpoints
 62
     0
440
 16777216
 48
0.2
100
AcDbPoint
 10
536.3990533529459
 20
575.6648001082814
 30
0.0
  0
ENDBLK
  5
12FA
330
12F8
100
AcDbEntity
  8
0
100
AcDbBlockEnd
  0
BLOCK
  5
1306
330
1305
100
AcDbEntity
  8
0
100
AcDbBlockBegin
  2
*D4
 70
     1
 10
0.0
 20
0.0
 30
0.0
  3
*D4
  1

  0
LINE
  5
1308
330
1305
100
AcDbEntity
  8
axis
 62
     0
440
 16777216
370
    -2
100
AcDbLine
 10
262.3090430836994
 20
478.9978794573158
 30
0.0
 11
262.3090430836994
 21
503.7592110556556
 31
0.0
  0
LINE
  5
1309
330
1305
100
AcDbEntity
  8
axis
 62
     0
440
 16777216
370
    -2
100
AcDbLine
 10
287.309043121406
 20
479.1064453461199
 30
0.0
 11
287.309043121406
 21
503.7592110556556
 31
0.0
  0
LINE
  5
130A
330
1305
100
AcDbEntity
  8
axis
 62
     0
440
 16777216
370
    -2
100
AcDbLine
 10
264.8090430836993
 20
502.5092110556556
 30
0.0
 11
284.809043121406
 21
502.5092110556556
 31
0.0
  0
SOLID
  5
130B
330
1305
100
AcDbEntity
  8
axis
 62
     0
440
 16777216
100
AcDbTrace
 10
264.8090430836993
 20
502.9258777223224
 30
0.0
 11
264.8090430836993
 21
502.092544388989
 31
0.0
 12
262.3090430836994
 22
502.5092110556556
 32
0.0
 13
262.3090430836994
 23
502.5092110556556
 33
0.0
  0
SOLID
  5
130C
330
1305
100
AcDbEntity
  8
axis
 62
     0
440
 16777216
100
AcDbTrace
 10
284.809043121406
 20
502.9258777223224
 30
0.0
 11
284.809043121406
 21
502.092544388989
 31
0.0
 12
287.309043121406
 22
502.5092110556556
 32
0.0
 13
287.309043121406
 23
502.5092110556556
 33
0.0
  0
MTEXT
  5
130D
330
1305
100
AcDbEntity
  8
axis
 62
     0
440
 16777216
100
AcDbMText
 10
274.8090431025527
 20
505.6870759942641
 30
0.0
 40
5.0
 41
3.64256480218281
 71
     5
 72
     1
  1
25mm
 73
     1
 44
1.0
  0
POINT
  5
130E
330
1305
100
AcDbEntity
  8
Defpoints
 62
     0
440
 16777216
100
AcDbPoint
 10
262.3090430836994
 20
478.3728794573157
 30
0.0
  0
POINT
  5
130F
330
1305
100
AcDbEntity
  8
Defpoints
 62
     0
440
 16777216
100
AcDbPoint
 10
287.309043121406
 20
478.4814453461199
 30
0.0
  0
POINT
  5
1310
330
1305
100
AcDbEntity
  8
Defpoints
 62
     0
440
 16777216
100
AcDbPoint
 10
287.309043121406
 20
502.5092110556556
 30
0.0
  0
ENDBLK
  5
1307
330
1305
100
AcDbEntity
  8
0
100
AcDbBlockEnd
  0
BLOCK
  5
1312
330
1311
100
AcDbEntity
  8
0
100
AcDbBlockBegin
  2
*D5
 70
     1
 10
0.0
 20
0.0
 30
0.0
  3
*D5
  1

  0
LINE
  5
16BD
330
1311
100
AcDbEntity
  8
axis
 62
     0
440
 16777216
370
    -2
100
AcDbLine
 10
842.2624836713266
 20
478.9978794573158
 30
0.0
 11
842.2624836713266
 21
503.7592110556556
 31
0.0
  0
LINE
  5
16BE
330
1311
100
AcDbEntity
  8
axis
 62
     0
440
 16777216
370
    -2
100
AcDbLine
 10
817.309043121406
 20
415.5044984740416
 30
0.0
 11
817.309043121406
 21
503.7592110556556
 31
0.0
  0
LINE
  5
16BF
330
1311
100
AcDbEntity
  8
axis
 62
     0
440
 16777216
370
    -2
100
AcDbLine
 10
839.7624836713266
 20
502.5092110556556
 30
0.0
 11
819.809043121406
 21
502.5092110556556
 31
0.0
  0
LINE
  5
16C0
330
1311
100
AcDbEntity
  8
axis
 62
     0
440
 16777216
370
    -2
100
AcDbLine
 10
817.309043121406
 20
502.5092110556556
 30
0.0
 11
785.0972423028521
 21
502.5092110556556
 31
0.0
  0
SOLID
  5
16C1
330
1311
100
AcDbEntity
  8
axis
 62
     0
440
 16777216
370
   100
100
AcDbTrace
 10
839.7624836713266
 20
502.9258777223224
 30
0.0
 11
839.7624836713266
 21
502.092544388989
 31
0.0
 12
842.2624836713266
 22
502.5092110556556
 32
0.0
 13
842.2624836713266
 23
502.5092110556556
 33
0.0
  0
SOLID
  5
16C2
330
1311
100
AcDbEntity
  8
axis
 62
     0
440
 16777216
370
   100
100
AcDbTrace
 10
819.809043121406
 20
502.9258777223224
 30
0.0
 11
819.809043121406
 21
502.092544388989
 31
0.0
 12
817.309043121406
 22
502.5092110556556
 32
0.0
 13
817.309043121406
 23
502.5092110556556
 33
0.0
  0
MTEXT
  5
16C3
330
1311
100
AcDbEntity
  8
axis
 62
     0
440
 16777216
100
AcDbMText
 10
799.9531427121291
 20
506.1389859533364
 30
0.0
 40
5.0
 41
3.64256480218281
 71
     5
 72
     1
  1
24,95mm
 73
     1
 44
1.0
  0
POINT
  5
16C4
330
1311
100
AcDbEntity
  8
Defpoints
 62
     0
440
 16777216
370
   100
100
AcDbPoint
 10
842.2624836713266
 20
478.3728794573157
 30
0.0
  0
POINT
  5
16C5
330
1311
100
AcDbEntity
  8
Defpoints
 62
     0
440
 16777216
370
   100
100
AcDbPoint
 10
817.309043121406
 20
414.8794984740415
 30
0.0
  0
POINT
  5
16C6
330
1311
100
AcDbEntity
  8
Defpoints
 62
     0
440
 16777216
370
   100
100
AcDbPoint
 10
817.309043121406
 20
502.5092110556556
 30
0.0
  0
ENDBLK
  5
1313
330
1311
100
AcDbEntity
  8
0
100
AcDbBlockEnd
  0
BLOCK
  5
131E
330
131D
100
AcDbEntity
  8
0
100
AcDbBlockBegin
  2
*D6
 70
     1
 10
0.0
 20
0.0
 30
0.0
  3
*D6
  1

  0
LINE
  5
1320
330
131D
100
AcDbEntity
  8
axis
 62
     0
440
 16777216
370
    -2
100
AcDbLine
 10
329.7654888472862
 20
288.9273001082815
 30
0.0
 11
329.7654888472862
 21
289.0448001082815
 31
0.0
  0
LINE
  5
1321
330
131D
100
AcDbEntity
  8
axis
 62
     0
440
 16777216
370
    -2
100
AcDbLine
 10
774.7654888472862
 20
288.9273001082815
 30
0.0
 11
774.7654888472862
 21
289.0448001082815
 31
0.0
  0
LINE
  5
1322
330
131D
100
AcDbEntity
  8
axis
 62
     0
440
 16777216
370
    -2
100
AcDbLine
 10
339.7654888472862
 20
288.8648001082815
 30
0.0
 11
764.7654888472861
 21
288.8648001082815
 31
0.0
  0
SOLID
  5
1323
330
131D
100
AcDbEntity
  8
axis
 62
     0
440
 16777216
100
AcDbTrace
 10
339.7654888472862
 20
290.5314667749482
 30
0.0
 11
339.7654888472862
 21
287.1981334416148
 31
0.0
 12
329.7654888472862
 22
288.8648001082815
 32
0.0
 13
329.7654888472862
 23
288.8648001082815
 33
0.0
  0
SOLID
  5
1324
330
131D
100
AcDbEntity
  8
axis
 62
     0
440
 16777216
100
AcDbTrace
 10
764.7654888472861
 20
290.5314667749482
 30
0.0
 11
764.7654888472861
 21
287.1981334416148
 31
0.0
 12
774.7654888472862
 22
288.8648001082815
 32
0.0
 13
774.7654888472862
 23
288.8648001082815
 33
0.0
  0
MTEXT
  5
1325
330
131D
100
AcDbEntity
  8
axis
 62
     0
440
 16777216
100
AcDbMText
 10
595.9496011589235
 20
298.6712462201505
 30
0.0
 40
7.5
 41
0.0
 71
     5
 72
     1
  1
\A1;445mm [17.52"]
 73
     1
 44
1.0
  0
POINT
  5
1326
330
131D
100
AcDbEntity
  8
Defpoints
 62
     0
440
 16777216
100
AcDbPoint
 10
329.7654888472862
 20
288.8648001082815
 30
0.0
  0
POINT
  5
1327
330
131D
100
AcDbEntity
  8
Defpoints
 62
     0
440
 16777216
100
AcDbPoint
 10
774.7654888472862
 20
288.8648001082815
 30
0.0
  0
POINT
  5
1328
330
131D
100
AcDbEntity
  8
Defpoints
 62
     0
440
 16777216
100
AcDbPoint
 10
774.7654888472862
 20
288.8648001082815
 30
0.0
  0
ENDBLK
  5
131F
330
131D
100
AcDbEntity
  8
0
100
AcDbBlockEnd
  0
BLOCK
  5
1356
330
1355
100
AcDbEntity
  8
0
100
AcDbBlockBegin
  2
*D7
 70
     1
 10
0.0
 20
0.0
 30
0.0
  3
*D7
  1

  0
LINE
  5
1357
330
1355
100
AcDbEntity
  8
axis
 62
     0
440
 16777216
370
    -2
100
AcDbLine
 10
552.3279888472863
 20
418.8648001082817
 30
0.0
 11
552.4657633775129
 21
418.8648001082817
 31
0.0
  0
LINE
  5
1358
330
1355
100
AcDbEntity
  8
axis
 62
     0
440
 16777216
370
    -2
100
AcDbLine
 10
552.3279888472863
 20
158.8648001082816
 30
0.0
 11
552.4657633775131
 21
158.8648001082816
 31
0.0
  0
LINE
  5
1359
330
1355
100
AcDbEntity
  8
axis
 62
     0
440
 16777216
370
    -2
100
AcDbLine
 10
552.285763377513
 20
408.8648001082817
 30
0.0
 11
552.2857633775131
 21
168.8648001082816
 31
0.0
  0
SOLID
  5
135A
330
1355
100
AcDbEntity
  8
axis
 62
     0
440
 16777216
100
AcDbTrace
 10
550.6190967108464
 20
408.8648001082817
 30
0.0
 11
553.9524300441796
 21
408.8648001082817
 31
0.0
 12
552.285763377513
 22
418.8648001082817
 32
0.0
 13
552.285763377513
 23
418.8648001082817
 33
0.0
  0
SOLID
  5
135B
330
1355
100
AcDbEntity
  8
axis
 62
     0
440
 16777216
100
AcDbTrace
 10
550.6190967108465
 20
168.8648001082816
 30
0.0
 11
553.9524300441797
 21
168.8648001082816
 31
0.0
 12
552.2857633775131
 22
158.8648001082816
 32
0.0
 13
552.2857633775131
 23
158.8648001082816
 33
0.0
  0
MTEXT
  5
135C
330
1355
100
AcDbEntity
  8
axis
 62
     0
440
 16777216
100
AcDbMText
 10
542.479317265644
 20
246.2735827827446
 30
0.0
 40
7.5
 41
0.0
 71
     5
 72
     1
  1
\A1;260mm [10.24"]
 11
0.0000000000000001
 21
1.0
 31
0.0
 73
     1
 44
1.0
  0
POINT
  5
135D
330
1355
100
AcDbEntity
  8
Defpoints
 62
     0
440
 16777216
100
AcDbPoint
 10
552.2654888472864
 20
418.8648001082817
 30
0.0
  0
POINT
  5
135E
330
1355
100
AcDbEntity
  8
Defpoints
 62
     0
440
 16777216
100
AcDbPoint
 10
552.2654888472864
 20
158.8648001082816
 30
0.0
  0
POINT
  5
135F
330
1355
100
AcDbEntity
  8
Defpoints
 62
     0
440
 16777216
100
AcDbPoint
 10
552.2857633775131
 20
158.8648001082816
 30
0.0
  0
ENDBLK
  5
1360
330
1355
100
AcDbEntity
  8
0
100
AcDbBlockEnd
  0
BLOCK
  5
1362
330
1361
100
AcDbEntity
  8
0
100
AcDbBlockBegin
  2
*D8
 70
     1
 10
0.0
 20
0.0
 30
0.0
  3
*D8
  1

  0
LINE
  5
1363
330
1361
100
AcDbEntity
  8
axis
 62
     0
440
 16777216
 48
0.2
370
    -2
100
AcDbLine
 10
509.8573740500568
 20
524.8648001082815
 30
0.0
 11
510.4823740500632
 21
524.8648001082815
 31
0.0
  0
LINE
  5
1364
330
1361
100
AcDbEntity
  8
axis
 62
     0
440
 16777216
 48
0.2
370
    -2
100
AcDbLine
 10
578.6792625671325
 20
461.3648001082815
 30
0.0
 11
507.9823740500631
 21
461.3648001082815
 31
0.0
  0
LINE
  5
1365
330
1361
100
AcDbEntity
  8
axis
 62
     0
440
 16777216
 48
0.2
370
    -2
100
AcDbLine
 10
509.2323740500631
 20
522.3648001082815
 30
0.0
 11
509.2323740500631
 21
497.017426302006
 31
0.0
  0
LINE
  5
1366
330
1361
100
AcDbEntity
  8
axis
 62
     0
440
 16777216
 48
0.2
370
    -2
100
AcDbLine
 10
509.2323740500631
 20
463.8648001082815
 30
0.0
 11
509.2323740500631
 21
489.2121739145571
 31
0.0
  0
SOLID
  5
1367
330
1361
100
AcDbEntity
  8
axis
 62
     0
440
 16777216
 48
0.2
100
AcDbTrace
 10
508.8157073833965
 20
522.3648001082815
 30
0.0
 11
509.6490407167299
 21
522.3648001082815
 31
0.0
 12
509.2323740500631
 22
524.8648001082815
 32
0.0
 13
509.2323740500631
 23
524.8648001082815
 33
0.0
  0
SOLID
  5
1368
330
1361
100
AcDbEntity
  8
axis
 62
     0
440
 16777216
 48
0.2
100
AcDbTrace
 10
508.8157073833965
 20
463.8648001082815
 30
0.0
 11
509.6490407167299
 21
463.8648001082815
 31
0.0
 12
509.2323740500631
 22
461.3648001082815
 32
0.0
 13
509.2323740500631
 23
461.3648001082815
 33
0.0
  0
MTEXT
  5
1369
330
1361
100
AcDbEntity
  8
axis
 62
     0
440
 16777216
 48
0.2
100
AcDbMText
 10
509.2323740500632
 20
493.1148001082812
 30
0.0
 40
5.0
 41
0.0
 71
     5
 72
     1
  1
2.5''  63.5mm Suggested
 73
     1
 44
1.0
  0
POINT
  5
136A
330
1361
100
AcDbEntity
  8
Defpoints
 62
     0
440
 16777216
 48
0.2
100
AcDbPoint
 10
509.2323740500567
 20
524.8648001082815
 30
0.0
  0
POINT
  5
136B
330
1361
100
AcDbEntity
  8
Defpoints
 62
     0
440
 16777216
 48
0.2
100
AcDbPoint
 10
579.3042625671326
 20
461.3648001082815
 30
0.0
  0
POINT
  5
136C
330
1361
100
AcDbEntity
  8
Defpoints
 62
     0
440
 16777216
 48
0.2
100
AcDbPoint
 10
509.2323740500631
 20
461.3648001082815
 30
0.0
  0
ENDBLK
  5
136D
330
1361
100
AcDbEntity
  8
0
100
AcDbBlockEnd
  0
BLOCK
  5
136F
330
136E
100
AcDbEntity
  8
0
100
AcDbBlockBegin
  2
*D9
 70
     1
 10
0.0
 20
0.0
 30
0.0
  3
*D9
  1

  0
LINE
  5
1370
330
136E
100
AcDbEntity
  8
axis
 62
     0
440
 16777216
 48
0.2
370
    -2
100
AcDbLine
 10
537.0240533529397
 20
524.8648001082815
 30
0.0
 11
537.6490533529459
 21
524.8648001082815
 31
0.0
  0
LINE
  5
1371
330
136E
100
AcDbEntity
  8
axis
 62
     0
440
 16777216
 48
0.2
370
    -2
100
AcDbLine
 10
509.8573740500573
 20
575.6648001082814
 30
0.0
 11
537.6490533529459
 21
575.6648001082814
 31
0.0
  0
LINE
  5
1372
330
136E
100
AcDbEntity
  8
axis
 62
     0
440
 16777216
 48
0.2
370
    -2
100
AcDbLine
 10
536.3990533529459
 20
527.3648001082815
 30
0.0
 11
536.3990533529459
 21
546.362173914557
 31
0.0
  0
LINE
  5
1373
330
136E
100
AcDbEntity
  8
axis
 62
     0
440
 16777216
 48
0.2
370
    -2
100
AcDbLine
 10
536.3990533529459
 20
573.1648001082815
 30
0.0
 11
536.3990533529459
 21
554.167426302006
 31
0.0
  0
SOLID
  5
1374
330
136E
100
AcDbEntity
  8
axis
 62
     0
440
 16777216
 48
0.2
100
AcDbTrace
 10
535.9823866862792
 20
527.3648001082815
 30
0.0
 11
536.8157200196125
 21
527.3648001082815
 31
0.0
 12
536.3990533529459
 22
524.8648001082815
 32
0.0
 13
536.3990533529459
 23
524.8648001082815
 33
0.0
  0
SOLID
  5
1375
330
136E
100
AcDbEntity
  8
axis
 62
     0
440
 16777216
 48
0.2
100
AcDbTrace
 10
535.9823866862792
 20
573.1648001082815
 30
0.0
 11
536.8157200196125
 21
573.1648001082815
 31
0.0
 12
536.3990533529459
 22
575.6648001082814
 32
0.0
 13
536.3990533529459
 23
575.6648001082814
 33
0.0
  0
MTEXT
  5
1376
330
136E
100
AcDbEntity
  8
axis
 62
     0
440
 16777216
 48
0.2
100
AcDbMText
 10
536.3990533529459
 20
550.2648001082812
 30
0.0
 40
5.0
 41
0.0
 71
     5
 72
     1
  1
2''  50.8mm Suggested
 73
     1
 44
1.0
  0
POINT
  5
1377
330
136E
100
AcDbEntity
  8
Defpoints
 62
     0
440
 16777216
 48
0.2
100
AcDbPoint
 10
536.3990533529397
 20
524.8648001082815
 30
0.0
  0
POINT
  5
1378
330
136E
100
AcDbEntity
  8
Defpoints
 62
     0
440
 16777216
 48
0.2
100
AcDbPoint
 10
509.2323740500574
 20
575.6648001082814
 30
0.0
  0
POINT
  5
1379
330
136E
100
AcDbEntity
  8
Defpoints
 62
     0
440
 16777216
 48
0.2
100
AcDbPoint
 10
536.3990533529459
 20
575.6648001082814
 30
0.0
  0
ENDBLK
  5
137A
330
136E
100
AcDbEntity
  8
0
100
AcDbBlockEnd
  0
BLOCK
  5
137C
330
137B
100
AcDbEntity
  8
0
100
AcDbBlockBegin
  2
*D10
 70
     1
 10
0.0
 20
0.0
 30
0.0
  3
*D10
  1

  0
LINE
  5
137D
330
137B
100
AcDbEntity
  8
axis
 62
     0
440
 16777216
370
    -2
100
AcDbLine
 10
262.3090430836994
 20
478.9978794573158
 30
0.0
 11
262.3090430836994
 21
503.7592110556556
 31
0.0
  0
LINE
  5
137E
330
137B
100
AcDbEntity
  8
axis
 62
     0
440
 16777216
370
    -2
100
AcDbLine
 10
287.309043121406
 20
479.1064453461199
 30
0.0
 11
287.309043121406
 21
503.7592110556556
 31
0.0
  0
LINE
  5
137F
330
137B
100
AcDbEntity
  8
axis
 62
     0
440
 16777216
370
    -2
100
AcDbLine
 10
264.8090430836993
 20
502.5092110556556
 30
0.0
 11
284.809043121406
 21
502.5092110556556
 31
0.0
  0
SOLID
  5
1380
330
137B
100
AcDbEntity
  8
axis
 62
     0
440
 16777216
100
AcDbTrace
 10
264.8090430836993
 20
502.9258777223224
 30
0.0
 11
264.8090430836993
 21
502.092544388989
 31
0.0
 12
262.3090430836994
 22
502.5092110556556
 32
0.0
 13
262.3090430836994
 23
502.5092110556556
 33
0.0
  0
SOLID
  5
1381
330
137B
100
AcDbEntity
  8
axis
 62
     0
440
 16777216
100
AcDbTrace
 10
284.809043121406
 20
502.9258777223224
 30
0.0
 11
284.809043121406
 21
502.092544388989
 31
0.0
 12
287.309043121406
 22
502.5092110556556
 32
0.0
 13
287.309043121406
 23
502.5092110556556
 33
0.0
  0
MTEXT
  5
1382
330
137B
100
AcDbEntity
  8
axis
 62
     0
440
 16777216
100
AcDbMText
 10
274.8090431025527
 20
505.6870759942641
 30
0.0
 40
5.0
 41
3.64256480218281
 71
     5
 72
     1
  1
25mm
 73
     1
 44
1.0
  0
POINT
  5
1383
330
137B
100
AcDbEntity
  8
Defpoints
 62
     0
440
 16777216
100
AcDbPoint
 10
262.3090430836994
 20
478.3728794573157
 30
0.0
  0
POINT
  5
1384
330
137B
100
AcDbEntity
  8
Defpoints
 62
     0
440
 16777216
100
AcDbPoint
 10
287.309043121406
 20
478.4814453461199
 30
0.0
  0
POINT
  5
1385
330
137B
100
AcDbEntity
  8
Defpoints
 62
     0
440
 16777216
100
AcDbPoint
 10
287.309043121406
 20
502.5092110556556
 30
0.0
  0
ENDBLK
  5
1386
330
137B
100
AcDbEntity
  8
0
100
AcDbBlockEnd
  0
BLOCK
  5
1388
330
1387
100
AcDbEntity
  8
0
100
AcDbBlockBegin
  2
*D11
 70
     1
 10
0.0
 20
0.0
 30
0.0
  3
*D11
  1

  0
LINE
  5
1389
330
1387
100
AcDbEntity
  8
axis
 62
     0
440
 16777216
370
    -2
100
AcDbLine
 10
842.2624836713266
 20
478.9978794573158
 30
0.0
 11
842.2624836713266
 21
503.7592110556556
 31
0.0
  0
LINE
  5
138A
330
1387
100
AcDbEntity
  8
axis
 62
     0
440
 16777216
370
    -2
100
AcDbLine
 10
817.2624836336201
 20
479.1064453461199
 30
0.0
 11
817.2624836336201
 21
503.7592110556556
 31
0.0
  0
LINE
  5
138B
330
1387
100
AcDbEntity
  8
axis
 62
     0
440
 16777216
370
    -2
100
AcDbLine
 10
839.7624836713266
 20
502.5092110556556
 30
0.0
 11
819.7624836336199
 21
502.5092110556556
 31
0.0
  0
SOLID
  5
138C
330
1387
100
AcDbEntity
  8
axis
 62
     0
440
 16777216
100
AcDbTrace
 10
839.7624836713266
 20
502.9258777223224
 30
0.0
 11
839.7624836713266
 21
502.092544388989
 31
0.0
 12
842.2624836713266
 22
502.5092110556556
 32
0.0
 13
842.2624836713266
 23
502.5092110556556
 33
0.0
  0
SOLID
  5
138D
330
1387
100
AcDbEntity
  8
axis
 62
     0
440
 16777216
100
AcDbTrace
 10
819.7624836336199
 20
502.9258777223224
 30
0.0
 11
819.7624836336199
 21
502.092544388989
 31
0.0
 12
817.2624836336201
 22
502.5092110556556
 32
0.0
 13
817.2624836336201
 23
502.5092110556556
 33
0.0
  0
MTEXT
  5
138E
330
1387
100
AcDbEntity
  8
axis
 62
     0
440
 16777216
100
AcDbMText
 10
829.7624836524732
 20
505.6870759942641
 30
0.0
 40
5.0
 41
3.64256480218281
 71
     5
 72
     1
  1
25mm
 73
     1
 44
1.0
  0
POINT
  5
138F
330
1387
100
AcDbEntity
  8
Defpoints
 62
     0
440
 16777216
100
AcDbPoint
 10
842.2624836713266
 20
478.3728794573157
 30
0.0
  0
POINT
  5
1390
330
1387
100
AcDbEntity
  8
Defpoints
 62
     0
440
 16777216
100
AcDbPoint
 10
817.2624836336201
 20
478.4814453461199
 30
0.0
  0
POINT
  5
1391
330
1387
100
AcDbEntity
  8
Defpoints
 62
     0
440
 16777216
100
AcDbPoint
 10
817.2624836336201
 20
502.5092110556556
 30
0.0
  0
ENDBLK
  5
1392
330
1387
100
AcDbEntity
  8
0
100
AcDbBlockEnd
  0
BLOCK
  5
1394
330
1393
100
AcDbEntity
  8
0
100
AcDbBlockBegin
  2
*D12
 70
     1
 10
0.0
 20
0.0
 30
0.0
  3
*D12
  1

  0
LINE
  5
1395
330
1393
100
AcDbEntity
  8
axis
 62
     0
440
 16777216
370
    -2
100
AcDbLine
 10
329.7654888472862
 20
288.9273001082815
 30
0.0
 11
329.7654888472862
 21
289.0448001082815
 31
0.0
  0
LINE
  5
1396
330
1393
100
AcDbEntity
  8
axis
 62
     0
440
 16777216
370
    -2
100
AcDbLine
 10
774.7654888472862
 20
288.9273001082815
 30
0.0
 11
774.7654888472862
 21
289.0448001082815
 31
0.0
  0
LINE
  5
1397
330
1393
100
AcDbEntity
  8
axis
 62
     0
440
 16777216
370
    -2
100
AcDbLine
 10
339.7654888472862
 20
288.8648001082815
 30
0.0
 11
764.7654888472861
 21
288.8648001082815
 31
0.0
  0
SOLID
  5
1398
330
1393
100
AcDbEntity
  8
axis
 62
     0
440
 16777216
100
AcDbTrace
 10
339.7654888472862
 20
290.5314667749482
 30
0.0
 11
339.7654888472862
 21
287.1981334416148
 31
0.0
 12
329.7654888472862
 22
288.8648001082815
 32
0.0
 13
329.7654888472862
 23
288.8648001082815
 33
0.0
  0
SOLID
  5
1399
330
1393
100
AcDbEntity
  8
axis
 62
     0
440
 16777216
100
AcDbTrace
 10
764.7654888472861
 20
290.5314667749482
 30
0.0
 11
764.7654888472861
 21
287.1981334416148
 31
0.0
 12
774.7654888472862
 22
288.8648001082815
 32
0.0
 13
774.7654888472862
 23
288.8648001082815
 33
0.0
  0
MTEXT
  5
139A
330
1393
100
AcDbEntity
  8
axis
 62
     0
440
 16777216
100
AcDbMText
 10
595.9496011589235
 20
298.6712462201505
 30
0.0
 40
7.5
 41
0.0
 71
     5
 72
     1
  1
\A1;445mm [17.52"]
 73
     1
 44
1.0
  0
POINT
  5
139B
330
1393
100
AcDbEntity
  8
Defpoints
 62
     0
440
 16777216
100
AcDbPoint
 10
329.7654888472862
 20
288.8648001082815
 30
0.0
  0
POINT
  5
139C
330
1393
100
AcDbEntity
  8
Defpoints
 62
     0
440
 16777216
100
AcDbPoint
 10
774.7654888472862
 20
288.8648001082815
 30
0.0
  0
POINT
  5
139D
330
1393
100
AcDbEntity
  8
Defpoints
 62
     0
440
 16777216
100
AcDbPoint
 10
774.7654888472862
 20
288.8648001082815
 30
0.0
  0
ENDBLK
  5
139E
330
1393
100
AcDbEntity
  8
0
100
AcDbBlockEnd
  0
BLOCK
  5
141C
330
141B
100
AcDbEntity
  8
0
100
AcDbBlockBegin
  2
*D14
 70
     1
 10
0.0
 20
0.0
 30
0.0
  3
*D14
  1

  0
LINE
  5
141E
330
141B
100
AcDbEntity
  8
axis
 62
     0
440
 16777216
370
    -2
100
AcDbLine
 10
1270.406959557076
 20
534.9313431676328
 30
0.0
 11
1270.406959557076
 21
559.6926747659726
 31
0.0
  0
LINE
  5
141F
330
141B
100
AcDbEntity
  8
axis
 62
     0
440
 16777216
370
    -2
100
AcDbLine
 10
1295.406959594783
 20
535.0399090564369
 30
0.0
 11
1295.406959594783
 21
559.6926747659726
 31
0.0
  0
LINE
  5
1420
330
141B
100
AcDbEntity
  8
axis
 62
     0
440
 16777216
370
    -2
100
AcDbLine
 10
1272.906959557076
 20
558.4426747659726
 30
0.0
 11
1292.906959594783
 21
558.4426747659726
 31
0.0
  0
SOLID
  5
1421
330
141B
100
AcDbEntity
  8
axis
 62
     0
440
 16777216
100
AcDbTrace
 10
1272.906959557076
 20
558.8593414326393
 30
0.0
 11
1272.906959557076
 21
558.0260080993061
 31
0.0
 12
1270.406959557076
 22
558.4426747659726
 32
0.0
 13
1270.406959557076
 23
558.4426747659726
 33
0.0
  0
SOLID
  5
1422
330
141B
100
AcDbEntity
  8
axis
 62
     0
440
 16777216
100
AcDbTrace
 10
1292.906959594783
 20
558.8593414326393
 30
0.0
 11
1292.906959594783
 21
558.0260080993061
 31
0.0
 12
1295.406959594783
 22
558.4426747659726
 32
0.0
 13
1295.406959594783
 23
558.4426747659726
 33
0.0
  0
MTEXT
  5
1423
330
141B
100
AcDbEntity
  8
axis
 62
     0
440
 16777216
100
AcDbMText
 10
1282.906959575929
 20
561.6205397045811
 30
0.0
 40
5.0
 41
3.64256480218281
 71
     5
 72
     1
  1
25mm
 73
     1
 44
1.0
  0
POINT
  5
1424
330
141B
100
AcDbEntity
  8
Defpoints
 62
     0
440
 16777216
100
AcDbPoint
 10
1270.406959557076
 20
534.3063431676328
 30
0.0
  0
POINT
  5
1425
330
141B
100
AcDbEntity
  8
Defpoints
 62
     0
440
 16777216
100
AcDbPoint
 10
1295.406959594783
 20
534.414909056437
 30
0.0
  0
POINT
  5
1426
330
141B
100
AcDbEntity
  8
Defpoints
 62
     0
440
 16777216
100
AcDbPoint
 10
1295.406959594783
 20
558.4426747659726
 30
0.0
  0
ENDBLK
  5
141D
330
141B
100
AcDbEntity
  8
0
100
AcDbBlockEnd
  0
BLOCK
  5
1428
330
1427
100
AcDbEntity
  8
0
100
AcDbBlockBegin
  2
*D15
 70
     1
 10
0.0
 20
0.0
 30
0.0
  3
*D15
  1

  0
LINE
  5
142A
330
1427
100
AcDbEntity
  8
axis
 62
     0
440
 16777216
370
    -2
100
AcDbLine
 10
1850.360400144704
 20
534.9313431676328
 30
0.0
 11
1850.360400144704
 21
559.6926747659726
 31
0.0
  0
LINE
  5
142B
330
1427
100
AcDbEntity
  8
axis
 62
     0
440
 16777216
370
    -2
100
AcDbLine
 10
1825.360400106997
 20
535.0399090564369
 30
0.0
 11
1825.360400106997
 21
559.6926747659726
 31
0.0
  0
LINE
  5
142C
330
1427
100
AcDbEntity
  8
axis
 62
     0
440
 16777216
370
    -2
100
AcDbLine
 10
1847.860400144704
 20
558.4426747659726
 30
0.0
 11
1827.860400106997
 21
558.4426747659726
 31
0.0
  0
SOLID
  5
142D
330
1427
100
AcDbEntity
  8
axis
 62
     0
440
 16777216
100
AcDbTrace
 10
1847.860400144704
 20
558.8593414326393
 30
0.0
 11
1847.860400144704
 21
558.0260080993061
 31
0.0
 12
1850.360400144704
 22
558.4426747659726
 32
0.0
 13
1850.360400144704
 23
558.4426747659726
 33
0.0
  0
SOLID
  5
142E
330
1427
100
AcDbEntity
  8
axis
 62
     0
440
 16777216
100
AcDbTrace
 10
1827.860400106997
 20
558.8593414326393
 30
0.0
 11
1827.860400106997
 21
558.0260080993061
 31
0.0
 12
1825.360400106997
 22
558.4426747659726
 32
0.0
 13
1825.360400106997
 23
558.4426747659726
 33
0.0
  0
MTEXT
  5
142F
330
1427
100
AcDbEntity
  8
axis
 62
     0
440
 16777216
100
AcDbMText
 10
1837.86040012585
 20
561.6205397045811
 30
0.0
 40
5.0
 41
3.64256480218281
 71
     5
 72
     1
  1
25mm
 73
     1
 44
1.0
  0
POINT
  5
1430
330
1427
100
AcDbEntity
  8
Defpoints
 62
     0
440
 16777216
100
AcDbPoint
 10
1850.360400144704
 20
534.3063431676328
 30
0.0
  0
POINT
  5
1431
330
1427
100
AcDbEntity
  8
Defpoints
 62
     0
440
 16777216
100
AcDbPoint
 10
1825.360400106997
 20
534.414909056437
 30
0.0
  0
POINT
  5
1432
330
1427
100
AcDbEntity
  8
Defpoints
 62
     0
440
 16777216
100
AcDbPoint
 10
1825.360400106997
 20
558.4426747659726
 30
0.0
  0
ENDBLK
  5
1429
330
1427
100
AcDbEntity
  8
0
100
AcDbBlockEnd
  0
BLOCK
  5
1434
330
1433
100
AcDbEntity
  8
0
100
AcDbBlockBegin
  2
*D16
 70
     1
 10
0.0
 20
0.0
 30
0.0
  3
*D16
  1

  0
LINE
  5
1436
330
1433
100
AcDbEntity
  8
axis
 62
     0
440
 16777216
370
    -2
100
AcDbLine
 10
1337.863405320663
 20
344.8607638185985
 30
0.0
 11
1337.863405320663
 21
344.9782638185985
 31
0.0
  0
LINE
  5
1437
330
1433
100
AcDbEntity
  8
axis
 62
     0
440
 16777216
370
    -2
100
AcDbLine
 10
1782.863405320663
 20
344.8607638185985
 30
0.0
 11
1782.863405320663
 21
344.9782638185985
 31
0.0
  0
LINE
  5
1438
330
1433
100
AcDbEntity
  8
axis
 62
     0
440
 16777216
370
    -2
100
AcDbLine
 10
1347.863405320663
 20
344.7982638185985
 30
0.0
 11
1772.863405320663
 21
344.7982638185985
 31
0.0
  0
SOLID
  5
1439
330
1433
100
AcDbEntity
  8
axis
 62
     0
440
 16777216
100
AcDbTrace
 10
1347.863405320663
 20
346.4649304852652
 30
0.0
 11
1347.863405320663
 21
343.1315971519318
 31
0.0
 12
1337.863405320663
 22
344.7982638185985
 32
0.0
 13
1337.863405320663
 23
344.7982638185985
 33
0.0
  0
SOLID
  5
143A
330
1433
100
AcDbEntity
  8
axis
 62
     0
440
 16777216
100
AcDbTrace
 10
1772.863405320663
 20
346.4649304852652
 30
0.0
 11
1772.863405320663
 21
343.1315971519318
 31
0.0
 12
1782.863405320663
 22
344.7982638185985
 32
0.0
 13
1782.863405320663
 23
344.7982638185985
 33
0.0
  0
MTEXT
  5
143B
330
1433
100
AcDbEntity
  8
axis
 62
     0
440
 16777216
100
AcDbMText
 10
1604.047517632301
 20
354.6047099304676
 30
0.0
 40
7.5
 41
0.0
 71
     5
 72
     1
  1
\A1;445mm [17.52"]
 73
     1
 44
1.0
  0
POINT
  5
143C
330
1433
100
AcDbEntity
  8
Defpoints
 62
     0
440
 16777216
100
AcDbPoint
 10
1337.863405320663
 20
344.7982638185985
 30
0.0
  0
POINT
  5
143D
330
1433
100
AcDbEntity
  8
Defpoints
 62
     0
440
 16777216
100
AcDbPoint
 10
1782.863405320663
 20
344.7982638185985
 30
0.0
  0
POINT
  5
143E
330
1433
100
AcDbEntity
  8
Defpoints
 62
     0
440
 16777216
100
AcDbPoint
 10
1782.863405320663
 20
344.7982638185985
 30
0.0
  0
ENDBLK
  5
1435
330
1433
100
AcDbEntity
  8
0
100
AcDbBlockEnd
  0
BLOCK
  5
1440
330
143F
100
AcDbEntity
  8
0
100
AcDbBlockBegin
  2
*D17
 70
     1
 10
0.0
 20
0.0
 30
0.0
  3
*D17
  1

  0
LINE
  5
1442
330
143F
100
AcDbEntity
  8
axis
 62
     0
440
 16777216
370
    -2
100
AcDbLine
 10
1560.425905320664
 20
474.7982638185987
 30
0.0
 11
1560.56367985089
 21
474.7982638185987
 31
0.0
  0
LINE
  5
1443
330
143F
100
AcDbEntity
  8
axis
 62
     0
440
 16777216
370
    -2
100
AcDbLine
 10
1560.425905320664
 20
214.7982638185987
 30
0.0
 11
1560.56367985089
 21
214.7982638185987
 31
0.0
  0
LINE
  5
1444
330
143F
100
AcDbEntity
  8
axis
 62
     0
440
 16777216
370
    -2
100
AcDbLine
 10
1560.38367985089
 20
464.7982638185988
 30
0.0
 11
1560.38367985089
 21
224.7982638185987
 31
0.0
  0
SOLID
  5
1445
330
143F
100
AcDbEntity
  8
axis
 62
     0
440
 16777216
100
AcDbTrace
 10
1558.717013184224
 20
464.7982638185988
 30
0.0
 11
1562.050346517557
 21
464.7982638185988
 31
0.0
 12
1560.38367985089
 22
474.7982638185987
 32
0.0
 13
1560.38367985089
 23
474.7982638185987
 33
0.0
  0
SOLID
  5
1446
330
143F
100
AcDbEntity
  8
axis
 62
     0
440
 16777216
100
AcDbTrace
 10
1558.717013184224
 20
224.7982638185987
 30
0.0
 11
1562.050346517557
 21
224.7982638185987
 31
0.0
 12
1560.38367985089
 22
214.7982638185987
 32
0.0
 13
1560.38367985089
 23
214.7982638185987
 33
0.0
  0
MTEXT
  5
1447
330
143F
100
AcDbEntity
  8
axis
 62
     0
440
 16777216
100
AcDbMText
 10
1550.577233739021
 20
302.2070464930616
 30
0.0
 40
7.5
 41
0.0
 71
     5
 72
     1
  1
\A1;260mm [10.24"]
 11
0.0000000000000001
 21
1.0
 31
0.0
 73
     1
 44
1.0
  0
POINT
  5
1448
330
143F
100
AcDbEntity
  8
Defpoints
 62
     0
440
 16777216
100
AcDbPoint
 10
1560.363405320664
 20
474.7982638185987
 30
0.0
  0
POINT
  5
1449
330
143F
100
AcDbEntity
  8
Defpoints
 62
     0
440
 16777216
100
AcDbPoint
 10
1560.363405320664
 20
214.7982638185987
 30
0.0
  0
POINT
  5
144A
330
143F
100
AcDbEntity
  8
Defpoints
 62
     0
440
 16777216
100
AcDbPoint
 10
1560.38367985089
 20
214.7982638185987
 30
0.0
  0
ENDBLK
  5
1441
330
143F
100
AcDbEntity
  8
0
100
AcDbBlockEnd
  0
BLOCK
  5
144C
330
144B
100
AcDbEntity
  8
0
100
AcDbBlockBegin
  2
*D18
 70
     1
 10
0.0
 20
0.0
 30
0.0
  3
*D18
  1

  0
LINE
  5
1821
330
144B
100
AcDbEntity
  8
axis
 62
     0
440
 16777216
 48
0.2
370
    -2
100
AcDbLine
 10
493.299137297306
 20
493.1202572162401
 30
0.0
 11
493.9241372973135
 21
493.1202572162401
 31
0.0
  0
LINE
  5
1822
330
144B
100
AcDbEntity
  8
axis
 62
     0
440
 16777216
 48
0.2
370
    -2
100
AcDbLine
 10
562.1210258143819
 20
429.6202572162401
 30
0.0
 11
491.4241372973134
 21
429.6202572162401
 31
0.0
  0
LINE
  5
1823
330
144B
100
AcDbEntity
  8
axis
 62
     0
440
 16777216
 48
0.2
370
    -2
100
AcDbLine
 10
492.6741372973134
 20
490.6202572162401
 30
0.0
 11
492.6741372973134
 21
465.2728834099645
 31
0.0
  0
LINE
  5
1824
330
144B
100
AcDbEntity
  8
axis
 62
     0
440
 16777216
 48
0.2
370
    -2
100
AcDbLine
 10
492.6741372973134
 20
432.1202572162401
 30
0.0
 11
492.6741372973134
 21
457.4676310225156
 31
0.0
  0
SOLID
  5
1825
330
144B
100
AcDbEntity
  8
axis
 62
     0
440
 16777216
 48
0.2
370
   100
100
AcDbTrace
 10
492.2574706306467
 20
490.6202572162401
 30
0.0
 11
493.0908039639801
 21
490.6202572162401
 31
0.0
 12
492.6741372973134
 22
493.1202572162401
 32
0.0
 13
492.6741372973134
 23
493.1202572162401
 33
0.0
  0
SOLID
  5
1826
330
144B
100
AcDbEntity
  8
axis
 62
     0
440
 16777216
 48
0.2
370
   100
100
AcDbTrace
 10
492.2574706306467
 20
432.1202572162401
 30
0.0
 11
493.0908039639801
 21
432.1202572162401
 31
0.0
 12
492.6741372973134
 22
429.6202572162401
 32
0.0
 13
492.6741372973134
 23
429.6202572162401
 33
0.0
  0
MTEXT
  5
1827
330
144B
100
AcDbEntity
  8
axis
 62
     0
440
 16777216
 48
0.2
100
AcDbMText
 10
492.6741372973134
 20
461.3702572162398
 30
0.0
 40
5.0
 41
0.0
 71
     5
 72
     1
  1
2.5''  63.5mm Suggested
 73
     1
 44
1.0
  0
POINT
  5
1828
330
144B
100
AcDbEntity
  8
Defpoints
 62
     0
440
 16777216
 48
0.2
370
   100
100
AcDbPoint
 10
492.6741372973061
 20
493.1202572162401
 30
0.0
  0
POINT
  5
1829
330
144B
100
AcDbEntity
  8
Defpoints
 62
     0
440
 16777216
 48
0.2
370
   100
100
AcDbPoint
 10
562.7460258143819
 20
429.6202572162401
 30
0.0
  0
POINT
  5
182A
330
144B
100
AcDbEntity
  8
Defpoints
 62
     0
440
 16777216
 48
0.2
370
   100
100
AcDbPoint
 10
492.6741372973134
 20
429.6202572162401
 30
0.0
  0
ENDBLK
  5
144D
330
144B
100
AcDbEntity
  8
0
100
AcDbBlockEnd
  0
BLOCK
  5
1459
330
1458
100
AcDbEntity
  8
0
100
AcDbBlockBegin
  2
*D19
 70
     1
 10
0.0
 20
0.0
 30
0.0
  3
*D19
  1

  0
LINE
  5
17F3
330
1458
100
AcDbEntity
  8
axis
 62
     0
440
 16777216
 48
0.2
370
    -2
100
AcDbLine
 10
520.465816600189
 20
493.1202572162401
 30
0.0
 11
521.0908166001964
 21
493.1202572162401
 31
0.0
  0
LINE
  5
17F4
330
1458
100
AcDbEntity
  8
axis
 62
     0
440
 16777216
 48
0.2
370
    -2
100
AcDbLine
 10
493.2991372973065
 20
543.92025721624
 30
0.0
 11
521.0908166001964
 21
543.92025721624
 31
0.0
  0
LINE
  5
17F5
330
1458
100
AcDbEntity
  8
axis
 62
     0
440
 16777216
 48
0.2
370
    -2
100
AcDbLine
 10
519.8408166001963
 20
495.6202572162401
 30
0.0
 11
519.8408166001963
 21
514.6176310225156
 31
0.0
  0
LINE
  5
17F6
330
1458
100
AcDbEntity
  8
axis
 62
     0
440
 16777216
 48
0.2
370
    -2
100
AcDbLine
 10
519.8408166001963
 20
541.4202572162401
 30
0.0
 11
519.8408166001963
 21
522.4228834099646
 31
0.0
  0
SOLID
  5
17F7
330
1458
100
AcDbEntity
  8
axis
 62
     0
440
 16777216
 48
0.2
370
   100
100
AcDbTrace
 10
519.4241499335297
 20
495.6202572162401
 30
0.0
 11
520.257483266863
 21
495.6202572162401
 31
0.0
 12
519.8408166001963
 22
493.1202572162401
 32
0.0
 13
519.8408166001963
 23
493.1202572162401
 33
0.0
  0
SOLID
  5
17F8
330
1458
100
AcDbEntity
  8
axis
 62
     0
440
 16777216
 48
0.2
370
   100
100
AcDbTrace
 10
519.4241499335297
 20
541.4202572162401
 30
0.0
 11
520.257483266863
 21
541.4202572162401
 31
0.0
 12
519.8408166001963
 22
543.92025721624
 32
0.0
 13
519.8408166001963
 23
543.92025721624
 33
0.0
  0
MTEXT
  5
17F9
330
1458
100
AcDbEntity
  8
axis
 62
     0
440
 16777216
 48
0.2
100
AcDbMText
 10
519.8408166001963
 20
518.5202572162398
 30
0.0
 40
5.0
 41
0.0
 71
     5
 72
     1
  1
2''  50.8mm Suggested
 73
     1
 44
1.0
  0
POINT
  5
17FA
330
1458
100
AcDbEntity
  8
Defpoints
 62
     0
440
 16777216
 48
0.2
370
   100
100
AcDbPoint
 10
519.8408166001891
 20
493.1202572162401
 30
0.0
  0
POINT
  5
17FB
330
1458
100
AcDbEntity
  8
Defpoints
 62
     0
440
 16777216
 48
0.2
370
   100
100
AcDbPoint
 10
492.6741372973065
 20
543.92025721624
 30
0.0
  0
POINT
  5
17FC
330
1458
100
AcDbEntity
  8
Defpoints
 62
     0
440
 16777216
 48
0.2
370
   100
100
AcDbPoint
 10
519.8408166001963
 20
543.92025721624
 30
0.0
  0
ENDBLK
  5
145A
330
1458
100
AcDbEntity
  8
0
100
AcDbBlockEnd
  0
BLOCK
  5
149D
330
149C
100
AcDbEntity
  8
0
100
AcDbBlockBegin
  2
*D20
 70
     1
 10
0.0
 20
0.0
 30
0.0
  3
*D20
  1

  0
LINE
  5
14A9
330
149C
100
AcDbEntity
  8
axis
 62
     0
440
 16777216
370
    -2
100
AcDbLine
 10
1295.406959594783
 20
388.9527871364808
 30
0.0
 11
1295.406959594783
 21
128.8580441852648
 31
0.0
  0
LINE
  5
14AA
330
149C
100
AcDbEntity
  8
axis
 62
     0
440
 16777216
370
    -2
100
AcDbLine
 10
1825.406959594783
 20
388.9527871364808
 30
0.0
 11
1825.406959594783
 21
128.8580441852648
 31
0.0
  0
LINE
  5
14AB
330
149C
100
AcDbEntity
  8
axis
 62
     0
440
 16777216
370
    -2
100
AcDbLine
 10
1305.406959594783
 20
129.0380441852648
 30
0.0
 11
1815.406959594783
 21
129.0380441852648
 31
0.0
  0
SOLID
  5
14AC
330
149C
100
AcDbEntity
  8
axis
 62
     0
440
 16777216
100
AcDbTrace
 10
1305.406959594783
 20
130.7047108519315
 30
0.0
 11
1305.406959594783
 21
127.3713775185982
 31
0.0
 12
1295.406959594783
 22
129.0380441852648
 32
0.0
 13
1295.406959594783
 23
129.0380441852648
 33
0.0
  0
SOLID
  5
14AD
330
149C
100
AcDbEntity
  8
axis
 62
     0
440
 16777216
100
AcDbTrace
 10
1815.406959594783
 20
130.7047108519315
 30
0.0
 11
1815.406959594783
 21
127.3713775185982
 31
0.0
 12
1825.406959594783
 22
129.0380441852648
 32
0.0
 13
1825.406959594783
 23
129.0380441852648
 33
0.0
  0
MTEXT
  5
14AE
330
149C
100
AcDbEntity
  8
axis
 62
     0
440
 16777216
100
AcDbMText
 10
1560.406959594783
 20
138.8444902971339
 30
0.0
 40
7.5
 41
0.0
 71
     5
 72
     1
  1
\A1;530mm [20.87"]
 73
     1
 44
1.0
  0
POINT
  5
14AF
330
149C
100
AcDbEntity
  8
Defpoints
 62
     0
440
 16777216
100
AcDbPoint
 10
1295.406959594783
 20
389.0152871364808
 30
0.0
  0
POINT
  5
14B0
330
149C
100
AcDbEntity
  8
Defpoints
 62
     0
440
 16777216
100
AcDbPoint
 10
1825.406959594783
 20
389.0152871364808
 30
0.0
  0
POINT
  5
14B1
330
149C
100
AcDbEntity
  8
Defpoints
 62
     0
440
 16777216
100
AcDbPoint
 10
1825.406959594783
 20
129.0380441852648
 30
0.0
  0
ENDBLK
  5
149E
330
149C
100
AcDbEntity
  8
0
100
AcDbBlockEnd
  0
BLOCK
  5
14B5
330
14B4
100
AcDbEntity
  8
0
100
AcDbBlockBegin
  2
*D21
 70
     1
 10
0.0
 20
0.0
 30
0.0
  3
*D21
  1

  0
LINE
  5
14C1
330
14B4
100
AcDbEntity
  8
axis
 62
     0
440
 16777216
370
    -2
100
AcDbLine
 10
1602.931098199985
 20
517.2982638185987
 30
0.0
 11
1219.773220699936
 21
517.2982638185986
 31
0.0
  0
LINE
  5
14C2
330
14B4
100
AcDbEntity
  8
axis
 62
     0
440
 16777216
370
    -2
100
AcDbLine
 10
1602.931098199985
 20
172.2982638185986
 30
0.0
 11
1219.773220699936
 21
172.2982638185986
 31
0.0
  0
LINE
  5
14C3
330
14B4
100
AcDbEntity
  8
axis
 62
     0
440
 16777216
370
    -2
100
AcDbLine
 10
1219.953220699936
 20
507.2982638185987
 30
0.0
 11
1219.953220699936
 21
182.2982638185985
 31
0.0
  0
SOLID
  5
14C4
330
14B4
100
AcDbEntity
  8
axis
 62
     0
440
 16777216
100
AcDbTrace
 10
1218.28655403327
 20
507.2982638185987
 30
0.0
 11
1221.619887366603
 21
507.2982638185987
 31
0.0
 12
1219.953220699936
 22
517.2982638185986
 32
0.0
 13
1219.953220699936
 23
517.2982638185986
 33
0.0
  0
SOLID
  5
14C5
330
14B4
100
AcDbEntity
  8
axis
 62
     0
440
 16777216
100
AcDbTrace
 10
1218.28655403327
 20
182.2982638185985
 30
0.0
 11
1221.619887366603
 21
182.2982638185985
 31
0.0
 12
1219.953220699936
 22
172.2982638185986
 32
0.0
 13
1219.953220699936
 23
172.2982638185986
 33
0.0
  0
MTEXT
  5
14C6
330
14B4
100
AcDbEntity
  8
axis
 62
     0
440
 16777216
100
AcDbMText
 10
1210.146774588067
 20
344.7982638185982
 30
0.0
 40
7.5
 41
0.0
 71
     5
 72
     1
  1
\A1;345mm [13.58"]
 11
0.0000000000000001
 21
1.0
 31
0.0
 73
     1
 44
1.0
  0
POINT
  5
14C7
330
14B4
100
AcDbEntity
  8
Defpoints
 62
     0
440
 16777216
100
AcDbPoint
 10
1602.993598199985
 20
517.2982638185987
 30
0.0
  0
POINT
  5
14C8
330
14B4
100
AcDbEntity
  8
Defpoints
 62
     0
440
 16777216
100
AcDbPoint
 10
1602.993598199985
 20
172.2982638185986
 30
0.0
  0
POINT
  5
14C9
330
14B4
100
AcDbEntity
  8
Defpoints
 62
     0
440
 16777216
100
AcDbPoint
 10
1219.953220699936
 20
172.2982638185986
 30
0.0
  0
ENDBLK
  5
14B6
330
14B4
100
AcDbEntity
  8
0
100
AcDbBlockEnd
  0
BLOCK
  5
14D8
330
14D7
100
AcDbEntity
  8
0
100
AcDbBlockBegin
  2
*D23
 70
     1
 10
0.0
 20
0.0
 30
0.0
  3
*D23
  1

  0
LINE
  5
14E2
330
14D7
100
AcDbEntity
  8
axis
 62
     0
440
 16777216
370
    -2
100
AcDbLine
 10
915.353566457496
 20
475.9451712711302
 30
0.0
 11
825.0849636729535
 21
444.5169796418483
 31
0.0
  0
MTEXT
  5
14E3
330
14D7
100
AcDbEntity
  8
axis
 62
     0
440
 16777216
100
AcDbMText
 10
871.7168516379295
 20
471.13628612856
 30
0.0
 40
7.5
 41
0.0
 71
     5
 72
     1
  1
\A1;R30mm [R1.18"]
 11
0.9443980137886846
 21
0.3288044883391764
 31
0.0
 73
     1
 44
1.0
  0
SOLID
  5
14E4
330
14D7
100
AcDbEntity
  8
axis
 62
     0
440
 16777216
100
AcDbTrace
 10
824.5369561923881
 20
446.0909763314961
 30
0.0
 11
825.6329711535187
 21
442.9429829522005
 31
0.0
 12
815.6409835350665
 22
441.2289347584565
 32
0.0
 13
815.6409835350665
 23
441.2289347584565
 33
0.0
  0
LINE
  5
14E5
330
14D7
100
AcDbEntity
  8
axis
 62
     0
440
 16777216
370
    -2
100
AcDbLine
 10
787.1090431214055
 20
431.3648001082811
 30
0.0
 11
787.5090431214056
 21
431.3648001082811
 31
0.0
  0
LINE
  5
14E6
330
14D7
100
AcDbEntity
  8
axis
 62
     0
440
 16777216
370
    -2
100
AcDbLine
 10
787.3090431214055
 20
431.1648001082812
 30
0.0
 11
787.3090431214055
 21
431.5648001082812
 31
0.0
  0
POINT
  5
14E7
330
14D7
100
AcDbEntity
  8
Defpoints
 62
     0
440
 16777216
100
AcDbPoint
 10
815.6409835350665
 20
441.2289347584565
 30
0.0
  0
POINT
  5
14E8
330
14D7
100
AcDbEntity
  8
Defpoints
 62
     0
440
 16777216
100
AcDbPoint
 10
787.3090431214055
 20
431.3648001082811
 30
0.0
  0
ENDBLK
  5
14D9
330
14D7
100
AcDbEntity
  8
0
100
AcDbBlockEnd
  0
BLOCK
  5
14EC
330
14EB
100
AcDbEntity
  8
0
100
AcDbBlockBegin
  2
*D24
 70
     1
 10
0.0
 20
0.0
 30
0.0
  3
*D24
  1

  0
LINE
  5
14F6
330
14EB
100
AcDbEntity
  8
axis
 62
     0
440
 16777216
370
    -2
100
AcDbLine
 10
875.6657527511675
 20
43.52559886291078
 30
0.0
 11
813.3761950479986
 21
116.024998025276
 31
0.0
  0
MTEXT
  5
14F7
330
14EB
100
AcDbEntity
  8
axis
 62
     0
440
 16777216
100
AcDbMText
 10
855.2175087447013
 20
82.37347620016885
 30
0.0
 40
7.5
 41
0.0
 71
     5
 72
     1
  1
\A1;R30mm [R1.18"]
 11
0.6516787981648231
 21
-0.7584950520751285
 31
0.0
 73
     1
 44
1.0
  0
SOLID
  5
14F8
330
14EB
100
AcDbEntity
  8
axis
 62
     0
440
 16777216
100
AcDbTrace
 10
814.6403534681237
 20
117.1111293555507
 30
0.0
 11
812.1120366278734
 21
114.9388666950013
 31
0.0
 12
806.8594070663502
 22
123.6099485460273
 32
0.0
 13
806.8594070663502
 23
123.6099485460273
 33
0.0
  0
LINE
  5
14F9
330
14EB
100
AcDbEntity
  8
axis
 62
     0
440
 16777216
370
    -2
100
AcDbLine
 10
787.1090431214055
 20
146.3648001082812
 30
0.0
 11
787.5090431214055
 21
146.3648001082811
 31
0.0
  0
LINE
  5
14FA
330
14EB
100
AcDbEntity
  8
axis
 62
     0
440
 16777216
370
    -2
100
AcDbLine
 10
787.3090431214056
 20
146.1648001082812
 30
0.0
 11
787.3090431214056
 21
146.5648001082812
 31
0.0
  0
POINT
  5
14FB
330
14EB
100
AcDbEntity
  8
Defpoints
 62
     0
440
 16777216
100
AcDbPoint
 10
806.8594070663502
 20
123.6099485460273
 30
0.0
  0
POINT
  5
14FC
330
14EB
100
AcDbEntity
  8
Defpoints
 62
     0
440
 16777216
100
AcDbPoint
 10
787.3090431214055
 20
146.3648001082812
 30
0.0
  0
ENDBLK
  5
14ED
330
14EB
100
AcDbEntity
  8
0
100
AcDbBlockEnd
  0
BLOCK
  5
1500
330
14FF
100
AcDbEntity
  8
0
100
AcDbBlockBegin
  2
*D25
 70
     1
 10
0.0
 20
0.0
 30
0.0
  3
*D25
  1

  0
LINE
  5
150A
330
14FF
100
AcDbEntity
  8
axis
 62
     0
440
 16777216
370
    -2
100
AcDbLine
 10
796.4592058965324
 20
59.0001667822012
 30
0.0
 11
767.3730392919467
 21
150.050409999947
 31
0.0
  0
MTEXT
  5
150B
330
14FF
100
AcDbEntity
  8
axis
 62
     0
440
 16777216
100
AcDbMText
 10
792.7790140145482
 20
102.7465317085627
 30
0.0
 40
7.5
 41
0.0
 71
     5
 72
     1
  1
\A1;R15mm [R0.59"]
 11
0.304302017786424
 21
-0.9525756043333835
 31
0.0
 73
     1
 44
1.0
  0
SOLID
  5
150C
330
14FF
100
AcDbEntity
  8
axis
 62
     0
440
 16777216
100
AcDbTrace
 10
768.960665299169
 20
150.557580029591
 30
0.0
 11
765.7854132847245
 21
149.543239970303
 31
0.0
 12
764.3300191140824
 22
159.5761660432808
 32
0.0
 13
764.3300191140824
 23
159.5761660432808
 33
0.0
  0
LINE
  5
150D
330
14FF
100
AcDbEntity
  8
axis
 62
     0
440
 16777216
370
    -2
100
AcDbLine
 10
759.5654888472862
 20
173.8648001082813
 30
0.0
 11
759.9654888472863
 21
173.8648001082813
 31
0.0
  0
LINE
  5
150E
330
14FF
100
AcDbEntity
  8
axis
 62
     0
440
 16777216
370
    -2
100
AcDbLine
 10
759.7654888472864
 20
173.6648001082814
 30
0.0
 11
759.7654888472862
 21
174.0648001082813
 31
0.0
  0
POINT
  5
150F
330
14FF
100
AcDbEntity
  8
Defpoints
 62
     0
440
 16777216
100
AcDbPoint
 10
764.3300191140824
 20
159.5761660432808
 30
0.0
  0
POINT
  5
1510
330
14FF
100
AcDbEntity
  8
Defpoints
 62
     0
440
 16777216
100
AcDbPoint
 10
759.7654888472861
 20
173.8648001082813
 30
0.0
  0
ENDBLK
  5
1501
330
14FF
100
AcDbEntity
  8
0
100
AcDbBlockEnd
  0
BLOCK
  5
1514
330
1513
100
AcDbEntity
  8
0
100
AcDbBlockBegin
  2
*D26
 70
     1
 10
0.0
 20
0.0
 30
0.0
  3
*D26
  1

  0
LINE
  5
151F
330
1513
100
AcDbEntity
  8
axis
 62
     0
440
 16777216
370
    -2
100
AcDbLine
 10
664.2089022040127
 20
330.3171855370966
 30
0.0
 11
739.9541529656517
 21
388.6164896908925
 31
0.0
  0
MTEXT
  5
1520
330
1513
100
AcDbEntity
  8
axis
 62
     0
440
 16777216
100
AcDbMText
 10
692.1379910322983
 20
364.1883274396124
 30
0.0
 40
7.5
 41
0.0
 71
     5
 72
     1
  1
\A1;R15mm [R0.59"]
 11
0.7924534352653911
 21
0.6099324166955553
 31
0.0
 73
     1
 44
1.0
  0
SOLID
  5
1521
330
1513
100
AcDbEntity
  8
axis
 62
     0
440
 16777216
100
AcDbTrace
 10
738.9375989378258
 20
389.9372454163349
 30
0.0
 11
740.9707069934777
 21
387.2957339654502
 31
0.0
 12
747.8786873183057
 22
394.7158138578481
 32
0.0
 13
747.8786873183057
 23
394.7158138578481
 33
0.0
  0
LINE
  5
1522
330
1513
100
AcDbEntity
  8
axis
 62
     0
440
 16777216
370
    -2
100
AcDbLine
 10
759.5654888472861
 20
403.8648001082811
 30
0.0
 11
759.9654888472862
 21
403.8648001082811
 31
0.0
  0
LINE
  5
1523
330
1513
100
AcDbEntity
  8
axis
 62
     0
440
 16777216
370
    -2
100
AcDbLine
 10
759.7654888472861
 20
403.6648001082811
 30
0.0
 11
759.7654888472861
 21
404.0648001082811
 31
0.0
  0
ARC
  5
1524
330
1513
100
AcDbEntity
  8
axis
 62
     0
440
 16777216
370
    -2
100
AcDbCircle
 10
759.7654888472861
 20
403.8648001082812
 30
0.0
 40
14.99999999999966
100
AcDbArc
 50
90.2387324146378
 51
218.2721657666451
  0
POINT
  5
1525
330
1513
100
AcDbEntity
  8
Defpoints
 62
     0
440
 16777216
100
AcDbPoint
 10
747.8786873183057
 20
394.7158138578481
 30
0.0
  0
POINT
  5
1526
330
1513
100
AcDbEntity
  8
Defpoints
 62
     0
440
 16777216
100
AcDbPoint
 10
759.7654888472861
 20
403.8648001082812
 30
0.0
  0
ENDBLK
  5
1515
330
1513
100
AcDbEntity
  8
0
100
AcDbBlockEnd
  0
BLOCK
  5
15F4
330
15F3
100
AcDbEntity
  8
0
100
AcDbBlockBegin
  2
*D27
 70
     1
 10
0.0
 20
0.0
 30
0.0
  3
*D27
  1

  0
LINE
  5
1601
330
15F3
100
AcDbEntity
  8
axis
 62
     0
440
 16777216
370
    -2
100
AcDbLine
 10
552.3715431214062
 20
461.3648001082817
 30
0.0
 11
590.0552720403799
 21
461.3648001082817
 31
0.0
  0
LINE
  5
1602
330
15F3
100
AcDbEntity
  8
axis
 62
     0
440
 16777216
370
    -2
100
AcDbLine
 10
552.3279888472863
 20
418.8648001082817
 30
0.0
 11
590.0552720403799
 21
418.8648001082817
 31
0.0
  0
LINE
  5
1603
330
15F3
100
AcDbEntity
  8
axis
 62
     0
440
 16777216
370
    -2
100
AcDbLine
 10
589.8752720403799
 20
451.3648001082818
 30
0.0
 11
589.8752720403799
 21
428.8648001082817
 31
0.0
  0
LINE
  5
1604
330
15F3
100
AcDbEntity
  8
axis
 62
     0
440
 16777216
370
    -2
100
AcDbLine
 10
589.8752720403799
 20
418.8648001082817
 30
0.0
 11
589.8752720403799
 21
337.7239406266992
 31
0.0
  0
SOLID
  5
1605
330
15F3
100
AcDbEntity
  8
axis
 62
     0
440
 16777216
100
AcDbTrace
 10
588.2086053737133
 20
451.3648001082818
 30
0.0
 11
591.5419387070466
 21
451.3648001082818
 31
0.0
 12
589.8752720403799
 22
461.3648001082817
 32
0.0
 13
589.8752720403799
 23
461.3648001082817
 33
0.0
  0
SOLID
  5
1606
330
15F3
100
AcDbEntity
  8
axis
 62
     0
440
 16777216
100
AcDbTrace
 10
588.2086053737133
 20
428.8648001082817
 30
0.0
 11
591.5419387070466
 21
428.8648001082817
 31
0.0
 12
589.8752720403799
 22
418.8648001082817
 32
0.0
 13
589.8752720403799
 23
418.8648001082817
 33
0.0
  0
MTEXT
  5
1607
330
15F3
100
AcDbEntity
  8
axis
 62
     0
440
 16777216
100
AcDbMText
 10
580.0688259285109
 20
373.2943703674902
 30
0.0
 40
7.5
 41
0.0
 71
     5
 72
     1
  1
\A1;43mm [1.67"]
 11
0.0000000000000001
 21
1.0
 31
0.0
 73
     1
 44
1.0
  0
POINT
  5
1608
330
15F3
100
AcDbEntity
  8
Defpoints
 62
     0
440
 16777216
100
AcDbPoint
 10
552.3090431214062
 20
461.3648001082817
 30
0.0
  0
POINT
  5
1609
330
15F3
100
AcDbEntity
  8
Defpoints
 62
     0
440
 16777216
100
AcDbPoint
 10
552.2654888472864
 20
418.8648001082817
 30
0.0
  0
POINT
  5
160A
330
15F3
100
AcDbEntity
  8
Defpoints
 62
     0
440
 16777216
100
AcDbPoint
 10
589.8752720403799
 20
418.8648001082817
 30
0.0
  0
ENDBLK
  5
15F5
330
15F3
100
AcDbEntity
  8
0
100
AcDbBlockEnd
  0
BLOCK
  5
1610
330
160F
100
AcDbEntity
  8
0
370
   100
100
AcDbBlockBegin
  2
*D28
 70
     1
 10
0.0
 20
0.0
 30
0.0
  3
*D28
  1

  0
LINE
  5
17FD
330
160F
100
AcDbEntity
  8
zhonxingxian
 62
     0
440
 16777216
370
    -2
100
AcDbLine
 10
534.0898621101207
 20
387.1202572162403
 30
0.0
 11
533.9723621101206
 21
387.1202572162403
 31
0.0
  0
LINE
  5
17FE
330
160F
100
AcDbEntity
  8
zhonxingxian
 62
     0
440
 16777216
370
    -2
100
AcDbLine
 10
534.0898621101207
 20
122.1202572162402
 30
0.0
 11
533.9723621101207
 21
122.1202572162402
 31
0.0
  0
LINE
  5
17FF
330
160F
100
AcDbEntity
  8
zhonxingxian
 62
     0
440
 16777216
370
    -2
100
AcDbLine
 10
534.1523621101205
 20
377.1202572162402
 30
0.0
 11
534.1523621101206
 21
132.1202572162402
 31
0.0
  0
SOLID
  5
1800
330
160F
100
AcDbEntity
  8
zhonxingxian
 62
     0
440
 16777216
370
   100
100
AcDbTrace
 10
532.4856954434538
 20
377.1202572162402
 30
0.0
 11
535.8190287767871
 21
377.1202572162402
 31
0.0
 12
534.1523621101205
 22
387.1202572162403
 32
0.0
 13
534.1523621101205
 23
387.1202572162403
 33
0.0
  0
SOLID
  5
1801
330
160F
100
AcDbEntity
  8
zhonxingxian
 62
     0
440
 16777216
370
   100
100
AcDbTrace
 10
532.4856954434539
 20
132.1202572162402
 30
0.0
 11
535.8190287767873
 21
132.1202572162402
 31
0.0
 12
534.1523621101206
 22
122.1202572162402
 32
0.0
 13
534.1523621101206
 23
122.1202572162402
 33
0.0
  0
MTEXT
  5
1802
330
160F
100
AcDbEntity
  8
zhonxingxian
 62
     0
440
 16777216
370
   100
100
AcDbMText
 10
524.3459159982514
 20
211.3838253869299
 30
0.0
 40
7.5
 41
0.0
 71
     5
 72
     1
  1
\A1;265mm [10.43"]
 11
0.0000000000000001
 21
1.0
 31
0.0
 73
     1
 44
1.0
  0
POINT
  5
1803
330
160F
100
AcDbEntity
  8
Defpoints
 62
     0
440
 16777216
370
   100
100
AcDbPoint
 10
534.1523621101207
 20
387.1202572162403
 30
0.0
  0
POINT
  5
1804
330
160F
100
AcDbEntity
  8
Defpoints
 62
     0
440
 16777216
370
   100
100
AcDbPoint
 10
534.1523621101207
 20
122.1202572162402
 30
0.0
  0
POINT
  5
1805
330
160F
100
AcDbEntity
  8
Defpoints
 62
     0
440
 16777216
370
   100
100
AcDbPoint
 10
534.1523621101206
 20
122.1202572162402
 30
0.0
  0
ENDBLK
  5
1611
330
160F
100
AcDbEntity
  8
0
370
   100
100
AcDbBlockEnd
  0
BLOCK
  5
1628
330
1627
100
AcDbEntity
  8
0
370
   100
100
AcDbBlockBegin
  2
*D29
 70
     1
 10
0.0
 20
0.0
 30
0.0
  3
*D29
  1

  0
LINE
  5
182B
330
1627
100
AcDbEntity
  8
zhonxingxian
 62
     0
440
 16777216
370
    -2
100
AcDbLine
 10
309.1523621101205
 20
254.6827572162401
 30
0.0
 11
309.1523621101205
 21
254.8002572162401
 31
0.0
  0
LINE
  5
182C
330
1627
100
AcDbEntity
  8
zhonxingxian
 62
     0
440
 16777216
370
    -2
100
AcDbLine
 10
759.1523621101205
 20
254.6827572162401
 30
0.0
 11
759.1523621101205
 21
254.8002572162401
 31
0.0
  0
LINE
  5
182D
330
1627
100
AcDbEntity
  8
zhonxingxian
 62
     0
440
 16777216
370
    -2
100
AcDbLine
 10
319.1523621101205
 20
254.6202572162401
 30
0.0
 11
749.1523621101205
 21
254.6202572162401
 31
0.0
  0
SOLID
  5
182E
330
1627
100
AcDbEntity
  8
zhonxingxian
 62
     0
440
 16777216
370
   100
100
AcDbTrace
 10
319.1523621101205
 20
256.2869238829068
 30
0.0
 11
319.1523621101205
 21
252.9535905495734
 31
0.0
 12
309.1523621101205
 22
254.6202572162401
 32
0.0
 13
309.1523621101205
 23
254.6202572162401
 33
0.0
  0
SOLID
  5
182F
330
1627
100
AcDbEntity
  8
zhonxingxian
 62
     0
440
 16777216
370
   100
100
AcDbTrace
 10
749.1523621101205
 20
256.2869238829068
 30
0.0
 11
749.1523621101205
 21
252.9535905495734
 31
0.0
 12
759.1523621101205
 22
254.6202572162401
 32
0.0
 13
759.1523621101205
 23
254.6202572162401
 33
0.0
  0
MTEXT
  5
1830
330
1627
100
AcDbEntity
  8
zhonxingxian
 62
     0
440
 16777216
370
   100
100
AcDbMText
 10
580.2934716903453
 20
264.4267033281091
 30
0.0
 40
7.5
 41
0.0
 71
     5
 72
     1
  1
\A1;450mm [17.72"]
 73
     1
 44
1.0
  0
POINT
  5
1831
330
1627
100
AcDbEntity
  8
Defpoints
 62
     0
440
 16777216
370
   100
100
AcDbPoint
 10
309.1523621101205
 20
254.6202572162401
 30
0.0
  0
POINT
  5
1832
330
1627
100
AcDbEntity
  8
Defpoints
 62
     0
440
 16777216
370
   100
100
AcDbPoint
 10
759.1523621101205
 20
254.6202572162401
 30
0.0
  0
POINT
  5
1833
330
1627
100
AcDbEntity
  8
Defpoints
 62
     0
440
 16777216
370
   100
100
AcDbPoint
 10
759.1523621101205
 20
254.6202572162401
 30
0.0
  0
ENDBLK
  5
1629
330
1627
100
AcDbEntity
  8
0
370
   100
100
AcDbBlockEnd
  0
BLOCK
  5
16D6
330
16D5
100
AcDbEntity
  8
0
370
   100
100
AcDbBlockBegin
  2
*D30
 70
     1
 10
0.0
 20
0.0
 30
0.0
  3
*D30
  1

  0
LINE
  5
16E2
330
16D5
100
AcDbEntity
  8
zhonxingxian
  6
ACAD_ISO04W100
 62
     0
440
 16777216
370
    -2
100
AcDbLine
 10
842.3249836336205
 20
418.8648001082817
 30
0.0
 11
873.2708829294194
 21
418.8648001082817
 31
0.0
  0
LINE
  5
16E3
330
16D5
100
AcDbEntity
  8
zhonxingxian
  6
ACAD_ISO04W100
 62
     0
440
 16777216
370
    -2
100
AcDbLine
 10
817.3715431214064
 20
288.8648001082817
 30
0.0
 11
873.2708829294194
 21
288.8648001082817
 31
0.0
  0
LINE
  5
16E4
330
16D5
100
AcDbEntity
  8
zhonxingxian
  6
ACAD_ISO04W100
 62
     0
440
 16777216
370
    -2
100
AcDbLine
 10
873.0908829294193
 20
408.8648001082817
 30
0.0
 11
873.0908829294193
 21
298.8648001082816
 31
0.0
  0
SOLID
  5
16E5
330
16D5
100
AcDbEntity
  8
zhonxingxian
  6
ACAD_ISO04W100
 62
     0
440
 16777216
370
   100
100
AcDbTrace
 10
871.4242162627527
 20
408.8648001082817
 30
0.0
 11
874.7575495960861
 21
408.8648001082817
 31
0.0
 12
873.0908829294193
 22
418.8648001082817
 32
0.0
 13
873.0908829294193
 23
418.8648001082817
 33
0.0
  0
SOLID
  5
16E6
330
16D5
100
AcDbEntity
  8
zhonxingxian
  6
ACAD_ISO04W100
 62
     0
440
 16777216
370
   100
100
AcDbTrace
 10
871.4242162627527
 20
298.8648001082816
 30
0.0
 11
874.7575495960861
 21
298.8648001082816
 31
0.0
 12
873.0908829294193
 22
288.8648001082817
 32
0.0
 13
873.0908829294193
 23
288.8648001082817
 33
0.0
  0
MTEXT
  5
16E7
330
16D5
100
AcDbEntity
  8
zhonxingxian
  6
ACAD_ISO04W100
 62
     0
440
 16777216
370
   100
100
AcDbMText
 10
863.2844368175502
 20
353.8648001082814
 30
0.0
 40
7.5
 41
0.0
 71
     5
 72
     1
  1
\A1;130mm [5.12"]
 11
0.0000000000000001
 21
1.0
 31
0.0
 73
     1
 44
1.0
  0
POINT
  5
16E8
330
16D5
100
AcDbEntity
  8
Defpoints
  6
ACAD_ISO04W100
 62
     0
440
 16777216
370
   100
100
AcDbPoint
 10
842.2624836336204
 20
418.8648001082817
 30
0.0
  0
POINT
  5
16E9
330
16D5
100
AcDbEntity
  8
Defpoints
  6
ACAD_ISO04W100
 62
     0
440
 16777216
370
   100
100
AcDbPoint
 10
817.3090431214065
 20
288.8648001082817
 30
0.0
  0
POINT
  5
16EA
330
16D5
100
AcDbEntity
  8
Defpoints
  6
ACAD_ISO04W100
 62
     0
440
 16777216
370
   100
100
AcDbPoint
 10
873.0908829294193
 20
288.8648001082817
 30
0.0
  0
ENDBLK
  5
16D7
330
16D5
100
AcDbEntity
  8
0
370
   100
100
AcDbBlockEnd
  0
BLOCK
  5
1702
330
1701
100
AcDbEntity
  8
0
370
   100
100
AcDbBlockBegin
  2
*D32
 70
     1
 10
0.0
 20
0.0
 30
0.0
  3
*D32
  1

  0
LINE
  5
171A
330
1701
100
AcDbEntity
  8
zhonxingxian
  6
ACAD_ISO04W100
 62
     0
440
 16777216
370
    -2
100
AcDbLine
 10
1826.308515336248
 20
487.3607638185985
 30
0.0
 11
1826.308515336248
 21
597.2922573846878
 31
0.0
  0
LINE
  5
171B
330
1701
100
AcDbEntity
  8
zhonxingxian
  6
ACAD_ISO04W100
 62
     0
440
 16777216
370
    -2
100
AcDbLine
 10
1851.308515298541
 20
472.3607904746143
 30
0.0
 11
1851.308515298541
 21
597.2922573846878
 31
0.0
  0
LINE
  5
171C
330
1701
100
AcDbEntity
  8
zhonxingxian
  6
ACAD_ISO04W100
 62
     0
440
 16777216
370
    -2
100
AcDbLine
 10
1816.308515336248
 20
597.1122573846878
 30
0.0
 11
1806.308515336248
 21
597.1122573846878
 31
0.0
  0
LINE
  5
171D
330
1701
100
AcDbEntity
  8
zhonxingxian
  6
ACAD_ISO04W100
 62
     0
440
 16777216
370
    -2
100
AcDbLine
 10
1861.308515298541
 20
597.1122573846878
 30
0.0
 11
1942.275432078896
 21
597.1122573846878
 31
0.0
  0
SOLID
  5
171E
330
1701
100
AcDbEntity
  8
zhonxingxian
  6
ACAD_ISO04W100
 62
     0
440
 16777216
370
   100
100
AcDbTrace
 10
1816.308515336248
 20
598.7789240513544
 30
0.0
 11
1816.308515336248
 21
595.4455907180212
 31
0.0
 12
1826.308515336248
 22
597.1122573846878
 32
0.0
 13
1826.308515336248
 23
597.1122573846878
 33
0.0
  0
SOLID
  5
171F
330
1701
100
AcDbEntity
  8
zhonxingxian
  6
ACAD_ISO04W100
 62
     0
440
 16777216
370
   100
100
AcDbTrace
 10
1861.308515298541
 20
598.7789240513544
 30
0.0
 11
1861.308515298541
 21
595.4455907180212
 31
0.0
 12
1851.308515298541
 22
597.1122573846878
 32
0.0
 13
1851.308515298541
 23
597.1122573846878
 33
0.0
  0
MTEXT
  5
1720
330
1701
100
AcDbEntity
  8
zhonxingxian
  6
ACAD_ISO04W100
 62
     0
440
 16777216
370
   100
100
AcDbMText
 10
1906.791973688719
 20
606.9187034965568
 30
0.0
 40
7.5
 41
0.0
 71
     5
 72
     1
  1
\A1;25mm [0.98"]
 73
     1
 44
1.0
  0
POINT
  5
1721
330
1701
100
AcDbEntity
  8
Defpoints
  6
ACAD_ISO04W100
 62
     0
440
 16777216
370
   100
100
AcDbPoint
 10
1826.308515336248
 20
487.2982638185986
 30
0.0
  0
POINT
  5
1722
330
1701
100
AcDbEntity
  8
Defpoints
  6
ACAD_ISO04W100
 62
     0
440
 16777216
370
   100
100
AcDbPoint
 10
1851.308515298541
 20
472.2982904746142
 30
0.0
  0
POINT
  5
1723
330
1701
100
AcDbEntity
  8
Defpoints
  6
ACAD_ISO04W100
 62
     0
440
 16777216
370
   100
100
AcDbPoint
 10
1851.308515298541
 20
597.1122573846878
 30
0.0
  0
ENDBLK
  5
1703
330
1701
100
AcDbEntity
  8
0
370
   100
100
AcDbBlockEnd
  0
BLOCK
  5
1735
330
1734
100
AcDbEntity
  8
0
370
   100
100
AcDbBlockBegin
  2
*D33
 70
     1
 10
0.0
 20
0.0
 30
0.0
  3
*D33
  1

  0
LINE
  5
180F
330
1734
100
AcDbEntity
  8
zhonxingxian
 62
     0
440
 16777216
370
    -2
100
AcDbLine
 10
801.6523621101205
 20
490.1397657878642
 30
0.0
 11
801.6523621101205
 21
510.6842507823293
 31
0.0
  0
LINE
  5
1810
330
1734
100
AcDbEntity
  8
zhonxingxian
 62
     0
440
 16777216
370
    -2
100
AcDbLine
 10
826.6523620724138
 20
489.690029645877
 30
0.0
 11
826.6523620724138
 21
510.6842507823293
 31
0.0
  0
LINE
  5
1811
330
1734
100
AcDbEntity
  8
zhonxingxian
 62
     0
440
 16777216
370
    -2
100
AcDbLine
 10
804.1523621101205
 20
509.4342507823293
 30
0.0
 11
824.1523620724137
 21
509.4342507823293
 31
0.0
  0
SOLID
  5
1812
330
1734
100
AcDbEntity
  8
zhonxingxian
 62
     0
440
 16777216
370
   100
100
AcDbTrace
 10
804.1523621101205
 20
509.8509174489961
 30
0.0
 11
804.1523621101205
 21
509.0175841156627
 31
0.0
 12
801.6523621101205
 22
509.4342507823293
 32
0.0
 13
801.6523621101205
 23
509.4342507823293
 33
0.0
  0
SOLID
  5
1813
330
1734
100
AcDbEntity
  8
zhonxingxian
 62
     0
440
 16777216
370
   100
100
AcDbTrace
 10
824.1523620724137
 20
509.8509174489961
 30
0.0
 11
824.1523620724137
 21
509.0175841156627
 31
0.0
 12
826.6523620724138
 22
509.4342507823293
 32
0.0
 13
826.6523620724138
 23
509.4342507823293
 33
0.0
  0
MTEXT
  5
1814
330
1734
100
AcDbEntity
  8
zhonxingxian
 62
     0
440
 16777216
370
   100
100
AcDbMText
 10
814.1523620912671
 20
512.6121157209378
 30
0.0
 40
5.0
 41
0.0
 71
     5
 72
     1
  1
25mm
 73
     1
 44
1.0
  0
POINT
  5
1815
330
1734
100
AcDbEntity
  8
Defpoints
 62
     0
440
 16777216
370
   100
100
AcDbPoint
 10
801.6523621101205
 20
489.5147657878642
 30
0.0
  0
POINT
  5
1816
330
1734
100
AcDbEntity
  8
Defpoints
 62
     0
440
 16777216
370
   100
100
AcDbPoint
 10
826.6523620724138
 20
489.0650296458771
 30
0.0
  0
POINT
  5
1817
330
1734
100
AcDbEntity
  8
Defpoints
 62
     0
440
 16777216
370
   100
100
AcDbPoint
 10
826.6523620724138
 20
509.4342507823293
 30
0.0
  0
ENDBLK
  5
1736
330
1734
100
AcDbEntity
  8
0
370
   100
100
AcDbBlockEnd
  0
BLOCK
  5
17A2
330
17A1
100
AcDbEntity
  8
0
370
   100
100
AcDbBlockBegin
  2
*D34
 70
     1
 10
0.0
 20
0.0
 30
0.0
  3
*D34
  1

  0
LINE
  5
1818
330
17A1
100
AcDbEntity
  8
zhonxingxian
 62
     0
440
 16777216
370
    -2
100
AcDbLine
 10
266.6523621101205
 20
490.1397657878642
 30
0.0
 11
266.6523621101205
 21
510.6842507823293
 31
0.0
  0
LINE
  5
1819
330
17A1
100
AcDbEntity
  8
zhonxingxian
 62
     0
440
 16777216
370
    -2
100
AcDbLine
 10
241.6523621478273
 20
489.690029645877
 30
0.0
 11
241.6523621478273
 21
510.6842507823293
 31
0.0
  0
LINE
  5
181A
330
17A1
100
AcDbEntity
  8
zhonxingxian
 62
     0
440
 16777216
370
    -2
100
AcDbLine
 10
264.1523621101205
 20
509.4342507823293
 30
0.0
 11
244.1523621478272
 21
509.4342507823293
 31
0.0
  0
SOLID
  5
181B
330
17A1
100
AcDbEntity
  8
zhonxingxian
 62
     0
440
 16777216
370
   100
100
AcDbTrace
 10
264.1523621101205
 20
509.8509174489961
 30
0.0
 11
264.1523621101205
 21
509.0175841156627
 31
0.0
 12
266.6523621101205
 22
509.4342507823293
 32
0.0
 13
266.6523621101205
 23
509.4342507823293
 33
0.0
  0
SOLID
  5
181C
330
17A1
100
AcDbEntity
  8
zhonxingxian
 62
     0
440
 16777216
370
   100
100
AcDbTrace
 10
244.1523621478272
 20
509.8509174489961
 30
0.0
 11
244.1523621478272
 21
509.0175841156627
 31
0.0
 12
241.6523621478273
 22
509.4342507823293
 32
0.0
 13
241.6523621478273
 23
509.4342507823293
 33
0.0
  0
MTEXT
  5
181D
330
17A1
100
AcDbEntity
  8
zhonxingxian
 62
     0
440
 16777216
370
   100
100
AcDbMText
 10
254.1523621289739
 20
512.6121157209378
 30
0.0
 40
5.0
 41
0.0
 71
     5
 72
     1
  1
25mm
 73
     1
 44
1.0
  0
POINT
  5
181E
330
17A1
100
AcDbEntity
  8
Defpoints
 62
     0
440
 16777216
370
   100
100
AcDbPoint
 10
266.6523621101205
 20
489.5147657878642
 30
0.0
  0
POINT
  5
181F
330
17A1
100
AcDbEntity
  8
Defpoints
 62
     0
440
 16777216
370
   100
100
AcDbPoint
 10
241.6523621478273
 20
489.0650296458771
 30
0.0
  0
POINT
  5
1820
330
17A1
100
AcDbEntity
  8
Defpoints
 62
     0
440
 16777216
370
   100
100
AcDbPoint
 10
241.6523621478273
 20
509.4342507823293
 30
0.0
  0
ENDBLK
  5
17A3
330
17A1
100
AcDbEntity
  8
0
370
   100
100
AcDbBlockEnd
  0
BLOCK
  5
17B9
330
17B8
100
AcDbEntity
  8
0
370
   100
100
AcDbBlockBegin
  2
*D35
 70
     1
 10
0.0
 20
0.0
 30
0.0
  3
*D35
  1

  0
LINE
  5
17C6
330
17B8
100
AcDbEntity
  8
zhonxingxian
  6
ACAD_ISO04W100
 62
     0
440
 16777216
370
    -2
100
AcDbLine
 10
1266.308515373955
 20
212.2357371625829
 30
0.0
 11
1266.308515373955
 21
130.8271531162411
 31
0.0
  0
LINE
  5
17C7
330
17B8
100
AcDbEntity
  8
zhonxingxian
  6
ACAD_ISO04W100
 62
     0
440
 16777216
370
    -2
100
AcDbLine
 10
1291.308515336248
 20
212.2357371625829
 30
0.0
 11
1291.308515336248
 21
130.8271531162411
 31
0.0
  0
LINE
  5
17C8
330
17B8
100
AcDbEntity
  8
zhonxingxian
  6
ACAD_ISO04W100
 62
     0
440
 16777216
370
    -2
100
AcDbLine
 10
1256.308515373955
 20
131.0071531162412
 30
0.0
 11
1246.308515373955
 21
131.0071531162412
 31
0.0
  0
LINE
  5
17C9
330
17B8
100
AcDbEntity
  8
zhonxingxian
  6
ACAD_ISO04W100
 62
     0
440
 16777216
370
    -2
100
AcDbLine
 10
1301.308515336248
 20
131.0071531162412
 30
0.0
 11
1382.275432116603
 21
131.0071531162412
 31
0.0
  0
SOLID
  5
17CA
330
17B8
100
AcDbEntity
  8
zhonxingxian
  6
ACAD_ISO04W100
 62
     0
440
 16777216
370
   100
100
AcDbTrace
 10
1256.308515373955
 20
132.6738197829078
 30
0.0
 11
1256.308515373955
 21
129.3404864495745
 31
0.0
 12
1266.308515373955
 22
131.0071531162412
 32
0.0
 13
1266.308515373955
 23
131.0071531162412
 33
0.0
  0
SOLID
  5
17CB
330
17B8
100
AcDbEntity
  8
zhonxingxian
  6
ACAD_ISO04W100
 62
     0
440
 16777216
370
   100
100
AcDbTrace
 10
1301.308515336248
 20
132.6738197829078
 30
0.0
 11
1301.308515336248
 21
129.3404864495745
 31
0.0
 12
1291.308515336248
 22
131.0071531162412
 32
0.0
 13
1291.308515336248
 23
131.0071531162412
 33
0.0
  0
MTEXT
  5
17CC
330
17B8
100
AcDbEntity
  8
zhonxingxian
  6
ACAD_ISO04W100
 62
     0
440
 16777216
370
   100
100
AcDbMText
 10
1346.791973726425
 20
140.8135992281102
 30
0.0
 40
7.5
 41
0.0
 71
     5
 72
     1
  1
\A1;25mm [0.98"]
 73
     1
 44
1.0
  0
POINT
  5
17CD
330
17B8
100
AcDbEntity
  8
Defpoints
  6
ACAD_ISO04W100
 62
     0
440
 16777216
370
   100
100
AcDbPoint
 10
1266.308515373955
 20
212.2982371625829
 30
0.0
  0
POINT
  5
17CE
330
17B8
100
AcDbEntity
  8
Defpoints
  6
ACAD_ISO04W100
 62
     0
440
 16777216
370
   100
100
AcDbPoint
 10
1291.308515336248
 20
212.2982371625829
 30
0.0
  0
POINT
  5
17CF
330
17B8
100
AcDbEntity
  8
Defpoints
  6
ACAD_ISO04W100
 62
     0
440
 16777216
370
   100
100
AcDbPoint
 10
1291.308515336248
 20
131.0071531162412
 30
0.0
  0
ENDBLK
  5
17BA
330
17B8
100
AcDbEntity
  8
0
370
   100
100
AcDbBlockEnd
  0
BLOCK
  5
17D3
330
17D2
100
AcDbEntity
  8
0
370
   100
100
AcDbBlockBegin
  2
*D36
 70
     1
 10
0.0
 20
0.0
 30
0.0
  3
*D36
  1

  0
LINE
  5
17DF
330
17D2
100
AcDbEntity
  8
zhonxingxian
  6
ACAD_ISO04W100
 62
     0
440
 16777216
370
    -2
100
AcDbLine
 10
1266.246015373955
 20
212.298237162583
 30
0.0
 11
1239.697827386682
 21
212.298237162583
 31
0.0
  0
LINE
  5
17E0
330
17D2
100
AcDbEntity
  8
zhonxingxian
  6
ACAD_ISO04W100
 62
     0
440
 16777216
370
    -2
100
AcDbLine
 10
1333.746015336249
 20
342.4782638185987
 30
0.0
 11
1239.697827386682
 21
342.4782638185987
 31
0.0
  0
LINE
  5
17E1
330
17D2
100
AcDbEntity
  8
zhonxingxian
  6
ACAD_ISO04W100
 62
     0
440
 16777216
370
    -2
100
AcDbLine
 10
1239.877827386682
 20
222.298237162583
 30
0.0
 11
1239.877827386682
 21
332.4782638185987
 31
0.0
  0
SOLID
  5
17E2
330
17D2
100
AcDbEntity
  8
zhonxingxian
  6
ACAD_ISO04W100
 62
     0
440
 16777216
370
   100
100
AcDbTrace
 10
1238.211160720015
 20
222.298237162583
 30
0.0
 11
1241.544494053348
 21
222.298237162583
 31
0.0
 12
1239.877827386682
 22
212.298237162583
 32
0.0
 13
1239.877827386682
 23
212.298237162583
 33
0.0
  0
SOLID
  5
17E3
330
17D2
100
AcDbEntity
  8
zhonxingxian
  6
ACAD_ISO04W100
 62
     0
440
 16777216
370
   100
100
AcDbTrace
 10
1238.211160720015
 20
332.4782638185987
 30
0.0
 11
1241.544494053348
 21
332.4782638185987
 31
0.0
 12
1239.877827386682
 22
342.4782638185987
 32
0.0
 13
1239.877827386682
 23
342.4782638185987
 33
0.0
  0
MTEXT
  5
17E4
330
17D2
100
AcDbEntity
  8
zhonxingxian
  6
ACAD_ISO04W100
 62
     0
440
 16777216
370
   100
100
AcDbMText
 10
1230.071381274812
 20
277.3882504905905
 30
0.0
 40
7.5
 41
0.0
 71
     5
 72
     1
  1
\A1;130mm [5.13"]
 11
0.0000000000000001
 21
1.0
 31
0.0
 73
     1
 44
1.0
  0
POINT
  5
17E5
330
17D2
100
AcDbEntity
  8
Defpoints
  6
ACAD_ISO04W100
 62
     0
440
 16777216
370
   100
100
AcDbPoint
 10
1266.308515373955
 20
212.298237162583
 30
0.0
  0
POINT
  5
17E6
330
17D2
100
AcDbEntity
  8
Defpoints
  6
ACAD_ISO04W100
 62
     0
440
 16777216
370
   100
100
AcDbPoint
 10
1333.808515336249
 20
342.4782638185987
 30
0.0
  0
POINT
  5
17E7
330
17D2
100
AcDbEntity
  8
Defpoints
  6
ACAD_ISO04W100
 62
     0
440
 16777216
370
   100
100
AcDbPoint
 10
1239.877827386682
 20
342.4782638185987
 30
0.0
  0
ENDBLK
  5
17D4
330
17D2
100
AcDbEntity
  8
0
370
   100
100
AcDbBlockEnd
  0
ENDSEC
  0
SECTION
  2
ENTITIES
  0
SPLINE
  5
1292
330
1F
100
AcDbEntity
  8
0
370
    -3
100
AcDbSpline
210
0.0
220
0.0
230
1.0
 70
     9
 71
     3
 72
    20
 73
    16
 74
     0
 42
0.000000001
 43
0.0000000001
 40
0.0
 40
0.0
 40
0.0
 40
0.0
 40
0.25
 40
0.25
 40
0.25
 40
0.25000001
 40
0.5
 40
0.5
 40
0.5
 40
0.5000000100000001
 40
0.75
 40
0.75
 40
0.75
 40
0.7500000100000001
 40
1.0
 40
1.0
 40
1.0
 40
1.0
 10
12.53685332102032
 20
597.5564086646422
 30
0.0
 10
12.53685332102032
 20
597.5564086646422
 30
0.0
 10
892.5368533210203
 20
597.5564086646422
 30
0.0
 10
892.5368533210203
 20
597.5564086646422
 30
0.0
 10
892.5368533210203
 20
597.5564086646422
 30
0.0
 10
892.5368533210203
 20
597.5564086646422
 30
0.0
 10
892.5368533210203
 20
7.556408664642276
 30
0.0
 10
892.5368533210203
 20
7.556408664642276
 30
0.0
 10
892.5368533210203
 20
7.556408664642276
 30
0.0
 10
892.5368533210203
 20
7.556408664642276
 30
0.0
 10
12.53685332102032
 20
7.556408664642276
 30
0.0
 10
12.53685332102032
 20
7.556408664642276
 30
0.0
 10
12.53685332102032
 20
7.556408664642276
 30
0.0
 10
12.53685332102032
 20
7.556408664642276
 30
0.0
 10
12.53685332102032
 20
597.5564086646422
 30
0.0
 10
12.53685332102032
 20
597.5564086646422
 30
0.0
  0
LINE
  5
12C5
330
1F
100
AcDbEntity
  8
0
  6
ByBlock
370
    -3
100
AcDbLine
 10
15.0355385531202
 20
103.0520419323975
 30
0.0
 11
164.1206115358645
 21
103.0520419323975
 31
0.0
  0
LINE
  5
12C6
330
1F
100
AcDbEntity
  8
0
  6
ByBlock
370
    -3
100
AcDbLine
 10
88.72972848633844
 20
103.0520419323975
 30
0.0
 11
88.72972848633844
 21
74.3123212057867
 31
0.0
  0
MTEXT
  5
12C7
330
1F
100
AcDbEntity
  8
0
  6
ByBlock
370
    -3
100
AcDbMText
 10
97.53015749611449
 20
91.46376031505729
 30
0.0
 40
7.424999999999998
 41
71.61390005601693
 71
     1
 72
     5
  1
KCU-242
 73
     1
 44
1.0
1001
ACAD
1000
ACAD_MTEXT_COLUMN_INFO_BEGIN
1070
    75
1070
     2
1070
    79
1070
     0
1070
    76
1070
     1
1070
    78
1070
     0
1070
    48
1040
71.61390005601693
1070
    49
1040
6.249999999999999
1070
    50
1070
     1
1040
0.0
1000
ACAD_MTEXT_COLUMN_INFO_END
  0
LINE
  5
12C8
330
1F
100
AcDbEntity
  8
0
  6
ByBlock
370
    -3
100
AcDbLine
 10
15.0355385531202
 20
74.31232120578695
 30
0.0
 11
164.1206115358648
 21
74.31232120578695
 31
0.0
  0
LINE
  5
12C9
330
1F
100
AcDbEntity
  8
0
  6
ByBlock
370
    -3
100
AcDbLine
 10
15.0355385531202
 20
30.42829663609647
 30
0.0
 11
164.1206115358645
 21
30.42829663609647
 31
0.0
  0
MTEXT
  5
12CA
330
1F
100
AcDbEntity
  8
0
  6
ByBlock
370
    -3
100
AcDbMText
 10
23.14589668954841
 20
60.06641651764851
 30
0.0
 40
5.939999999999999
 41
128.031186528045
 71
     1
 72
     5
  1
21.06x13.78" Ceramic Sink
 73
     1
 44
1.0
1001
ACAD
1000
ACAD_MTEXT_COLUMN_INFO_BEGIN
1070
    75
1070
     2
1070
    79
1070
     0
1070
    76
1070
     1
1070
    78
1070
     0
1070
    48
1040
128.031186528045
1070
    49
1040
6.249999999999999
1070
    50
1070
     1
1040
0.0
1000
ACAD_MTEXT_COLUMN_INFO_END
  0
MTEXT
  5
12CB
330
1F
100
AcDbEntity
  8
0
  6
ByBlock
370
    -3
100
AcDbMText
 10
24.87422253525437
 20
22.99371453136627
 30
0.0
 40
6.434999999999998
 41
133.489053128308
 71
     1
 72
     5
  1
www.kraususa.com
 73
     1
 44
1.0
1001
ACAD
1000
ACAD_MTEXT_COLUMN_INFO_BEGIN
1070
    75
1070
     2
1070
    79
1070
     0
1070
    76
1070
     1
1070
    78
1070
     0
1070
    48
1040
133.489053128308
1070
    49
1040
6.249999999999999
1070
    50
1070
     1
1040
0.0
1000
ACAD_MTEXT_COLUMN_INFO_END
  0
LINE
  5
12CC
330
1F
100
AcDbEntity
  8
0
  6
ByBlock
370
    -3
100
AcDbLine
 10
15.0355385531202
 20
10.19481618043482
 30
0.0
 11
164.1206115358645
 21
10.19481618043482
 31
0.0
  0
LINE
  5
12CD
330
1F
100
AcDbEntity
  8
0
  6
ByBlock
370
    -3
100
AcDbLine
 10
15.0355385531202
 20
103.0520419323975
 30
0.0
 11
15.0355385531202
 21
10.19481618043482
 31
0.0
  0
LINE
  5
12CE
330
1F
100
AcDbEntity
  8
0
  6
ByBlock
370
    -3
100
AcDbLine
 10
164.1206115358645
 20
103.0520419323975
 30
0.0
 11
164.1206115358645
 21
10.19481618043482
 31
0.0
  0
LWPOLYLINE
  5
12CF
330
1F
100
AcDbEntity
  8
0
 62
     0
370
     0
100
AcDbPolyline
 90
       11
 70
     1
 43
0.0
 10
36.80924418550967
 20
81.2484656929711
 10
31.34052722551178
 20
88.16170863069201
 10
36.63917661569281
 20
94.71433118856626
 10
32.07200770124951
 20
94.71433118856626
 10
27.60114322911068
 20
89.44231783797036
 10
27.60114322911068
 20
94.75326301877942
 10
23.57080725558126
 20
94.75326301877942
 10
23.57080725558126
 20
81.2484656929711
 10
27.60114322911068
 20
81.2484656929711
 10
27.60114322911068
 20
87.2683558428474
 10
32.24412553752222
 20
81.2484656929711
  0
LWPOLYLINE
  5
12D0
330
1F
100
AcDbEntity
  8
0
 62
     0
370
     0
100
AcDbPolyline
 90
       36
 70
     1
 43
0.0
 10
66.64048174863956
 20
85.81480985433548
 10
66.60160219150793
 20
85.59586114427345
 10
66.51536902976364
 20
85.34370741059126
 10
66.37900017379343
 20
85.0775793395222
 10
66.18970772586227
 20
84.81670761730544
 10
65.94471540447784
 20
84.5803229301733
 10
65.64122369567326
 20
84.38766758060243
 10
65.27645631794962
 20
84.25797225482815
 10
64.84763118169803
 20
84.21046183096775
 10
64.29146300838351
 20
84.30135310517352
 10
63.81904212133486
 20
84.57953302581481
 10
63.49108080180349
 20
85.05326654804656
 10
63.36826809855756
 20
85.730801202658
 10
63.36826809855756
 20
92.08672595924744
 10
59.51210022775672
 20
92.08672595924744
 10
59.51210022775672
 20
85.5402483926265
 10
59.58551486805163
 20
84.41271800335531
 10
59.79824888941675
 20
83.46450751949864
 10
60.13901130604131
 20
82.68668405207279
 10
60.59651694021955
 20
82.07030890397291
 10
61.15948061425434
 20
81.60645499433249
 10
61.81661715045629
 20
81.28618943416759
 10
62.55664137112171
 20
81.10058514261201
 10
63.36826809855756
 20
81.04069761444151
 10
64.01411945705991
 20
81.10118918712093
 10
64.59182994848061
 20
81.26685420176668
 10
65.10163189762943
 20
81.51396648705071
 10
65.54376924555277
 20
81.81879987164135
 10
65.91848593330928
 20
82.15762818420975
 10
66.22601428570852
 20
82.50674267778697
 10
66.46660405192256
 20
82.842405564806
 10
66.64048174863956
 20
83.14089648205495
 10
66.64048174863956
 20
81.24764674801275
 10
70.49665542755974
 20
81.24764674801275
 10
70.49665542755974
 20
92.08672595924744
 10
66.64048174863956
 20
92.08672595924744
  0
LWPOLYLINE
  5
12D1
330
1F
100
AcDbEntity
  8
0
 62
     0
370
     0
100
AcDbPolyline
 90
       14
 70
     1
 43
0.0
 10
51.43913249007391
 20
96.11869982269681
 10
50.15647301633658
 20
97.88697042462723
 10
48.87176908426273
 20
96.11869982269681
 10
48.6950454086109
 20
95.73374922701228
 10
48.63203891985108
 20
95.30116042882074
 10
48.75180816807301
 20
94.70769250709045
 10
49.07845685242136
 20
94.22314426490435
 10
49.56301090272678
 20
93.89648977243556
 10
50.15647301633658
 20
93.77672052421473
 10
50.74875608152933
 20
93.89648977243556
 10
51.23270027920671
 20
94.22314426490435
 10
51.55912825498626
 20
94.70769250709045
 10
51.67886265448578
 20
95.30116042882074
 10
51.61585616572574
 20
95.73374922701228
  0
LWPOLYLINE
  5
12D2
330
1F
100
AcDbEntity
  8
0
 62
     0
370
     0
100
AcDbPolyline
 90
       14
 70
     1
 43
0.0
 10
56.22143998767706
 20
96.11869982269681
 10
54.93878632206338
 20
97.88697042462723
 10
53.65407658186791
 20
96.11869982269681
 10
53.47735290621631
 20
95.73374922701228
 10
53.41434641745627
 20
95.30116042882074
 10
53.53411566567615
 20
94.70769250709045
 10
53.86076435002656
 20
94.22314426490435
 10
54.34531840033219
 20
93.89648977243556
 10
54.93878632206338
 20
93.77672052421473
 10
55.53106357913475
 20
93.89648977243556
 10
56.01500777680985
 20
94.22314426490435
 10
56.3414357525894
 20
94.70769250709045
 10
56.46117015208893
 20
95.30116042882074
 10
56.39816947145027
 20
95.73374922701228
  0
CIRCLE
  5
12D3
330
1F
100
AcDbEntity
  8
0
 62
     0
370
     0
100
AcDbCircle
 10
52.09152960012875
 20
86.67661293283904
 30
0.0
 40
2.358880928486088
  0
LWPOLYLINE
  5
12D4
330
1F
100
AcDbEntity
  8
0
 62
     0
370
     0
100
AcDbPolyline
 90
       35
 70
     1
 43
0.0
 10
54.08313404293131
 20
92.08488478512066
 10
54.08313404293131
 20
90.7837845295063
 10
54.02166089792536
 20
90.7837845295063
 10
53.92852188117217
 20
90.96197185146806
 10
53.76983241897915
 20
91.18698423910009
 10
53.54458189841512
 20
91.43706447384293
 10
53.25175970655596
 20
91.690455337145
 10
52.89036103859484
 20
91.92540541856999
 10
52.45938108971813
 20
92.12016330768046
 10
51.95780924700193
 20
92.2529717859226
 10
51.384629089398
 20
92.30207363473949
 10
50.5291220132749
 20
92.22652741430314
 10
49.65174155619024
 20
91.99274476505426
 10
48.79438749782003
 20
91.59001551320432
 10
47.99895380971543
 20
91.0076352930813
 10
47.30735188779272
 20
90.23488812277822
 10
46.7614698954901
 20
89.26107544474247
 10
46.40321342059656
 20
88.07547546894776
 10
46.27448224278873
 20
86.6673896378403
 10
46.40447378269709
 20
85.23127381827922
 10
46.76579113697471
 20
84.03423184553835
 10
47.31545421558076
 20
83.06160402403993
 10
48.01047712034392
 20
82.29871904196597
 10
48.80789137746183
 20
81.73089977937715
 10
49.66470528064838
 20
81.34348073257426
 10
50.53795035609709
 20
81.12178478162205
 10
51.384629089398
 20
81.05114642281924
 10
52.40515067069782
 20
81.20699571419814
 10
53.18824210321349
 20
81.58029522060756
 10
53.72776420381637
 20
82.02966367827759
 10
54.01756617313094
 20
82.41371982343972
 10
54.08313404293131
 20
82.41371982343972
 10
54.08313404293131
 20
81.24374949930674
 10
57.75079937015835
 20
81.24374949930674
 10
57.75079937015835
 20
92.08488478512066
  0
LWPOLYLINE
  5
12D5
330
1F
100
AcDbEntity
  8
0
 62
     0
370
     0
100
AcDbPolyline
 90
       76
 70
     1
 43
0.0
 10
78.21801698806644
 20
87.56566190355909
 10
76.28378515735426
 20
88.0041401357106
 10
76.02058437890355
 20
88.0958038899158
 10
75.80714176686456
 20
88.24413166553506
 10
75.66400064265144
 20
88.44355347522848
 10
75.61172175204319
 20
88.68849933164858
 10
75.69749026416594
 20
89.04796970367925
 10
75.92752086771679
 20
89.31139119069886
 10
76.2608953553447
 20
89.4733854733289
 10
76.65669551970518
 20
89.52858004031654
 10
77.14669177870837
 20
89.47620241166367
 10
77.5216233669164
 20
89.30472927674159
 10
77.78475444792025
 20
88.99264735804569
 10
77.93935499344275
 20
88.51843756995291
 10
81.33450912541547
 20
88.51843756995291
 10
81.18184268394703
 20
89.30198203585026
 10
80.93495691535464
 20
90.02023742172031
 10
80.57858227143265
 20
90.6611344536283
 10
80.09743758772902
 20
91.21258062515778
 10
79.47626493227926
 20
91.66251247049528
 10
78.69978314063928
 20
91.99884329134539
 10
77.75272266459751
 20
92.20950381377305
 10
76.61981395594898
 20
92.28240153136306
 10
75.61013032708752
 20
92.22229910274279
 10
74.70616610349702
 20
92.04590648994431
 10
73.91683674980277
 20
91.75911312693358
 10
73.25104611439042
 20
91.36779102330649
 10
72.71769804564087
 20
90.877835421143
 10
72.32570800818234
 20
90.29512413816556
 10
72.08397985039528
 20
89.62553499209221
 10
72.00142322878696
 20
88.87495741688386
 10
72.04709828664295
 20
88.33940807054991
 10
72.18970506378991
 20
87.83036117703918
 10
72.43763048591176
 20
87.35301500399797
 10
72.79924405432462
 20
86.91255039470993
 10
73.28293269470851
 20
86.51415400058557
 10
73.89707752462232
 20
86.16301247303196
 10
74.65005966162653
 20
85.86430665533242
 10
75.55024860703702
 20
85.6232348151367
 10
77.13206112373246
 20
85.2687594265434
 10
77.45423174735037
 20
85.17053830454816
 10
77.64558607797835
 20
85.01776150879649
 10
77.73743569202792
 20
84.8342481405406
 10
77.76109797403478
 20
84.64382310915667
 10
77.72453585689527
 20
84.373164704272
 10
77.57002824130132
 20
84.08137635782182
 10
77.23034613505205
 20
83.84798866075371
 10
76.63825473782504
 20
83.75252058776906
 10
76.04901512765832
 20
83.82983247676895
 10
75.64783083580209
 20
84.04219477843676
 10
75.39148944739918
 20
84.36020097981469
 10
75.23675531511504
 20
84.75446780042256
 10
71.78013384625547
 20
84.75446780042256
 10
71.94762841878719
 20
83.88802984193915
 10
72.22914800858871
 20
83.13353759366341
 10
72.6298153777409
 20
82.4920829822089
 10
73.15474167208617
 20
81.96478697478907
 10
73.80904384559404
 20
81.55274149801622
 10
74.59782723597936
 20
81.25705590286006
 10
75.52622041345262
 20
81.07883954029816
 10
76.59932871573437
 20
81.01918433693816
 10
77.63767541816037
 20
81.07488421038821
 10
78.59553899791603
 20
81.2415946866848
 10
79.45505367703049
 20
81.51870591319555
 10
80.19835367753399
 20
81.9056196535333
 10
80.80757322145382
 20
82.40174347942952
 10
81.26484653081865
 20
83.00646753825516
 10
81.55230782766148
 20
83.71919359362246
 10
81.6521029502535
 20
84.53932340914105
 10
81.57908326213714
 20
85.33496038145466
 10
81.37110028315602
 20
85.95497722096926
 10
81.04474200482332
 20
86.42756073538397
 10
80.61660222676209
 20
86.78090354052448
 10
80.10326313236669
 20
87.04319825220872
 10
79.52132432938538
 20
87.24262587002348
 10
78.8873796174496
 20
87.40738481790495
  0
LWPOLYLINE
  5
12D6
330
1F
100
AcDbEntity
  8
0
 62
     0
370
     0
100
AcDbPolyline
 90
       26
 70
     1
 43
0.0
 10
44.51789757885172
 20
92.18876882438568
 10
43.89971610534757
 20
92.1466831848628
 10
43.3574119151333
 20
92.02382401665349
 10
42.88848170836991
 20
91.82527923312354
 10
42.49043960958352
 20
91.55614255575201
 10
42.16077651080991
 20
91.22150770602265
 10
41.89700072845335
 20
90.82645098105846
 10
41.696620578914
 20
90.3760777185802
 10
41.55712695423608
 20
89.87547002382905
 10
41.55712695423608
 20
92.08426912437095
 10
37.70095327531817
 20
92.08426912437095
 10
37.70095327531817
 20
81.2472343714727
 10
41.55712695423608
 20
81.2472343714727
 10
41.55712695423608
 20
86.56228008519645
 10
41.60039745029712
 20
86.95652367332371
 10
41.72962812644686
 20
87.35468774263734
 10
41.94395357276994
 20
87.73935374042769
 10
42.24250837934028
 20
88.09312053834711
 10
42.62443875247936
 20
88.39857539180792
 10
43.08886766602859
 20
88.6383055562195
 10
43.63493551818192
 20
88.79491571135295
 10
44.2617768990217
 20
88.85098730450215
 10
44.85290414827932
 20
88.7948924788724
 10
45.45632718816273
 20
88.62969792196841
 10
45.45632718816273
 20
92.10680463104351
 10
44.89414180224071
 20
92.17852330021756
  0
LINE
  5
1412
102
{ACAD_REACTORS
330
1416
102
}
330
1F
100
AcDbEntity
  8
xuxian
100
AcDbLine
 10
300.7508063686553
 20
493.1202572162399
 30
0.0
 11
770.7508063686552
 21
493.1202572162399
 31
0.0
  0
LINE
  5
1413
102
{ACAD_REACTORS
330
1419
102
}
330
1F
100
AcDbEntity
  8
xuxian
100
AcDbLine
 10
300.7508063686553
 20
543.9202572162399
 30
0.0
 11
770.7508063686552
 21
543.9202572162397
 31
0.0
  0
DIMENSION
  5
1414
102
{ACAD_XDICTIONARY
360
1415
102
}
102
{ACAD_REACTORS
330
1416
102
}
330
1F
100
AcDbEntity
  8
axis
 48
0.2
100
AcDbDimension
  2
*D18
 10
492.6741372973134
 20
429.6202572162401
 30
0.0
 11
492.6741372973134
 21
461.3702572162398
 31
0.0
 70
    32
  1
2.5''  63.5mm Suggested
 71
     5
 42
63.5
  3
ISO-25
100
AcDbAlignedDimension
 13
492.6741372973058
 23
493.1202572162399
 33
0.0
 14
562.7460258143817
 24
429.6202572162399
 34
0.0
 50
90.0
100
AcDbRotatedDimension
  0
DIMENSION
  5
1417
102
{ACAD_XDICTIONARY
360
1418
102
}
102
{ACAD_REACTORS
330
1419
102
}
330
1F
100
AcDbEntity
  8
axis
 48
0.2
100
AcDbDimension
  2
*D19
 10
519.8408166001963
 20
543.92025721624
 30
0.0
 11
519.8408166001963
 21
518.5202572162398
 31
0.0
 70
    32
  1
2''  50.8mm Suggested
 71
     5
 42
50.79999999999995
  3
ISO-25
100
AcDbAlignedDimension
 13
519.8408166001889
 23
493.1202572162399
 33
0.0
 14
492.6741372973062
 24
543.9202572162399
 34
0.0
 50
90.0
100
AcDbRotatedDimension
  0
MTEXT
  5
141A
330
1F
100
AcDbEntity
  8
axis
100
AcDbMText
 10
728.70320430699
 20
539.6589024186055
 30
0.0
 40
5.0
 41
85.50314830047501
 71
     1
 72
     5
  1
Finished Wall
 73
     1
 44
1.0
1001
ACAD
1000
ACAD_MTEXT_COLUMN_INFO_BEGIN
1070
    75
1070
     2
1070
    79
1070
     0
1070
    76
1070
     1
1070
    78
1070
     0
1070
    48
1040
85.50314830047501
1070
    49
1040
12.5
1070
    50
1070
     1
1040
0.0
1000
ACAD_MTEXT_COLUMN_INFO_END
  0
LINE
  5
14D1
330
1F
100
AcDbEntity
  8
axis
100
AcDbLine
 10
266.6523621101205
 20
399.6202572162401
 30
0.0
 11
266.6523621101205
 21
109.6202572162401
 31
0.0
  0
LINE
  5
14D2
330
1F
100
AcDbEntity
  8
axis
100
AcDbLine
 10
296.6523621101205
 20
79.62025721624013
 30
0.0
 11
771.6523621101205
 21
79.62025721624013
 31
0.0
  0
LINE
  5
14D3
330
1F
100
AcDbEntity
  8
axis
100
AcDbLine
 10
801.6523621101205
 20
109.6202572162401
 30
0.0
 11
801.6523621101205
 21
399.6202572162401
 31
0.0
  0
LINE
  5
14D4
330
1F
100
AcDbEntity
  8
axis
100
AcDbLine
 10
296.6523621101205
 20
429.6202572162401
 30
0.0
 11
771.6523621101205
 21
429.6202572162401
 31
0.0
  0
LINE
  5
15CE
102
{ACAD_REACTORS
330
163D
102
}
330
1F
100
AcDbEntity
  8
axis
100
AcDbLine
 10
309.1523621101205
 20
372.1202572162401
 30
0.0
 11
309.1523621101205
 21
137.1202572162401
 31
0.0
  0
LINE
  5
15CF
102
{ACAD_REACTORS
330
1625
102
}
330
1F
100
AcDbEntity
  8
axis
100
AcDbLine
 10
324.1523621101205
 20
122.1202572162401
 30
0.0
 11
744.1523621101205
 21
122.1202572162401
 31
0.0
  0
LINE
  5
15D0
102
{ACAD_REACTORS
330
163D
102
}
330
1F
100
AcDbEntity
  8
axis
100
AcDbLine
 10
759.1523621101205
 20
137.1202572162401
 30
0.0
 11
759.1523621101205
 21
372.1202572162401
 31
0.0
  0
LINE
  5
15D1
102
{ACAD_REACTORS
330
1625
102
}
330
1F
100
AcDbEntity
  8
axis
100
AcDbLine
 10
744.1523621101205
 20
387.1202572162401
 30
0.0
 11
324.1523621101205
 21
387.1202572162401
 31
0.0
  0
ARC
  5
15D2
330
1F
100
AcDbEntity
  8
axis
100
AcDbCircle
 10
296.6523621101205
 20
399.6202572162401
 30
0.0
 40
30.0
100
AcDbArc
 50
90.0
 51
180.0
  0
ARC
  5
15D3
330
1F
100
AcDbEntity
  8
axis
100
AcDbCircle
 10
771.6523621101205
 20
399.6202572162401
 30
0.0
 40
30.0
100
AcDbArc
 50
0.0
 51
90.0
  0
ARC
  5
15D4
330
1F
100
AcDbEntity
  8
axis
100
AcDbCircle
 10
771.6523621101205
 20
109.6202572162401
 30
0.0
 40
30.0
100
AcDbArc
 50
270.0
 51
0.0
  0
ARC
  5
15D5
330
1F
100
AcDbEntity
  8
axis
100
AcDbCircle
 10
296.6523621101205
 20
109.6202572162401
 30
0.0
 40
30.0
100
AcDbArc
 50
180.0
 51
270.0
  0
ARC
  5
15D6
330
1F
100
AcDbEntity
  8
axis
100
AcDbCircle
 10
324.1523621101205
 20
137.1202572162401
 30
0.0
 40
15.0
100
AcDbArc
 50
180.0
 51
270.0
  0
ARC
  5
15D7
330
1F
100
AcDbEntity
  8
axis
100
AcDbCircle
 10
324.1523621101205
 20
372.1202572162401
 30
0.0
 40
15.0
100
AcDbArc
 50
90.0
 51
180.0
  0
ARC
  5
15D8
330
1F
100
AcDbEntity
  8
axis
100
AcDbCircle
 10
744.1523621101205
 20
372.1202572162401
 30
0.0
 40
15.0
100
AcDbArc
 50
0.0
 51
90.0
  0
ARC
  5
15D9
330
1F
100
AcDbEntity
  8
axis
100
AcDbCircle
 10
744.1523621101205
 20
137.1202572162401
 30
0.0
 40
15.0
100
AcDbArc
 50
270.0
 51
0.0
  0
LINE
  5
160C
330
1F
100
AcDbEntity
  8
zhonxingxian
  6
ACAD_ISO04W100
100
AcDbLine
 10
534.1523621101205
 20
401.6167387674877
 30
0.0
 11
534.1523621101205
 21
102.9815346587092
 31
0.0
  0
LINE
  5
160D
330
1F
100
AcDbEntity
  8
zhonxingxian
  6
ACAD_ISO04W100
100
AcDbLine
 10
289.2124577067577
 20
254.6202572162401
 30
0.0
 11
770.2387007221048
 21
254.6202572162401
 31
0.0
  0
DIMENSION
  5
160E
102
{ACAD_XDICTIONARY
360
161B
102
}
102
{ACAD_REACTORS
330
1625
102
}
330
1F
100
AcDbEntity
  8
zhonxingxian
 62
     3
370
   100
100
AcDbDimension
  2
*D28
 10
534.1523621101206
 20
122.1202572162402
 30
0.0
 11
534.1523621101205
 21
211.3838253869299
 31
0.0
 70
   160
 71
     5
 42
265.0
  3
mm
100
AcDbAlignedDimension
 13
534.1523621101205
 23
387.1202572162401
 33
0.0
 14
534.1523621101205
 24
122.1202572162401
 34
0.0
 50
90.0
100
AcDbRotatedDimension
  0
DIMENSION
  5
1626
102
{ACAD_XDICTIONARY
360
1633
102
}
102
{ACAD_REACTORS
330
163D
102
}
330
1F
100
AcDbEntity
  8
zhonxingxian
 62
     3
370
   100
100
AcDbDimension
  2
*D29
 10
759.1523621101205
 20
254.6202572162401
 30
0.0
 11
580.2934716903453
 21
254.6202572162401
 31
0.0
 70
   160
 71
     5
 42
450.0
  3
mm
100
AcDbAlignedDimension
 13
309.1523621101205
 23
254.6202572162401
 33
0.0
 14
759.1523621101205
 24
254.6202572162401
 34
0.0
100
AcDbRotatedDimension
  0
SPLINE
  5
16FB
330
1F
100
AcDbEntity
  8
0
370
    -3
100
AcDbSpline
210
0.0
220
0.0
230
1.0
 70
    11
 71
     3
 72
    68
 73
    64
 74
     0
 42
0.000000001
 43
0.0000000001
 40
0.0
 40
0.0
 40
0.0
 40
0.0
 40
0.0625
 40
0.0625
 40
0.0625
 40
0.06250001
 40
0.125
 40
0.125
 40
0.125
 40
0.12500001
 40
0.1875
 40
0.1875
 40
0.1875
 40
0.18750001
 40
0.25
 40
0.25
 40
0.25
 40
0.25000001
 40
0.3125
 40
0.3125
 40
0.3125
 40
0.31250001
 40
0.375
 40
0.375
 40
0.375
 40
0.37500001
 40
0.4375
 40
0.4375
 40
0.4375
 40
0.4375000100000001
 40
0.5
 40
0.5
 40
0.5
 40
0.5000000100000001
 40
0.5625
 40
0.5625
 40
0.5625
 40
0.5625000100000001
 40
0.625
 40
0.625
 40
0.625
 40
0.6250000100000001
 40
0.6875
 40
0.6875
 40
0.6875
 40
0.6875000100000001
 40
0.75
 40
0.75
 40
0.75
 40
0.7500000100000001
 40
0.8125
 40
0.8125
 40
0.8125
 40
0.8125000100000001
 40
0.875
 40
0.875
 40
0.875
 40
0.8750000100000001
 40
0.9375
 40
0.9375
 40
0.9375
 40
0.9375000100000001
 40
1.0
 40
1.0
 40
1.0
 40
1.0
 10
826.6524120723287
 20
389.0721838720085
 30
0.0
 10
826.6524120723287
 20
389.0721838720085
 30
0.0
 10
826.6524120723287
 20
389.1720838718058
 30
0.0
 10
826.6524120723287
 20
389.1720838718058
 30
0.0
 10
826.6524120723287
 20
389.1720838718058
 30
0.0
 10
829.1658120719175
 20
389.1720838718058
 30
0.0
 10
831.2043120726402
 20
387.1340838730278
 30
0.0
 10
831.2043120726402
 20
384.6204838719161
 30
0.0
 10
831.2043120726402
 20
384.6204838719161
 30
0.0
 10
831.2043120726402
 20
382.1069838724973
 30
0.0
 10
829.1658120719175
 20
380.0689838718565
 30
0.0
 10
826.6524120723287
 20
380.068583872536
 30
0.0
 10
826.6524120723287
 20
380.068583872536
 30
0.0
 10
824.1391120725703
 20
380.0689838718565
 30
0.0
 10
822.1008120724391
 20
382.1069838724973
 30
0.0
 10
822.1004120721872
 20
384.6204838719161
 30
0.0
 10
822.1004120721872
 20
384.6204838719161
 30
0.0
 10
822.1008120724391
 20
387.1340838730278
 30
0.0
 10
824.1391120725703
 20
389.1720838718058
 30
0.0
 10
826.6524120723287
 20
389.1720838718058
 30
0.0
 10
826.6524120723287
 20
389.1720838718058
 30
0.0
 10
826.6524120723287
 20
389.1720838718058
 30
0.0
 10
826.6524120723287
 20
389.0721838720085
 30
0.0
 10
826.6524120723287
 20
389.0721838720085
 30
0.0
 10
826.6524120723287
 20
389.0721838720085
 30
0.0
 10
826.6524120723287
 20
389.0721838720085
 30
0.0
 10
826.6524120723287
 20
388.9719838727208
 30
0.0
 10
826.6524120723287
 20
388.9719838727208
 30
0.0
 10
826.6524120723287
 20
388.9719838727208
 30
0.0
 10
825.4508120720666
 20
388.9719838727208
 30
0.0
 10
824.3634120724555
 20
388.4851838726492
 30
0.0
 10
823.575412072746
 20
387.6973838716688
 30
0.0
 10
823.575412072746
 20
387.6973838716688
 30
0.0
 10
822.7876120726969
 20
386.909683872381
 30
0.0
 10
822.3008120726253
 20
385.8220838721784
 30
0.0
 10
822.3005120722037
 20
384.6204838719161
 30
0.0
 10
822.3005120722037
 20
384.6204838719161
 30
0.0
 10
822.3008120726253
 20
383.4185838721635
 30
0.0
 10
822.7876120726969
 20
382.3312838733139
 30
0.0
 10
823.575412072746
 20
381.5435838721635
 30
0.0
 10
823.575412072746
 20
381.5435838721635
 30
0.0
 10
824.3634120724555
 20
380.7557838730456
 30
0.0
 10
825.4508120720666
 20
380.2689838729741
 30
0.0
 10
826.6524120723287
 20
380.268583871791
 30
0.0
 10
826.6524120723287
 20
380.268583871791
 30
0.0
 10
827.8539120727609
 20
380.2689838729741
 30
0.0
 10
828.9415120720322
 20
380.7557838730456
 30
0.0
 10
829.7293120720814
 20
381.5435838721635
 30
0.0
 10
829.7293120720814
 20
381.5435838721635
 30
0.0
 10
830.5174120725522
 20
382.3312838733139
 30
0.0
 10
831.0042120726238
 20
383.4185838721635
 30
0.0
 10
831.0042120726238
 20
384.6204838719161
 30
0.0
 10
831.0042120726238
 20
384.6204838719161
 30
0.0
 10
831.0042120726238
 20
385.8220838721784
 30
0.0
 10
830.5174120725522
 20
386.909683872381
 30
0.0
 10
829.7293120720814
 20
387.6973838716688
 30
0.0
 10
829.7293120720814
 20
387.6973838716688
 30
0.0
 10
828.9415120720322
 20
388.4851838726492
 30
0.0
 10
827.8542120722514
 20
388.9719838727208
 30
0.0
 10
826.6524120723287
 20
388.9719838727208
 30
0.0
 10
826.6524120723287
 20
388.9719838727208
 30
0.0
 10
826.6524120723287
 20
388.9719838727208
 30
0.0
 10
826.6524120723287
 20
389.0721838720085
 30
0.0
 10
826.6524120723287
 20
389.0721838720085
 30
0.0
  0
SPLINE
  5
16FC
330
1F
100
AcDbEntity
  8
0
370
    -3
100
AcDbSpline
210
0.0
220
0.0
230
1.0
 70
     9
 71
     3
 72
    28
 73
    24
 74
     0
 42
0.000000001
 43
0.0000000001
 40
0.0
 40
0.0
 40
0.0
 40
0.0
 40
0.1666666666666667
 40
0.1666666666666667
 40
0.1666666666666667
 40
0.1666666766666667
 40
0.3333333333333333
 40
0.3333333333333333
 40
0.3333333333333333
 40
0.3333333433333333
 40
0.5
 40
0.5
 40
0.5
 40
0.5000000100000001
 40
0.6666666666666666
 40
0.6666666666666666
 40
0.6666666666666666
 40
0.6666666766666668
 40
0.8333333333333332
 40
0.8333333333333332
 40
0.8333333333333332
 40
0.8333333433333333
 40
1.0
 40
1.0
 40
1.0
 40
1.0
 10
826.5524120727013
 20
377.4676838725747
 30
0.0
 10
826.5524120727013
 20
377.4676838725747
 30
0.0
 10
826.5524120727013
 20
391.77318387329
 30
0.0
 10
826.5524120727013
 20
391.77318387329
 30
0.0
 10
826.5524120727013
 20
391.77318387329
 30
0.0
 10
826.5524120727013
 20
391.828183872992
 30
0.0
 10
826.5972120720352
 20
391.8729838732572
 30
0.0
 10
826.6524120723287
 20
391.8729838732572
 30
0.0
 10
826.6524120723287
 20
391.8729838732572
 30
0.0
 10
826.7075120727922
 20
391.8729838732572
 30
0.0
 10
826.7523120721261
 20
391.828183872992
 30
0.0
 10
826.7523120721261
 20
391.77318387329
 30
0.0
 10
826.7523120721261
 20
391.77318387329
 30
0.0
 10
826.7523120721261
 20
391.77318387329
 30
0.0
 10
826.7523120721261
 20
377.4676838725747
 30
0.0
 10
826.7523120721261
 20
377.4676838725747
 30
0.0
 10
826.7523120721261
 20
377.4676838725747
 30
0.0
 10
826.7523120721261
 20
377.4122838716896
 30
0.0
 10
826.7075120727922
 20
377.367483873287
 30
0.0
 10
826.6524120723287
 20
377.367483873287
 30
0.0
 10
826.6524120723287
 20
377.367483873287
 30
0.0
 10
826.5972120720352
 20
377.367483873287
 30
0.0
 10
826.5524120727013
 20
377.4122838716896
 30
0.0
 10
826.5524120727013
 20
377.4676838725747
 30
0.0
  0
SPLINE
  5
16FD
330
1F
100
AcDbEntity
  8
0
370
    -3
100
AcDbSpline
210
0.0
220
0.0
230
1.0
 70
     9
 71
     3
 72
    28
 73
    24
 74
     0
 42
0.000000001
 43
0.0000000001
 40
0.0
 40
0.0
 40
0.0
 40
0.0
 40
0.1666666666666667
 40
0.1666666666666667
 40
0.1666666666666667
 40
0.1666666766666667
 40
0.3333333333333333
 40
0.3333333333333333
 40
0.3333333333333333
 40
0.3333333433333333
 40
0.5
 40
0.5
 40
0.5
 40
0.5000000100000001
 40
0.6666666666666666
 40
0.6666666666666666
 40
0.6666666666666666
 40
0.6666666766666668
 40
0.8333333333333332
 40
0.8333333333333332
 40
0.8333333333333332
 40
0.8333333433333333
 40
1.0
 40
1.0
 40
1.0
 40
1.0
 10
819.4998120726477
 20
384.7202838718833
 30
0.0
 10
819.4998120726477
 20
384.7202838718833
 30
0.0
 10
833.8053120724316
 20
384.7202838718833
 30
0.0
 10
833.8053120724316
 20
384.7202838718833
 30
0.0
 10
833.8053120724316
 20
384.7202838718833
 30
0.0
 10
833.8606120725554
 20
384.7202838718833
 30
0.0
 10
833.9051120723988
 20
384.6754838716181
 30
0.0
 10
833.9051120723988
 20
384.6204838719161
 30
0.0
 10
833.9051120723988
 20
384.6204838719161
 30
0.0
 10
833.9051120723988
 20
384.5650838728936
 30
0.0
 10
833.8606120725554
 20
384.5202838726284
 30
0.0
 10
833.8053120724316
 20
384.5202838726284
 30
0.0
 10
833.8053120724316
 20
384.5202838726284
 30
0.0
 10
833.8053120724316
 20
384.5202838726284
 30
0.0
 10
819.4998120726477
 20
384.5202838726284
 30
0.0
 10
819.4998120726477
 20
384.5202838726284
 30
0.0
 10
819.4998120726477
 20
384.5202838726284
 30
0.0
 10
819.4443120719324
 20
384.5202838726284
 30
0.0
 10
819.3995120725984
 20
384.5650838728936
 30
0.0
 10
819.3995120725984
 20
384.6204838719161
 30
0.0
 10
819.3995120725984
 20
384.6204838719161
 30
0.0
 10
819.3995120725984
 20
384.6754838716181
 30
0.0
 10
819.4443120719324
 20
384.7202838718833
 30
0.0
 10
819.4998120726477
 20
384.7202838718833
 30
0.0
  0
LINE
  5
16FE
330
1F
100
AcDbEntity
  8
xuxian
100
AcDbLine
 10
826.5524120727013
 20
384.7202838718832
 30
0.0
 11
826.7523120721261
 21
384.5202838726284
 31
0.0
  0
LINE
  5
16FF
330
1F
100
AcDbEntity
  8
xuxian
100
AcDbLine
 10
826.7523120721261
 20
384.7202838718833
 30
0.0
 11
826.5524120727013
 21
384.5202838726284
 31
0.0
  0
DIMENSION
  5
1700
102
{ACAD_XDICTIONARY
360
170E
102
}
330
1F
100
AcDbEntity
  8
zhonxingxian
370
   100
100
AcDbDimension
  2
*D33
 10
826.6523620724138
 20
509.4342507823293
 30
0.0
 11
814.1523620912671
 21
509.4342507823293
 31
0.0
 70
   160
  1
<>mm
 71
     5
 42
24.99999996229326
  3
ISO-25
100
AcDbAlignedDimension
 13
801.6523621101205
 23
489.5147657878642
 33
0.0
 14
826.6523620724138
 24
489.0650296458771
 34
0.0
100
AcDbRotatedDimension
1001
AcadAnnotative
1000
AnnotativeData
1002
{
1070
     1
1070
     0
1002
}
  0
SPLINE
  5
1798
330
1F
100
AcDbEntity
  8
0
370
    -3
100
AcDbSpline
210
0.0
220
0.0
230
1.0
 70
    11
 71
     3
 72
    68
 73
    64
 74
     0
 42
0.000000001
 43
0.0000000001
 40
0.0
 40
0.0
 40
0.0
 40
0.0
 40
0.0625
 40
0.0625
 40
0.0625
 40
0.06250001
 40
0.125
 40
0.125
 40
0.125
 40
0.12500001
 40
0.1875
 40
0.1875
 40
0.1875
 40
0.18750001
 40
0.25
 40
0.25
 40
0.25
 40
0.25000001
 40
0.3125
 40
0.3125
 40
0.3125
 40
0.31250001
 40
0.375
 40
0.375
 40
0.375
 40
0.37500001
 40
0.4375
 40
0.4375
 40
0.4375
 40
0.4375000100000001
 40
0.5
 40
0.5
 40
0.5
 40
0.5000000100000001
 40
0.5625
 40
0.5625
 40
0.5625
 40
0.5625000100000001
 40
0.625
 40
0.625
 40
0.625
 40
0.6250000100000001
 40
0.6875
 40
0.6875
 40
0.6875
 40
0.6875000100000001
 40
0.75
 40
0.75
 40
0.75
 40
0.7500000100000001
 40
0.8125
 40
0.8125
 40
0.8125
 40
0.8125000100000001
 40
0.875
 40
0.875
 40
0.875
 40
0.8750000100000001
 40
0.9375
 40
0.9375
 40
0.9375
 40
0.9375000100000001
 40
1.0
 40
1.0
 40
1.0
 40
1.0
 10
241.6523121479122
 20
389.0721838720085
 30
0.0
 10
241.6523121479122
 20
389.0721838720085
 30
0.0
 10
241.6523121479122
 20
389.1720838718058
 30
0.0
 10
241.6523121479122
 20
389.1720838718058
 30
0.0
 10
241.6523121479122
 20
389.1720838718058
 30
0.0
 10
239.1389121483235
 20
389.1720838718058
 30
0.0
 10
237.1004121476008
 20
387.1340838730278
 30
0.0
 10
237.1004121476008
 20
384.6204838719161
 30
0.0
 10
237.1004121476008
 20
384.6204838719161
 30
0.0
 10
237.1004121476008
 20
382.1069838724973
 30
0.0
 10
239.1389121483235
 20
380.0689838718565
 30
0.0
 10
241.6523121479122
 20
380.068583872536
 30
0.0
 10
241.6523121479122
 20
380.068583872536
 30
0.0
 10
244.1656121476708
 20
380.0689838718565
 30
0.0
 10
246.2039121478019
 20
382.1069838724973
 30
0.0
 10
246.2043121480538
 20
384.6204838719161
 30
0.0
 10
246.2043121480538
 20
384.6204838719161
 30
0.0
 10
246.2039121478019
 20
387.1340838730278
 30
0.0
 10
244.1656121476708
 20
389.1720838718058
 30
0.0
 10
241.6523121479122
 20
389.1720838718058
 30
0.0
 10
241.6523121479122
 20
389.1720838718058
 30
0.0
 10
241.6523121479122
 20
389.1720838718058
 30
0.0
 10
241.6523121479122
 20
389.0721838720085
 30
0.0
 10
241.6523121479122
 20
389.0721838720085
 30
0.0
 10
241.6523121479122
 20
389.0721838720085
 30
0.0
 10
241.6523121479122
 20
389.0721838720085
 30
0.0
 10
241.6523121479122
 20
388.9719838727208
 30
0.0
 10
241.6523121479122
 20
388.9719838727208
 30
0.0
 10
241.6523121479122
 20
388.9719838727208
 30
0.0
 10
242.8539121481744
 20
388.9719838727208
 30
0.0
 10
243.9413121477855
 20
388.4851838726492
 30
0.0
 10
244.729312147495
 20
387.6973838716688
 30
0.0
 10
244.729312147495
 20
387.6973838716688
 30
0.0
 10
245.5171121475441
 20
386.909683872381
 30
0.0
 10
246.0039121476157
 20
385.8220838721784
 30
0.0
 10
246.0042121480374
 20
384.6204838719161
 30
0.0
 10
246.0042121480374
 20
384.6204838719161
 30
0.0
 10
246.0039121476157
 20
383.4185838721635
 30
0.0
 10
245.5171121475441
 20
382.3312838733139
 30
0.0
 10
244.729312147495
 20
381.5435838721635
 30
0.0
 10
244.729312147495
 20
381.5435838721635
 30
0.0
 10
243.9413121477855
 20
380.7557838730456
 30
0.0
 10
242.8539121481744
 20
380.2689838729741
 30
0.0
 10
241.6523121479122
 20
380.268583871791
 30
0.0
 10
241.6523121479122
 20
380.268583871791
 30
0.0
 10
240.4508121474801
 20
380.2689838729741
 30
0.0
 10
239.3632121482087
 20
380.7557838730456
 30
0.0
 10
238.5754121481596
 20
381.5435838721635
 30
0.0
 10
238.5754121481596
 20
381.5435838721635
 30
0.0
 10
237.7873121476887
 20
382.3312838733139
 30
0.0
 10
237.3005121476172
 20
383.4185838721635
 30
0.0
 10
237.3005121476172
 20
384.6204838719161
 30
0.0
 10
237.3005121476172
 20
384.6204838719161
 30
0.0
 10
237.3005121476172
 20
385.8220838721784
 30
0.0
 10
237.7873121476887
 20
386.909683872381
 30
0.0
 10
238.5754121481596
 20
387.6973838716688
 30
0.0
 10
238.5754121481596
 20
387.6973838716688
 30
0.0
 10
239.3632121482087
 20
388.4851838726492
 30
0.0
 10
240.4505121479897
 20
388.9719838727208
 30
0.0
 10
241.6523121479122
 20
388.9719838727208
 30
0.0
 10
241.6523121479122
 20
388.9719838727208
 30
0.0
 10
241.6523121479122
 20
388.9719838727208
 30
0.0
 10
241.6523121479122
 20
389.0721838720085
 30
0.0
 10
241.6523121479122
 20
389.0721838720085
 30
0.0
  0
SPLINE
  5
1799
330
1F
100
AcDbEntity
  8
0
370
    -3
100
AcDbSpline
210
0.0
220
0.0
230
1.0
 70
     9
 71
     3
 72
    28
 73
    24
 74
     0
 42
0.000000001
 43
0.0000000001
 40
0.0
 40
0.0
 40
0.0
 40
0.0
 40
0.1666666666666667
 40
0.1666666666666667
 40
0.1666666666666667
 40
0.1666666766666667
 40
0.3333333333333333
 40
0.3333333333333333
 40
0.3333333333333333
 40
0.3333333433333333
 40
0.5
 40
0.5
 40
0.5
 40
0.5000000100000001
 40
0.6666666666666666
 40
0.6666666666666666
 40
0.6666666666666666
 40
0.6666666766666668
 40
0.8333333333333332
 40
0.8333333333333332
 40
0.8333333333333332
 40
0.8333333433333333
 40
1.0
 40
1.0
 40
1.0
 40
1.0
 10
241.7523121475397
 20
377.4676838725747
 30
0.0
 10
241.7523121475397
 20
377.4676838725747
 30
0.0
 10
241.7523121475397
 20
391.77318387329
 30
0.0
 10
241.7523121475397
 20
391.77318387329
 30
0.0
 10
241.7523121475397
 20
391.77318387329
 30
0.0
 10
241.7523121475397
 20
391.828183872992
 30
0.0
 10
241.7075121482057
 20
391.8729838732572
 30
0.0
 10
241.6523121479122
 20
391.8729838732572
 30
0.0
 10
241.6523121479122
 20
391.8729838732572
 30
0.0
 10
241.5972121474488
 20
391.8729838732572
 30
0.0
 10
241.5524121481149
 20
391.828183872992
 30
0.0
 10
241.5524121481149
 20
391.77318387329
 30
0.0
 10
241.5524121481149
 20
391.77318387329
 30
0.0
 10
241.5524121481149
 20
391.77318387329
 30
0.0
 10
241.5524121481149
 20
377.4676838725747
 30
0.0
 10
241.5524121481149
 20
377.4676838725747
 30
0.0
 10
241.5524121481149
 20
377.4676838725747
 30
0.0
 10
241.5524121481149
 20
377.4122838716896
 30
0.0
 10
241.5972121474488
 20
377.367483873287
 30
0.0
 10
241.6523121479122
 20
377.367483873287
 30
0.0
 10
241.6523121479122
 20
377.367483873287
 30
0.0
 10
241.7075121482057
 20
377.367483873287
 30
0.0
 10
241.7523121475397
 20
377.4122838716896
 30
0.0
 10
241.7523121475397
 20
377.4676838725747
 30
0.0
  0
SPLINE
  5
179A
330
1F
100
AcDbEntity
  8
0
370
    -3
100
AcDbSpline
210
0.0
220
0.0
230
1.0
 70
     9
 71
     3
 72
    28
 73
    24
 74
     0
 42
0.000000001
 43
0.0000000001
 40
0.0
 40
0.0
 40
0.0
 40
0.0
 40
0.1666666666666667
 40
0.1666666666666667
 40
0.1666666666666667
 40
0.1666666766666667
 40
0.3333333333333333
 40
0.3333333333333333
 40
0.3333333333333333
 40
0.3333333433333333
 40
0.5
 40
0.5
 40
0.5
 40
0.5000000100000001
 40
0.6666666666666666
 40
0.6666666666666666
 40
0.6666666666666666
 40
0.6666666766666668
 40
0.8333333333333332
 40
0.8333333333333332
 40
0.8333333333333332
 40
0.8333333433333333
 40
1.0
 40
1.0
 40
1.0
 40
1.0
 10
248.8049121475933
 20
384.7202838718833
 30
0.0
 10
248.8049121475933
 20
384.7202838718833
 30
0.0
 10
234.4994121478094
 20
384.7202838718833
 30
0.0
 10
234.4994121478094
 20
384.7202838718833
 30
0.0
 10
234.4994121478094
 20
384.7202838718833
 30
0.0
 10
234.4441121476857
 20
384.7202838718833
 30
0.0
 10
234.3996121478422
 20
384.6754838716181
 30
0.0
 10
234.3996121478422
 20
384.6204838719161
 30
0.0
 10
234.3996121478422
 20
384.6204838719161
 30
0.0
 10
234.3996121478422
 20
384.5650838728936
 30
0.0
 10
234.4441121476857
 20
384.5202838726284
 30
0.0
 10
234.4994121478094
 20
384.5202838726284
 30
0.0
 10
234.4994121478094
 20
384.5202838726284
 30
0.0
 10
234.4994121478094
 20
384.5202838726284
 30
0.0
 10
248.8049121475933
 20
384.5202838726284
 30
0.0
 10
248.8049121475933
 20
384.5202838726284
 30
0.0
 10
248.8049121475933
 20
384.5202838726284
 30
0.0
 10
248.8604121483086
 20
384.5202838726284
 30
0.0
 10
248.9052121476425
 20
384.5650838728936
 30
0.0
 10
248.9052121476425
 20
384.6204838719161
 30
0.0
 10
248.9052121476425
 20
384.6204838719161
 30
0.0
 10
248.9052121476425
 20
384.6754838716181
 30
0.0
 10
248.8604121483086
 20
384.7202838718833
 30
0.0
 10
248.8049121475933
 20
384.7202838718833
 30
0.0
  0
LINE
  5
179B
330
1F
100
AcDbEntity
  8
xuxian
100
AcDbLine
 10
241.7523121475397
 20
384.7202838718832
 30
0.0
 11
241.5524121481149
 21
384.5202838726284
 31
0.0
  0
LINE
  5
179C
330
1F
100
AcDbEntity
  8
xuxian
100
AcDbLine
 10
241.5524121481149
 20
384.7202838718833
 30
0.0
 11
241.7523121475397
 21
384.5202838726284
 31
0.0
  0
DIMENSION
  5
179D
102
{ACAD_XDICTIONARY
360
179E
102
}
330
1F
100
AcDbEntity
  8
zhonxingxian
370
   100
100
AcDbDimension
  2
*D34
 10
241.6523621478273
 20
509.4342507823293
 30
0.0
 11
254.1523621289739
 21
509.4342507823293
 31
0.0
 70
   160
  1
<>mm
 71
     5
 42
24.99999996229326
  3
ISO-25
100
AcDbAlignedDimension
 13
266.6523621101205
 23
489.5147657878642
 33
0.0
 14
241.6523621478273
 24
489.0650296458771
 34
0.0
 50
180.0
100
AcDbRotatedDimension
1001
AcadAnnotative
1000
AnnotativeData
1002
{
1070
     1
1070
     0
1002
}
  0
SPLINE
  5
17AD
330
1F
100
AcDbEntity
  8
0
370
    -3
100
AcDbSpline
210
0.0
220
0.0
230
1.0
 70
    11
 71
     3
 72
    68
 73
    64
 74
     0
 42
0.000000001
 43
0.0000000001
 40
0.0
 40
0.0
 40
0.0
 40
0.0
 40
0.0625
 40
0.0625
 40
0.0625
 40
0.06250001
 40
0.125
 40
0.125
 40
0.125
 40
0.12500001
 40
0.1875
 40
0.1875
 40
0.1875
 40
0.18750001
 40
0.25
 40
0.25
 40
0.25
 40
0.25000001
 40
0.3125
 40
0.3125
 40
0.3125
 40
0.31250001
 40
0.375
 40
0.375
 40
0.375
 40
0.37500001
 40
0.4375
 40
0.4375
 40
0.4375
 40
0.4375000100000001
 40
0.5
 40
0.5
 40
0.5
 40
0.5000000100000001
 40
0.5625
 40
0.5625
 40
0.5625
 40
0.5625000100000001
 40
0.625
 40
0.625
 40
0.625
 40
0.6250000100000001
 40
0.6875
 40
0.6875
 40
0.6875
 40
0.6875000100000001
 40
0.75
 40
0.75
 40
0.75
 40
0.7500000100000001
 40
0.8125
 40
0.8125
 40
0.8125
 40
0.8125000100000001
 40
0.875
 40
0.875
 40
0.875
 40
0.8750000100000001
 40
0.9375
 40
0.9375
 40
0.9375
 40
0.9375000100000001
 40
1.0
 40
1.0
 40
1.0
 40
1.0
 10
826.6524120723287
 20
120.1683305604717
 30
0.0
 10
826.6524120723287
 20
120.1683305604717
 30
0.0
 10
826.6524120723287
 20
120.0684305606744
 30
0.0
 10
826.6524120723287
 20
120.0684305606744
 30
0.0
 10
826.6524120723287
 20
120.0684305606744
 30
0.0
 10
829.1658120719175
 20
120.0684305606744
 30
0.0
 10
831.2043120726402
 20
122.1064305594525
 30
0.0
 10
831.2043120726402
 20
124.6200305605641
 30
0.0
 10
831.2043120726402
 20
124.6200305605641
 30
0.0
 10
831.2043120726402
 20
127.133530559983
 30
0.0
 10
829.1658120719175
 20
129.1715305606237
 30
0.0
 10
826.6524120723287
 20
129.1719305599442
 30
0.0
 10
826.6524120723287
 20
129.1719305599442
 30
0.0
 10
824.1391120725703
 20
129.1715305606237
 30
0.0
 10
822.1008120724391
 20
127.133530559983
 30
0.0
 10
822.1004120721872
 20
124.6200305605641
 30
0.0
 10
822.1004120721872
 20
124.6200305605641
 30
0.0
 10
822.1008120724391
 20
122.1064305594525
 30
0.0
 10
824.1391120725703
 20
120.0684305606744
 30
0.0
 10
826.6524120723287
 20
120.0684305606744
 30
0.0
 10
826.6524120723287
 20
120.0684305606744
 30
0.0
 10
826.6524120723287
 20
120.0684305606744
 30
0.0
 10
826.6524120723287
 20
120.1683305604717
 30
0.0
 10
826.6524120723287
 20
120.1683305604717
 30
0.0
 10
826.6524120723287
 20
120.1683305604717
 30
0.0
 10
826.6524120723287
 20
120.1683305604717
 30
0.0
 10
826.6524120723287
 20
120.2685305597595
 30
0.0
 10
826.6524120723287
 20
120.2685305597595
 30
0.0
 10
826.6524120723287
 20
120.2685305597595
 30
0.0
 10
825.4508120720666
 20
120.2685305597595
 30
0.0
 10
824.3634120724555
 20
120.755330559831
 30
0.0
 10
823.575412072746
 20
121.5431305608115
 30
0.0
 10
823.575412072746
 20
121.5431305608115
 30
0.0
 10
822.7876120726969
 20
122.3308305600992
 30
0.0
 10
822.3008120726253
 20
123.4184305603019
 30
0.0
 10
822.3005120722037
 20
124.6200305605641
 30
0.0
 10
822.3005120722037
 20
124.6200305605641
 30
0.0
 10
822.3008120726253
 20
125.8219305603168
 30
0.0
 10
822.7876120726969
 20
126.9092305591664
 30
0.0
 10
823.575412072746
 20
127.6969305603168
 30
0.0
 10
823.575412072746
 20
127.6969305603168
 30
0.0
 10
824.3634120724555
 20
128.4847305594346
 30
0.0
 10
825.4508120720666
 20
128.9715305595061
 30
0.0
 10
826.6524120723287
 20
128.9719305606893
 30
0.0
 10
826.6524120723287
 20
128.9719305606893
 30
0.0
 10
827.8539120727609
 20
128.9715305595061
 30
0.0
 10
828.9415120720322
 20
128.4847305594346
 30
0.0
 10
829.7293120720814
 20
127.6969305603168
 30
0.0
 10
829.7293120720814
 20
127.6969305603168
 30
0.0
 10
830.5174120725522
 20
126.9092305591664
 30
0.0
 10
831.0042120726238
 20
125.8219305603168
 30
0.0
 10
831.0042120726238
 20
124.6200305605641
 30
0.0
 10
831.0042120726238
 20
124.6200305605641
 30
0.0
 10
831.0042120726238
 20
123.4184305603019
 30
0.0
 10
830.5174120725522
 20
122.3308305600992
 30
0.0
 10
829.7293120720814
 20
121.5431305608115
 30
0.0
 10
829.7293120720814
 20
121.5431305608115
 30
0.0
 10
828.9415120720322
 20
120.755330559831
 30
0.0
 10
827.8542120722514
 20
120.2685305597595
 30
0.0
 10
826.6524120723287
 20
120.2685305597595
 30
0.0
 10
826.6524120723287
 20
120.2685305597595
 30
0.0
 10
826.6524120723287
 20
120.2685305597595
 30
0.0
 10
826.6524120723287
 20
120.1683305604717
 30
0.0
 10
826.6524120723287
 20
120.1683305604717
 30
0.0
  0
SPLINE
  5
17AE
330
1F
100
AcDbEntity
  8
0
370
    -3
100
AcDbSpline
210
0.0
220
0.0
230
1.0
 70
     9
 71
     3
 72
    28
 73
    24
 74
     0
 42
0.000000001
 43
0.0000000001
 40
0.0
 40
0.0
 40
0.0
 40
0.0
 40
0.1666666666666667
 40
0.1666666666666667
 40
0.1666666666666667
 40
0.1666666766666667
 40
0.3333333333333333
 40
0.3333333333333333
 40
0.3333333333333333
 40
0.3333333433333333
 40
0.5
 40
0.5
 40
0.5
 40
0.5000000100000001
 40
0.6666666666666666
 40
0.6666666666666666
 40
0.6666666666666666
 40
0.6666666766666668
 40
0.8333333333333332
 40
0.8333333333333332
 40
0.8333333333333332
 40
0.8333333433333333
 40
1.0
 40
1.0
 40
1.0
 40
1.0
 10
826.5524120727013
 20
131.7728305599055
 30
0.0
 10
826.5524120727013
 20
131.7728305599055
 30
0.0
 10
826.5524120727013
 20
117.4673305591902
 30
0.0
 10
826.5524120727013
 20
117.4673305591902
 30
0.0
 10
826.5524120727013
 20
117.4673305591902
 30
0.0
 10
826.5524120727013
 20
117.4123305594882
 30
0.0
 10
826.5972120720352
 20
117.367530559223
 30
0.0
 10
826.6524120723287
 20
117.367530559223
 30
0.0
 10
826.6524120723287
 20
117.367530559223
 30
0.0
 10
826.7075120727922
 20
117.367530559223
 30
0.0
 10
826.7523120721261
 20
117.4123305594882
 30
0.0
 10
826.7523120721261
 20
117.4673305591902
 30
0.0
 10
826.7523120721261
 20
117.4673305591902
 30
0.0
 10
826.7523120721261
 20
117.4673305591902
 30
0.0
 10
826.7523120721261
 20
131.7728305599055
 30
0.0
 10
826.7523120721261
 20
131.7728305599055
 30
0.0
 10
826.7523120721261
 20
131.7728305599055
 30
0.0
 10
826.7523120721261
 20
131.8282305607906
 30
0.0
 10
826.7075120727922
 20
131.8730305591932
 30
0.0
 10
826.6524120723287
 20
131.8730305591932
 30
0.0
 10
826.6524120723287
 20
131.8730305591932
 30
0.0
 10
826.5972120720352
 20
131.8730305591932
 30
0.0
 10
826.5524120727013
 20
131.8282305607906
 30
0.0
 10
826.5524120727013
 20
131.7728305599055
 30
0.0
  0
SPLINE
  5
17AF
330
1F
100
AcDbEntity
  8
0
370
    -3
100
AcDbSpline
210
0.0
220
0.0
230
1.0
 70
     9
 71
     3
 72
    28
 73
    24
 74
     0
 42
0.000000001
 43
0.0000000001
 40
0.0
 40
0.0
 40
0.0
 40
0.0
 40
0.1666666666666667
 40
0.1666666666666667
 40
0.1666666666666667
 40
0.1666666766666667
 40
0.3333333333333333
 40
0.3333333333333333
 40
0.3333333333333333
 40
0.3333333433333333
 40
0.5
 40
0.5
 40
0.5
 40
0.5000000100000001
 40
0.6666666666666666
 40
0.6666666666666666
 40
0.6666666666666666
 40
0.6666666766666668
 40
0.8333333333333332
 40
0.8333333333333332
 40
0.8333333333333332
 40
0.8333333433333333
 40
1.0
 40
1.0
 40
1.0
 40
1.0
 10
819.4998120726477
 20
124.5202305605969
 30
0.0
 10
819.4998120726477
 20
124.5202305605969
 30
0.0
 10
833.8053120724316
 20
124.5202305605969
 30
0.0
 10
833.8053120724316
 20
124.5202305605969
 30
0.0
 10
833.8053120724316
 20
124.5202305605969
 30
0.0
 10
833.8606120725554
 20
124.5202305605969
 30
0.0
 10
833.9051120723988
 20
124.5650305608621
 30
0.0
 10
833.9051120723988
 20
124.6200305605641
 30
0.0
 10
833.9051120723988
 20
124.6200305605641
 30
0.0
 10
833.9051120723988
 20
124.6754305595866
 30
0.0
 10
833.8606120725554
 20
124.7202305598518
 30
0.0
 10
833.8053120724316
 20
124.7202305598518
 30
0.0
 10
833.8053120724316
 20
124.7202305598518
 30
0.0
 10
833.8053120724316
 20
124.7202305598518
 30
0.0
 10
819.4998120726477
 20
124.7202305598518
 30
0.0
 10
819.4998120726477
 20
124.7202305598518
 30
0.0
 10
819.4998120726477
 20
124.7202305598518
 30
0.0
 10
819.4443120719324
 20
124.7202305598518
 30
0.0
 10
819.3995120725984
 20
124.6754305595866
 30
0.0
 10
819.3995120725984
 20
124.6200305605641
 30
0.0
 10
819.3995120725984
 20
124.6200305605641
 30
0.0
 10
819.3995120725984
 20
124.5650305608621
 30
0.0
 10
819.4443120719324
 20
124.5202305605969
 30
0.0
 10
819.4998120726477
 20
124.5202305605969
 30
0.0
  0
LINE
  5
17B0
330
1F
100
AcDbEntity
  8
xuxian
100
AcDbLine
 10
826.5524120727013
 20
124.520230560597
 30
0.0
 11
826.7523120721261
 21
124.7202305598518
 31
0.0
  0
LINE
  5
17B1
330
1F
100
AcDbEntity
  8
xuxian
100
AcDbLine
 10
826.7523120721261
 20
124.5202305605969
 30
0.0
 11
826.5524120727013
 21
124.7202305598518
 31
0.0
  0
SPLINE
  5
17B2
330
1F
100
AcDbEntity
  8
0
370
    -3
100
AcDbSpline
210
0.0
220
0.0
230
1.0
 70
    11
 71
     3
 72
    68
 73
    64
 74
     0
 42
0.000000001
 43
0.0000000001
 40
0.0
 40
0.0
 40
0.0
 40
0.0
 40
0.0625
 40
0.0625
 40
0.0625
 40
0.06250001
 40
0.125
 40
0.125
 40
0.125
 40
0.12500001
 40
0.1875
 40
0.1875
 40
0.1875
 40
0.18750001
 40
0.25
 40
0.25
 40
0.25
 40
0.25000001
 40
0.3125
 40
0.3125
 40
0.3125
 40
0.31250001
 40
0.375
 40
0.375
 40
0.375
 40
0.37500001
 40
0.4375
 40
0.4375
 40
0.4375
 40
0.4375000100000001
 40
0.5
 40
0.5
 40
0.5
 40
0.5000000100000001
 40
0.5625
 40
0.5625
 40
0.5625
 40
0.5625000100000001
 40
0.625
 40
0.625
 40
0.625
 40
0.6250000100000001
 40
0.6875
 40
0.6875
 40
0.6875
 40
0.6875000100000001
 40
0.75
 40
0.75
 40
0.75
 40
0.7500000100000001
 40
0.8125
 40
0.8125
 40
0.8125
 40
0.8125000100000001
 40
0.875
 40
0.875
 40
0.875
 40
0.8750000100000001
 40
0.9375
 40
0.9375
 40
0.9375
 40
0.9375000100000001
 40
1.0
 40
1.0
 40
1.0
 40
1.0
 10
241.6523121479122
 20
120.1683305604717
 30
0.0
 10
241.6523121479122
 20
120.1683305604717
 30
0.0
 10
241.6523121479122
 20
120.0684305606744
 30
0.0
 10
241.6523121479122
 20
120.0684305606744
 30
0.0
 10
241.6523121479122
 20
120.0684305606744
 30
0.0
 10
239.1389121483235
 20
120.0684305606744
 30
0.0
 10
237.1004121476008
 20
122.1064305594525
 30
0.0
 10
237.1004121476008
 20
124.6200305605641
 30
0.0
 10
237.1004121476008
 20
124.6200305605641
 30
0.0
 10
237.1004121476008
 20
127.133530559983
 30
0.0
 10
239.1389121483235
 20
129.1715305606237
 30
0.0
 10
241.6523121479122
 20
129.1719305599442
 30
0.0
 10
241.6523121479122
 20
129.1719305599442
 30
0.0
 10
244.1656121476708
 20
129.1715305606237
 30
0.0
 10
246.2039121478019
 20
127.133530559983
 30
0.0
 10
246.2043121480538
 20
124.6200305605641
 30
0.0
 10
246.2043121480538
 20
124.6200305605641
 30
0.0
 10
246.2039121478019
 20
122.1064305594525
 30
0.0
 10
244.1656121476708
 20
120.0684305606744
 30
0.0
 10
241.6523121479122
 20
120.0684305606744
 30
0.0
 10
241.6523121479122
 20
120.0684305606744
 30
0.0
 10
241.6523121479122
 20
120.0684305606744
 30
0.0
 10
241.6523121479122
 20
120.1683305604717
 30
0.0
 10
241.6523121479122
 20
120.1683305604717
 30
0.0
 10
241.6523121479122
 20
120.1683305604717
 30
0.0
 10
241.6523121479122
 20
120.1683305604717
 30
0.0
 10
241.6523121479122
 20
120.2685305597595
 30
0.0
 10
241.6523121479122
 20
120.2685305597595
 30
0.0
 10
241.6523121479122
 20
120.2685305597595
 30
0.0
 10
242.8539121481744
 20
120.2685305597595
 30
0.0
 10
243.9413121477855
 20
120.755330559831
 30
0.0
 10
244.729312147495
 20
121.5431305608115
 30
0.0
 10
244.729312147495
 20
121.5431305608115
 30
0.0
 10
245.5171121475441
 20
122.3308305600992
 30
0.0
 10
246.0039121476157
 20
123.4184305603019
 30
0.0
 10
246.0042121480374
 20
124.6200305605641
 30
0.0
 10
246.0042121480374
 20
124.6200305605641
 30
0.0
 10
246.0039121476157
 20
125.8219305603168
 30
0.0
 10
245.5171121475441
 20
126.9092305591664
 30
0.0
 10
244.729312147495
 20
127.6969305603168
 30
0.0
 10
244.729312147495
 20
127.6969305603168
 30
0.0
 10
243.9413121477855
 20
128.4847305594346
 30
0.0
 10
242.8539121481744
 20
128.9715305595061
 30
0.0
 10
241.6523121479122
 20
128.9719305606893
 30
0.0
 10
241.6523121479122
 20
128.9719305606893
 30
0.0
 10
240.4508121474801
 20
128.9715305595061
 30
0.0
 10
239.3632121482087
 20
128.4847305594346
 30
0.0
 10
238.5754121481596
 20
127.6969305603168
 30
0.0
 10
238.5754121481596
 20
127.6969305603168
 30
0.0
 10
237.7873121476887
 20
126.9092305591664
 30
0.0
 10
237.3005121476172
 20
125.8219305603168
 30
0.0
 10
237.3005121476172
 20
124.6200305605641
 30
0.0
 10
237.3005121476172
 20
124.6200305605641
 30
0.0
 10
237.3005121476172
 20
123.4184305603019
 30
0.0
 10
237.7873121476887
 20
122.3308305600992
 30
0.0
 10
238.5754121481596
 20
121.5431305608115
 30
0.0
 10
238.5754121481596
 20
121.5431305608115
 30
0.0
 10
239.3632121482087
 20
120.755330559831
 30
0.0
 10
240.4505121479897
 20
120.2685305597595
 30
0.0
 10
241.6523121479122
 20
120.2685305597595
 30
0.0
 10
241.6523121479122
 20
120.2685305597595
 30
0.0
 10
241.6523121479122
 20
120.2685305597595
 30
0.0
 10
241.6523121479122
 20
120.1683305604717
 30
0.0
 10
241.6523121479122
 20
120.1683305604717
 30
0.0
  0
SPLINE
  5
17B3
330
1F
100
AcDbEntity
  8
0
370
    -3
100
AcDbSpline
210
0.0
220
0.0
230
1.0
 70
     9
 71
     3
 72
    28
 73
    24
 74
     0
 42
0.000000001
 43
0.0000000001
 40
0.0
 40
0.0
 40
0.0
 40
0.0
 40
0.1666666666666667
 40
0.1666666666666667
 40
0.1666666666666667
 40
0.1666666766666667
 40
0.3333333333333333
 40
0.3333333333333333
 40
0.3333333333333333
 40
0.3333333433333333
 40
0.5
 40
0.5
 40
0.5
 40
0.5000000100000001
 40
0.6666666666666666
 40
0.6666666666666666
 40
0.6666666666666666
 40
0.6666666766666668
 40
0.8333333333333332
 40
0.8333333333333332
 40
0.8333333333333332
 40
0.8333333433333333
 40
1.0
 40
1.0
 40
1.0
 40
1.0
 10
241.7523121475397
 20
131.7728305599055
 30
0.0
 10
241.7523121475397
 20
131.7728305599055
 30
0.0
 10
241.7523121475397
 20
117.4673305591902
 30
0.0
 10
241.7523121475397
 20
117.4673305591902
 30
0.0
 10
241.7523121475397
 20
117.4673305591902
 30
0.0
 10
241.7523121475397
 20
117.4123305594882
 30
0.0
 10
241.7075121482057
 20
117.367530559223
 30
0.0
 10
241.6523121479122
 20
117.367530559223
 30
0.0
 10
241.6523121479122
 20
117.367530559223
 30
0.0
 10
241.5972121474488
 20
117.367530559223
 30
0.0
 10
241.5524121481149
 20
117.4123305594882
 30
0.0
 10
241.5524121481149
 20
117.4673305591902
 30
0.0
 10
241.5524121481149
 20
117.4673305591902
 30
0.0
 10
241.5524121481149
 20
117.4673305591902
 30
0.0
 10
241.5524121481149
 20
131.7728305599055
 30
0.0
 10
241.5524121481149
 20
131.7728305599055
 30
0.0
 10
241.5524121481149
 20
131.7728305599055
 30
0.0
 10
241.5524121481149
 20
131.8282305607906
 30
0.0
 10
241.5972121474488
 20
131.8730305591932
 30
0.0
 10
241.6523121479122
 20
131.8730305591932
 30
0.0
 10
241.6523121479122
 20
131.8730305591932
 30
0.0
 10
241.7075121482057
 20
131.8730305591932
 30
0.0
 10
241.7523121475397
 20
131.8282305607906
 30
0.0
 10
241.7523121475397
 20
131.7728305599055
 30
0.0
  0
SPLINE
  5
17B4
330
1F
100
AcDbEntity
  8
0
370
    -3
100
AcDbSpline
210
0.0
220
0.0
230
1.0
 70
     9
 71
     3
 72
    28
 73
    24
 74
     0
 42
0.000000001
 43
0.0000000001
 40
0.0
 40
0.0
 40
0.0
 40
0.0
 40
0.1666666666666667
 40
0.1666666666666667
 40
0.1666666666666667
 40
0.1666666766666667
 40
0.3333333333333333
 40
0.3333333333333333
 40
0.3333333333333333
 40
0.3333333433333333
 40
0.5
 40
0.5
 40
0.5
 40
0.5000000100000001
 40
0.6666666666666666
 40
0.6666666666666666
 40
0.6666666666666666
 40
0.6666666766666668
 40
0.8333333333333332
 40
0.8333333333333332
 40
0.8333333333333332
 40
0.8333333433333333
 40
1.0
 40
1.0
 40
1.0
 40
1.0
 10
248.8049121475933
 20
124.5202305605969
 30
0.0
 10
248.8049121475933
 20
124.5202305605969
 30
0.0
 10
234.4994121478094
 20
124.5202305605969
 30
0.0
 10
234.4994121478094
 20
124.5202305605969
 30
0.0
 10
234.4994121478094
 20
124.5202305605969
 30
0.0
 10
234.4441121476857
 20
124.5202305605969
 30
0.0
 10
234.3996121478422
 20
124.5650305608621
 30
0.0
 10
234.3996121478422
 20
124.6200305605641
 30
0.0
 10
234.3996121478422
 20
124.6200305605641
 30
0.0
 10
234.3996121478422
 20
124.6754305595866
 30
0.0
 10
234.4441121476857
 20
124.7202305598518
 30
0.0
 10
234.4994121478094
 20
124.7202305598518
 30
0.0
 10
234.4994121478094
 20
124.7202305598518
 30
0.0
 10
234.4994121478094
 20
124.7202305598518
 30
0.0
 10
248.8049121475933
 20
124.7202305598518
 30
0.0
 10
248.8049121475933
 20
124.7202305598518
 30
0.0
 10
248.8049121475933
 20
124.7202305598518
 30
0.0
 10
248.8604121483086
 20
124.7202305598518
 30
0.0
 10
248.9052121476425
 20
124.6754305595866
 30
0.0
 10
248.9052121476425
 20
124.6200305605641
 30
0.0
 10
248.9052121476425
 20
124.6200305605641
 30
0.0
 10
248.9052121476425
 20
124.5650305608621
 30
0.0
 10
248.8604121483086
 20
124.5202305605969
 30
0.0
 10
248.8049121475933
 20
124.5202305605969
 30
0.0
  0
LINE
  5
17B5
330
1F
100
AcDbEntity
  8
xuxian
100
AcDbLine
 10
241.7523121475397
 20
124.520230560597
 30
0.0
 11
241.5524121481149
 21
124.7202305598518
 31
0.0
  0
LINE
  5
17B6
330
1F
100
AcDbEntity
  8
xuxian
100
AcDbLine
 10
241.5524121481149
 20
124.5202305605969
 30
0.0
 11
241.7523121475397
 21
124.7202305598518
 31
0.0
  0
ENDSEC
  0
SECTION
  2
OBJECTS
  0
DICTIONARY
  5
C
330
0
100
AcDbDictionary
281
     1
  3
ACAD_CIP_PREVIOUS_PRODUCT_INFO
350
216
  3
ACAD_COLOR
350
6B
  3
ACAD_DETAILVIEWSTYLE
350
21B
  3
ACAD_GROUP
350
D
  3
ACAD_LAYOUT
350
1A
  3
ACAD_MATERIAL
350
6A
  3
ACAD_MLEADERSTYLE
350
12D
  3
ACAD_MLINESTYLE
350
17
  3
ACAD_PLOTSETTINGS
350
19
  3
ACAD_PLOTSTYLENAME
350
E
  3
ACAD_SCALELIST
350
10C
  3
ACAD_SECTIONVIEWSTYLE
350
219
  3
ACAD_TABLESTYLE
350
7E
  3
ACAD_VISUALSTYLE
350
EF
  3
ACDB_RECOMPOSE_DATA
350
1944
  3
AcDbVariableDictionary
350
5E
  3
AcDsDecomposeData
350
194A
  0
DICTIONARY
  5
1FF
330
2
100
AcDbDictionary
280
     1
281
     1
  3
ACAD_LAYERSTATES
360
200
  0
DICTIONARY
  5
13C
330
10
100
AcDbDictionary
280
     1
281
     1
  0
DICTIONARY
  5
1CE
330
1F
100
AcDbDictionary
280
     1
281
     1
  3
ACAD_SORTENTS
360
C07
  0
DICTIONARY
  5
1415
330
1414
100
AcDbDictionary
280
     1
281
     1
  3
ACAD_DIMASSOC
360
1416
  0
DICTIONARY
  5
1418
330
1417
100
AcDbDictionary
280
     1
281
     1
  3
ACAD_DIMASSOC
360
1419
  0
DICTIONARY
  5
161B
330
160E
100
AcDbDictionary
280
     1
281
     1
  3
ACAD_DIMASSOC
360
1625
  0
DICTIONARY
  5
1633
330
1626
100
AcDbDictionary
280
     1
281
     1
  3
ACAD_DIMASSOC
360
163D
  0
DICTIONARY
  5
170E
330
1700
100
AcDbDictionary
280
     1
281
     1
  3
AcDbContextDataManager
360
1741
  0
DICTIONARY
  5
179E
330
179D
100
AcDbDictionary
280
     1
281
     1
  3
AcDbContextDataManager
360
179F
  0
XRECORD
  5
216
102
{ACAD_REACTORS
330
C
102
}
330
C
100
AcDbXrecord
280
     1
300
ACD
300
2021
300
87393ACD_2021_0F
  0
DICTIONARY
  5
6B
102
{ACAD_REACTORS
330
C
102
}
330
C
100
AcDbDictionary
281
     1
  0
DICTIONARY
  5
21B
102
{ACAD_REACTORS
330
C
102
}
330
C
100
AcDbDictionary
281
     1
  3
Metric50
350
21C
  0
DICTIONARY
  5
D
102
{ACAD_REACTORS
330
C
102
}
330
C
100
AcDbDictionary
281
     1
  0
DICTIONARY
  5
1A
102
{ACAD_REACTORS
330
C
102
}
330
C
100
AcDbDictionary
281
     1
  3
Layout1
350
D3
  3
Layout2
350
D7
  3
Model
350
22
  0
DICTIONARY
  5
6A
102
{ACAD_REACTORS
330
C
102
}
330
C
100
AcDbDictionary
281
     1
  3
ByBlock
350
ED
  3
ByLayer
350
EC
  3
Global
350
EE
  0
DICTIONARY
  5
12D
102
{ACAD_REACTORS
330
C
102
}
330
C
100
AcDbDictionary
281
     1
  3
Annotative
350
13B
  3
Standard
350
12E
  0
DICTIONARY
  5
17
102
{ACAD_REACTORS
330
C
102
}
330
C
100
AcDbDictionary
281
     1
  3
Standard
350
18
  0
DICTIONARY
  5
19
102
{ACAD_REACTORS
330
C
102
}
330
C
100
AcDbDictionary
281
     1
  0
ACDBDICTIONARYWDFLT
  5
E
102
{ACAD_REACTORS
330
C
102
}
330
C
100
AcDbDictionary
281
     1
  3
Normal
350
F
100
AcDbDictionaryWithDefault
340
F
  0
DICTIONARY
  5
10C
102
{ACAD_REACTORS
330
C
102
}
330
C
100
AcDbDictionary
281
     1
  3
A0
350
10D
  3
A1
350
1BE
  3
A2
350
1BF
  3
A3
350
1C0
  3
A4
350
1C1
  3
A5
350
1C2
  3
A6
350
1C3
  3
A7
350
1C4
  3
A8
350
1C5
  3
A9
350
1C6
  3
B0
350
1C7
  3
B1
350
1C8
  3
B2
350
1C9
  3
B3
350
1CA
  3
B4
350
1CB
  3
B5
350
1CC
  3
B6
350
1CD
  0
DICTIONARY
  5
219
102
{ACAD_REACTORS
330
C
102
}
330
C
100
AcDbDictionary
281
     1
  3
Metric50
350
21A
  0
DICTIONARY
  5
7E
102
{ACAD_REACTORS
330
C
102
}
330
C
100
AcDbDictionary
281
     1
  3
Standard
350
7F
  0
DICTIONARY
  5
EF
102
{ACAD_REACTORS
330
C
102
}
330
C
100
AcDbDictionary
281
     1
  3
2dWireframe
350
F5
  3
Basic
350
F4
  3
Brighten
350
FB
  3
ColorChange
350
FF
  3
Conceptual
350
F8
  3
Dim
350
FA
  3
EdgeColorOff
350
1E6
  3
Facepattern
350
FE
  3
Flat
350
F0
  3
FlatWithEdges
350
F1
  3
Gouraud
350
F2
  3
GouraudWithEdges
350
F3
  3
Hidden
350
F7
  3
JitterOff
350
1E4
  3
Linepattern
350
FD
  3
OverhangOff
350
1E5
  3
Realistic
350
F9
  3
Shaded
350
1F3
  3
Shaded with edges
350
1F2
  3
Shades of Gray
350
1EF
  3
Sketchy
350
1F0
  3
Thicken
350
FC
  3
Wireframe
350
F6
  3
X-Ray
350
1F1
  0
XRECORD
  5
1944
102
{ACAD_REACTORS
330
C
102
}
330
C
100
AcDbXrecord
280
     1
 90
        1
330
7F
330
12C7
330
12CA
330
12CB
330
141A
  0
DICTIONARY
  5
5E
102
{ACAD_REACTORS
330
C
102
}
330
C
100
AcDbDictionary
281
     1
  3
CANNOSCALE
350
146
  3
CENTEREXE
350
259
  3
CENTERLTYPEFILE
350
25A
  3
CMLEADERSTYLE
350
145
  3
CTABLESTYLE
350
84
  3
CVIEWDETAILSTYLE
350
227
  3
CVIEWSECTIONSTYLE
350
228
  3
DIMASSOC
350
5F
  3
HIDETEXT
350
63
  3
LAYEREVAL
350
1AE
  3
LAYERNOTIFY
350
1AF
  3
LIGHTINGUNITS
350
1864
  3
MSLTSCALE
350
1863
  3
PSOLHEIGHT
350
1866
  3
PSOLWIDTH
350
1865
  3
XCLIPFRAME
350
1867
  0
DICTIONARY
  5
194A
102
{ACAD_REACTORS
330
C
102
}
330
C
100
AcDbDictionary
281
     1
  3
AcDsRecords
350
194C
  3
AcDsSchemas
350
194B
1001
ACAD
1070
     2
  0
DICTIONARY
  5
200
102
{ACAD_REACTORS
330
1FF
102
}
330
1FF
100
AcDbDictionary
281
     1
  0
SORTENTSTABLE
  5
C07
102
{ACAD_REACTORS
330
1CE
102
}
330
1CE
100
AcDbSortentsTable
330
1F
331
14D2
  5
14D4
331
14D3
  5
14EA
331
14D4
  5
1512
331
15CE
  5
15D2
331
15CF
  5
15D4
331
15D0
  5
15D6
331
15D1
  5
15D9
331
15D2
  5
14D3
331
15D3
  5
14FE
331
15D4
  5
14D6
331
15D5
  5
14D2
331
15D6
  5
15D5
331
15D7
  5
15D3
331
15D9
  5
15D7
  0
DIMASSOC
  5
1416
102
{ACAD_REACTORS
330
1415
102
}
330
1415
100
AcDbDimAssoc
330
1414
 90
        1
 70
     0
 71
     0
  1
AcDbOsnapPointRef
 72
    10
331
1412
 73
     2
 91
        0
 40
0.4083475126141504
 10
0.0
 20
0.0
 30
0.0
 75
     0
  0
DIMASSOC
  5
1419
102
{ACAD_REACTORS
330
1418
102
}
330
1418
100
AcDbDimAssoc
330
1417
 90
        2
 70
     0
 71
     0
  1
AcDbOsnapPointRef
 72
     8
331
1413
 73
     2
 91
        0
 40
0.4083475126141514
 10
0.0
 20
0.0
 30
0.0
 75
     1
  1
AcDbOsnapPointRef
 72
     0
 40
0.0
 10
506.3096614786687
 20
511.2279575966385
 30
0.0
 75
     0
  0
DIMASSOC
  5
1625
102
{ACAD_REACTORS
330
161B
102
}
330
161B
100
AcDbDimAssoc
330
160E
 90
        3
 70
     0
 71
     0
  1
AcDbOsnapPointRef
 72
     2
331
15D1
 73
     2
 91
        0
 40
0.5
 10
1558.808515336248
 20
474.7982638185985
 30
0.0
 75
     0
  1
AcDbOsnapPointRef
 72
     2
331
15CF
 73
     2
 91
        0
 40
0.5
 10
1558.808515336248
 20
209.7982638185986
 30
0.0
 75
     0
  0
DIMASSOC
  5
163D
102
{ACAD_REACTORS
330
1633
102
}
330
1633
100
AcDbDimAssoc
330
1626
 90
        3
 70
     0
 71
     0
  1
AcDbOsnapPointRef
 72
     2
331
15CE
 73
     2
 91
        0
 40
0.4999999999999999
 10
1333.808515336248
 20
342.2982638185986
 30
0.0
 75
     0
  1
AcDbOsnapPointRef
 72
     2
331
15D0
 73
     2
 91
        0
 40
0.5000000000000001
 10
1783.808515336248
 20
342.2982638185986
 30
0.0
 75
     0
  0
DICTIONARY
  5
1741
102
{ACAD_REACTORS
330
170E
102
}
330
170E
100
AcDbDictionary
281
     1
  3
ACDB_ANNOTATIONSCALES
350
1742
  0
DICTIONARY
  5
179F
102
{ACAD_REACTORS
330
179E
102
}
330
179E
100
AcDbDictionary
281
     1
  3
ACDB_ANNOTATIONSCALES
350
17A0
  0
ACDBDETAILVIEWSTYLE
  5
21C
102
{ACAD_XDICTIONARY
360
1983
102
}
102
{ACAD_REACTORS
330
21B
102
}
330
21B
100
AcDbModelDocViewStyle
 70
     0
  3
Metric50
290
     0
100
AcDbDetailViewStyle
 70
     0
 71
     0
 90
        3
 71
     1
340
11
 62
   256
 40
5.0
340
0
 62
   256
 40
5.0
300

 40
0.0
280
     1
 71
     2
340
16
 90
       25
 62
   256
 71
     3
340
11
 62
   256
 40
5.0
 90
        0
 40
15.0
 90
        1
300
%<\AcVar ViewDetailId>% (%<\AcVar ViewScale \f "%sn">%)
 71
     4
340
16
 90
       25
 62
   256
340
16
 90
       25
 62
   256
280
     0
  0
LAYOUT
  5
D3
102
{ACAD_REACTORS
330
1A
102
}
330
1A
100
AcDbPlotSettings
  1

  2
C:\Documents and Settings\basas\Application Data\Autodesk\AutoCAD 2005\R16.1\enu\plotters\Default Windows System Printer.pc3
  4

  6

 40
0.0
 41
0.0
 42
0.0
 43
0.0
 44
0.0
 45
0.0
 46
0.0
 47
0.0
 48
0.0
 49
0.0
140
0.0
141
0.0
142
1.0
143
1.0
 70
   688
 72
     0
 73
     0
 74
     5
  7

 75
    16
147
1.0
 76
     0
 77
     2
 78
   300
148
0.0
149
0.0
100
AcDbLayout
  1
Layout1
 70
     1
 71
     1
 10
0.0
 20
0.0
 11
12.0
 21
9.0
 12
0.0
 22
0.0
 32
0.0
 14
0.0
 24
0.0
 34
0.0
 15
0.0
 25
0.0
 35
0.0
146
0.0
 13
0.0
 23
0.0
 33
0.0
 16
1.0
 26
0.0
 36
0.0
 17
0.0
 27
1.0
 37
0.0
 76
     0
330
D2
  0
LAYOUT
  5
D7
102
{ACAD_REACTORS
330
1A
102
}
330
1A
100
AcDbPlotSettings
  1

  2
C:\Documents and Settings\basas\Application Data\Autodesk\AutoCAD 2005\R16.1\enu\plotters\Default Windows System Printer.pc3
  4

  6

 40
0.0
 41
0.0
 42
0.0
 43
0.0
 44
0.0
 45
0.0
 46
0.0
 47
0.0
 48
0.0
 49
0.0
140
0.0
141
0.0
142
1.0
143
1.0
 70
   688
 72
     0
 73
     0
 74
     5
  7

 75
    16
147
1.0
 76
     0
 77
     2
 78
   300
148
0.0
149
0.0
100
AcDbLayout
  1
Layout2
 70
     1
 71
     2
 10
0.0
 20
0.0
 11
12.0
 21
9.0
 12
0.0
 22
0.0
 32
0.0
 14
0.0
 24
0.0
 34
0.0
 15
0.0
 25
0.0
 35
0.0
146
0.0
 13
0.0
 23
0.0
 33
0.0
 16
1.0
 26
0.0
 36
0.0
 17
0.0
 27
1.0
 37
0.0
 76
     0
330
D6
  0
LAYOUT
  5
22
102
{ACAD_XDICTIONARY
360
205
102
}
102
{ACAD_REACTORS
330
1A
102
}
330
1A
100
AcDbPlotSettings
  1

  2
none_device
  4
ISO_A4_(210.00_x_297.00_MM)
  6

 40
7.5
 41
20.0
 42
7.5
 43
20.0
 44
210.0
 45
297.0
 46
11.54999923706054
 47
-13.65000009536743
 48
0.0
 49
0.0
140
0.0
141
0.0
142
1.0
143
8.704084754739808
 70
 11952
 72
     1
 73
     0
 74
     0
  7

 75
     0
147
0.1148885871608098
 76
     0
 77
     2
 78
   300
148
0.0
149
0.0
100
AcDbLayout
  1
Model
 70
     1
 71
     0
 10
0.0
 20
0.0
 11
12.0
 21
9.0
 12
0.0
 22
0.0
 32
0.0
 14
0.0
 24
0.0
 34
0.0
 15
0.0
 25
0.0
 35
0.0
146
0.0
 13
0.0
 23
0.0
 33
0.0
 16
1.0
 26
0.0
 36
0.0
 17
0.0
 27
1.0
 37
0.0
 76
     0
330
1F
331
EA
1001
ACAD_PSEXT
1000
None
1000
None
1000
Not applicable
1000
The layout will not be plotted unless a new plotter configuration name is selected.
1070
     0
  0
MATERIAL
  5
ED
102
{ACAD_XDICTIONARY
360
1F9
102
}
102
{ACAD_REACTORS
330
6A
102
}
330
6A
100
AcDbMaterial
  1
ByBlock
  0
MATERIAL
  5
EC
102
{ACAD_XDICTIONARY
360
1F7
102
}
102
{ACAD_REACTORS
330
6A
102
}
330
6A
100
AcDbMaterial
  1
ByLayer
  0
MATERIAL
  5
EE
102
{ACAD_XDICTIONARY
360
173
102
}
102
{ACAD_REACTORS
330
6A
102
}
330
6A
100
AcDbMaterial
  1
Global
 43
0.0007999999797903
 43
0.0
 43
0.0
 43
0.0
 43
0.0
 43
0.0007999999797903
 43
0.0
 43
0.0
 43
0.0
 43
0.0
 43
1.0
 43
0.0
 43
0.0
 43
0.0
 43
0.0
 43
1.0
 49
0.0007999999797903
 49
0.0
 49
0.0
 49
0.0
 49
0.0
 49
0.0007999999797903
 49
0.0
 49
0.0
 49
0.0
 49
0.0
 49
1.0
 49
0.0
 49
0.0
 49
0.0
 49
0.0
 49
1.0
142
0.0007999999797903
142
0.0
142
0.0
142
0.0
142
0.0
142
0.0007999999797903
142
0.0
142
0.0
142
0.0
142
0.0
142
1.0
142
0.0
142
0.0
142
0.0
142
0.0
142
1.0
144
0.0007999999797903
144
0.0
144
0.0
144
0.0
144
0.0
144
0.0007999999797903
144
0.0
144
0.0
144
0.0
144
0.0
144
1.0
144
0.0
144
0.0
144
0.0
144
0.0
144
1.0
1001
ACAD
1070
    -1
1070
     3
1070
     0
1000

1071
        0
1070
     0
  0
MLEADERSTYLE
  5
13B
102
{ACAD_REACTORS
330
12D
102
}
330
12D
100
AcDbMLeaderStyle
170
     2
171
     1
172
     0
 90
        2
 40
0.0
 41
0.0
173
     1
 91
-1056964608
340
14
 92
       -2
290
     1
 42
2.0
291
     1
 43
8.0
  3
Standard
 44
4.0
300

342
11
174
     1
178
     1
175
     1
176
     0
 93
-1056964608
 45
4.0
292
     0
297
     0
 46
4.0
 94
-1056964608
 47
1.0
 49
1.0
140
1.0
293
     1
141
0.0
294
     1
177
     0
142
1.0
295
     0
296
     1
143
3.75
1001
ACAD_MLEADERVER
1070
     2
  0
MLEADERSTYLE
  5
12E
102
{ACAD_REACTORS
330
12D
102
}
330
12D
100
AcDbMLeaderStyle
170
     2
171
     1
172
     0
 90
        2
 40
0.0
 41
0.0
173
     1
 91
-1056964608
340
14
 92
       -2
290
     1
 42
2.0
291
     1
 43
8.0
  3
Standard
 44
4.0
300

342
11
174
     1
178
     1
175
     1
176
     0
 93
-1056964608
 45
4.0
292
     0
297
     0
 46
4.0
 94
-1056964608
 47
1.0
 49
1.0
140
1.0
293
     1
141
0.0
294
     1
177
     0
142
1.0
295
     0
296
     0
143
3.75
1001
ACAD_MLEADERVER
1070
     2
  0
MLINESTYLE
  5
18
102
{ACAD_REACTORS
330
17
102
}
330
17
100
AcDbMlineStyle
  2
STANDARD
 70
     0
  3

 62
   256
 51
90.0
 52
90.0
 71
     2
 49
0.5
 62
   256
  6
BYLAYER
 49
-0.5
 62
   256
  6
BYLAYER
  0
ACDBPLACEHOLDER
  5
F
102
{ACAD_REACTORS
330
E
102
}
330
E
  0
SCALE
  5
10D
102
{ACAD_REACTORS
330
10C
102
}
330
10C
100
AcDbScale
 70
     0
300
1:1
140
1.0
141
1.0
290
     1
  0
SCALE
  5
1BE
102
{ACAD_REACTORS
330
10C
102
}
330
10C
100
AcDbScale
 70
     0
300
1:2
140
1.0
141
2.0
290
     0
  0
SCALE
  5
1BF
102
{ACAD_REACTORS
330
10C
102
}
330
10C
100
AcDbScale
 70
     0
300
1:4
140
1.0
141
4.0
290
     0
  0
SCALE
  5
1C0
102
{ACAD_REACTORS
330
10C
102
}
330
10C
100
AcDbScale
 70
     0
300
1:5
140
1.0
141
5.0
290
     0
  0
SCALE
  5
1C1
102
{ACAD_REACTORS
330
10C
102
}
330
10C
100
AcDbScale
 70
     0
300
1:8
140
1.0
141
8.0
290
     0
  0
SCALE
  5
1C2
102
{ACAD_REACTORS
330
10C
102
}
330
10C
100
AcDbScale
 70
     0
300
1:10
140
1.0
141
10.0
290
     0
  0
SCALE
  5
1C3
102
{ACAD_REACTORS
330
10C
102
}
330
10C
100
AcDbScale
 70
     0
300
1:16
140
1.0
141
16.0
290
     0
  0
SCALE
  5
1C4
102
{ACAD_REACTORS
330
10C
102
}
330
10C
100
AcDbScale
 70
     0
300
1:20
140
1.0
141
20.0
290
     0
  0
SCALE
  5
1C5
102
{ACAD_REACTORS
330
10C
102
}
330
10C
100
AcDbScale
 70
     0
300
1:30
140
1.0
141
30.0
290
     0
  0
SCALE
  5
1C6
102
{ACAD_REACTORS
330
10C
102
}
330
10C
100
AcDbScale
 70
     0
300
1:40
140
1.0
141
40.0
290
     0
  0
SCALE
  5
1C7
102
{ACAD_REACTORS
330
10C
102
}
330
10C
100
AcDbScale
 70
     0
300
1:50
140
1.0
141
50.0
290
     0
  0
SCALE
  5
1C8
102
{ACAD_REACTORS
330
10C
102
}
330
10C
100
AcDbScale
 70
     0
300
1:100
140
1.0
141
100.0
290
     0
  0
SCALE
  5
1C9
102
{ACAD_REACTORS
330
10C
102
}
330
10C
100
AcDbScale
 70
     0
300
2:1
140
2.0
141
1.0
290
     0
  0
SCALE
  5
1CA
102
{ACAD_REACTORS
330
10C
102
}
330
10C
100
AcDbScale
 70
     0
300
4:1
140
4.0
141
1.0
290
     0
  0
SCALE
  5
1CB
102
{ACAD_REACTORS
330
10C
102
}
330
10C
100
AcDbScale
 70
     0
300
8:1
140
8.0
141
1.0
290
     0
  0
SCALE
  5
1CC
102
{ACAD_REACTORS
330
10C
102
}
330
10C
100
AcDbScale
 70
     0
300
10:1
140
10.0
141
1.0
290
     0
  0
SCALE
  5
1CD
102
{ACAD_REACTORS
330
10C
102
}
330
10C
100
AcDbScale
 70
     0
300
100:1
140
100.0
141
1.0
290
     0
  0
ACDBSECTIONVIEWSTYLE
  5
21A
102
{ACAD_XDICTIONARY
360
1981
102
}
102
{ACAD_REACTORS
330
219
102
}
330
219
100
AcDbModelDocViewStyle
 70
     0
  3
Metric50
290
     0
100
AcDbSectionViewStyle
 70
     0
 71
     0
 90
      102
 71
     1
340
11
 62
   256
 40
5.0
340
0
340
0
 62
   256
 40
5.0
300
I, O, Q, S, X, Z
 40
10.0
 90
        0
 40
2.5
 90
        0
 71
     2
340
16
 90
       25
 62
   256
340
16
 90
       50
 62
   256
 40
5.0
 40
2.5
 40
5.0
 71
     3
340
11
 62
   256
 40
5.0
 90
        0
 40
15.0
 90
        1
300
%<\AcVar ViewSectionStartId>%-%<\AcVar ViewSectionEndId>% (%<\AcVar ViewScale \f "%sn">%)
 71
     4
 62
   256
 62
   257
300
ANSI31
 40
1.0
 90
        0
290
     0
290
     0
 90
        6
 40
0.0
 40
1.570796326794896
 40
0.2617993877991494
 40
1.308996938995747
 40
-0.2617993877991494
 40
1.832595714594046
  0
TABLESTYLE
  5
7F
102
{ACAD_XDICTIONARY
360
162
102
}
102
{ACAD_REACTORS
330
7E
102
}
330
7E
100
AcDbTableStyle
  3
Standard
 70
     0
 71
     0
 40
1.5
 41
1.5
280
     0
281
     0
  7
Standard
140
4.5
170
     2
 62
     0
 63
     7
283
     0
274
    -2
284
     1
 64
     0
275
    -2
285
     1
 65
     0
276
    -2
286
     1
 66
     0
277
    -2
287
     1
 67
     0
278
    -2
288
     1
 68
     0
279
    -2
289
     1
 69
     0
  7
Standard
140
6.0
170
     5
 62
     0
 63
     7
283
     0
274
    -2
284
     1
 64
     0
275
    -2
285
     1
 65
     0
276
    -2
286
     1
 66
     0
277
    -2
287
     1
 67
     0
278
    -2
288
     1
 68
     0
279
    -2
289
     1
 69
     0
  7
Standard
140
4.5
170
     5
 62
     0
 63
     7
283
     0
274
    -2
284
     1
 64
     0
275
    -2
285
     1
 65
     0
276
    -2
286
     1
 66
     0
277
    -2
287
     1
 67
     0
278
    -2
288
     1
 68
     0
279
    -2
289
     1
 69
     0
  0
VISUALSTYLE
  5
F5
102
{ACAD_XDICTIONARY
360
195B
102
}
102
{ACAD_REACTORS
330
EF
102
}
330
EF
100
AcDbVisualStyle
  2
2dWireframe
 70
     4
 71
     0
 72
     2
 73
     1
 90
        0
 40
-0.6
 41
-30.0
 62
     5
 63
     7
421
 16777215
 74
     1
 91
        4
 64
     7
 65
   257
 75
     1
175
     1
 42
1.0
 92
        0
 66
   257
 43
1.0
 76
     1
 77
     6
 78
     2
 67
     7
 79
     5
170
     0
171
     0
290
     0
174
     0
 93
        1
 44
0.0
173
     0
291
     0
 45
0.0
1001
ACAD
1000
AcDbSavedByObjectVersion
1070
     0
  0
VISUALSTYLE
  5
F4
102
{ACAD_XDICTIONARY
360
1959
102
}
102
{ACAD_REACTORS
330
EF
102
}
330
EF
100
AcDbVisualStyle
  2
Basic
 70
     7
 71
     1
 72
     0
 73
     1
 90
        0
 40
-0.6
 41
-30.0
 62
     5
 63
     7
421
 16777215
 74
     0
 91
        4
 64
     7
 65
   257
 75
     1
175
     1
 42
1.0
 92
        8
 66
     7
 43
1.0
 76
     1
 77
     6
 78
     2
 67
     7
 79
     5
170
     0
171
     0
290
     0
174
     0
 93
        1
 44
0.0
173
     0
291
     1
 45
0.0
1001
ACAD
1000
AcDbSavedByObjectVersion
1070
     0
  0
VISUALSTYLE
  5
FB
102
{ACAD_XDICTIONARY
360
1967
102
}
102
{ACAD_REACTORS
330
EF
102
}
330
EF
100
AcDbVisualStyle
  2
Brighten
 70
    12
 71
     2
 72
     2
 73
     1
 90
        0
 40
-0.6
 41
-30.0
 62
     5
 63
     7
421
 16777215
 74
     1
 91
        4
 64
     7
 65
   257
 75
     1
175
     1
 42
1.0
 92
        8
 66
     7
 43
1.0
 76
     1
 77
     6
 78
     2
 67
     7
 79
     5
170
     0
171
     0
290
     0
174
     0
 93
        1
 44
50.0
173
     0
291
     1
 45
0.0
1001
ACAD
1000
AcDbSavedByObjectVersion
1070
     0
  0
VISUALSTYLE
  5
FF
102
{ACAD_XDICTIONARY
360
196F
102
}
102
{ACAD_REACTORS
330
EF
102
}
330
EF
100
AcDbVisualStyle
  2
ColorChange
 70
    16
 71
     2
 72
     2
 73
     3
 90
        0
 40
-0.6
 41
-30.0
 62
     5
 63
     8
421
  8421504
 74
     1
 91
        4
 64
     7
 65
   257
 75
     1
175
     1
 42
1.0
 92
        8
 66
     8
424
  8421504
 43
1.0
 76
     1
 77
     6
 78
     2
 67
     7
 79
     5
170
     0
171
     0
290
     0
174
     0
 93
        1
 44
0.0
173
     0
291
     1
 45
0.0
1001
ACAD
1000
AcDbSavedByObjectVersion
1070
     0
  0
VISUALSTYLE
  5
F8
102
{ACAD_XDICTIONARY
360
1961
102
}
102
{ACAD_REACTORS
330
EF
102
}
330
EF
100
AcDbVisualStyle
  2
Conceptual
 70
     9
 71
     3
 72
     2
 73
     1
 90
        0
 40
-0.6
 41
-30.0
 62
     5
 63
     7
421
 16777215
 74
     2
 91
        2
 64
     7
 65
   257
 75
     1
175
     1
 42
40.0
 92
        8
 66
     7
 43
1.0
 76
     1
 77
     6
 78
     2
 67
     7
 79
     3
170
     0
171
     0
290
     0
174
     0
 93
        1
 44
0.0
173
     0
291
     0
 45
0.0
1001
ACAD
1000
AcDbSavedByObjectVersion
1070
     0
  0
VISUALSTYLE
  5
FA
102
{ACAD_XDICTIONARY
360
1965
102
}
102
{ACAD_REACTORS
330
EF
102
}
330
EF
100
AcDbVisualStyle
  2
Dim
 70
    11
 71
     2
 72
     2
 73
     1
 90
        0
 40
-0.6
 41
-30.0
 62
     5
 63
     7
421
 16777215
 74
     1
 91
        4
 64
     7
 65
   257
 75
     1
175
     1
 42
1.0
 92
        8
 66
     7
 43
1.0
 76
     1
 77
     6
 78
     2
 67
     7
 79
     5
170
     0
171
     0
290
     0
174
     0
 93
        1
 44
-50.0
173
     0
291
     1
 45
0.0
1001
ACAD
1000
AcDbSavedByObjectVersion
1070
     0
  0
VISUALSTYLE
  5
1E6
102
{ACAD_XDICTIONARY
360
1975
102
}
102
{ACAD_REACTORS
330
EF
102
}
330
EF
100
AcDbVisualStyle
  2
EdgeColorOff
 70
    22
 71
     2
 72
     2
 73
     0
 90
        0
 40
-0.6
 41
-30.0
 62
     5
 63
     7
421
 16777215
 74
     1
 91
        4
 64
     7
 65
   257
 75
     1
175
     1
 42
1.0
 92
        8
 66
     7
 43
1.0
 76
     1
 77
     6
 78
     2
 67
     7
 79
     5
170
     0
171
     0
290
     0
174
     0
 93
        1
 44
0.0
173
     0
291
     1
 45
0.0
1001
ACAD
1000
AcDbSavedByObjectVersion
1070
     0
  0
VISUALSTYLE
  5
FE
102
{ACAD_XDICTIONARY
360
196D
102
}
102
{ACAD_REACTORS
330
EF
102
}
330
EF
100
AcDbVisualStyle
  2
Facepattern
 70
    15
 71
     2
 72
     2
 73
     1
 90
        0
 40
-0.6
 41
-30.0
 62
     5
 63
     7
421
 16777215
 74
     1
 91
        4
 64
     7
 65
   257
 75
     1
175
     1
 42
1.0
 92
        8
 66
     7
 43
1.0
 76
     1
 77
     6
 78
     2
 67
     7
 79
     5
170
     0
171
     0
290
     0
174
     0
 93
        1
 44
0.0
173
     0
291
     1
 45
0.0
1001
ACAD
1000
AcDbSavedByObjectVersion
1070
     0
  0
VISUALSTYLE
  5
F0
102
{ACAD_XDICTIONARY
360
1951
102
}
102
{ACAD_REACTORS
330
EF
102
}
330
EF
100
AcDbVisualStyle
  2
Flat
 70
     0
 71
     2
 72
     1
 73
     1
 90
        2
 40
-0.6
 41
30.0
 62
     5
 63
     7
421
 16777215
 74
     0
 91
        0
 64
     7
 65
   257
 75
     1
175
     1
 42
1.0
 92
        8
 66
     7
 43
1.0
 76
     1
 77
     6
 78
     2
 67
     7
 79
     5
170
     0
171
     0
290
     0
174
     0
 93
       13
 44
0.0
173
     0
291
     1
 45
0.0
1001
ACAD
1000
AcDbSavedByObjectVersion
1070
     0
  0
VISUALSTYLE
  5
F1
102
{ACAD_XDICTIONARY
360
1953
102
}
102
{ACAD_REACTORS
330
EF
102
}
330
EF
100
AcDbVisualStyle
  2
FlatWithEdges
 70
     1
 71
     2
 72
     1
 73
     1
 90
        2
 40
-0.6
 41
30.0
 62
     5
 63
     7
421
 16777215
 74
     1
 91
        0
 64
     7
 65
   257
 75
     1
175
     1
 42
1.0
 92
        0
 66
   257
 43
1.0
 76
     1
 77
     6
 78
     2
 67
     7
 79
     5
170
     0
171
     0
290
     0
174
     0
 93
       13
 44
0.0
173
     0
291
     1
 45
0.0
1001
ACAD
1000
AcDbSavedByObjectVersion
1070
     0
  0
VISUALSTYLE
  5
F2
102
{ACAD_XDICTIONARY
360
1955
102
}
102
{ACAD_REACTORS
330
EF
102
}
330
EF
100
AcDbVisualStyle
  2
Gouraud
 70
     2
 71
     2
 72
     2
 73
     1
 90
        2
 40
-0.6
 41
30.0
 62
     5
 63
     7
421
 16777215
 74
     0
 91
        0
 64
     7
 65
   257
 75
     1
175
     1
 42
1.0
 92
        0
 66
     7
 43
1.0
 76
     1
 77
     6
 78
     2
 67
     7
 79
     5
170
     0
171
     0
290
     0
174
     0
 93
       13
 44
0.0
173
     0
291
     1
 45
0.0
1001
ACAD
1000
AcDbSavedByObjectVersion
1070
     0
  0
VISUALSTYLE
  5
F3
102
{ACAD_XDICTIONARY
360
1957
102
}
102
{ACAD_REACTORS
330
EF
102
}
330
EF
100
AcDbVisualStyle
  2
GouraudWithEdges
 70
     3
 71
     2
 72
     2
 73
     1
 90
        2
 40
-0.6
 41
30.0
 62
     5
 63
     7
421
 16777215
 74
     1
 91
        0
 64
     7
 65
   257
 75
     1
175
     1
 42
1.0
 92
        0
 66
   257
 43
1.0
 76
     1
 77
     6
 78
     2
 67
     7
 79
     5
170
     0
171
     0
290
     0
174
     0
 93
       13
 44
0.0
173
     0
291
     1
 45
0.0
1001
ACAD
1000
AcDbSavedByObjectVersion
1070
     0
  0
VISUALSTYLE
  5
F7
102
{ACAD_XDICTIONARY
360
195F
102
}
102
{ACAD_REACTORS
330
EF
102
}
330
EF
100
AcDbVisualStyle
  2
Hidden
 70
     6
 71
     1
 72
     2
 73
     2
 90
        0
 40
-0.6
 41
-30.0
 62
     5
 63
     7
421
 16777215
 74
     2
 91
        2
 64
     7
 65
   257
 75
     2
175
     1
 42
40.0
 92
        0
 66
   257
 43
1.0
 76
     1
 77
     6
 78
     2
 67
     7
 79
     3
170
     0
171
     0
290
     0
174
     0
 93
        1
 44
0.0
173
     0
291
     0
 45
0.0
1001
ACAD
1000
AcDbSavedByObjectVersion
1070
     0
  0
VISUALSTYLE
  5
1E4
102
{ACAD_XDICTIONARY
360
1971
102
}
102
{ACAD_REACTORS
330
EF
102
}
330
EF
100
AcDbVisualStyle
  2
JitterOff
 70
    20
 71
     2
 72
     2
 73
     0
 90
        0
 40
-0.6
 41
-30.0
 62
     5
 63
     7
421
 16777215
 74
     1
 91
        4
 64
     7
 65
   257
 75
     1
175
     1
 42
1.0
 92
       10
 66
     7
 43
1.0
 76
     1
 77
     6
 78
     2
 67
     7
 79
     5
170
     0
171
     0
290
     0
174
     0
 93
        1
 44
0.0
173
     0
291
     1
 45
0.0
1001
ACAD
1000
AcDbSavedByObjectVersion
1070
     0
  0
VISUALSTYLE
  5
FD
102
{ACAD_XDICTIONARY
360
196B
102
}
102
{ACAD_REACTORS
330
EF
102
}
330
EF
100
AcDbVisualStyle
  2
Linepattern
 70
    14
 71
     2
 72
     2
 73
     1
 90
        0
 40
-0.6
 41
-30.0
 62
     5
 63
     7
421
 16777215
 74
     1
 91
        4
 64
     7
 65
   257
 75
     7
175
     7
 42
1.0
 92
        8
 66
     7
 43
1.0
 76
     1
 77
     6
 78
     2
 67
     7
 79
     5
170
     0
171
     0
290
     0
174
     0
 93
        1
 44
0.0
173
     0
291
     1
 45
0.0
1001
ACAD
1000
AcDbSavedByObjectVersion
1070
     0
  0
VISUALSTYLE
  5
1E5
102
{ACAD_XDICTIONARY
360
1973
102
}
102
{ACAD_REACTORS
330
EF
102
}
330
EF
100
AcDbVisualStyle
  2
OverhangOff
 70
    21
 71
     2
 72
     2
 73
     0
 90
        0
 40
-0.6
 41
-30.0
 62
     5
 63
     7
421
 16777215
 74
     1
 91
        4
 64
     7
 65
   257
 75
     1
175
     1
 42
1.0
 92
        9
 66
     7
 43
1.0
 76
     1
 77
     6
 78
     2
 67
     7
 79
     5
170
     0
171
     0
290
     0
174
     0
 93
        1
 44
0.0
173
     0
291
     1
 45
0.0
1001
ACAD
1000
AcDbSavedByObjectVersion
1070
     0
  0
VISUALSTYLE
  5
F9
102
{ACAD_XDICTIONARY
360
1963
102
}
102
{ACAD_REACTORS
330
EF
102
}
330
EF
100
AcDbVisualStyle
  2
Realistic
 70
     8
 71
     2
 72
     3
 73
     0
 90
        2
 40
-0.6
 41
30.0
 62
     5
 63
     7
421
 16777215
 74
     0
 91
        0
 64
     7
 65
   257
 75
     1
175
     1
 42
1.0
 92
        8
 66
   257
 43
1.0
 76
     1
 77
     6
 78
     2
 67
     7
 79
     3
170
     0
171
     0
290
     0
174
     0
 93
       13
 44
0.0
173
     0
291
     0
 45
0.0
1001
ACAD
1000
AcDbSavedByObjectVersion
1070
     0
  0
VISUALSTYLE
  5
1F3
102
{ACAD_XDICTIONARY
360
197F
102
}
102
{ACAD_REACTORS
330
EF
102
}
330
EF
100
AcDbVisualStyle
  2
Shaded
 70
    27
 71
     2
 72
     2
 73
     1
 90
        2
 40
-0.6
 41
30.0
 62
     5
 63
     7
421
 16777215
 74
     0
 91
        4
 64
     7
 65
   257
 75
     1
175
     1
 42
1.0
 92
        8
 66
   257
 43
1.0
 76
     1
 77
     6
 78
     2
 67
     8
425
  7895160
 79
     3
170
     0
171
     0
290
     0
174
     0
 93
        5
 44
0.0
173
     0
291
     0
 45
0.0
1001
ACAD
1000
AcDbSavedByObjectVersion
1070
     0
  0
VISUALSTYLE
  5
1F2
102
{ACAD_XDICTIONARY
360
197D
102
}
102
{ACAD_REACTORS
330
EF
102
}
330
EF
100
AcDbVisualStyle
  2
Shaded with edges
 70
    26
 71
     2
 72
     2
 73
     1
 90
        2
 40
-0.6
 41
30.0
 62
     5
 63
     7
421
 16777215
 74
     1
 91
        2
 64
     7
 65
   257
 75
     2
175
     1
 42
1.0
 92
        8
 66
   257
 43
1.0
 76
     1
 77
     6
 78
     2
 67
     7
 79
     3
170
     0
171
     0
290
     0
174
     0
 93
        5
 44
0.0
173
     0
291
     0
 45
0.0
1001
ACAD
1000
AcDbSavedByObjectVersion
1070
     0
  0
VISUALSTYLE
  5
1EF
102
{ACAD_XDICTIONARY
360
1977
102
}
102
{ACAD_REACTORS
330
EF
102
}
330
EF
100
AcDbVisualStyle
  2
Shades of Gray
 70
    23
 71
     2
 72
     2
 73
     3
 90
        0
 40
-0.6
 41
-30.0
 62
     5
 63
     7
421
 16777215
 74
     2
 91
        2
 64
     7
 65
     7
 75
     1
175
     1
 42
40.0
 92
        8
 66
     7
 43
1.0
 76
     1
 77
     6
 78
     2
 67
     7
 79
     3
170
     0
171
     0
290
     0
174
     0
 93
        1
 44
0.0
173
     0
291
     0
 45
0.0
1001
ACAD
1000
AcDbSavedByObjectVersion
1070
     0
  0
VISUALSTYLE
  5
1F0
102
{ACAD_XDICTIONARY
360
1979
102
}
102
{ACAD_REACTORS
330
EF
102
}
330
EF
100
AcDbVisualStyle
  2
Sketchy
 70
    24
 71
     1
 72
     2
 73
     2
 90
        0
 40
-0.6
 41
-30.0
 62
     5
 63
     7
421
 16777215
 74
     2
 91
        2
 64
     7
 65
     7
 75
     1
175
     1
 42
40.0
 92
       11
 66
     7
 43
1.0
 76
     1
 77
     6
 78
     2
 67
     7
 79
     6
170
     0
171
     0
290
     0
174
     0
 93
        1
 44
0.0
173
     0
291
     0
 45
0.0
1001
ACAD
1000
AcDbSavedByObjectVersion
1070
     0
  0
VISUALSTYLE
  5
FC
102
{ACAD_XDICTIONARY
360
1969
102
}
102
{ACAD_REACTORS
330
EF
102
}
330
EF
100
AcDbVisualStyle
  2
Thicken
 70
    13
 71
     2
 72
     2
 73
     1
 90
        0
 40
-0.6
 41
-30.0
 62
     5
 63
     7
421
 16777215
 74
     1
 91
        4
 64
     7
 65
   257
 75
     1
175
     1
 42
1.0
 92
       12
 66
     7
 43
1.0
 76
     1
 77
     6
 78
     2
 67
     7
 79
     5
170
     0
171
     0
290
     0
174
     0
 93
        1
 44
0.0
173
     0
291
     1
 45
0.0
1001
ACAD
1000
AcDbSavedByObjectVersion
1070
     0
  0
VISUALSTYLE
  5
F6
102
{ACAD_XDICTIONARY
360
195D
102
}
102
{ACAD_REACTORS
330
EF
102
}
330
EF
100
AcDbVisualStyle
  2
Wireframe
 70
     5
 71
     0
 72
     2
 73
     0
 90
        0
 40
-0.6
 41
-30.0
 62
     5
 63
     7
421
 16777215
 74
     1
 91
        4
 64
     7
 65
   257
 75
     1
175
     1
 42
1.0
 92
        0
 66
   257
 43
1.0
 76
     1
 77
     6
 78
     2
 67
     7
 79
     3
170
     0
171
     0
290
     0
174
     0
 93
        1
 44
0.0
173
     0
291
     0
 45
0.0
1001
ACAD
1000
AcDbSavedByObjectVersion
1070
     0
  0
VISUALSTYLE
  5
1F1
102
{ACAD_XDICTIONARY
360
197B
102
}
102
{ACAD_REACTORS
330
EF
102
}
330
EF
100
AcDbVisualStyle
  2
X-Ray
 70
    25
 71
     2
 72
     2
 73
     1
 90
        1
 40
0.5
 41
-30.0
 62
     5
 63
     7
421
 16777215
 74
     1
 91
        0
 64
     7
 65
   257
 75
     1
175
     1
 42
1.0
 92
        8
 66
     7
 43
1.0
 76
     1
 77
     6
 78
     2
 67
     7
 79
     3
170
     0
171
     0
290
     0
174
     0
 93
       13
 44
0.0
173
     0
291
     0
 45
0.0
1001
ACAD
1000
AcDbSavedByObjectVersion
1070
     0
  0
DICTIONARYVAR
  5
146
102
{ACAD_REACTORS
330
5E
102
}
330
5E
100
DictionaryVariables
280
     0
  1
1:1
  0
DICTIONARYVAR
  5
259
102
{ACAD_REACTORS
330
5E
102
}
330
5E
100
DictionaryVariables
280
     0
  1
3.500000
  0
DICTIONARYVAR
  5
25A
102
{ACAD_REACTORS
330
5E
102
}
330
5E
100
DictionaryVariables
280
     0
  1
acadiso.lin
  0
DICTIONARYVAR
  5
145
102
{ACAD_REACTORS
330
5E
102
}
330
5E
100
DictionaryVariables
280
     0
  1
STANDARD
  0
DICTIONARYVAR
  5
84
102
{ACAD_REACTORS
330
5E
102
}
330
5E
100
DictionaryVariables
280
     0
  1
STANDARD
  0
DICTIONARYVAR
  5
227
102
{ACAD_REACTORS
330
5E
102
}
330
5E
100
DictionaryVariables
280
     0
  1
Metric50
  0
DICTIONARYVAR
  5
228
102
{ACAD_REACTORS
330
5E
102
}
330
5E
100
DictionaryVariables
280
     0
  1
Metric50
  0
DICTIONARYVAR
  5
5F
102
{ACAD_REACTORS
330
5E
102
}
330
5E
100
DictionaryVariables
280
     0
  1
2
  0
DICTIONARYVAR
  5
63
102
{ACAD_REACTORS
330
5E
102
}
330
5E
100
DictionaryVariables
280
     0
  1
1
  0
DICTIONARYVAR
  5
1AE
102
{ACAD_REACTORS
330
5E
102
}
330
5E
100
DictionaryVariables
280
     0
  1
0
  0
DICTIONARYVAR
  5
1AF
102
{ACAD_REACTORS
330
5E
102
}
330
5E
100
DictionaryVariables
280
     0
  1
0
  0
DICTIONARYVAR
  5
1864
102
{ACAD_REACTORS
330
5E
102
}
330
5E
100
DictionaryVariables
280
     0
  1
2
  0
DICTIONARYVAR
  5
1863
102
{ACAD_REACTORS
330
5E
102
}
330
5E
100
DictionaryVariables
280
     0
  1
1
  0
DICTIONARYVAR
  5
1866
102
{ACAD_REACTORS
330
5E
102
}
330
5E
100
DictionaryVariables
280
     0
  1
80.000000
  0
DICTIONARYVAR
  5
1865
102
{ACAD_REACTORS
330
5E
102
}
330
5E
100
DictionaryVariables
280
     0
  1
5.000000
  0
DICTIONARYVAR
  5
1867
102
{ACAD_REACTORS
330
5E
102
}
330
5E
100
DictionaryVariables
280
     0
  1
2
  0
DICTIONARY
  5
194C
102
{ACAD_REACTORS
330
194A
102
}
330
194A
100
AcDbDictionary
281
     1
  0
DICTIONARY
  5
194B
102
{ACAD_REACTORS
330
194A
102
}
330
194A
100
AcDbDictionary
281
     1
  3
1771670651344
350
1945
  3
1771670651360
350
1946
  3
1771670651376
350
1947
  3
1771670651392
350
1948
  3
1771670651408
350
1949
  0
DICTIONARY
  5
1742
102
{ACAD_REACTORS
330
1741
102
}
330
1741
100
AcDbDictionary
281
     1
  0
DICTIONARY
  5
17A0
102
{ACAD_REACTORS
330
179F
102
}
330
179F
100
AcDbDictionary
281
     1
  0
DICTIONARY
  5
1983
330
21C
100
AcDbDictionary
280
     1
281
     1
  3
ACAD_XREC_ROUNDTRIP
360
1984
  0
DICTIONARY
  5
205
330
22
100
AcDbDictionary
280
     1
281
     1
  0
DICTIONARY
  5
1F9
330
ED
100
AcDbDictionary
280
     1
281
     1
  3
ACAD_XREC_ROUNDTRIP
360
194F
  3
FBXASSET
360
1FA
  0
DICTIONARY
  5
1F7
330
EC
100
AcDbDictionary
280
     1
281
     1
  3
ACAD_XREC_ROUNDTRIP
360
194E
  3
FBXASSET
360
1F8
  0
DICTIONARY
  5
173
330
EE
100
AcDbDictionary
280
     1
281
     1
  3
ACAD_XREC_ROUNDTRIP
360
1950
  3
BUMPTILE
360
175
  3
DIFFUSETILE
360
174
  3
FBXASSET
360
1FB
  3
OPACITYTILE
360
176
  3
REFLECTIONTILE
360
177
  0
DICTIONARY
  5
1981
330
21A
100
AcDbDictionary
280
     1
281
     1
  3
ACAD_XREC_ROUNDTRIP
360
1982
  0
DICTIONARY
  5
162
330
7F
100
AcDbDictionary
280
     1
281
     1
  3
ACAD_ROUNDTRIP_2008_TABLESTYLE_CELLSTYLEMAP
360
1943
  3
ACAD_XREC_ROUNDTRIP
360
194D
  0
DICTIONARY
  5
195B
330
F5
100
AcDbDictionary
280
     1
281
     1
  3
ACAD_XREC_ROUNDTRIP
360
195C
  0
DICTIONARY
  5
1959
330
F4
100
AcDbDictionary
280
     1
281
     1
  3
ACAD_XREC_ROUNDTRIP
360
195A
  0
DICTIONARY
  5
1967
330
FB
100
AcDbDictionary
280
     1
281
     1
  3
ACAD_XREC_ROUNDTRIP
360
1968
  0
DICTIONARY
  5
196F
330
FF
100
AcDbDictionary
280
     1
281
     1
  3
ACAD_XREC_ROUNDTRIP
360
1970
  0
DICTIONARY
  5
1961
330
F8
100
AcDbDictionary
280
     1
281
     1
  3
ACAD_XREC_ROUNDTRIP
360
1962
  0
DICTIONARY
  5
1965
330
FA
100
AcDbDictionary
280
     1
281
     1
  3
ACAD_XREC_ROUNDTRIP
360
1966
  0
DICTIONARY
  5
1975
330
1E6
100
AcDbDictionary
280
     1
281
     1
  3
ACAD_XREC_ROUNDTRIP
360
1976
  0
DICTIONARY
  5
196D
330
FE
100
AcDbDictionary
280
     1
281
     1
  3
ACAD_XREC_ROUNDTRIP
360
196E
  0
DICTIONARY
  5
1951
330
F0
100
AcDbDictionary
280
     1
281
     1
  3
ACAD_XREC_ROUNDTRIP
360
1952
  0
DICTIONARY
  5
1953
330
F1
100
AcDbDictionary
280
     1
281
     1
  3
ACAD_XREC_ROUNDTRIP
360
1954
  0
DICTIONARY
  5
1955
330
F2
100
AcDbDictionary
280
     1
281
     1
  3
ACAD_XREC_ROUNDTRIP
360
1956
  0
DICTIONARY
  5
1957
330
F3
100
AcDbDictionary
280
     1
281
     1
  3
ACAD_XREC_ROUNDTRIP
360
1958
  0
DICTIONARY
  5
195F
330
F7
100
AcDbDictionary
280
     1
281
     1
  3
ACAD_XREC_ROUNDTRIP
360
1960
  0
DICTIONARY
  5
1971
330
1E4
100
AcDbDictionary
280
     1
281
     1
  3
ACAD_XREC_ROUNDTRIP
360
1972
  0
DICTIONARY
  5
196B
330
FD
100
AcDbDictionary
280
     1
281
     1
  3
ACAD_XREC_ROUNDTRIP
360
196C
  0
DICTIONARY
  5
1973
330
1E5
100
AcDbDictionary
280
     1
281
     1
  3
ACAD_XREC_ROUNDTRIP
360
1974
  0
DICTIONARY
  5
1963
330
F9
100
AcDbDictionary
280
     1
281
     1
  3
ACAD_XREC_ROUNDTRIP
360
1964
  0
DICTIONARY
  5
197F
330
1F3
100
AcDbDictionary
280
     1
281
     1
  3
ACAD_XREC_ROUNDTRIP
360
1980
  0
DICTIONARY
  5
197D
330
1F2
100
AcDbDictionary
280
     1
281
     1
  3
ACAD_XREC_ROUNDTRIP
360
197E
  0
DICTIONARY
  5
1977
330
1EF
100
AcDbDictionary
280
     1
281
     1
  3
ACAD_XREC_ROUNDTRIP
360
1978
  0
DICTIONARY
  5
1979
330
1F0
100
AcDbDictionary
280
     1
281
     1
  3
ACAD_XREC_ROUNDTRIP
360
197A
  0
DICTIONARY
  5
1969
330
FC
100
AcDbDictionary
280
     1
281
     1
  3
ACAD_XREC_ROUNDTRIP
360
196A
  0
DICTIONARY
  5
195D
330
F6
100
AcDbDictionary
280
     1
281
     1
  3
ACAD_XREC_ROUNDTRIP
360
195E
  0
DICTIONARY
  5
197B
330
1F1
100
AcDbDictionary
280
     1
281
     1
  3
ACAD_XREC_ROUNDTRIP
360
197C
  0
XRECORD
  5
1945
102
{ACAD_REACTORS
330
194B
102
}
330
194B
100
AcDbXrecord
280
     1
  1
AcDb_Thumbnail_Schema
102
{ATTRRECORD
341
1946
  2
AcDbDs::TreatedAsObjectData
280
     1
291
     1
102
ATTRRECORD}
102
{ATTRRECORD
341
1947
  2
AcDbDs::Legacy
280
     1
291
     1
102
ATTRRECORD}
  2
AcDbDs::ID
280
    10
 91
        8
102
{ATTRRECORD
341
1948
  2
AcDs:Indexable
280
     1
291
     1
102
ATTRRECORD}
102
{ATTRRECORD
341
1949
  2
AcDbDs::HandleAttribute
280
     7
282
     1
102
ATTRRECORD}
  2
Thumbnail_Data
280
    15
 91
        0
  0
XRECORD
  5
1946
102
{ACAD_REACTORS
330
194B
102
}
330
194B
100
AcDbXrecord
280
     1
  1
AcDbDs::TreatedAsObjectDataSchema
  2
AcDbDs::TreatedAsObjectData
280
     1
 91
        0
  0
XRECORD
  5
1947
102
{ACAD_REACTORS
330
194B
102
}
330
194B
100
AcDbXrecord
280
     1
  1
AcDbDs::LegacySchema
  2
AcDbDs::Legacy
280
     1
 91
        0
  0
XRECORD
  5
1948
102
{ACAD_REACTORS
330
194B
102
}
330
194B
100
AcDbXrecord
280
     1
  1
AcDbDs::IndexedPropertySchema
  2
AcDs:Indexable
280
     1
 91
        0
  0
XRECORD
  5
1949
102
{ACAD_REACTORS
330
194B
102
}
330
194B
100
AcDbXrecord
280
     1
  1
AcDbDs::HandleAttributeSchema
  2
AcDbDs::HandleAttribute
280
     7
 91
        1
284
     1
  0
XRECORD
  5
1984
102
{ACAD_REACTORS
330
1983
102
}
330
1983
100
AcDbXrecord
280
     1
102
DISPLAYNAME
  1
Metric50
102
FLAGS
 90
        0
  0
XRECORD
  5
194F
102
{ACAD_REACTORS
330
1F9
102
}
330
1F9
100
AcDbXrecord
280
     1
102
MATERIAL
148
0.0
149
0.0
149
0.0
 93
        0
 94
       63
282
     0
 72
     1
 77
     1
171
     1
175
     1
179
     1
273
     0
  0
XRECORD
  5
1FA
102
{ACAD_REACTORS
330
1F9
102
}
330
1F9
100
AcDbXrecord
280
     1
 70
     1
 90
429727718
  1
D62C5603-E3A1-4AEA-B7FB-FE5D8D0755AF
310
504B03040A0000080000CC70623B3DEE336E79000000790000001B0000006175746F6465736B2D64657369676E2D7061636B6167652E786D6C3C3F786D6C2076657273696F6E3D22312E302220656E636F64696E673D227574662D3822203F3E3C666F726D6174733E3C666F726D61743E687474703A2F2F736368656D612E
310
6175746F6465736B2E636F6D2F64657369676E2D7061636B6167652F323030393C2F666F726D61743E3C2F666F726D6174733E504B0304140006080800CC70623BD486FD9CA0000000F4000000130000005B436F6E74656E745F54797065735D2E786D6C7D8EC10E82300C865F65E91D8A1E8C310C0EEA1BF002731658846E
310
D98AC1B77784ABF1D8FE5FBFBF75BBCE937A534CCEB38643598122B6FEE978D0B0485F9C41B54DDD7D022595594E1A469170414C76A4D9A4D207E29CF43ECE46F218070CC6BECC4078ACAA135ACF422C856C0E68EA1BF5669944DDD7BCDE7B1F8E415D77AECB980613C2E4AC91FC167A2B244592486606FC29C8FD7F045B9A
310
EF7053A7E60B504B0304140006080800CC70623B853B8169EB0000007C01000008000000636F72652E786D6C8D90416EC3201045AF62CDB6C206821CC7C244919D9CA01740401C94182C03558F5F9C3852BBEB6A467FFE9B197D7EFC9E1EC5975982F5AE035262288C535E5B377690E21535501C055FBC8FBF6C503839990E
310
5619041F179FE64D52DE45E362569DD7661365082642A11EB9E920A89B99642953CC8E702F67A9EE7234257977194EC9EAE275C4EABCCF5EAD5940D4AC6F0E35A568B8F43562CD7046CD199FD07E60174276A7BE677B5EADB0E0D14EEFFB6A31321A0D82627C4084204C3F096B71DD52F6819B16635EADF63F509AF53FA164
310
5DDCD1EDDD17164090FCC8732078B56691CB33A85CD7DCC40F504B0304140006080800CC70623B55019EA25F0000007C00000007000000636E782E786D6C4DCB3B0E80201045D1AD90E915ED2CF8AC45050C11660C8261F98AB1B07AC9C97D42D718D865D3E909258CFD00CCE24AC6E326A164D74DC0B4128928FF32603847
310
2BA13128B1252AC747C6BAB984FC68F0B87FE8960A5C09FE86CFB69FBA01504B0304140006080800CC70623BDBABAAF470010000D40300000C0000006662782F636F72652E786D6CC553D16E823014FD95A6AF4B694182CC941A83FA05FB810A9511A125A5257EFE2E82712ECEB8A7F100CD39F7F69E734AF9FADC366850B6
310
AF8DCE7018308C942E4C59EB2AC3DE1D498AD15A706B8CFB56869196ADCAF00863C12B6B7C374385D14E6907A836A59A41D9F7CA615434B0C8705F7CAA5606D23BA8E84F41278B93AC54100640439DE0BDB320004D43C63716C7C399D30917DCFBBA9CD9BA8469F5B156168B24CED3F7248AC8769F27244EB73B92EED8862C
310
B7F13E0C179B3C8F979C8ECD82BBBABDAA2BAC924E9558448CBD9330242CFA08E3154B5651FCC6D215639C8EE5774DBE2B5F6CF2B5768B68963BB5F5588420E442FC700B1139D4CB01F450C1E918227C2E09DF070D8140C84E1E9AAB8F1340832A9CB13130A5F1376A908D57309505ECF2A0DF179C4E9D30F5B239B87E3823
310
7A79C6F31DE1A8A5AEC08474B03C7837EAE4938639B44E5932B833D2C6B6B279CDC613877FA26EE21F4A2A4C63EC7F29A2F301D1F9F7A0E37D145F504B0304140006080800CC70623B9C113CC27E0000009D0000000B0000006662782F636E782E786D6C4DCCDF0A83201C86E15B91DFB94BFB330DD428C8FB886521330DA7
310
6397BF1A1DECE883878F57749FCDA1B7892F1BBC047A23808C7F84D9FA55424E0BE6803A256208E9EF06C84F9B91703228B1C690F78B66B34CD9A5439DF5CF0BFBF65E35BCA1B8D6A5C6F540381E886698B5741C695F9503EBA150A2F8958E3DC3EA0B504B0304140006080800CC70623B7DF2F77C2A010000120200003100
310
00006662782F41393633353835312D344632462D344230382D423046372D3739314545314133324237412F636F72652E786D6C8D51DB8EC22014FC15C2939B0D2DB4B45643319AE817EC0F6041255A68B86CFCFC856D4D76DF7CE190393373060EDB3DC707F856CE6B6B7A480A0C81328395DA5C7B18C3057510EC3873D686
310
3F34088C18550F330C39BB3A1BA7051AAC09CA84841A2BD5020AEF55806078A44B0FFD7053A328440C89E1EFC52486BBB8AA8214A99D789CF9E05200300FC927E4FB4D5B375D43103D5527440FB843077C5AA3F5861C8F645F5787F59E95B390B318B55CE45AA638FAA2957BD7248B390B7A7CC51F9C124149C82B8C378810
310
84AB2F42B7B8DD56F413775B8C5999E9FF4471926F8AA236A1AE96B8B3CC434E5839373893369E1FAF30EA395917409EB7F26AF8801C171837A4A6AC9C89E9F9C9B1A58BA30FD6A5EF5DDDCF894B9AD9B6A59C957943A9FCAE2FD5BC4DFE03504B0304140006080800CC70623BAD7543B64E01000033030000300000006662
310
782F41393633353835312D344632462D344230382D423046372D3739314545314133324237412F636E782E786D6CD593CD6EC32010845F0571AD6CE3D48AD20813A9873E410FBD12D82434182C7EAAE6EDBB2424CD25871E7B41D6EC30B3FA84F9E67BB2E40B4234DE8DB46F1925E094D7C6ED479AD3AE5951B2113C789FEE
310
6C943839C1488B4C05DF079FE72A69D8C96C13AAD6B8631503449F83828872B949AC57D26200B826A308D316B4064D6E46FCDA41C05550DC9E483A00797BFD207EFB092A45DE9514C1BBD22178396BD39D891265658C238DEA00936C654E5E433CB65A26D9F6EDB5EBC14EBF49A45CB856E66048291F6939A9A81BB5C89177
310
38143CA680F4AA299D66A042CEB3354A2684DC9D8D178FE0D9B8B41CAAD720F880EE7EF93C0C18769E099ECC04D5A102C8049A8A05632F4DDF376CF1DE0F6BB65C2F8627B65A33C6BB62177CEBBDAD973006829F89F22E814B54F4BC2BE347F8AA8F681390B50FA73F804400B5F542E796F19FF974E7F78DB802FE05E20750
310
4B0304140006080800CC70623BE75B7789680500003C100000340000006662782F41393633353835312D344632462D344230382D423046372D3739314545314133324237412F6F626A656374732E786D6CAD575B8F9B3818FD2B887D06C22499CB8AA1CA655245D5B455A356FB305264C061D8018C6C3393D95FBFC7600890
310
A4CD5EF210B0B1BFEBF98E3F7B1FF6596ABC522E1296DF9BAE3D320D9A872C4AF2F8DE2CE5CEBA358D0FBEC719939D65A691938CDE9B6ADAF4BD98B3B2D05311DD91329583D9D5FC0F438434A7A611A644887B5384CF34233629258BA878B12322891DEFF6B66BD70BFB62634E8AE781D082709A4B588AF91C528CDA28B73F
310
1C998EEF39EABBEFA97FBD6A7C7E9553F9D3D79FE442923C3C523610337627CB87ABE99D359D4CC6D6E4FACAB5E6ABF9D2726FC6A3C5F56271377BB88362213924694B38DD99FE47C48627A1E7D49F5A8BB5E1A74C0A599ED3B0F21F1E56366B89112D681E218F0915D0D6F17AD41FBA2A369DCF6335D62ABBD39779D5DDD1
310
11D4D8DE3CBB96B2E04FB8202E41051754A1AA8E8F76B4C6DFE810B580B1547F4B84911149794252234D024EF8BBE963A95AE27B3D310A9D5C215C7960FAEE415ED75694C6AFB17BCACA5D99A60A9AA65F217B0BFC53292ACB92BF283FAD0D3621576592CB5BED907C2FA8E9DF794E35E97BEA31BED21FEB401ABB94C44839
310
DCACBF0E1C5DA8DA5B2F4DFFD32AD86F543D9E565E7056502E157C00AD2671CD534549AB752FCA9CDA00677A313F04E51B22FF19E57B300579E3C97EB29F682D92935CEC18CF901B7B54FD8C51F362B56FC72FE0B3C1EAE335EDCCBF5AEC39ADB17DC238973F804BA5E6F6BFE7AF1FB32E523BE9F3BD571418E3631DCA4D48
310
5250CF639223210A9446CA30052EDF057BD35F8329C1ECD84552BF0DC8D18BE7BCE23BFE6BD960AB4A7DE79923A103BEBD80F911CBAA2C60DB19B01CF164A5583B772EE6D3FFA56666CBCDA74DC97724A48F9A58967497E489C4D979006FD7A05E227A1EBDD0F737C623387A9C844D3709995625106D157315F8B8392CD4E0
310
A0B9A720C4BE9829CEF37EA1E13111214D53925356365ADA634861B52519DD27A00AEB808EAF0628E6F435519D446F45CF2C9CF5214F0A15B2F6D06B79DA3EE3CBF7F56780D2F4E7EF73A0F5E5B02A38D07DC852C6B7C1FBB6664213E0C39E3EBA7FF4E1AD23EA2829407C85E586727488B751B2DB9502BC7B228A3FD68B6E
310
A65A22397E690AA8D158D7E404EC8CDA235CC3B7D1898680131CEC2CDF2638C65196279577750F15884AEE19F94199155B92B13297978469D4F8D358DF0AEF7631E28DC8F0D9F437D5D39A83B2231A1D52D543813A824EF8D44BCFF2FA6A31BD1E8DAD87F1CCB526B3879935BF59CDADD5C37479BB1CDD4CA7B3556B516589
310
EF352754B706114D9C885EC9131DE6EFEB43D99AFE2391C2F958179413D7CFEF6B1B6DB1E7600F00DE6E5C67454A339A4BA2E0FBA85ED26F045D454F463DBFCE484C2F90F2E5E3666003662ED8F755951A7D1BECD5B30B550B2785C8E7320B7292A4838DDA71BBC863ED7613CAF659337A3354231D4FF4A182A54904C2898C
310
98B28C4AD0CE056CCF332A80986E571EE9DBC305BB5FEB7E509220A58D25CF042D712A806AC0AD0C657FDEF80D2D9CEAA2EE4D1C76F60BFE74219A06527D6F82DF6412526107381E55E353090704D085B52408A8913C4ED159D79BDA71BB4BC506F4831350EB6F975CD22D69BF7AC49B91A2C0A9DDA3D5CA36AD20FC478E37
310
E61844E2352865EBCB61A275A65283CAAA9DD27703B4102F5AF51EF5F573B75CBB5AD38BC845F7A49F82A0966A49C2E3EA5EA0ECD326CD965F1DB402C6FA8B51A4658C5C5E2EC9E214602E55810345408596591009A82E7E7FFACA19EEA299B14A0081A705CB3296EBC14CDF658DCD336EA6D1136881AAEB87B81AB9EE53D5
310
F5EB8BC8362082DA24122F98680A4E7930C01A0079749CEA14382A0783E5EBA5A10F8C098456A03D6A4AEB6BB881E2513747552A5DB22C7EDAF83BD5528081A365F7FF06504B0304140006080000CC70623B000000000000000000000000350000006662782F41393633353835312D344632462D344230382D423046372D37
310
39314545314133324237412F76657274696365732E62696E504B0304140006080800CC70623BF270F1330600000004000000360000006662782F41393633353835312D344632462D344230382D423046372D3739314545314133324237412F747269616E676C65732E62696E636660600000504B0304140006080000CC7062
310
3B000000000000000000000000370000006662782F41393633353835312D344632462D344230382D423046372D3739314545314133324237412F617474726962757465732E62696E504B0304140006080800CC70623B08DA0BD19000000041010000360000006662782F41393633353835312D344632462D344230382D4230
310
46372D3739314545314133324237412F6469726563746F72792E786D6C858F410AC3201045AF22B36F53E9A60B35CBEEBAE80D244E44489C6234F4F835464A48035D0DF398FF9F8AF63D0E6CC63039F212F8F9020C7D47C6792B21C5FE7403D62A1188E2E60C98D7234A5830286103A55745067B9D86B8A3CF9C7F90C11DE6
310
07FB144396D7B6A82D282E9A152AD114D5EF2CB866EEE831B8EEA07A7BB5A8D7D61A2BAAEB7FD5F70921FF497D00504B0304140006080800CC70623BEDD1DC58FD000000A00100003B0000006662782F41393633353835312D344632462D344230382D423046372D3739314545314133324237412F7265736F75726365732F
310
636F72652E786D6C8D504B6E833010BD0A9A6D65B00922041947112427E8052C33A156828DFCA97AFC9A40A576D7CDCCE87D344F8F9FBFE667F689CE6B6B3A6039850C8DB2A336530731DC4903D95970676DF82583CCC8193B5861107C72362E3BA4AC096842428D1D7107A5F7182053CF7474E0D507CE32973124857FE48B
310
540F3961CEF244279DE03EB81420DB9EAC1384436FA353E879B1B182C7A8C75DA3C7F453DF353A1075D537A7BA6464B8F535A99AE14A9A2BBD90E350DD183B5CFABE3AF262350B1EF4FC9351399401471025A527C218A1E53BAB5A5AB765F5469B96525EACF23FA6B88CFF34456DC2A1DCE36E360F82A5202F42F062ED2BAD
310
579969AFDD8A6F504B010214000A0000080000CC70623B3DEE336E79000000790000001B00000000000000000000000000000000006175746F6465736B2D64657369676E2D7061636B6167652E786D6C504B01021400140006080800CC70623BD486FD9CA0000000F40000001300000000000000000000000000B20000005B
310
436F6E74656E745F54797065735D2E786D6C504B01021400140006080800CC70623B853B8169EB0000007C010000080000000000000000000000000083010000636F72652E786D6C504B01021400140006080800CC70623B55019EA25F0000007C000000070000000000000000000000000094020000636E782E786D6C504B
310
01021400140006080800CC70623BDBABAAF470010000D40300000C00000000000000000000000000180300006662782F636F72652E786D6C504B01021400140006080800CC70623B9C113CC27E0000009D0000000B00000000000000000000000000B20400006662782F636E782E786D6C504B01021400140006080800CC70
310
623B7DF2F77C2A010000120200003100000000000000000000000000590500006662782F41393633353835312D344632462D344230382D423046372D3739314545314133324237412F636F72652E786D6C504B01021400140006080800CC70623BAD7543B64E010000330300003000000000000000000000000000D2060000
310
6662782F41393633353835312D344632462D344230382D423046372D3739314545314133324237412F636E782E786D6C504B01021400140006080800CC70623BE75B7789680500003C10000034000000000000000000000000006E0800006662782F41393633353835312D344632462D344230382D423046372D3739314545
310
314133324237412F6F626A656374732E786D6C504B01021400140006080000CC70623B0000000000000000000000003500000000000000000000000000280E00006662782F41393633353835312D344632462D344230382D423046372D3739314545314133324237412F76657274696365732E62696E504B01021400140006
310
080800CC70623BF270F133060000000400000036000000000000000000000000007B0E00006662782F41393633353835312D344632462D344230382D423046372D3739314545314133324237412F747269616E676C65732E62696E504B01021400140006080000CC70623B0000000000000000000000003700000000000000
310
000000000000D50E00006662782F41393633353835312D344632462D344230382D423046372D3739314545314133324237412F617474726962757465732E62696E504B01021400140006080800CC70623B08DA0BD1900000004101000036000000000000000000000000002A0F00006662782F41393633353835312D344632
310
462D344230382D423046372D3739314545314133324237412F6469726563746F72792E786D6C504B01021400140006080800CC70623BEDD1DC58FD000000A00100003B000000000000000000000000000E1000006662782F41393633353835312D344632462D344230382D423046372D3739314545314133324237412F7265
310
736F75726365732F636F72652E786D6C504B0506000000000E000E0080040000641100000000
  0
XRECORD
  5
194E
102
{ACAD_REACTORS
330
1F7
102
}
330
1F7
100
AcDbXrecord
280
     1
102
MATERIAL
148
0.0
149
0.0
149
0.0
 93
        0
 94
       63
282
     0
 72
     1
 77
     1
171
     1
175
     1
179
     1
273
     0
  0
XRECORD
  5
1F8
102
{ACAD_REACTORS
330
1F7
102
}
330
1F7
100
AcDbXrecord
280
     1
 70
     1
 90
429727718
  1
30362254-06B7-45E0-A893-8CFA70E3D6BC
310
504B03040A0000080000CC70623B3DEE336E79000000790000001B0000006175746F6465736B2D64657369676E2D7061636B6167652E786D6C3C3F786D6C2076657273696F6E3D22312E302220656E636F64696E673D227574662D3822203F3E3C666F726D6174733E3C666F726D61743E687474703A2F2F736368656D612E
310
6175746F6465736B2E636F6D2F64657369676E2D7061636B6167652F323030393C2F666F726D61743E3C2F666F726D6174733E504B0304140006080800CC70623BD486FD9CA0000000F4000000130000005B436F6E74656E745F54797065735D2E786D6C7D8EC10E82300C865F65E91D8A1E8C310C0EEA1BF002731658846E
310
D98AC1B77784ABF1D8FE5FBFBF75BBCE937A534CCEB38643598122B6FEE978D0B0485F9C41B54DDD7D022595594E1A469170414C76A4D9A4D207E29CF43ECE46F218070CC6BECC4078ACAA135ACF422C856C0E68EA1BF5669944DDD7BCDE7B1F8E415D77AECB980613C2E4AC91FC167A2B244592486606FC29C8FD7F045B9A
310
EF7053A7E60B504B0304140006080800CC70623B1EC5D7A3EB0000007C01000008000000636F72652E786D6C8D90416EC3201045AF82665B6103C6756C6122AB4D4ED00B204C5C94182C03558F5F9C3852BBEB6A467FFE9B197D71FC9E6FE8CBACC17AD7032D0820E3B41FAD9B7A48F1820F808E52ACDEC75F36404ECDA687
310
4D0629A6D5A76597B477D1B89855E747B38B2A041301E95B6E7A08FAD3CCAA50296647B8168BD2573599823EBB0CA76447F43862C7BCCF5EAC59410E4DDD9C7973C2755553CCCFA4C603E3040F1565ED3B1FDE4E432BCA0D9622DAF9795FAF464533826484B498524CD807E51D79ED187F21878E10516EF63F505AC67F42C9
310
BA58B1FDDD071640D2FCC87D2045B96591CB3DA85CB7DCE40F504B0304140006080800CC70623B55019EA25F0000007C00000007000000636E782E786D6C4DCB3B0E80201045D1AD90E915ED2CF8AC45050C11660C8261F98AB1B07AC9C97D42D718D865D3E909258CFD00CCE24AC6E326A164D74DC0B4128928FF32603847
310
2BA13128B1252AC747C6BAB984FC68F0B87FE8960A5C09FE86CFB69FBA01504B0304140006080800CC70623B8C9102E971010000D40300000C0000006662782F636F72652E786D6CC5535B6E833010BC8AE5DF0A6C08340F1947A84D4ED00B38C6A128602363A31CBFCB234A53A551FA553EC09AD9F5CE8C31DB9E9B1AF5CA
310
7695D1198E428A91D2D214952E33ECDD315861B4E5CC1AE3BE9561A445A3323CC098B3D21ADFCE9034DA29ED00D5A6503328BA4E398C640D8B0C77F253352214DE4145770A5B214FA2546114020D759C75CE8200340D19DE981F0F6746269C33EFAB6266AB02A655C74A59CCF365BADC27CB5D902ED22848F6340DF238A141
310
BE88E2F57B92BFEDF23523433367AE6A2EEAA455C2A902F398D2751045018D3FA264435F3771F242571B4A1919CA6F9A7C5B3CD9E42BED16F12C776AEB308F40C848FC700B1139D4891EF410CEC810227CC6846F8386402064270EF5C5C709A05E49676C024C61FC95EA45ED154CA5211D1FF4FB8291A913A68E9B83EBBB33
310
E2A7673CDE118E5AE8124C0807CB8377834E366998436B950D7A7746DAD846D4CFD978E0F04FD455FC5D49D2D4C6FE9722321F10997F0F32DC47FE05504B0304140006080800CC70623BFFEA85907E0000009D0000000B0000006662782F636E782E786D6C4DCCD10A83201886E15B91FFDC95D95A811AB6F23E625948A6C3
310
E9D8E5AF46073BFAE0E1E365ED67B3E8ADC3CB78C7815C7240DA3DFC64DCC221C519D7805AC182F7F1EF06C88D9BE6703008B6049F9E274D7A1E938DBB5AE3D6131B2589BA0D3D965551E0B2EA732C9B9A624AAEB41E3A557677029960D9AFB4EF11165F504B0304140006080800CC70623B4FEEA4082C0100001202000031
310
0000006662782F39464131463745442D413632322D343644302D413938332D3331353338454246344243312F636F72652E786D6C8D515B6EC32010BC0AE2AB55850DD871ED0813254D72825EC00192A2C460F1A872FC42ED48ED5F7E00CDCECCCEB26C731F6FE05B39AFADE921293004CA082BB5B9F43086336A21D870E6AC
310
0D7F68109861543DCC30E4ECE26C9C164858139409093556AA051CBC570102714B8F1E7AF1A5C6A11862480C7F2DA6415C878B2A4891CA89C7990F2E050073937C42DE1DB7E4F87ED8A36D4329AA9B3D46DBAEAD504556557BD81DEBDD0761E52CE42C462D17B996298E3E6BE59E35C962CE821E1FF18553435012728A7187
310
0841987E927A8D9B35ADDF70BBC6989599FE4F1427F9A4286A132ABAC49D651EF234CD5CE04CDA78BA3DC2A8FB645D00B9DF8B57E215725C60BCA2A463E54C4CE327C7A65E1C7DB02E7DEFCBF594B864C5CA6CDBD49C957943E9FA5D5FBAF336F90F504B0304140006080800CC70623BAD7543B64E01000033030000300000
310
006662782F39464131463745442D413632322D343644302D413938332D3331353338454246344243312F636E782E786D6CD593CD6EC32010845F0571AD6CE3D48AD20813A9873E410FBD12D82434182C7EAAE6EDBB2424CD25871E7B41D6EC30B3FA84F9E67BB2E40B4234DE8DB46F1925E094D7C6ED479AD3AE5951B2113C
310
789FEE6C943839C1488B4C05DF079FE72A69D8C96C13AAD6B8631503449F83828872B949AC57D26200B826A308D316B4064D6E46FCDA41C05550DC9E483A00797BFD207EFB092A45DE9514C1BBD22178396BD39D891265658C238DEA00936C654E5E433CB65A26D9F6EDB5EBC14EBF49A45CB856E66048291F6939A9A81BB5
310
C8917738143CA680F4AA299D66A042CEB3354A2684DC9D8D178FE0D9B8B41CAAD720F880EE7EF93C0C18769E099ECC04D5A102C8049A8A05632F4DDF376CF1DE0F6BB65C2F8627B65A33C6BB62177CEBBDAD973006829F89F22E814B54F4BC2BE347F8AA8F681390B50FA73F804400B5F542E796F19FF974E7F78DB802FE05
310
E207504B0304140006080800CC70623B16AB87BA640500003C100000340000006662782F39464131463745442D413632322D343644302D413938332D3331353338454246344243312F6F626A656374732E786D6CAD575B6FA33818FD2B887DE6924B3BED8A326A92B68A663B534DD4D13E548A0C38942D60649B369D5FBFC7
310
600890A493BDE42160637FD7F31D7FF63E6FB3D478A55C242CBF3247B66B1A340F5994E4F19559CA8D75611A9F7D8F33263BCB4C232719BD32D5B4E97B316765A1A722BA21652A07B3B7B33F0D11D29C9A46981221AE4C113ED38CD8A4942CA2E2C58E882476BCD9DA23BB5ED8171B73523C0F841684D35CC252CCE79062D4
310
468DFA43D7747CCF51DF7D4FFDEB5593E3AB9CCA9FBEFE241792E4E19EB28198C968BAB8199F5D5A67D3E9C49A9E8F47D6EC76B6B0469F26EEFC7C3EBFBCBEB98462213924694B38DD98FE1D62C393D073EA4FADC5DAF04326852CCF6958F90F0F2B9BB5C48816348F90C7840A68EB78EDF68723159BCEE7891A6B95DDE9D3
310
BCEAEEE8086A6C6F9E5D4B59F0175C10A7A0820BAA5055C7473B5AE3CFDD452D602CD5DF12616444529E90D448938013FE6EFA58AA96F85E4F8C42275708571E98FE6827AF6B2B4AE3D7D83D64E5A64C53054DD3AF90BD06FEA9149565C94FCA0F6B834DC85599E4F2423B24DF0B6AFA979E534DFA9E7A4CC6FA631D486393
310
921829879BF5D781A373557BCB85E97FB90DB62B558F8795179C15944B051F40AB495CF35451D26A4727654E6D8033BD98EF82F21D91FF8AF2DD9982BCF1643BDD4EB516C9492E368C67C88DED563FC36D5EACF66DFF057C3658BDBFA69DF9578B3DA735B64F18C7F20770A9D45CFCF7FCF563D6456A277DBEF78A02637CA2
310
43B90A490AEAB94F72244481D24819A6C0E59B606BFA4B3025981DBB48EAB701D97BF19C577CC77F2D1B6C55A9EF3C732474C0B727303F625995056C3B02963D9EAC146BE78EC5FCEC7FA999EBC5EACBAAE41B12D27B4D2C0BBA49F244E2ECDC81B76B502F113D8F5EE8FB1BE3111CDD4FC2AA9B844CAB1288B68AB90A7CDC
310
1C166AB0D3DC5310625FCC14E779BFD0709F8890A629C9292B1B2DED31A4B0DA928CEE135085754027E3018A397D4D5427D15BD1330B677DC8934285AC3DF45A9EB68FF8F2B8FC0A509AFEECFD0FF2DE25CC6047F7214B195F07EFEB9A094D800F7BFAE8FED187B78EA8A3A400F115961BCAD1215E47C966530AF0EE8128FE
310
58CEBB996A8964FFA529A046635D9353B0336A8F700DDF46271A024E70B0B37C9DE01847591E54DED53D54202AB947E4076556AC49C6CA5C9E1226B7F1A7B1BE15DEED62C41B91E1B3E9AFAAA735036547343A925075041DF0A9979E893B391F8FCFA6967B3EFB644DCF6E5CEBFAE272625DCC6FAF3FB93793C5F90CE1EF57
310
407342756B10D1C489E8953CD1617E5CEECAD6F4EF8914CE5D5D504E5C3F1F9736DA62CFC11E00BCDDB8CC8A9466349744C1F75EBDA4DF09BA8A9E8C7A7E9991989E20E5DBDD6A6003664ED8F7A04A8DBE0DF6EAD9B9AA858342E47399053949D2C146EDB85DE4B176BB0965FBAC19BD19AA918E27FA50C1D22402E144464C
310
59462568E704B6E71915404CB72B8FF4EDE184DDAF753F284990D2C6926782963815403548A70C657FDEF80D2D9CEAA2AE4C1C76F60BFE74219A06527D6582DF6412526107381E55E353090704D085B52408D0933C4ED159D79BDA71BB4BC506F4831350EB6F979CD22D69BF7AC49B91A2C0A9DDA3D5CA36AD20FC478E37E6
310
1844E2352865EBCB6EA275A652E3836BE04EFB400BF1A2556F515F1FBB35B2AB35BD889C744FFA1004B5544B121E57F70215746DD2F5E2C1412B602CBF19455AC6C8E5E9922C4E01E65215385004546899059180EAFCF7A707CE7017CD8CDB0410789AB32C63B91E5CEBBBACB17AC6CD347A022D5075FD106377347AAABA7E
310
7D11590744509B44E205134DC1290F06580320F78E537D3D73540E06CB970B431F185308AD40BBD794D6D77003C5A36E8EAA54BA64597CD8F83BD552A080A365F7FF06504B0304140006080000CC70623B000000000000000000000000350000006662782F39464131463745442D413632322D343644302D413938332D3331
310
353338454246344243312F76657274696365732E62696E504B0304140006080800CC70623BF270F1330600000004000000360000006662782F39464131463745442D413632322D343644302D413938332D3331353338454246344243312F747269616E676C65732E62696E636660600000504B0304140006080000CC70623B
310
000000000000000000000000370000006662782F39464131463745442D413632322D343644302D413938332D3331353338454246344243312F617474726962757465732E62696E504B0304140006080800CC70623B08DA0BD19000000041010000360000006662782F39464131463745442D413632322D343644302D413938
310
332D3331353338454246344243312F6469726563746F72792E786D6C858F410AC3201045AF22B36F53E9A60B35CBEEBAE80D244E44489C6234F4F835464A48035D0DF398FF9F8AF63D0E6CC63039F212F8F9020C7D47C6792B21C5FE7403D62A1188E2E60C98D7234A5830286103A55745067B9D86B8A3CF9C7F90C11DE607
310
FB144396D7B6A82D282E9A152AD114D5EF2CB866EEE831B8EEA07A7BB5A8D7D61A2BAAEB7FD5F70921FF497D00504B0304140006080800CC70623B0D6EF93BFE000000A00100003B0000006662782F39464131463745442D413632322D343644302D413938332D3331353338454246344243312F7265736F75726365732F63
310
6F72652E786D6C8D50596E833010BD0A9ADFCA60B334011947A8694ED00B586642AC041B79A97AFC9A40A5F6AF3F33A3B7689E1E3F7DCD8FEC139DD7D6F4C0720A191A65476DA61E62B892236427C19DB5E1970C322367EC618541F0C9D9B8EC90B226A009093576C41D94DE63804C3DD2D18357379C652E63480A7FCF17A9
310
EE72C29CE5894E3AC17D702940B63D59270887DE46A7D0F36263058F518FBB468FE9A7BE6A7420864373B8D4873369AA8691FA421B3294352543C5CAF65C0F6FEF43CB8BD52C78D0F34F46E550061C419494B6843142CB0F5677F4B52BEB177AEC28E5C52AFF638ACBF84F53D42654E51E77B379102C05791282176B5F693D
310
CB4C7BED567C03504B010214000A0000080000CC70623B3DEE336E79000000790000001B00000000000000000000000000000000006175746F6465736B2D64657369676E2D7061636B6167652E786D6C504B01021400140006080800CC70623BD486FD9CA0000000F40000001300000000000000000000000000B20000005B
310
436F6E74656E745F54797065735D2E786D6C504B01021400140006080800CC70623B1EC5D7A3EB0000007C010000080000000000000000000000000083010000636F72652E786D6C504B01021400140006080800CC70623B55019EA25F0000007C000000070000000000000000000000000094020000636E782E786D6C504B
310
01021400140006080800CC70623B8C9102E971010000D40300000C00000000000000000000000000180300006662782F636F72652E786D6C504B01021400140006080800CC70623BFFEA85907E0000009D0000000B00000000000000000000000000B30400006662782F636E782E786D6C504B01021400140006080800CC70
310
623B4FEEA4082C0100001202000031000000000000000000000000005A0500006662782F39464131463745442D413632322D343644302D413938332D3331353338454246344243312F636F72652E786D6C504B01021400140006080800CC70623BAD7543B64E010000330300003000000000000000000000000000D5060000
310
6662782F39464131463745442D413632322D343644302D413938332D3331353338454246344243312F636E782E786D6C504B01021400140006080800CC70623B16AB87BA640500003C1000003400000000000000000000000000710800006662782F39464131463745442D413632322D343644302D413938332D3331353338
310
454246344243312F6F626A656374732E786D6C504B01021400140006080000CC70623B0000000000000000000000003500000000000000000000000000270E00006662782F39464131463745442D413632322D343644302D413938332D3331353338454246344243312F76657274696365732E62696E504B01021400140006
310
080800CC70623BF270F133060000000400000036000000000000000000000000007A0E00006662782F39464131463745442D413632322D343644302D413938332D3331353338454246344243312F747269616E676C65732E62696E504B01021400140006080000CC70623B0000000000000000000000003700000000000000
310
000000000000D40E00006662782F39464131463745442D413632322D343644302D413938332D3331353338454246344243312F617474726962757465732E62696E504B01021400140006080800CC70623B08DA0BD190000000410100003600000000000000000000000000290F00006662782F39464131463745442D413632
310
322D343644302D413938332D3331353338454246344243312F6469726563746F72792E786D6C504B01021400140006080800CC70623B0D6EF93BFE000000A00100003B000000000000000000000000000D1000006662782F39464131463745442D413632322D343644302D413938332D3331353338454246344243312F7265
310
736F75726365732F636F72652E786D6C504B0506000000000E000E0080040000641100000000
  0
XRECORD
  5
1950
102
{ACAD_REACTORS
330
173
102
}
330
173
100
AcDbXrecord
280
     1
102
MATERIAL
148
0.0
149
0.0
149
0.0
 93
        0
 94
       63
282
     0
 72
     1
 77
     1
171
     1
175
     1
179
     1
273
     0
  0
XRECORD
  5
175
102
{ACAD_REACTORS
330
173
102
}
330
173
100
AcDbXrecord
280
     1
270
     1
271
     1
  0
XRECORD
  5
174
102
{ACAD_REACTORS
330
173
102
}
330
173
100
AcDbXrecord
280
     1
270
     1
271
     1
  0
XRECORD
  5
1FB
102
{ACAD_REACTORS
330
173
102
}
330
173
100
AcDbXrecord
280
     1
 70
     0
 90
1673772943
  1
ECE7A1D2-D628-4531-984C-D00F80459256
310
504B03040A0000080000CC70623B3DEE336E79000000790000001B0000006175746F6465736B2D64657369676E2D7061636B6167652E786D6C3C3F786D6C2076657273696F6E3D22312E302220656E636F64696E673D227574662D3822203F3E3C666F726D6174733E3C666F726D61743E687474703A2F2F736368656D612E
310
6175746F6465736B2E636F6D2F64657369676E2D7061636B6167652F323030393C2F666F726D61743E3C2F666F726D6174733E504B0304140006080800CC70623BD486FD9CA0000000F4000000130000005B436F6E74656E745F54797065735D2E786D6C7D8EC10E82300C865F65E91D8A1E8C310C0EEA1BF002731658846E
310
D98AC1B77784ABF1D8FE5FBFBF75BBCE937A534CCEB38643598122B6FEE978D0B0485F9C41B54DDD7D022595594E1A469170414C76A4D9A4D207E29CF43ECE46F218070CC6BECC4078ACAA135ACF422C856C0E68EA1BF5669944DDD7BCDE7B1F8E415D77AECB980613C2E4AC91FC167A2B244592486606FC29C8FD7F045B9A
310
EF7053A7E60B504B0304140006080800CC70623BD9DDAED0EC0000007C01000008000000636F72652E786D6C8D90416EC3201045AF82665B61836D9CD8C2444DD39CA01740405C94182C03558F5F9C3852BBEB6A467FFE9B197D7EF89E6EE8CB2CC17A37002D0820E394D7D68D03A478C17B4007C117EFE32F1B20272733C0
310
2A83E0E3E2D3BC49CABB685CCCAAF3DA6CA20CC14440EA969B0182FA34932C648AD911AEC52CD5558EA6A0CF2EC329598D1E47ACCEFBECC59A050463A7EA5833865FEBDD0E37353BE3EE8DBDE3F6786A48D375FBF6CC78B9C282473B3DEFABC5C86834888A900E538A49F5419B9EB47DD5BC907D4F082F57FB1F28CDFA9F50
310
B22ED6D5F6EE030B20687EE43E10BC5CB3C8E51E54AE6B6EE207504B0304140006080800CC70623B55019EA25F0000007C00000007000000636E782E786D6C4DCB3B0E80201045D1AD90E915ED2CF8AC45050C11660C8261F98AB1B07AC9C97D42D718D865D3E909258CFD00CCE24AC6E326A164D74DC0B4128928FF326038
310
472BA13128B1252AC747C6BAB984FC68F0B87FE8960A5C09FE86CFB69FBA01504B0304140006080800CC70623BA24EB22D72010000D40300000C0000006662782F636F72652E786D6CC5535B6E833010BC8AE5DF0A6C5E49888CA3A6694ED00B38E05014B091B1518EDFE511A5A9D228FD2A1F60CDEC7A67C6986DCE4D8D7A
310
69BA4AAB0C073EC548AA5C17952A33ECECD15B61B4E1CC686DBF9561A44423333CC098B3D268D7CE50AE9595CA02AA74216750749DB418E5352C32DCE59FB211BE70162ABA93DF8AFC244AE9073ED050C759670D0840D390E18DF9F1706664C23973AE2A66B62A605A75ACA4C13C4976E1364A12EF355A2EBD384AF65EFA96
310
BC7B8BED2EA6719AAE16FB8491A199335B351775B991C2CA02F390D2D40B028F861F41BCA68B7518BFD0D59A524686F29B26D7164F36B94AD9289CE54E6D1DE6010819891F6E21228B3AD1831EC219194284CF98F06DD01008846CC5A1BEF83801D4CBDC6A1303536877A57A513B0953A94FC707FDBE6064EA84A9E3E6E0FA
310
EE8CF0E9198F7784A316AA0413C2C2F2E0ECA0934D1AE6D05A69BCDE9E91D2A611F573361E38FC1375157F5752AE6B6DFE4B11990F88CCBF0719EE23FF02504B0304140006080800CC70623B408A7D3B7C0000009D0000000B0000006662782F636E782E786D6C4DCCD10A83201886E15B91FFDC552A92A0064DBC8F581632
310
D3703A76F9ABD1C18E3E78F878E5F0D9027ABBFCF2292AE86E2D20171F69F6715550CB827B40839639A5F2770314A7CD293819B45C73AAFB45B35BA61ACAA1C1C7E7855C58C15BC331339661262CC762340413D68D77DA5B42298546CBE6573AF60CEB2F504B0304140006080800CC70623B449FB9BD290100001202000031
310
0000006662782F36394639363044362D344446342D343946362D394244322D3234314243333846323333332F636F72652E786D6C8D515B6EC32010BC0AE22B55850D98B871848994463E412FE002495162B07854397EA176A4F62F3F2C9A9D991D587EB84F37F0AD7D30CEF6905418026DA553C65E7A98E219ED203808EE9D
310
8B7F6810D871D23D2C3014FCE25D9A57483A1BB58D19B54EE9151C43D0110279CB971E06F9A5A7B11A53CC8C70ADE6515EC78BAE4895DB992778883E0700CB907242D17643D7E2538BD869608875438BBAE38922CAC8F1BDD90DB4691A5E2F42C153326A951B95E398B3D1FE599322163C9AE9115F7A3D46ADA0A018778810
310
84E907617BDCEE297BC5BB3DC6BC2EF47FA234AB2745C9D8D8D035EE220B50105E2F0DC1954B9FB747187D9F9D8FA0CCDB042D5FA0C015C65B42DF78BD10F3F3B363CB56C7109DCFDFBBB97E662ED92EB62D13BC2E1BCAE5777DB9966D8A1F504B0304140006080800CC70623BAD7543B64E01000033030000300000006662
310
782F36394639363044362D344446342D343946362D394244322D3234314243333846323333332F636E782E786D6CD593CD6EC32010845F0571AD6CE3D48AD20813A9873E410FBD12D82434182C7EAAE6EDBB2424CD25871E7B41D6EC30B3FA84F9E67BB2E40B4234DE8DB46F1925E094D7C6ED479AD3AE5951B2113C789FEE
310
6C943839C1488B4C05DF079FE72A69D8C96C13AAD6B8631503449F83828872B949AC57D26200B826A308D316B4064D6E46FCDA41C05550DC9E483A00797BFD207EFB092A45DE9514C1BBD22178396BD39D891265658C238DEA00936C654E5E433CB65A26D9F6EDB5EBC14EBF49A45CB856E66048291F6939A9A81BB5C89177
310
38143CA680F4AA299D66A042CEB3354A2684DC9D8D178FE0D9B8B41CAAD720F880EE7EF93C0C18769E099ECC04D5A102C8049A8A05632F4DDF376CF1DE0F6BB65C2F8627B65A33C6BB62177CEBBDAD973006829F89F22E814B54F4BC2BE347F8AA8F681390B50FA73F804400B5F542E796F19FF974E7F78DB802FE05E20750
310
4B0304140006080800CC70623B8D05915C650500003B100000340000006662782F36394639363044362D344446342D343946362D394244322D3234314243333846323333332F6F626A656374732E786D6CAD575B6FA33814FE2B887D06429276DA1565D4266D158D3A339A6846FB502932E050B66023DB74D2FDF5FB190C01
310
9276B2973C046C8ECFF53B17071F77456EBD502133CEAE6CDF9DD81665314F32965ED995DA3A17B6F5310C04E7AA47665B8C14F4CAD6DB7618A48257A5D94AE89654B91AEDDEDDFC61C998326A5B714EA4BCB265FC440BE2924AF184CA6737218AB8E976E7FA6E4338649B0A523E8D98964450A6A029F619B8588D52FE7039
310
B1BD30F0F4F730D0FF866AF6369557DB33949F31A9088B0F848DD8CCFCF9F2767A76E99CCDE733677E3EF59D9BBB9BA5E37F984D16E78BC5E5F5ED25044B25C0C96822E8D60EEFE11B91C581D77CEA34368A1F5329E68CD1B8B61F16D63A1B8E092D294B10C78C4A48EB593D192E7DED9BDEE7995E1B91FDEDD3ACEA9FE831
310
6A756F9F7D4D79F4274C90A7A04248AA51D5F8C718DAE06FB2F75AC4796EBE65D22A88A22223B995679120E2D50E41AA49C260C046A35368846B0BECD0DFF3EBEB8AD4F835768F69B9ADF25C43D30E6B646F807FAA64AD59F61715C7A54127C4AACA98BA3006A9D792DAE165E0D59B61A01FB3A9F9D838D2DAE62445C86166
310
F37564E842E7DE6A69879FEEA2DD5AE7E371E1A5E025154AC307D06A03D73EB5978C58FFA4C8E9033066E0F3BD53BEC1F39F91BE7B55103791EDE6BBB991A2046172CB4581D8B893FA674DDA17A77B3B7C413D1B511FD2743BFF8A38F03A658705E3ADF8015C3A3417FF3D7E439FF591DA0B5F18BC20C1B8981957AE6392A3
310
F43C640C01D1A0B4728E2DD4F26DB4B3C3152A252A3B4E913CEC1C72F012782FF88EFF8637AA552DBEF76408E8A8DE9E50F9E1CB3A2DA0DB1B6039A893B56063DC5B3E3FFB5F72E67AB9FEB4AEC496C4F4C1149625DD662C53E89D7BF0F6151A046260D1337DFDC94502430F83B0EE07A130A224BCAD7DAE1D9FB6CD422FF6
310
920702629C4BB9AE79C12F243C6432A6794E18E5552BA56B431AAB5D91317302B2B071E86C3A42B1A02F999E24061403B5D0EB639195DA655DD3EBEAB4FB862DDF579F014AD0E73C22F99E28DA57FB98E75C6CA2D74D53086D600F4786E0FE3144B771A8A7B900F03594DB8A633CBC49B2EDB69228BB479CF863B5E807AAAB
310
23872F6DFEB4129B949CA33823F58830E86D65621E10047D9DB34D862E8EAC3C2ABC2F7B2C40D67CDFE01F5545B92105AF983AC54D93D69E56FB8E797F88913F898A9FEC705D3F9D1B54EC8426FB500D40A03BD0119B06E1B95DDC7EB8F6975367793EBD70E66733DFB9BC982F9CE564727731999F5D4ECFCE3B8D6A4DC2A0
310
6D50FD148437D110834A64C6CDDF57FBACB5C307A2A477DFE4939736CFEF2B175371E0E10CF0DD1D5C15654E0BCA14D1E87DD02FF93782A162C0A3D95F1524A52770F972BF1EE9809D13CE7DD599467F8ECE9ADD85CE85A34CD45355448C64F9E8A031DC2D596ACC6E5DD93D9B82DE2EF5CAF81363A8E47996A0DE24564A79
310
4115AACE09C55E14540231FDA13C319787134EBF34E3A022514E5B4D9E0826E25C02D5805B15ABE1BEF51B26383D445DD9E875EE33FE4C22DA16427D65A3BCA92CA6D28DD01DF5DC53330704308475351050232CCD31583787BA75774AFB06E5070DD0C8EF484E19968C5D83BA5B90B244D31E54D55A372320FE4786B7EA58
310
44E135AA5467CB7EA333A61683CC6A8C3257034C10CF46F40EF9F5BE59BE5BD30C3C72D235E95D10345C1D45445A5F0BB47E46A5EBE5570F9380B5FA629579952296A773720405982B9DE04011506178964401AA8BDF1FBF0A8EAB6861DD6580C0E38217056766716DAEB2D6FA0917D3E4116581EADB879C4E7CFFB11EFACD
310
3D641311495D92C8676CB409A72D18610D803CE8A626049E8EC1887CB5B44CC39883690DDA8399B4B9855B481E7D71D4A9D22F96E5BB73BF5793020C02137BF837504B0304140006080000CC70623B000000000000000000000000350000006662782F36394639363044362D344446342D343946362D394244322D32343142
310
43333846323333332F76657274696365732E62696E504B0304140006080800CC70623BF270F1330600000004000000360000006662782F36394639363044362D344446342D343946362D394244322D3234314243333846323333332F747269616E676C65732E62696E636660600000504B0304140006080000CC70623B0000
310
00000000000000000000370000006662782F36394639363044362D344446342D343946362D394244322D3234314243333846323333332F617474726962757465732E62696E504B0304140006080800CC70623B08DA0BD19000000041010000360000006662782F36394639363044362D344446342D343946362D394244322D
310
3234314243333846323333332F6469726563746F72792E786D6C858F410AC3201045AF22B36F53E9A60B35CBEEBAE80D244E44489C6234F4F835464A48035D0DF398FF9F8AF63D0E6CC63039F212F8F9020C7D47C6792B21C5FE7403D62A1188E2E60C98D7234A5830286103A55745067B9D86B8A3CF9C7F90C11DE607FB14
310
4396D7B6A82D282E9A152AD114D5EF2CB866EEE831B8EEA07A7BB5A8D7D61A2BAAEB7FD5F70921FF497D00504B0304140006080800CC70623BCA768048FE000000A00100003B0000006662782F36394639363044362D344446342D343946362D394244322D3234314243333846323333332F7265736F75726365732F636F72
310
652E786D6C8D50596E833010BD0A9ADFCA60D600328E9AA639412F609909B1126CE4A5EAF16B0295DABFFECC8CDEA2797AECF8353F924FB44E193D409E5248504B332A3D0D10FC95B4901C39B3C6F85F3248B49871801506CE266BC2B243D2688FDA47549B11775038871E12F988C7004EDE7016A9083E2ADC3D5D84BC8B09
310
D33C8D74D471E6BC8D0192EDC93A815B742658898E651BCB59086ADC356A8C3FD555A1055ED7E7E254D615792D0F075295F585746FF53B694EE78A565DD736979A65AB9933AFE69F8CD2A2F038022F28ED489E135A7CE4554F9BBEA85E68DB53CAB255FEC71496F19FA6A0B42F8B3DEE6673C0F318E4497096AD7DC5F52C33
310
EEB55BFE0D504B010214000A0000080000CC70623B3DEE336E79000000790000001B00000000000000000000000000000000006175746F6465736B2D64657369676E2D7061636B6167652E786D6C504B01021400140006080800CC70623BD486FD9CA0000000F40000001300000000000000000000000000B20000005B436F
310
6E74656E745F54797065735D2E786D6C504B01021400140006080800CC70623BD9DDAED0EC0000007C010000080000000000000000000000000083010000636F72652E786D6C504B01021400140006080800CC70623B55019EA25F0000007C000000070000000000000000000000000095020000636E782E786D6C504B0102
310
1400140006080800CC70623BA24EB22D72010000D40300000C00000000000000000000000000190300006662782F636F72652E786D6C504B01021400140006080800CC70623B408A7D3B7C0000009D0000000B00000000000000000000000000B50400006662782F636E782E786D6C504B01021400140006080800CC70623B
310
449FB9BD290100001202000031000000000000000000000000005A0500006662782F36394639363044362D344446342D343946362D394244322D3234314243333846323333332F636F72652E786D6C504B01021400140006080800CC70623BAD7543B64E010000330300003000000000000000000000000000D20600006662
310
782F36394639363044362D344446342D343946362D394244322D3234314243333846323333332F636E782E786D6C504B01021400140006080800CC70623B8D05915C650500003B10000034000000000000000000000000006E0800006662782F36394639363044362D344446342D343946362D394244322D32343142433338
310
46323333332F6F626A656374732E786D6C504B01021400140006080000CC70623B0000000000000000000000003500000000000000000000000000250E00006662782F36394639363044362D344446342D343946362D394244322D3234314243333846323333332F76657274696365732E62696E504B010214001400060808
310
00CC70623BF270F13306000000040000003600000000000000000000000000780E00006662782F36394639363044362D344446342D343946362D394244322D3234314243333846323333332F747269616E676C65732E62696E504B01021400140006080000CC70623B00000000000000000000000037000000000000000000
310
00000000D20E00006662782F36394639363044362D344446342D343946362D394244322D3234314243333846323333332F617474726962757465732E62696E504B01021400140006080800CC70623B08DA0BD190000000410100003600000000000000000000000000270F00006662782F36394639363044362D344446342D
310
343946362D394244322D3234314243333846323333332F6469726563746F72792E786D6C504B01021400140006080800CC70623BCA768048FE000000A00100003B000000000000000000000000000B1000006662782F36394639363044362D344446342D343946362D394244322D3234314243333846323333332F7265736F
310
75726365732F636F72652E786D6C504B0506000000000E000E0080040000621100000000
  0
XRECORD
  5
176
102
{ACAD_REACTORS
330
173
102
}
330
173
100
AcDbXrecord
280
     1
270
     1
271
     1
  0
XRECORD
  5
177
102
{ACAD_REACTORS
330
173
102
}
330
173
100
AcDbXrecord
280
     1
270
     1
271
     1
  0
XRECORD
  5
1982
102
{ACAD_REACTORS
330
1981
102
}
330
1981
100
AcDbXrecord
280
     1
102
DISPLAYNAME
  1
Metric50
102
FLAGS
 90
        0
  0
CELLSTYLEMAP
  5
1943
102
{ACAD_REACTORS
330
162
102
}
330
162
100
AcDbCellStyleMap
 90
        3
300
CELLSTYLE
  1
TABLEFORMAT_BEGIN
 90
        5
170
     1
 91
        0
 92
    32768
 62
   257
 93
        1
300
CONTENTFORMAT
  1
CONTENTFORMAT_BEGIN
 90
        0
 91
        0
 92
      512
 93
        0
300

 40
0.0
140
1.0
 94
        5
 62
     0
340
11
144
6.0
309
CONTENTFORMAT_END
171
     1
301
MARGIN
  1
CELLMARGIN_BEGIN
 40
1.5
 40
1.5
 40
1.5
 40
1.5
 40
4.5
 40
4.5
309
CELLMARGIN_END
 94
        6
 95
        1
302
GRIDFORMAT
  1
GRIDFORMAT_BEGIN
 90
        0
 91
        1
 62
     0
 92
       -2
340
14
 93
        0
 40
1.125
309
GRIDFORMAT_END
 95
        2
302
GRIDFORMAT
  1
GRIDFORMAT_BEGIN
 90
        0
 91
        1
 62
     0
 92
       -2
340
14
 93
        0
 40
1.125
309
GRIDFORMAT_END
 95
        4
302
GRIDFORMAT
  1
GRIDFORMAT_BEGIN
 90
        0
 91
        1
 62
     0
 92
       -2
340
14
 93
        0
 40
1.125
309
GRIDFORMAT_END
 95
        8
302
GRIDFORMAT
  1
GRIDFORMAT_BEGIN
 90
        0
 91
        1
 62
     0
 92
       -2
340
14
 93
        0
 40
1.125
309
GRIDFORMAT_END
 95
       16
302
GRIDFORMAT
  1
GRIDFORMAT_BEGIN
 90
        0
 91
        1
 62
     0
 92
       -2
340
14
 93
        0
 40
1.125
309
GRIDFORMAT_END
 95
       32
302
GRIDFORMAT
  1
GRIDFORMAT_BEGIN
 90
        0
 91
        1
 62
     0
 92
       -2
340
14
 93
        0
 40
1.125
309
GRIDFORMAT_END
309
TABLEFORMAT_END
  1
CELLSTYLE_BEGIN
 90
        1
 91
        1
300
_TITLE
309
CELLSTYLE_END
300
CELLSTYLE
  1
TABLEFORMAT_BEGIN
 90
        5
170
     1
 91
        0
 92
        0
 62
   257
 93
        1
300
CONTENTFORMAT
  1
CONTENTFORMAT_BEGIN
 90
        0
 91
        0
 92
      512
 93
        0
300

 40
0.0
140
1.0
 94
        5
 62
     0
340
11
144
4.5
309
CONTENTFORMAT_END
171
     1
301
MARGIN
  1
CELLMARGIN_BEGIN
 40
1.5
 40
1.5
 40
1.5
 40
1.5
 40
4.5
 40
4.5
309
CELLMARGIN_END
 94
        6
 95
        1
302
GRIDFORMAT
  1
GRIDFORMAT_BEGIN
 90
        0
 91
        1
 62
     0
 92
       -2
340
14
 93
        0
 40
1.125
309
GRIDFORMAT_END
 95
        2
302
GRIDFORMAT
  1
GRIDFORMAT_BEGIN
 90
        0
 91
        1
 62
     0
 92
       -2
340
14
 93
        0
 40
1.125
309
GRIDFORMAT_END
 95
        4
302
GRIDFORMAT
  1
GRIDFORMAT_BEGIN
 90
        0
 91
        1
 62
     0
 92
       -2
340
14
 93
        0
 40
1.125
309
GRIDFORMAT_END
 95
        8
302
GRIDFORMAT
  1
GRIDFORMAT_BEGIN
 90
        0
 91
        1
 62
     0
 92
       -2
340
14
 93
        0
 40
1.125
309
GRIDFORMAT_END
 95
       16
302
GRIDFORMAT
  1
GRIDFORMAT_BEGIN
 90
        0
 91
        1
 62
     0
 92
       -2
340
14
 93
        0
 40
1.125
309
GRIDFORMAT_END
 95
       32
302
GRIDFORMAT
  1
GRIDFORMAT_BEGIN
 90
        0
 91
        1
 62
     0
 92
       -2
340
14
 93
        0
 40
1.125
309
GRIDFORMAT_END
309
TABLEFORMAT_END
  1
CELLSTYLE_BEGIN
 90
        2
 91
        1
300
_HEADER
309
CELLSTYLE_END
300
CELLSTYLE
  1
TABLEFORMAT_BEGIN
 90
        5
170
     1
 91
        0
 92
        0
 62
   257
 93
        1
300
CONTENTFORMAT
  1
CONTENTFORMAT_BEGIN
 90
        0
 91
        0
 92
      512
 93
        0
300

 40
0.0
140
1.0
 94
        2
 62
     0
340
11
144
4.5
309
CONTENTFORMAT_END
171
     1
301
MARGIN
  1
CELLMARGIN_BEGIN
 40
1.5
 40
1.5
 40
1.5
 40
1.5
 40
4.5
 40
4.5
309
CELLMARGIN_END
 94
        6
 95
        1
302
GRIDFORMAT
  1
GRIDFORMAT_BEGIN
 90
        0
 91
        1
 62
     0
 92
       -2
340
14
 93
        0
 40
1.125
309
GRIDFORMAT_END
 95
        2
302
GRIDFORMAT
  1
GRIDFORMAT_BEGIN
 90
        0
 91
        1
 62
     0
 92
       -2
340
14
 93
        0
 40
1.125
309
GRIDFORMAT_END
 95
        4
302
GRIDFORMAT
  1
GRIDFORMAT_BEGIN
 90
        0
 91
        1
 62
     0
 92
       -2
340
14
 93
        0
 40
1.125
309
GRIDFORMAT_END
 95
        8
302
GRIDFORMAT
  1
GRIDFORMAT_BEGIN
 90
        0
 91
        1
 62
     0
 92
       -2
340
14
 93
        0
 40
1.125
309
GRIDFORMAT_END
 95
       16
302
GRIDFORMAT
  1
GRIDFORMAT_BEGIN
 90
        0
 91
        1
 62
     0
 92
       -2
340
14
 93
        0
 40
1.125
309
GRIDFORMAT_END
 95
       32
302
GRIDFORMAT
  1
GRIDFORMAT_BEGIN
 90
        0
 91
        1
 62
     0
 92
       -2
340
14
 93
        0
 40
1.125
309
GRIDFORMAT_END
309
TABLEFORMAT_END
  1
CELLSTYLE_BEGIN
 90
        3
 91
        2
300
_DATA
309
CELLSTYLE_END
  0
XRECORD
  5
194D
102
{ACAD_REACTORS
330
162
102
}
330
162
100
AcDbXrecord
280
     1
102
ACAD_ROUNDTRIP_PRE2007_TABLESTYLE
 90
      512
 91
        0
  1

 92
      512
 93
        0
  2

 94
      512
 95
        0
  3

  0
XRECORD
  5
195C
102
{ACAD_REACTORS
330
195B
102
}
330
195B
100
AcDbXrecord
280
     1
102
RTVSPost2010Prop28
280
     1
102
RTVSPost2010PropOp28
 70
     1
102
RTVSPost2010Prop29
280
     1
102
RTVSPost2010PropOp29
 70
     1
102
RTVSPost2010Prop30
280
     0
102
RTVSPost2010PropOp30
 70
     1
102
RTVSPost2010Prop31
280
     0
102
RTVSPost2010PropOp31
 70
     1
102
RTVSPost2010Prop32
280
     0
102
RTVSPost2010PropOp32
 70
     1
102
RTVSPost2010Prop33
280
     0
102
RTVSPost2010PropOp33
 70
     1
102
RTVSPost2010Prop34
280
     0
102
RTVSPost2010PropOp34
 70
     1
102
RTVSPost2010Prop35
280
     0
102
RTVSPost2010PropOp35
 70
     1
102
RTVSPost2010Prop36
280
     0
102
RTVSPost2010PropOp36
 70
     1
102
RTVSPost2010Prop37
 90
       50
102
RTVSPost2010PropOp37
 70
     1
102
RTVSPost2010Prop38
140
0.0
102
RTVSPost2010PropOp38
 70
     1
102
RTVSPost2010Prop39
140
1.0
102
RTVSPost2010PropOp39
 70
     1
102
RTVSPost2010Prop40
 90
        0
102
RTVSPost2010PropOp40
 70
     1
102
RTVSPost2010Prop41ColorIndex
 90
       18
102
RTVSPost2010Prop41ColorRGB
 90
        0
102
RTVSPost2010PropOp41
 70
     1
102
RTVSPost2010Prop42
 90
       50
102
RTVSPost2010PropOp42
 70
     1
102
RTVSPost2010Prop43
 90
        3
102
RTVSPost2010PropOp43
 70
     1
102
RTVSPost2010Prop44ColorIndex
 90
        5
102
RTVSPost2010Prop44ColorRGB
 90
      255
102
RTVSPost2010PropOp44
 70
     1
102
RTVSPost2010Prop45
280
     0
102
RTVSPost2010PropOp45
 70
     1
102
RTVSPost2010Prop46
 90
       50
102
RTVSPost2010PropOp46
 70
     1
102
RTVSPost2010Prop47
 90
       50
102
RTVSPost2010PropOp47
 70
     1
102
RTVSPost2010Prop48
 90
       50
102
RTVSPost2010PropOp48
 70
     1
102
RTVSPost2010Prop49
280
     0
102
RTVSPost2010PropOp49
 70
     1
102
RTVSPost2010Prop50
 90
       50
102
RTVSPost2010PropOp50
 70
     1
102
RTVSPost2010Prop51ColorIndex
 90
      256
102
RTVSPost2010Prop51ColorRGB
 90
-16777216
102
RTVSPost2010PropOp51
 70
     0
102
RTVSPost2010Prop52
140
1.0
102
RTVSPost2010PropOp52
 70
     0
102
RTVSPost2010Prop53
 90
        2
102
RTVSPost2010PropOp53
 70
     1
102
RTVSPost2010Prop54
  1
strokes_ogs.tif
102
RTVSPost2010PropOp54
 70
     1
102
RTVSPost2010Prop55
280
     0
102
RTVSPost2010PropOp55
 70
     1
102
RTVSPost2010Prop56
140
1.0
102
RTVSPost2010PropOp56
 70
     1
102
RTVSPost2010Prop57
140
1.0
102
RTVSPost2010PropOp57
 70
     1
102
RTVSPropertyOp0
 70
     1
102
RTVSPropertyOp1
 70
     1
102
RTVSPropertyOp2
 70
     1
102
RTVSPropertyOp3
 70
     1
102
RTVSPropertyOp4
 70
     1
102
RTVSPropertyOp5
 70
     1
102
RTVSPropertyOp6
 70
     1
102
RTVSPropertyOp7
 70
     1
102
RTVSPropertyOp8
 70
     1
102
RTVSPropertyOp9
 70
     1
102
RTVSPropertyOp10
 70
     1
102
RTVSPropertyOp11
 70
     1
102
RTVSPropertyOp12
 70
     1
102
RTVSPropertyOp13
 70
     1
102
RTVSPropertyOp14
 70
     1
102
RTVSPropertyOp15
 70
     1
102
RTVSPropertyOp16
 70
     1
102
RTVSPropertyOp17
 70
     1
102
RTVSPropertyOp18
 70
     1
102
RTVSPropertyOp19
 70
     1
102
RTVSPropertyOp20
 70
     1
102
RTVSPropertyOp21
 70
     1
102
RTVSPropertyOp22
 70
     1
102
RTVSPropertyOp23
 70
     1
102
RTVSPropertyOp24
 70
     1
102
RTVSPropertyOp25
 70
     1
102
RTVSPropertyOp26
 70
     1
102
RTVSPropertyOp27
 70
     1
102
RTVSPropertyOp28
 70
     1
102
RTVSPropertyOp29
 70
     1
102
RTVSPropertyOp30
 70
     1
102
RTVSPropertyOp31
 70
     1
102
RTVSPropertyOp32
 70
     1
102
RTVSPropertyOp33
 70
     1
102
RTVSPropertyOp34
 70
     1
102
RTVSPropertyOp35
 70
     1
102
RTVSPropertyOp36
 70
     1
102
RTVSPropertyOp37
 70
     1
102
RTVSPropertyOp38
 70
     1
102
RTVSPropertyOp39
 70
     1
102
RTVSPropertyOp40
 70
     1
102
RTVSPropertyOp41
 70
     1
102
RTVSPropertyOp42
 70
     1
102
RTVSPropertyOp43
 70
     1
102
RTVSPropertyOp44
 70
     1
102
RTVSPropertyOp45
 70
     1
102
RTVSPropertyOp46
 70
     1
102
RTVSPropertyOp47
 70
     1
102
RTVSPropertyOp48
 70
     1
102
RTVSPropertyOp49
 70
     1
102
RTVSPropertyOp50
 70
     1
102
RTVSPropertyOp51
 70
     0
102
RTVSPropertyOp52
 70
     0
102
RTVSPropertyOp53
 70
     1
102
RTVSPropertyOp54
 70
     1
102
RTVSPropertyOp55
 70
     1
102
RTVSPropertyOp56
 70
     1
102
RTVSPropertyOp57
 70
     1
102
RTVSPropertyOp58
 70
     1
102
RTVSPropertyOp59
 70
     1
102
RTVSPropertyOp60
 70
     1
102
RTVSPropertyOp61
 70
     1
102
RTVSPropertyOp62
 70
     1
  0
XRECORD
  5
195A
102
{ACAD_REACTORS
330
1959
102
}
330
1959
100
AcDbXrecord
280
     1
102
RTVSPost2010Prop28
280
     0
102
RTVSPost2010PropOp28
 70
     1
102
RTVSPost2010Prop29
280
     1
102
RTVSPost2010PropOp29
 70
     1
102
RTVSPost2010Prop30
280
     1
102
RTVSPost2010PropOp30
 70
     1
102
RTVSPost2010Prop31
280
     0
102
RTVSPost2010PropOp31
 70
     1
102
RTVSPost2010Prop32
280
     0
102
RTVSPost2010PropOp32
 70
     1
102
RTVSPost2010Prop33
280
     0
102
RTVSPost2010PropOp33
 70
     1
102
RTVSPost2010Prop34
280
     0
102
RTVSPost2010PropOp34
 70
     1
102
RTVSPost2010Prop35
280
     0
102
RTVSPost2010PropOp35
 70
     1
102
RTVSPost2010Prop36
280
     0
102
RTVSPost2010PropOp36
 70
     1
102
RTVSPost2010Prop37
 90
       50
102
RTVSPost2010PropOp37
 70
     1
102
RTVSPost2010Prop38
140
0.0
102
RTVSPost2010PropOp38
 70
     1
102
RTVSPost2010Prop39
140
1.0
102
RTVSPost2010PropOp39
 70
     1
102
RTVSPost2010Prop40
 90
        0
102
RTVSPost2010PropOp40
 70
     1
102
RTVSPost2010Prop41ColorIndex
 90
       18
102
RTVSPost2010Prop41ColorRGB
 90
        0
102
RTVSPost2010PropOp41
 70
     1
102
RTVSPost2010Prop42
 90
       50
102
RTVSPost2010PropOp42
 70
     1
102
RTVSPost2010Prop43
 90
        3
102
RTVSPost2010PropOp43
 70
     1
102
RTVSPost2010Prop44ColorIndex
 90
        5
102
RTVSPost2010Prop44ColorRGB
 90
      255
102
RTVSPost2010PropOp44
 70
     1
102
RTVSPost2010Prop45
280
     0
102
RTVSPost2010PropOp45
 70
     1
102
RTVSPost2010Prop46
 90
       50
102
RTVSPost2010PropOp46
 70
     1
102
RTVSPost2010Prop47
 90
       50
102
RTVSPost2010PropOp47
 70
     1
102
RTVSPost2010Prop48
 90
       50
102
RTVSPost2010PropOp48
 70
     1
102
RTVSPost2010Prop49
280
     0
102
RTVSPost2010PropOp49
 70
     1
102
RTVSPost2010Prop50
 90
       50
102
RTVSPost2010PropOp50
 70
     1
102
RTVSPost2010Prop51ColorIndex
 90
      256
102
RTVSPost2010Prop51ColorRGB
 90
-16777216
102
RTVSPost2010PropOp51
 70
     0
102
RTVSPost2010Prop52
140
1.0
102
RTVSPost2010PropOp52
 70
     0
102
RTVSPost2010Prop53
 90
        2
102
RTVSPost2010PropOp53
 70
     1
102
RTVSPost2010Prop54
  1
strokes_ogs.tif
102
RTVSPost2010PropOp54
 70
     1
102
RTVSPost2010Prop55
280
     0
102
RTVSPost2010PropOp55
 70
     1
102
RTVSPost2010Prop56
140
1.0
102
RTVSPost2010PropOp56
 70
     1
102
RTVSPost2010Prop57
140
1.0
102
RTVSPost2010PropOp57
 70
     1
102
RTVSPropertyOp0
 70
     1
102
RTVSPropertyOp1
 70
     1
102
RTVSPropertyOp2
 70
     1
102
RTVSPropertyOp3
 70
     1
102
RTVSPropertyOp4
 70
     1
102
RTVSPropertyOp5
 70
     1
102
RTVSPropertyOp6
 70
     1
102
RTVSPropertyOp7
 70
     1
102
RTVSPropertyOp8
 70
     1
102
RTVSPropertyOp9
 70
     1
102
RTVSPropertyOp10
 70
     1
102
RTVSPropertyOp11
 70
     1
102
RTVSPropertyOp12
 70
     1
102
RTVSPropertyOp13
 70
     1
102
RTVSPropertyOp14
 70
     1
102
RTVSPropertyOp15
 70
     1
102
RTVSPropertyOp16
 70
     1
102
RTVSPropertyOp17
 70
     1
102
RTVSPropertyOp18
 70
     1
102
RTVSPropertyOp19
 70
     1
102
RTVSPropertyOp20
 70
     1
102
RTVSPropertyOp21
 70
     1
102
RTVSPropertyOp22
 70
     1
102
RTVSPropertyOp23
 70
     1
102
RTVSPropertyOp24
 70
     1
102
RTVSPropertyOp25
 70
     1
102
RTVSPropertyOp26
 70
     1
102
RTVSPropertyOp27
 70
     1
102
RTVSPropertyOp28
 70
     1
102
RTVSPropertyOp29
 70
     1
102
RTVSPropertyOp30
 70
     1
102
RTVSPropertyOp31
 70
     1
102
RTVSPropertyOp32
 70
     1
102
RTVSPropertyOp33
 70
     1
102
RTVSPropertyOp34
 70
     1
102
RTVSPropertyOp35
 70
     1
102
RTVSPropertyOp36
 70
     1
102
RTVSPropertyOp37
 70
     1
102
RTVSPropertyOp38
 70
     1
102
RTVSPropertyOp39
 70
     1
102
RTVSPropertyOp40
 70
     1
102
RTVSPropertyOp41
 70
     1
102
RTVSPropertyOp42
 70
     1
102
RTVSPropertyOp43
 70
     1
102
RTVSPropertyOp44
 70
     1
102
RTVSPropertyOp45
 70
     1
102
RTVSPropertyOp46
 70
     1
102
RTVSPropertyOp47
 70
     1
102
RTVSPropertyOp48
 70
     1
102
RTVSPropertyOp49
 70
     1
102
RTVSPropertyOp50
 70
     1
102
RTVSPropertyOp51
 70
     0
102
RTVSPropertyOp52
 70
     0
102
RTVSPropertyOp53
 70
     1
102
RTVSPropertyOp54
 70
     1
102
RTVSPropertyOp55
 70
     1
102
RTVSPropertyOp56
 70
     1
102
RTVSPropertyOp57
 70
     1
102
RTVSPropertyOp58
 70
     1
102
RTVSPropertyOp59
 70
     1
102
RTVSPropertyOp60
 70
     1
102
RTVSPropertyOp61
 70
     1
102
RTVSPropertyOp62
 70
     1
  0
XRECORD
  5
1968
102
{ACAD_REACTORS
330
1967
102
}
330
1967
100
AcDbXrecord
280
     1
102
RTVSPost2010Prop28
280
     0
102
RTVSPost2010PropOp28
 70
     1
102
RTVSPost2010Prop29
280
     1
102
RTVSPost2010PropOp29
 70
     1
102
RTVSPost2010Prop30
280
     1
102
RTVSPost2010PropOp30
 70
     1
102
RTVSPost2010Prop31
280
     0
102
RTVSPost2010PropOp31
 70
     1
102
RTVSPost2010Prop32
280
     0
102
RTVSPost2010PropOp32
 70
     1
102
RTVSPost2010Prop33
280
     0
102
RTVSPost2010PropOp33
 70
     1
102
RTVSPost2010Prop34
280
     0
102
RTVSPost2010PropOp34
 70
     1
102
RTVSPost2010Prop35
280
     0
102
RTVSPost2010PropOp35
 70
     1
102
RTVSPost2010Prop36
280
     0
102
RTVSPost2010PropOp36
 70
     1
102
RTVSPost2010Prop37
 90
       50
102
RTVSPost2010PropOp37
 70
     1
102
RTVSPost2010Prop38
140
0.0
102
RTVSPost2010PropOp38
 70
     1
102
RTVSPost2010Prop39
140
1.0
102
RTVSPost2010PropOp39
 70
     1
102
RTVSPost2010Prop40
 90
        0
102
RTVSPost2010PropOp40
 70
     1
102
RTVSPost2010Prop41ColorIndex
 90
       18
102
RTVSPost2010Prop41ColorRGB
 90
        0
102
RTVSPost2010PropOp41
 70
     1
102
RTVSPost2010Prop42
 90
       50
102
RTVSPost2010PropOp42
 70
     1
102
RTVSPost2010Prop43
 90
        3
102
RTVSPost2010PropOp43
 70
     1
102
RTVSPost2010Prop44ColorIndex
 90
        5
102
RTVSPost2010Prop44ColorRGB
 90
      255
102
RTVSPost2010PropOp44
 70
     1
102
RTVSPost2010Prop45
280
     0
102
RTVSPost2010PropOp45
 70
     1
102
RTVSPost2010Prop46
 90
       50
102
RTVSPost2010PropOp46
 70
     1
102
RTVSPost2010Prop47
 90
       50
102
RTVSPost2010PropOp47
 70
     1
102
RTVSPost2010Prop48
 90
       50
102
RTVSPost2010PropOp48
 70
     1
102
RTVSPost2010Prop49
280
     0
102
RTVSPost2010PropOp49
 70
     1
102
RTVSPost2010Prop50
 90
       50
102
RTVSPost2010PropOp50
 70
     1
102
RTVSPost2010Prop51ColorIndex
 90
      256
102
RTVSPost2010Prop51ColorRGB
 90
-16777216
102
RTVSPost2010PropOp51
 70
     0
102
RTVSPost2010Prop52
140
1.0
102
RTVSPost2010PropOp52
 70
     0
102
RTVSPost2010Prop53
 90
        2
102
RTVSPost2010PropOp53
 70
     1
102
RTVSPost2010Prop54
  1
strokes_ogs.tif
102
RTVSPost2010PropOp54
 70
     1
102
RTVSPost2010Prop55
280
     0
102
RTVSPost2010PropOp55
 70
     1
102
RTVSPost2010Prop56
140
1.0
102
RTVSPost2010PropOp56
 70
     1
102
RTVSPost2010Prop57
140
1.0
102
RTVSPost2010PropOp57
 70
     1
102
RTVSPropertyOp0
 70
     1
102
RTVSPropertyOp1
 70
     1
102
RTVSPropertyOp2
 70
     1
102
RTVSPropertyOp3
 70
     1
102
RTVSPropertyOp4
 70
     1
102
RTVSPropertyOp5
 70
     1
102
RTVSPropertyOp6
 70
     1
102
RTVSPropertyOp7
 70
     1
102
RTVSPropertyOp8
 70
     1
102
RTVSPropertyOp9
 70
     1
102
RTVSPropertyOp10
 70
     1
102
RTVSPropertyOp11
 70
     1
102
RTVSPropertyOp12
 70
     1
102
RTVSPropertyOp13
 70
     1
102
RTVSPropertyOp14
 70
     1
102
RTVSPropertyOp15
 70
     1
102
RTVSPropertyOp16
 70
     1
102
RTVSPropertyOp17
 70
     1
102
RTVSPropertyOp18
 70
     1
102
RTVSPropertyOp19
 70
     1
102
RTVSPropertyOp20
 70
     1
102
RTVSPropertyOp21
 70
     1
102
RTVSPropertyOp22
 70
     1
102
RTVSPropertyOp23
 70
     1
102
RTVSPropertyOp24
 70
     1
102
RTVSPropertyOp25
 70
     1
102
RTVSPropertyOp26
 70
     1
102
RTVSPropertyOp27
 70
     1
102
RTVSPropertyOp28
 70
     1
102
RTVSPropertyOp29
 70
     1
102
RTVSPropertyOp30
 70
     1
102
RTVSPropertyOp31
 70
     1
102
RTVSPropertyOp32
 70
     1
102
RTVSPropertyOp33
 70
     1
102
RTVSPropertyOp34
 70
     1
102
RTVSPropertyOp35
 70
     1
102
RTVSPropertyOp36
 70
     1
102
RTVSPropertyOp37
 70
     1
102
RTVSPropertyOp38
 70
     1
102
RTVSPropertyOp39
 70
     1
102
RTVSPropertyOp40
 70
     1
102
RTVSPropertyOp41
 70
     1
102
RTVSPropertyOp42
 70
     1
102
RTVSPropertyOp43
 70
     1
102
RTVSPropertyOp44
 70
     1
102
RTVSPropertyOp45
 70
     1
102
RTVSPropertyOp46
 70
     1
102
RTVSPropertyOp47
 70
     1
102
RTVSPropertyOp48
 70
     1
102
RTVSPropertyOp49
 70
     1
102
RTVSPropertyOp50
 70
     1
102
RTVSPropertyOp51
 70
     0
102
RTVSPropertyOp52
 70
     0
102
RTVSPropertyOp53
 70
     1
102
RTVSPropertyOp54
 70
     1
102
RTVSPropertyOp55
 70
     1
102
RTVSPropertyOp56
 70
     1
102
RTVSPropertyOp57
 70
     1
102
RTVSPropertyOp58
 70
     1
102
RTVSPropertyOp59
 70
     1
102
RTVSPropertyOp60
 70
     1
102
RTVSPropertyOp61
 70
     1
102
RTVSPropertyOp62
 70
     1
  0
XRECORD
  5
1970
102
{ACAD_REACTORS
330
196F
102
}
330
196F
100
AcDbXrecord
280
     1
102
RTVSPost2010Prop28
280
     0
102
RTVSPost2010PropOp28
 70
     1
102
RTVSPost2010Prop29
280
     1
102
RTVSPost2010PropOp29
 70
     1
102
RTVSPost2010Prop30
280
     1
102
RTVSPost2010PropOp30
 70
     1
102
RTVSPost2010Prop31
280
     0
102
RTVSPost2010PropOp31
 70
     1
102
RTVSPost2010Prop32
280
     0
102
RTVSPost2010PropOp32
 70
     1
102
RTVSPost2010Prop33
280
     0
102
RTVSPost2010PropOp33
 70
     1
102
RTVSPost2010Prop34
280
     0
102
RTVSPost2010PropOp34
 70
     1
102
RTVSPost2010Prop35
280
     0
102
RTVSPost2010PropOp35
 70
     1
102
RTVSPost2010Prop36
280
     0
102
RTVSPost2010PropOp36
 70
     1
102
RTVSPost2010Prop37
 90
       50
102
RTVSPost2010PropOp37
 70
     1
102
RTVSPost2010Prop38
140
0.0
102
RTVSPost2010PropOp38
 70
     1
102
RTVSPost2010Prop39
140
1.0
102
RTVSPost2010PropOp39
 70
     1
102
RTVSPost2010Prop40
 90
        0
102
RTVSPost2010PropOp40
 70
     1
102
RTVSPost2010Prop41ColorIndex
 90
       18
102
RTVSPost2010Prop41ColorRGB
 90
        0
102
RTVSPost2010PropOp41
 70
     1
102
RTVSPost2010Prop42
 90
       50
102
RTVSPost2010PropOp42
 70
     1
102
RTVSPost2010Prop43
 90
        3
102
RTVSPost2010PropOp43
 70
     1
102
RTVSPost2010Prop44ColorIndex
 90
        5
102
RTVSPost2010Prop44ColorRGB
 90
      255
102
RTVSPost2010PropOp44
 70
     1
102
RTVSPost2010Prop45
280
     0
102
RTVSPost2010PropOp45
 70
     1
102
RTVSPost2010Prop46
 90
       50
102
RTVSPost2010PropOp46
 70
     1
102
RTVSPost2010Prop47
 90
       50
102
RTVSPost2010PropOp47
 70
     1
102
RTVSPost2010Prop48
 90
       50
102
RTVSPost2010PropOp48
 70
     1
102
RTVSPost2010Prop49
280
     0
102
RTVSPost2010PropOp49
 70
     1
102
RTVSPost2010Prop50
 90
       50
102
RTVSPost2010PropOp50
 70
     1
102
RTVSPost2010Prop51ColorIndex
 90
      256
102
RTVSPost2010Prop51ColorRGB
 90
-16777216
102
RTVSPost2010PropOp51
 70
     0
102
RTVSPost2010Prop52
140
1.0
102
RTVSPost2010PropOp52
 70
     0
102
RTVSPost2010Prop53
 90
        2
102
RTVSPost2010PropOp53
 70
     1
102
RTVSPost2010Prop54
  1
strokes_ogs.tif
102
RTVSPost2010PropOp54
 70
     1
102
RTVSPost2010Prop55
280
     0
102
RTVSPost2010PropOp55
 70
     1
102
RTVSPost2010Prop56
140
1.0
102
RTVSPost2010PropOp56
 70
     1
102
RTVSPost2010Prop57
140
1.0
102
RTVSPost2010PropOp57
 70
     1
102
RTVSPropertyOp0
 70
     1
102
RTVSPropertyOp1
 70
     1
102
RTVSPropertyOp2
 70
     1
102
RTVSPropertyOp3
 70
     1
102
RTVSPropertyOp4
 70
     1
102
RTVSPropertyOp5
 70
     1
102
RTVSPropertyOp6
 70
     1
102
RTVSPropertyOp7
 70
     1
102
RTVSPropertyOp8
 70
     1
102
RTVSPropertyOp9
 70
     1
102
RTVSPropertyOp10
 70
     1
102
RTVSPropertyOp11
 70
     1
102
RTVSPropertyOp12
 70
     1
102
RTVSPropertyOp13
 70
     1
102
RTVSPropertyOp14
 70
     1
102
RTVSPropertyOp15
 70
     1
102
RTVSPropertyOp16
 70
     1
102
RTVSPropertyOp17
 70
     1
102
RTVSPropertyOp18
 70
     1
102
RTVSPropertyOp19
 70
     1
102
RTVSPropertyOp20
 70
     1
102
RTVSPropertyOp21
 70
     1
102
RTVSPropertyOp22
 70
     1
102
RTVSPropertyOp23
 70
     1
102
RTVSPropertyOp24
 70
     1
102
RTVSPropertyOp25
 70
     1
102
RTVSPropertyOp26
 70
     1
102
RTVSPropertyOp27
 70
     1
102
RTVSPropertyOp28
 70
     1
102
RTVSPropertyOp29
 70
     1
102
RTVSPropertyOp30
 70
     1
102
RTVSPropertyOp31
 70
     1
102
RTVSPropertyOp32
 70
     1
102
RTVSPropertyOp33
 70
     1
102
RTVSPropertyOp34
 70
     1
102
RTVSPropertyOp35
 70
     1
102
RTVSPropertyOp36
 70
     1
102
RTVSPropertyOp37
 70
     1
102
RTVSPropertyOp38
 70
     1
102
RTVSPropertyOp39
 70
     1
102
RTVSPropertyOp40
 70
     1
102
RTVSPropertyOp41
 70
     1
102
RTVSPropertyOp42
 70
     1
102
RTVSPropertyOp43
 70
     1
102
RTVSPropertyOp44
 70
     1
102
RTVSPropertyOp45
 70
     1
102
RTVSPropertyOp46
 70
     1
102
RTVSPropertyOp47
 70
     1
102
RTVSPropertyOp48
 70
     1
102
RTVSPropertyOp49
 70
     1
102
RTVSPropertyOp50
 70
     1
102
RTVSPropertyOp51
 70
     0
102
RTVSPropertyOp52
 70
     0
102
RTVSPropertyOp53
 70
     1
102
RTVSPropertyOp54
 70
     1
102
RTVSPropertyOp55
 70
     1
102
RTVSPropertyOp56
 70
     1
102
RTVSPropertyOp57
 70
     1
102
RTVSPropertyOp58
 70
     1
102
RTVSPropertyOp59
 70
     1
102
RTVSPropertyOp60
 70
     1
102
RTVSPropertyOp61
 70
     1
102
RTVSPropertyOp62
 70
     1
  0
XRECORD
  5
1962
102
{ACAD_REACTORS
330
1961
102
}
330
1961
100
AcDbXrecord
280
     1
102
RTVSPost2010Prop28
280
     0
102
RTVSPost2010PropOp28
 70
     1
102
RTVSPost2010Prop29
280
     1
102
RTVSPost2010PropOp29
 70
     1
102
RTVSPost2010Prop30
280
     1
102
RTVSPost2010PropOp30
 70
     1
102
RTVSPost2010Prop31
280
     0
102
RTVSPost2010PropOp31
 70
     1
102
RTVSPost2010Prop32
280
     0
102
RTVSPost2010PropOp32
 70
     1
102
RTVSPost2010Prop33
280
     0
102
RTVSPost2010PropOp33
 70
     1
102
RTVSPost2010Prop34
280
     0
102
RTVSPost2010PropOp34
 70
     1
102
RTVSPost2010Prop35
280
     0
102
RTVSPost2010PropOp35
 70
     1
102
RTVSPost2010Prop36
280
     0
102
RTVSPost2010PropOp36
 70
     1
102
RTVSPost2010Prop37
 90
       50
102
RTVSPost2010PropOp37
 70
     1
102
RTVSPost2010Prop38
140
0.0
102
RTVSPost2010PropOp38
 70
     1
102
RTVSPost2010Prop39
140
1.0
102
RTVSPost2010PropOp39
 70
     1
102
RTVSPost2010Prop40
 90
        0
102
RTVSPost2010PropOp40
 70
     1
102
RTVSPost2010Prop41ColorIndex
 90
       18
102
RTVSPost2010Prop41ColorRGB
 90
        0
102
RTVSPost2010PropOp41
 70
     1
102
RTVSPost2010Prop42
 90
       50
102
RTVSPost2010PropOp42
 70
     1
102
RTVSPost2010Prop43
 90
        3
102
RTVSPost2010PropOp43
 70
     1
102
RTVSPost2010Prop44ColorIndex
 90
        5
102
RTVSPost2010Prop44ColorRGB
 90
      255
102
RTVSPost2010PropOp44
 70
     1
102
RTVSPost2010Prop45
280
     0
102
RTVSPost2010PropOp45
 70
     1
102
RTVSPost2010Prop46
 90
       50
102
RTVSPost2010PropOp46
 70
     1
102
RTVSPost2010Prop47
 90
       50
102
RTVSPost2010PropOp47
 70
     1
102
RTVSPost2010Prop48
 90
       50
102
RTVSPost2010PropOp48
 70
     1
102
RTVSPost2010Prop49
280
     0
102
RTVSPost2010PropOp49
 70
     1
102
RTVSPost2010Prop50
 90
       50
102
RTVSPost2010PropOp50
 70
     1
102
RTVSPost2010Prop51ColorIndex
 90
      256
102
RTVSPost2010Prop51ColorRGB
 90
-16777216
102
RTVSPost2010PropOp51
 70
     0
102
RTVSPost2010Prop52
140
1.0
102
RTVSPost2010PropOp52
 70
     0
102
RTVSPost2010Prop53
 90
        2
102
RTVSPost2010PropOp53
 70
     1
102
RTVSPost2010Prop54
  1
strokes_ogs.tif
102
RTVSPost2010PropOp54
 70
     1
102
RTVSPost2010Prop55
280
     0
102
RTVSPost2010PropOp55
 70
     1
102
RTVSPost2010Prop56
140
1.0
102
RTVSPost2010PropOp56
 70
     1
102
RTVSPost2010Prop57
140
1.0
102
RTVSPost2010PropOp57
 70
     1
102
RTVSPropertyOp0
 70
     1
102
RTVSPropertyOp1
 70
     1
102
RTVSPropertyOp2
 70
     1
102
RTVSPropertyOp3
 70
     1
102
RTVSPropertyOp4
 70
     1
102
RTVSPropertyOp5
 70
     1
102
RTVSPropertyOp6
 70
     1
102
RTVSPropertyOp7
 70
     1
102
RTVSPropertyOp8
 70
     1
102
RTVSPropertyOp9
 70
     1
102
RTVSPropertyOp10
 70
     1
102
RTVSPropertyOp11
 70
     1
102
RTVSPropertyOp12
 70
     1
102
RTVSPropertyOp13
 70
     1
102
RTVSPropertyOp14
 70
     1
102
RTVSPropertyOp15
 70
     1
102
RTVSPropertyOp16
 70
     1
102
RTVSPropertyOp17
 70
     1
102
RTVSPropertyOp18
 70
     1
102
RTVSPropertyOp19
 70
     1
102
RTVSPropertyOp20
 70
     1
102
RTVSPropertyOp21
 70
     1
102
RTVSPropertyOp22
 70
     1
102
RTVSPropertyOp23
 70
     1
102
RTVSPropertyOp24
 70
     1
102
RTVSPropertyOp25
 70
     1
102
RTVSPropertyOp26
 70
     1
102
RTVSPropertyOp27
 70
     1
102
RTVSPropertyOp28
 70
     1
102
RTVSPropertyOp29
 70
     1
102
RTVSPropertyOp30
 70
     1
102
RTVSPropertyOp31
 70
     1
102
RTVSPropertyOp32
 70
     1
102
RTVSPropertyOp33
 70
     1
102
RTVSPropertyOp34
 70
     1
102
RTVSPropertyOp35
 70
     1
102
RTVSPropertyOp36
 70
     1
102
RTVSPropertyOp37
 70
     1
102
RTVSPropertyOp38
 70
     1
102
RTVSPropertyOp39
 70
     1
102
RTVSPropertyOp40
 70
     1
102
RTVSPropertyOp41
 70
     1
102
RTVSPropertyOp42
 70
     1
102
RTVSPropertyOp43
 70
     1
102
RTVSPropertyOp44
 70
     1
102
RTVSPropertyOp45
 70
     1
102
RTVSPropertyOp46
 70
     1
102
RTVSPropertyOp47
 70
     1
102
RTVSPropertyOp48
 70
     1
102
RTVSPropertyOp49
 70
     1
102
RTVSPropertyOp50
 70
     1
102
RTVSPropertyOp51
 70
     0
102
RTVSPropertyOp52
 70
     0
102
RTVSPropertyOp53
 70
     1
102
RTVSPropertyOp54
 70
     1
102
RTVSPropertyOp55
 70
     1
102
RTVSPropertyOp56
 70
     1
102
RTVSPropertyOp57
 70
     1
102
RTVSPropertyOp58
 70
     1
102
RTVSPropertyOp59
 70
     1
102
RTVSPropertyOp60
 70
     1
102
RTVSPropertyOp61
 70
     1
102
RTVSPropertyOp62
 70
     1
  0
XRECORD
  5
1966
102
{ACAD_REACTORS
330
1965
102
}
330
1965
100
AcDbXrecord
280
     1
102
RTVSPost2010Prop28
280
     0
102
RTVSPost2010PropOp28
 70
     1
102
RTVSPost2010Prop29
280
     1
102
RTVSPost2010PropOp29
 70
     1
102
RTVSPost2010Prop30
280
     1
102
RTVSPost2010PropOp30
 70
     1
102
RTVSPost2010Prop31
280
     0
102
RTVSPost2010PropOp31
 70
     1
102
RTVSPost2010Prop32
280
     0
102
RTVSPost2010PropOp32
 70
     1
102
RTVSPost2010Prop33
280
     0
102
RTVSPost2010PropOp33
 70
     1
102
RTVSPost2010Prop34
280
     0
102
RTVSPost2010PropOp34
 70
     1
102
RTVSPost2010Prop35
280
     0
102
RTVSPost2010PropOp35
 70
     1
102
RTVSPost2010Prop36
280
     0
102
RTVSPost2010PropOp36
 70
     1
102
RTVSPost2010Prop37
 90
       50
102
RTVSPost2010PropOp37
 70
     1
102
RTVSPost2010Prop38
140
0.0
102
RTVSPost2010PropOp38
 70
     1
102
RTVSPost2010Prop39
140
1.0
102
RTVSPost2010PropOp39
 70
     1
102
RTVSPost2010Prop40
 90
        0
102
RTVSPost2010PropOp40
 70
     1
102
RTVSPost2010Prop41ColorIndex
 90
       18
102
RTVSPost2010Prop41ColorRGB
 90
        0
102
RTVSPost2010PropOp41
 70
     1
102
RTVSPost2010Prop42
 90
       50
102
RTVSPost2010PropOp42
 70
     1
102
RTVSPost2010Prop43
 90
        3
102
RTVSPost2010PropOp43
 70
     1
102
RTVSPost2010Prop44ColorIndex
 90
        5
102
RTVSPost2010Prop44ColorRGB
 90
      255
102
RTVSPost2010PropOp44
 70
     1
102
RTVSPost2010Prop45
280
     0
102
RTVSPost2010PropOp45
 70
     1
102
RTVSPost2010Prop46
 90
       50
102
RTVSPost2010PropOp46
 70
     1
102
RTVSPost2010Prop47
 90
       50
102
RTVSPost2010PropOp47
 70
     1
102
RTVSPost2010Prop48
 90
       50
102
RTVSPost2010PropOp48
 70
     1
102
RTVSPost2010Prop49
280
     0
102
RTVSPost2010PropOp49
 70
     1
102
RTVSPost2010Prop50
 90
       50
102
RTVSPost2010PropOp50
 70
     1
102
RTVSPost2010Prop51ColorIndex
 90
      256
102
RTVSPost2010Prop51ColorRGB
 90
-16777216
102
RTVSPost2010PropOp51
 70
     0
102
RTVSPost2010Prop52
140
1.0
102
RTVSPost2010PropOp52
 70
     0
102
RTVSPost2010Prop53
 90
        2
102
RTVSPost2010PropOp53
 70
     1
102
RTVSPost2010Prop54
  1
strokes_ogs.tif
102
RTVSPost2010PropOp54
 70
     1
102
RTVSPost2010Prop55
280
     0
102
RTVSPost2010PropOp55
 70
     1
102
RTVSPost2010Prop56
140
1.0
102
RTVSPost2010PropOp56
 70
     1
102
RTVSPost2010Prop57
140
1.0
102
RTVSPost2010PropOp57
 70
     1
102
RTVSPropertyOp0
 70
     1
102
RTVSPropertyOp1
 70
     1
102
RTVSPropertyOp2
 70
     1
102
RTVSPropertyOp3
 70
     1
102
RTVSPropertyOp4
 70
     1
102
RTVSPropertyOp5
 70
     1
102
RTVSPropertyOp6
 70
     1
102
RTVSPropertyOp7
 70
     1
102
RTVSPropertyOp8
 70
     1
102
RTVSPropertyOp9
 70
     1
102
RTVSPropertyOp10
 70
     1
102
RTVSPropertyOp11
 70
     1
102
RTVSPropertyOp12
 70
     1
102
RTVSPropertyOp13
 70
     1
102
RTVSPropertyOp14
 70
     1
102
RTVSPropertyOp15
 70
     1
102
RTVSPropertyOp16
 70
     1
102
RTVSPropertyOp17
 70
     1
102
RTVSPropertyOp18
 70
     1
102
RTVSPropertyOp19
 70
     1
102
RTVSPropertyOp20
 70
     1
102
RTVSPropertyOp21
 70
     1
102
RTVSPropertyOp22
 70
     1
102
RTVSPropertyOp23
 70
     1
102
RTVSPropertyOp24
 70
     1
102
RTVSPropertyOp25
 70
     1
102
RTVSPropertyOp26
 70
     1
102
RTVSPropertyOp27
 70
     1
102
RTVSPropertyOp28
 70
     1
102
RTVSPropertyOp29
 70
     1
102
RTVSPropertyOp30
 70
     1
102
RTVSPropertyOp31
 70
     1
102
RTVSPropertyOp32
 70
     1
102
RTVSPropertyOp33
 70
     1
102
RTVSPropertyOp34
 70
     1
102
RTVSPropertyOp35
 70
     1
102
RTVSPropertyOp36
 70
     1
102
RTVSPropertyOp37
 70
     1
102
RTVSPropertyOp38
 70
     1
102
RTVSPropertyOp39
 70
     1
102
RTVSPropertyOp40
 70
     1
102
RTVSPropertyOp41
 70
     1
102
RTVSPropertyOp42
 70
     1
102
RTVSPropertyOp43
 70
     1
102
RTVSPropertyOp44
 70
     1
102
RTVSPropertyOp45
 70
     1
102
RTVSPropertyOp46
 70
     1
102
RTVSPropertyOp47
 70
     1
102
RTVSPropertyOp48
 70
     1
102
RTVSPropertyOp49
 70
     1
102
RTVSPropertyOp50
 70
     1
102
RTVSPropertyOp51
 70
     0
102
RTVSPropertyOp52
 70
     0
102
RTVSPropertyOp53
 70
     1
102
RTVSPropertyOp54
 70
     1
102
RTVSPropertyOp55
 70
     1
102
RTVSPropertyOp56
 70
     1
102
RTVSPropertyOp57
 70
     1
102
RTVSPropertyOp58
 70
     1
102
RTVSPropertyOp59
 70
     1
102
RTVSPropertyOp60
 70
     1
102
RTVSPropertyOp61
 70
     1
102
RTVSPropertyOp62
 70
     1
  0
XRECORD
  5
1976
102
{ACAD_REACTORS
330
1975
102
}
330
1975
100
AcDbXrecord
280
     1
102
RTVSPost2010Prop28
280
     0
102
RTVSPost2010PropOp28
 70
     1
102
RTVSPost2010Prop29
280
     1
102
RTVSPost2010PropOp29
 70
     1
102
RTVSPost2010Prop30
280
     1
102
RTVSPost2010PropOp30
 70
     1
102
RTVSPost2010Prop31
280
     0
102
RTVSPost2010PropOp31
 70
     1
102
RTVSPost2010Prop32
280
     0
102
RTVSPost2010PropOp32
 70
     1
102
RTVSPost2010Prop33
280
     0
102
RTVSPost2010PropOp33
 70
     1
102
RTVSPost2010Prop34
280
     0
102
RTVSPost2010PropOp34
 70
     1
102
RTVSPost2010Prop35
280
     0
102
RTVSPost2010PropOp35
 70
     1
102
RTVSPost2010Prop36
280
     0
102
RTVSPost2010PropOp36
 70
     1
102
RTVSPost2010Prop37
 90
       50
102
RTVSPost2010PropOp37
 70
     1
102
RTVSPost2010Prop38
140
0.0
102
RTVSPost2010PropOp38
 70
     1
102
RTVSPost2010Prop39
140
1.0
102
RTVSPost2010PropOp39
 70
     1
102
RTVSPost2010Prop40
 90
        0
102
RTVSPost2010PropOp40
 70
     1
102
RTVSPost2010Prop41ColorIndex
 90
       18
102
RTVSPost2010Prop41ColorRGB
 90
        0
102
RTVSPost2010PropOp41
 70
     1
102
RTVSPost2010Prop42
 90
       50
102
RTVSPost2010PropOp42
 70
     1
102
RTVSPost2010Prop43
 90
        3
102
RTVSPost2010PropOp43
 70
     1
102
RTVSPost2010Prop44ColorIndex
 90
        5
102
RTVSPost2010Prop44ColorRGB
 90
      255
102
RTVSPost2010PropOp44
 70
     1
102
RTVSPost2010Prop45
280
     0
102
RTVSPost2010PropOp45
 70
     1
102
RTVSPost2010Prop46
 90
       50
102
RTVSPost2010PropOp46
 70
     1
102
RTVSPost2010Prop47
 90
       50
102
RTVSPost2010PropOp47
 70
     1
102
RTVSPost2010Prop48
 90
       50
102
RTVSPost2010PropOp48
 70
     1
102
RTVSPost2010Prop49
280
     0
102
RTVSPost2010PropOp49
 70
     1
102
RTVSPost2010Prop50
 90
       50
102
RTVSPost2010PropOp50
 70
     1
102
RTVSPost2010Prop51ColorIndex
 90
      256
102
RTVSPost2010Prop51ColorRGB
 90
-16777216
102
RTVSPost2010PropOp51
 70
     0
102
RTVSPost2010Prop52
140
1.0
102
RTVSPost2010PropOp52
 70
     0
102
RTVSPost2010Prop53
 90
        2
102
RTVSPost2010PropOp53
 70
     1
102
RTVSPost2010Prop54
  1
strokes_ogs.tif
102
RTVSPost2010PropOp54
 70
     1
102
RTVSPost2010Prop55
280
     0
102
RTVSPost2010PropOp55
 70
     1
102
RTVSPost2010Prop56
140
1.0
102
RTVSPost2010PropOp56
 70
     1
102
RTVSPost2010Prop57
140
1.0
102
RTVSPost2010PropOp57
 70
     1
102
RTVSPropertyOp0
 70
     0
102
RTVSPropertyOp1
 70
     0
102
RTVSPropertyOp2
 70
     0
102
RTVSPropertyOp3
 70
     0
102
RTVSPropertyOp4
 70
     0
102
RTVSPropertyOp5
 70
     0
102
RTVSPropertyOp6
 70
     0
102
RTVSPropertyOp7
 70
     0
102
RTVSPropertyOp8
 70
     0
102
RTVSPropertyOp9
 70
     0
102
RTVSPropertyOp10
 70
     0
102
RTVSPropertyOp11
 70
     0
102
RTVSPropertyOp12
 70
     0
102
RTVSPropertyOp13
 70
     0
102
RTVSPropertyOp14
 70
     2
102
RTVSPropertyOp15
 70
     0
102
RTVSPropertyOp16
 70
     0
102
RTVSPropertyOp17
 70
     0
102
RTVSPropertyOp18
 70
     0
102
RTVSPropertyOp19
 70
     0
102
RTVSPropertyOp20
 70
     0
102
RTVSPropertyOp21
 70
     0
102
RTVSPropertyOp22
 70
     0
102
RTVSPropertyOp23
 70
     0
102
RTVSPropertyOp24
 70
     0
102
RTVSPropertyOp25
 70
     0
102
RTVSPropertyOp26
 70
     0
102
RTVSPropertyOp27
 70
     0
102
RTVSPropertyOp28
 70
     1
102
RTVSPropertyOp29
 70
     1
102
RTVSPropertyOp30
 70
     1
102
RTVSPropertyOp31
 70
     1
102
RTVSPropertyOp32
 70
     1
102
RTVSPropertyOp33
 70
     1
102
RTVSPropertyOp34
 70
     1
102
RTVSPropertyOp35
 70
     1
102
RTVSPropertyOp36
 70
     1
102
RTVSPropertyOp37
 70
     1
102
RTVSPropertyOp38
 70
     1
102
RTVSPropertyOp39
 70
     1
102
RTVSPropertyOp40
 70
     1
102
RTVSPropertyOp41
 70
     1
102
RTVSPropertyOp42
 70
     1
102
RTVSPropertyOp43
 70
     1
102
RTVSPropertyOp44
 70
     1
102
RTVSPropertyOp45
 70
     1
102
RTVSPropertyOp46
 70
     1
102
RTVSPropertyOp47
 70
     1
102
RTVSPropertyOp48
 70
     1
102
RTVSPropertyOp49
 70
     1
102
RTVSPropertyOp50
 70
     1
102
RTVSPropertyOp51
 70
     0
102
RTVSPropertyOp52
 70
     0
102
RTVSPropertyOp53
 70
     1
102
RTVSPropertyOp54
 70
     1
102
RTVSPropertyOp55
 70
     1
102
RTVSPropertyOp56
 70
     1
102
RTVSPropertyOp57
 70
     1
102
RTVSPropertyOp58
 70
     1
102
RTVSPropertyOp59
 70
     1
102
RTVSPropertyOp60
 70
     1
102
RTVSPropertyOp61
 70
     1
102
RTVSPropertyOp62
 70
     1
  0
XRECORD
  5
196E
102
{ACAD_REACTORS
330
196D
102
}
330
196D
100
AcDbXrecord
280
     1
102
RTVSPost2010Prop28
280
     0
102
RTVSPost2010PropOp28
 70
     1
102
RTVSPost2010Prop29
280
     1
102
RTVSPost2010PropOp29
 70
     1
102
RTVSPost2010Prop30
280
     1
102
RTVSPost2010PropOp30
 70
     1
102
RTVSPost2010Prop31
280
     0
102
RTVSPost2010PropOp31
 70
     1
102
RTVSPost2010Prop32
280
     0
102
RTVSPost2010PropOp32
 70
     1
102
RTVSPost2010Prop33
280
     0
102
RTVSPost2010PropOp33
 70
     1
102
RTVSPost2010Prop34
280
     0
102
RTVSPost2010PropOp34
 70
     1
102
RTVSPost2010Prop35
280
     0
102
RTVSPost2010PropOp35
 70
     1
102
RTVSPost2010Prop36
280
     0
102
RTVSPost2010PropOp36
 70
     1
102
RTVSPost2010Prop37
 90
       50
102
RTVSPost2010PropOp37
 70
     1
102
RTVSPost2010Prop38
140
0.0
102
RTVSPost2010PropOp38
 70
     1
102
RTVSPost2010Prop39
140
1.0
102
RTVSPost2010PropOp39
 70
     1
102
RTVSPost2010Prop40
 90
        0
102
RTVSPost2010PropOp40
 70
     1
102
RTVSPost2010Prop41ColorIndex
 90
       18
102
RTVSPost2010Prop41ColorRGB
 90
        0
102
RTVSPost2010PropOp41
 70
     1
102
RTVSPost2010Prop42
 90
       50
102
RTVSPost2010PropOp42
 70
     1
102
RTVSPost2010Prop43
 90
        3
102
RTVSPost2010PropOp43
 70
     1
102
RTVSPost2010Prop44ColorIndex
 90
        5
102
RTVSPost2010Prop44ColorRGB
 90
      255
102
RTVSPost2010PropOp44
 70
     1
102
RTVSPost2010Prop45
280
     0
102
RTVSPost2010PropOp45
 70
     1
102
RTVSPost2010Prop46
 90
       50
102
RTVSPost2010PropOp46
 70
     1
102
RTVSPost2010Prop47
 90
       50
102
RTVSPost2010PropOp47
 70
     1
102
RTVSPost2010Prop48
 90
       50
102
RTVSPost2010PropOp48
 70
     1
102
RTVSPost2010Prop49
280
     0
102
RTVSPost2010PropOp49
 70
     1
102
RTVSPost2010Prop50
 90
       50
102
RTVSPost2010PropOp50
 70
     1
102
RTVSPost2010Prop51ColorIndex
 90
      256
102
RTVSPost2010Prop51ColorRGB
 90
-16777216
102
RTVSPost2010PropOp51
 70
     0
102
RTVSPost2010Prop52
140
1.0
102
RTVSPost2010PropOp52
 70
     0
102
RTVSPost2010Prop53
 90
        2
102
RTVSPost2010PropOp53
 70
     1
102
RTVSPost2010Prop54
  1
strokes_ogs.tif
102
RTVSPost2010PropOp54
 70
     1
102
RTVSPost2010Prop55
280
     0
102
RTVSPost2010PropOp55
 70
     1
102
RTVSPost2010Prop56
140
1.0
102
RTVSPost2010PropOp56
 70
     1
102
RTVSPost2010Prop57
140
1.0
102
RTVSPost2010PropOp57
 70
     1
102
RTVSPropertyOp0
 70
     1
102
RTVSPropertyOp1
 70
     1
102
RTVSPropertyOp2
 70
     1
102
RTVSPropertyOp3
 70
     1
102
RTVSPropertyOp4
 70
     1
102
RTVSPropertyOp5
 70
     1
102
RTVSPropertyOp6
 70
     1
102
RTVSPropertyOp7
 70
     1
102
RTVSPropertyOp8
 70
     1
102
RTVSPropertyOp9
 70
     1
102
RTVSPropertyOp10
 70
     1
102
RTVSPropertyOp11
 70
     1
102
RTVSPropertyOp12
 70
     1
102
RTVSPropertyOp13
 70
     1
102
RTVSPropertyOp14
 70
     1
102
RTVSPropertyOp15
 70
     1
102
RTVSPropertyOp16
 70
     1
102
RTVSPropertyOp17
 70
     1
102
RTVSPropertyOp18
 70
     1
102
RTVSPropertyOp19
 70
     1
102
RTVSPropertyOp20
 70
     1
102
RTVSPropertyOp21
 70
     1
102
RTVSPropertyOp22
 70
     1
102
RTVSPropertyOp23
 70
     1
102
RTVSPropertyOp24
 70
     1
102
RTVSPropertyOp25
 70
     1
102
RTVSPropertyOp26
 70
     1
102
RTVSPropertyOp27
 70
     1
102
RTVSPropertyOp28
 70
     1
102
RTVSPropertyOp29
 70
     1
102
RTVSPropertyOp30
 70
     1
102
RTVSPropertyOp31
 70
     1
102
RTVSPropertyOp32
 70
     1
102
RTVSPropertyOp33
 70
     1
102
RTVSPropertyOp34
 70
     1
102
RTVSPropertyOp35
 70
     1
102
RTVSPropertyOp36
 70
     1
102
RTVSPropertyOp37
 70
     1
102
RTVSPropertyOp38
 70
     1
102
RTVSPropertyOp39
 70
     1
102
RTVSPropertyOp40
 70
     1
102
RTVSPropertyOp41
 70
     1
102
RTVSPropertyOp42
 70
     1
102
RTVSPropertyOp43
 70
     1
102
RTVSPropertyOp44
 70
     1
102
RTVSPropertyOp45
 70
     1
102
RTVSPropertyOp46
 70
     1
102
RTVSPropertyOp47
 70
     1
102
RTVSPropertyOp48
 70
     1
102
RTVSPropertyOp49
 70
     1
102
RTVSPropertyOp50
 70
     1
102
RTVSPropertyOp51
 70
     0
102
RTVSPropertyOp52
 70
     0
102
RTVSPropertyOp53
 70
     1
102
RTVSPropertyOp54
 70
     1
102
RTVSPropertyOp55
 70
     1
102
RTVSPropertyOp56
 70
     1
102
RTVSPropertyOp57
 70
     1
102
RTVSPropertyOp58
 70
     1
102
RTVSPropertyOp59
 70
     1
102
RTVSPropertyOp60
 70
     1
102
RTVSPropertyOp61
 70
     1
102
RTVSPropertyOp62
 70
     1
  0
XRECORD
  5
1952
102
{ACAD_REACTORS
330
1951
102
}
330
1951
100
AcDbXrecord
280
     1
102
RTVSPost2010Prop28
280
     0
102
RTVSPost2010PropOp28
 70
     1
102
RTVSPost2010Prop29
280
     1
102
RTVSPost2010PropOp29
 70
     1
102
RTVSPost2010Prop30
280
     1
102
RTVSPost2010PropOp30
 70
     1
102
RTVSPost2010Prop31
280
     0
102
RTVSPost2010PropOp31
 70
     1
102
RTVSPost2010Prop32
280
     0
102
RTVSPost2010PropOp32
 70
     1
102
RTVSPost2010Prop33
280
     0
102
RTVSPost2010PropOp33
 70
     1
102
RTVSPost2010Prop34
280
     0
102
RTVSPost2010PropOp34
 70
     1
102
RTVSPost2010Prop35
280
     0
102
RTVSPost2010PropOp35
 70
     1
102
RTVSPost2010Prop36
280
     0
102
RTVSPost2010PropOp36
 70
     1
102
RTVSPost2010Prop37
 90
       50
102
RTVSPost2010PropOp37
 70
     1
102
RTVSPost2010Prop38
140
0.0
102
RTVSPost2010PropOp38
 70
     1
102
RTVSPost2010Prop39
140
1.0
102
RTVSPost2010PropOp39
 70
     1
102
RTVSPost2010Prop40
 90
        0
102
RTVSPost2010PropOp40
 70
     1
102
RTVSPost2010Prop41ColorIndex
 90
       18
102
RTVSPost2010Prop41ColorRGB
 90
        0
102
RTVSPost2010PropOp41
 70
     1
102
RTVSPost2010Prop42
 90
       50
102
RTVSPost2010PropOp42
 70
     1
102
RTVSPost2010Prop43
 90
        3
102
RTVSPost2010PropOp43
 70
     1
102
RTVSPost2010Prop44ColorIndex
 90
        5
102
RTVSPost2010Prop44ColorRGB
 90
      255
102
RTVSPost2010PropOp44
 70
     1
102
RTVSPost2010Prop45
280
     0
102
RTVSPost2010PropOp45
 70
     1
102
RTVSPost2010Prop46
 90
       50
102
RTVSPost2010PropOp46
 70
     1
102
RTVSPost2010Prop47
 90
       50
102
RTVSPost2010PropOp47
 70
     1
102
RTVSPost2010Prop48
 90
       50
102
RTVSPost2010PropOp48
 70
     1
102
RTVSPost2010Prop49
280
     0
102
RTVSPost2010PropOp49
 70
     1
102
RTVSPost2010Prop50
 90
       50
102
RTVSPost2010PropOp50
 70
     1
102
RTVSPost2010Prop51ColorIndex
 90
      256
102
RTVSPost2010Prop51ColorRGB
 90
-16777216
102
RTVSPost2010PropOp51
 70
     0
102
RTVSPost2010Prop52
140
1.0
102
RTVSPost2010PropOp52
 70
     0
102
RTVSPost2010Prop53
 90
        2
102
RTVSPost2010PropOp53
 70
     1
102
RTVSPost2010Prop54
  1
strokes_ogs.tif
102
RTVSPost2010PropOp54
 70
     1
102
RTVSPost2010Prop55
280
     0
102
RTVSPost2010PropOp55
 70
     1
102
RTVSPost2010Prop56
140
1.0
102
RTVSPost2010PropOp56
 70
     1
102
RTVSPost2010Prop57
140
1.0
102
RTVSPost2010PropOp57
 70
     1
102
RTVSPropertyOp0
 70
     1
102
RTVSPropertyOp1
 70
     1
102
RTVSPropertyOp2
 70
     1
102
RTVSPropertyOp3
 70
     1
102
RTVSPropertyOp4
 70
     1
102
RTVSPropertyOp5
 70
     1
102
RTVSPropertyOp6
 70
     1
102
RTVSPropertyOp7
 70
     1
102
RTVSPropertyOp8
 70
     1
102
RTVSPropertyOp9
 70
     1
102
RTVSPropertyOp10
 70
     1
102
RTVSPropertyOp11
 70
     1
102
RTVSPropertyOp12
 70
     1
102
RTVSPropertyOp13
 70
     1
102
RTVSPropertyOp14
 70
     1
102
RTVSPropertyOp15
 70
     1
102
RTVSPropertyOp16
 70
     1
102
RTVSPropertyOp17
 70
     1
102
RTVSPropertyOp18
 70
     1
102
RTVSPropertyOp19
 70
     1
102
RTVSPropertyOp20
 70
     1
102
RTVSPropertyOp21
 70
     1
102
RTVSPropertyOp22
 70
     1
102
RTVSPropertyOp23
 70
     1
102
RTVSPropertyOp24
 70
     1
102
RTVSPropertyOp25
 70
     1
102
RTVSPropertyOp26
 70
     1
102
RTVSPropertyOp27
 70
     1
102
RTVSPropertyOp28
 70
     1
102
RTVSPropertyOp29
 70
     1
102
RTVSPropertyOp30
 70
     1
102
RTVSPropertyOp31
 70
     1
102
RTVSPropertyOp32
 70
     1
102
RTVSPropertyOp33
 70
     1
102
RTVSPropertyOp34
 70
     1
102
RTVSPropertyOp35
 70
     1
102
RTVSPropertyOp36
 70
     1
102
RTVSPropertyOp37
 70
     1
102
RTVSPropertyOp38
 70
     1
102
RTVSPropertyOp39
 70
     1
102
RTVSPropertyOp40
 70
     1
102
RTVSPropertyOp41
 70
     1
102
RTVSPropertyOp42
 70
     1
102
RTVSPropertyOp43
 70
     1
102
RTVSPropertyOp44
 70
     1
102
RTVSPropertyOp45
 70
     1
102
RTVSPropertyOp46
 70
     1
102
RTVSPropertyOp47
 70
     1
102
RTVSPropertyOp48
 70
     1
102
RTVSPropertyOp49
 70
     1
102
RTVSPropertyOp50
 70
     1
102
RTVSPropertyOp51
 70
     0
102
RTVSPropertyOp52
 70
     0
102
RTVSPropertyOp53
 70
     1
102
RTVSPropertyOp54
 70
     1
102
RTVSPropertyOp55
 70
     1
102
RTVSPropertyOp56
 70
     1
102
RTVSPropertyOp57
 70
     1
102
RTVSPropertyOp58
 70
     1
102
RTVSPropertyOp59
 70
     1
102
RTVSPropertyOp60
 70
     1
102
RTVSPropertyOp61
 70
     1
102
RTVSPropertyOp62
 70
     1
  0
XRECORD
  5
1954
102
{ACAD_REACTORS
330
1953
102
}
330
1953
100
AcDbXrecord
280
     1
102
RTVSPost2010Prop28
280
     0
102
RTVSPost2010PropOp28
 70
     1
102
RTVSPost2010Prop29
280
     1
102
RTVSPost2010PropOp29
 70
     1
102
RTVSPost2010Prop30
280
     1
102
RTVSPost2010PropOp30
 70
     1
102
RTVSPost2010Prop31
280
     0
102
RTVSPost2010PropOp31
 70
     1
102
RTVSPost2010Prop32
280
     0
102
RTVSPost2010PropOp32
 70
     1
102
RTVSPost2010Prop33
280
     0
102
RTVSPost2010PropOp33
 70
     1
102
RTVSPost2010Prop34
280
     0
102
RTVSPost2010PropOp34
 70
     1
102
RTVSPost2010Prop35
280
     0
102
RTVSPost2010PropOp35
 70
     1
102
RTVSPost2010Prop36
280
     0
102
RTVSPost2010PropOp36
 70
     1
102
RTVSPost2010Prop37
 90
       50
102
RTVSPost2010PropOp37
 70
     1
102
RTVSPost2010Prop38
140
0.0
102
RTVSPost2010PropOp38
 70
     1
102
RTVSPost2010Prop39
140
1.0
102
RTVSPost2010PropOp39
 70
     1
102
RTVSPost2010Prop40
 90
        0
102
RTVSPost2010PropOp40
 70
     1
102
RTVSPost2010Prop41ColorIndex
 90
       18
102
RTVSPost2010Prop41ColorRGB
 90
        0
102
RTVSPost2010PropOp41
 70
     1
102
RTVSPost2010Prop42
 90
       50
102
RTVSPost2010PropOp42
 70
     1
102
RTVSPost2010Prop43
 90
        3
102
RTVSPost2010PropOp43
 70
     1
102
RTVSPost2010Prop44ColorIndex
 90
        5
102
RTVSPost2010Prop44ColorRGB
 90
      255
102
RTVSPost2010PropOp44
 70
     1
102
RTVSPost2010Prop45
280
     0
102
RTVSPost2010PropOp45
 70
     1
102
RTVSPost2010Prop46
 90
       50
102
RTVSPost2010PropOp46
 70
     1
102
RTVSPost2010Prop47
 90
       50
102
RTVSPost2010PropOp47
 70
     1
102
RTVSPost2010Prop48
 90
       50
102
RTVSPost2010PropOp48
 70
     1
102
RTVSPost2010Prop49
280
     0
102
RTVSPost2010PropOp49
 70
     1
102
RTVSPost2010Prop50
 90
       50
102
RTVSPost2010PropOp50
 70
     1
102
RTVSPost2010Prop51ColorIndex
 90
      256
102
RTVSPost2010Prop51ColorRGB
 90
-16777216
102
RTVSPost2010PropOp51
 70
     0
102
RTVSPost2010Prop52
140
1.0
102
RTVSPost2010PropOp52
 70
     0
102
RTVSPost2010Prop53
 90
        2
102
RTVSPost2010PropOp53
 70
     1
102
RTVSPost2010Prop54
  1
strokes_ogs.tif
102
RTVSPost2010PropOp54
 70
     1
102
RTVSPost2010Prop55
280
     0
102
RTVSPost2010PropOp55
 70
     1
102
RTVSPost2010Prop56
140
1.0
102
RTVSPost2010PropOp56
 70
     1
102
RTVSPost2010Prop57
140
1.0
102
RTVSPost2010PropOp57
 70
     1
102
RTVSPropertyOp0
 70
     1
102
RTVSPropertyOp1
 70
     1
102
RTVSPropertyOp2
 70
     1
102
RTVSPropertyOp3
 70
     1
102
RTVSPropertyOp4
 70
     1
102
RTVSPropertyOp5
 70
     1
102
RTVSPropertyOp6
 70
     1
102
RTVSPropertyOp7
 70
     1
102
RTVSPropertyOp8
 70
     1
102
RTVSPropertyOp9
 70
     1
102
RTVSPropertyOp10
 70
     1
102
RTVSPropertyOp11
 70
     1
102
RTVSPropertyOp12
 70
     1
102
RTVSPropertyOp13
 70
     1
102
RTVSPropertyOp14
 70
     1
102
RTVSPropertyOp15
 70
     1
102
RTVSPropertyOp16
 70
     1
102
RTVSPropertyOp17
 70
     1
102
RTVSPropertyOp18
 70
     1
102
RTVSPropertyOp19
 70
     1
102
RTVSPropertyOp20
 70
     1
102
RTVSPropertyOp21
 70
     1
102
RTVSPropertyOp22
 70
     1
102
RTVSPropertyOp23
 70
     1
102
RTVSPropertyOp24
 70
     1
102
RTVSPropertyOp25
 70
     1
102
RTVSPropertyOp26
 70
     1
102
RTVSPropertyOp27
 70
     1
102
RTVSPropertyOp28
 70
     1
102
RTVSPropertyOp29
 70
     1
102
RTVSPropertyOp30
 70
     1
102
RTVSPropertyOp31
 70
     1
102
RTVSPropertyOp32
 70
     1
102
RTVSPropertyOp33
 70
     1
102
RTVSPropertyOp34
 70
     1
102
RTVSPropertyOp35
 70
     1
102
RTVSPropertyOp36
 70
     1
102
RTVSPropertyOp37
 70
     1
102
RTVSPropertyOp38
 70
     1
102
RTVSPropertyOp39
 70
     1
102
RTVSPropertyOp40
 70
     1
102
RTVSPropertyOp41
 70
     1
102
RTVSPropertyOp42
 70
     1
102
RTVSPropertyOp43
 70
     1
102
RTVSPropertyOp44
 70
     1
102
RTVSPropertyOp45
 70
     1
102
RTVSPropertyOp46
 70
     1
102
RTVSPropertyOp47
 70
     1
102
RTVSPropertyOp48
 70
     1
102
RTVSPropertyOp49
 70
     1
102
RTVSPropertyOp50
 70
     1
102
RTVSPropertyOp51
 70
     0
102
RTVSPropertyOp52
 70
     0
102
RTVSPropertyOp53
 70
     1
102
RTVSPropertyOp54
 70
     1
102
RTVSPropertyOp55
 70
     1
102
RTVSPropertyOp56
 70
     1
102
RTVSPropertyOp57
 70
     1
102
RTVSPropertyOp58
 70
     1
102
RTVSPropertyOp59
 70
     1
102
RTVSPropertyOp60
 70
     1
102
RTVSPropertyOp61
 70
     1
102
RTVSPropertyOp62
 70
     1
  0
XRECORD
  5
1956
102
{ACAD_REACTORS
330
1955
102
}
330
1955
100
AcDbXrecord
280
     1
102
RTVSPost2010Prop28
280
     0
102
RTVSPost2010PropOp28
 70
     1
102
RTVSPost2010Prop29
280
     1
102
RTVSPost2010PropOp29
 70
     1
102
RTVSPost2010Prop30
280
     1
102
RTVSPost2010PropOp30
 70
     1
102
RTVSPost2010Prop31
280
     0
102
RTVSPost2010PropOp31
 70
     1
102
RTVSPost2010Prop32
280
     0
102
RTVSPost2010PropOp32
 70
     1
102
RTVSPost2010Prop33
280
     0
102
RTVSPost2010PropOp33
 70
     1
102
RTVSPost2010Prop34
280
     0
102
RTVSPost2010PropOp34
 70
     1
102
RTVSPost2010Prop35
280
     0
102
RTVSPost2010PropOp35
 70
     1
102
RTVSPost2010Prop36
280
     0
102
RTVSPost2010PropOp36
 70
     1
102
RTVSPost2010Prop37
 90
       50
102
RTVSPost2010PropOp37
 70
     1
102
RTVSPost2010Prop38
140
0.0
102
RTVSPost2010PropOp38
 70
     1
102
RTVSPost2010Prop39
140
1.0
102
RTVSPost2010PropOp39
 70
     1
102
RTVSPost2010Prop40
 90
        0
102
RTVSPost2010PropOp40
 70
     1
102
RTVSPost2010Prop41ColorIndex
 90
       18
102
RTVSPost2010Prop41ColorRGB
 90
        0
102
RTVSPost2010PropOp41
 70
     1
102
RTVSPost2010Prop42
 90
       50
102
RTVSPost2010PropOp42
 70
     1
102
RTVSPost2010Prop43
 90
        3
102
RTVSPost2010PropOp43
 70
     1
102
RTVSPost2010Prop44ColorIndex
 90
        5
102
RTVSPost2010Prop44ColorRGB
 90
      255
102
RTVSPost2010PropOp44
 70
     1
102
RTVSPost2010Prop45
280
     0
102
RTVSPost2010PropOp45
 70
     1
102
RTVSPost2010Prop46
 90
       50
102
RTVSPost2010PropOp46
 70
     1
102
RTVSPost2010Prop47
 90
       50
102
RTVSPost2010PropOp47
 70
     1
102
RTVSPost2010Prop48
 90
       50
102
RTVSPost2010PropOp48
 70
     1
102
RTVSPost2010Prop49
280
     0
102
RTVSPost2010PropOp49
 70
     1
102
RTVSPost2010Prop50
 90
       50
102
RTVSPost2010PropOp50
 70
     1
102
RTVSPost2010Prop51ColorIndex
 90
      256
102
RTVSPost2010Prop51ColorRGB
 90
-16777216
102
RTVSPost2010PropOp51
 70
     0
102
RTVSPost2010Prop52
140
1.0
102
RTVSPost2010PropOp52
 70
     0
102
RTVSPost2010Prop53
 90
        2
102
RTVSPost2010PropOp53
 70
     1
102
RTVSPost2010Prop54
  1
strokes_ogs.tif
102
RTVSPost2010PropOp54
 70
     1
102
RTVSPost2010Prop55
280
     0
102
RTVSPost2010PropOp55
 70
     1
102
RTVSPost2010Prop56
140
1.0
102
RTVSPost2010PropOp56
 70
     1
102
RTVSPost2010Prop57
140
1.0
102
RTVSPost2010PropOp57
 70
     1
102
RTVSPropertyOp0
 70
     1
102
RTVSPropertyOp1
 70
     1
102
RTVSPropertyOp2
 70
     1
102
RTVSPropertyOp3
 70
     1
102
RTVSPropertyOp4
 70
     1
102
RTVSPropertyOp5
 70
     1
102
RTVSPropertyOp6
 70
     1
102
RTVSPropertyOp7
 70
     1
102
RTVSPropertyOp8
 70
     1
102
RTVSPropertyOp9
 70
     1
102
RTVSPropertyOp10
 70
     1
102
RTVSPropertyOp11
 70
     1
102
RTVSPropertyOp12
 70
     1
102
RTVSPropertyOp13
 70
     1
102
RTVSPropertyOp14
 70
     1
102
RTVSPropertyOp15
 70
     1
102
RTVSPropertyOp16
 70
     1
102
RTVSPropertyOp17
 70
     1
102
RTVSPropertyOp18
 70
     1
102
RTVSPropertyOp19
 70
     1
102
RTVSPropertyOp20
 70
     1
102
RTVSPropertyOp21
 70
     1
102
RTVSPropertyOp22
 70
     1
102
RTVSPropertyOp23
 70
     1
102
RTVSPropertyOp24
 70
     1
102
RTVSPropertyOp25
 70
     1
102
RTVSPropertyOp26
 70
     1
102
RTVSPropertyOp27
 70
     1
102
RTVSPropertyOp28
 70
     1
102
RTVSPropertyOp29
 70
     1
102
RTVSPropertyOp30
 70
     1
102
RTVSPropertyOp31
 70
     1
102
RTVSPropertyOp32
 70
     1
102
RTVSPropertyOp33
 70
     1
102
RTVSPropertyOp34
 70
     1
102
RTVSPropertyOp35
 70
     1
102
RTVSPropertyOp36
 70
     1
102
RTVSPropertyOp37
 70
     1
102
RTVSPropertyOp38
 70
     1
102
RTVSPropertyOp39
 70
     1
102
RTVSPropertyOp40
 70
     1
102
RTVSPropertyOp41
 70
     1
102
RTVSPropertyOp42
 70
     1
102
RTVSPropertyOp43
 70
     1
102
RTVSPropertyOp44
 70
     1
102
RTVSPropertyOp45
 70
     1
102
RTVSPropertyOp46
 70
     1
102
RTVSPropertyOp47
 70
     1
102
RTVSPropertyOp48
 70
     1
102
RTVSPropertyOp49
 70
     1
102
RTVSPropertyOp50
 70
     1
102
RTVSPropertyOp51
 70
     0
102
RTVSPropertyOp52
 70
     0
102
RTVSPropertyOp53
 70
     1
102
RTVSPropertyOp54
 70
     1
102
RTVSPropertyOp55
 70
     1
102
RTVSPropertyOp56
 70
     1
102
RTVSPropertyOp57
 70
     1
102
RTVSPropertyOp58
 70
     1
102
RTVSPropertyOp59
 70
     1
102
RTVSPropertyOp60
 70
     1
102
RTVSPropertyOp61
 70
     1
102
RTVSPropertyOp62
 70
     1
  0
XRECORD
  5
1958
102
{ACAD_REACTORS
330
1957
102
}
330
1957
100
AcDbXrecord
280
     1
102
RTVSPost2010Prop28
280
     0
102
RTVSPost2010PropOp28
 70
     1
102
RTVSPost2010Prop29
280
     1
102
RTVSPost2010PropOp29
 70
     1
102
RTVSPost2010Prop30
280
     1
102
RTVSPost2010PropOp30
 70
     1
102
RTVSPost2010Prop31
280
     0
102
RTVSPost2010PropOp31
 70
     1
102
RTVSPost2010Prop32
280
     0
102
RTVSPost2010PropOp32
 70
     1
102
RTVSPost2010Prop33
280
     0
102
RTVSPost2010PropOp33
 70
     1
102
RTVSPost2010Prop34
280
     0
102
RTVSPost2010PropOp34
 70
     1
102
RTVSPost2010Prop35
280
     0
102
RTVSPost2010PropOp35
 70
     1
102
RTVSPost2010Prop36
280
     0
102
RTVSPost2010PropOp36
 70
     1
102
RTVSPost2010Prop37
 90
       50
102
RTVSPost2010PropOp37
 70
     1
102
RTVSPost2010Prop38
140
0.0
102
RTVSPost2010PropOp38
 70
     1
102
RTVSPost2010Prop39
140
1.0
102
RTVSPost2010PropOp39
 70
     1
102
RTVSPost2010Prop40
 90
        0
102
RTVSPost2010PropOp40
 70
     1
102
RTVSPost2010Prop41ColorIndex
 90
       18
102
RTVSPost2010Prop41ColorRGB
 90
        0
102
RTVSPost2010PropOp41
 70
     1
102
RTVSPost2010Prop42
 90
       50
102
RTVSPost2010PropOp42
 70
     1
102
RTVSPost2010Prop43
 90
        3
102
RTVSPost2010PropOp43
 70
     1
102
RTVSPost2010Prop44ColorIndex
 90
        5
102
RTVSPost2010Prop44ColorRGB
 90
      255
102
RTVSPost2010PropOp44
 70
     1
102
RTVSPost2010Prop45
280
     0
102
RTVSPost2010PropOp45
 70
     1
102
RTVSPost2010Prop46
 90
       50
102
RTVSPost2010PropOp46
 70
     1
102
RTVSPost2010Prop47
 90
       50
102
RTVSPost2010PropOp47
 70
     1
102
RTVSPost2010Prop48
 90
       50
102
RTVSPost2010PropOp48
 70
     1
102
RTVSPost2010Prop49
280
     0
102
RTVSPost2010PropOp49
 70
     1
102
RTVSPost2010Prop50
 90
       50
102
RTVSPost2010PropOp50
 70
     1
102
RTVSPost2010Prop51ColorIndex
 90
      256
102
RTVSPost2010Prop51ColorRGB
 90
-16777216
102
RTVSPost2010PropOp51
 70
     0
102
RTVSPost2010Prop52
140
1.0
102
RTVSPost2010PropOp52
 70
     0
102
RTVSPost2010Prop53
 90
        2
102
RTVSPost2010PropOp53
 70
     1
102
RTVSPost2010Prop54
  1
strokes_ogs.tif
102
RTVSPost2010PropOp54
 70
     1
102
RTVSPost2010Prop55
280
     0
102
RTVSPost2010PropOp55
 70
     1
102
RTVSPost2010Prop56
140
1.0
102
RTVSPost2010PropOp56
 70
     1
102
RTVSPost2010Prop57
140
1.0
102
RTVSPost2010PropOp57
 70
     1
102
RTVSPropertyOp0
 70
     1
102
RTVSPropertyOp1
 70
     1
102
RTVSPropertyOp2
 70
     1
102
RTVSPropertyOp3
 70
     1
102
RTVSPropertyOp4
 70
     1
102
RTVSPropertyOp5
 70
     1
102
RTVSPropertyOp6
 70
     1
102
RTVSPropertyOp7
 70
     1
102
RTVSPropertyOp8
 70
     1
102
RTVSPropertyOp9
 70
     1
102
RTVSPropertyOp10
 70
     1
102
RTVSPropertyOp11
 70
     1
102
RTVSPropertyOp12
 70
     1
102
RTVSPropertyOp13
 70
     1
102
RTVSPropertyOp14
 70
     1
102
RTVSPropertyOp15
 70
     1
102
RTVSPropertyOp16
 70
     1
102
RTVSPropertyOp17
 70
     1
102
RTVSPropertyOp18
 70
     1
102
RTVSPropertyOp19
 70
     1
102
RTVSPropertyOp20
 70
     1
102
RTVSPropertyOp21
 70
     1
102
RTVSPropertyOp22
 70
     1
102
RTVSPropertyOp23
 70
     1
102
RTVSPropertyOp24
 70
     1
102
RTVSPropertyOp25
 70
     1
102
RTVSPropertyOp26
 70
     1
102
RTVSPropertyOp27
 70
     1
102
RTVSPropertyOp28
 70
     1
102
RTVSPropertyOp29
 70
     1
102
RTVSPropertyOp30
 70
     1
102
RTVSPropertyOp31
 70
     1
102
RTVSPropertyOp32
 70
     1
102
RTVSPropertyOp33
 70
     1
102
RTVSPropertyOp34
 70
     1
102
RTVSPropertyOp35
 70
     1
102
RTVSPropertyOp36
 70
     1
102
RTVSPropertyOp37
 70
     1
102
RTVSPropertyOp38
 70
     1
102
RTVSPropertyOp39
 70
     1
102
RTVSPropertyOp40
 70
     1
102
RTVSPropertyOp41
 70
     1
102
RTVSPropertyOp42
 70
     1
102
RTVSPropertyOp43
 70
     1
102
RTVSPropertyOp44
 70
     1
102
RTVSPropertyOp45
 70
     1
102
RTVSPropertyOp46
 70
     1
102
RTVSPropertyOp47
 70
     1
102
RTVSPropertyOp48
 70
     1
102
RTVSPropertyOp49
 70
     1
102
RTVSPropertyOp50
 70
     1
102
RTVSPropertyOp51
 70
     0
102
RTVSPropertyOp52
 70
     0
102
RTVSPropertyOp53
 70
     1
102
RTVSPropertyOp54
 70
     1
102
RTVSPropertyOp55
 70
     1
102
RTVSPropertyOp56
 70
     1
102
RTVSPropertyOp57
 70
     1
102
RTVSPropertyOp58
 70
     1
102
RTVSPropertyOp59
 70
     1
102
RTVSPropertyOp60
 70
     1
102
RTVSPropertyOp61
 70
     1
102
RTVSPropertyOp62
 70
     1
  0
XRECORD
  5
1960
102
{ACAD_REACTORS
330
195F
102
}
330
195F
100
AcDbXrecord
280
     1
102
RTVSPost2010Prop28
280
     0
102
RTVSPost2010PropOp28
 70
     1
102
RTVSPost2010Prop29
280
     1
102
RTVSPost2010PropOp29
 70
     1
102
RTVSPost2010Prop30
280
     1
102
RTVSPost2010PropOp30
 70
     1
102
RTVSPost2010Prop31
280
     0
102
RTVSPost2010PropOp31
 70
     1
102
RTVSPost2010Prop32
280
     0
102
RTVSPost2010PropOp32
 70
     1
102
RTVSPost2010Prop33
280
     0
102
RTVSPost2010PropOp33
 70
     1
102
RTVSPost2010Prop34
280
     0
102
RTVSPost2010PropOp34
 70
     1
102
RTVSPost2010Prop35
280
     0
102
RTVSPost2010PropOp35
 70
     1
102
RTVSPost2010Prop36
280
     0
102
RTVSPost2010PropOp36
 70
     1
102
RTVSPost2010Prop37
 90
       50
102
RTVSPost2010PropOp37
 70
     1
102
RTVSPost2010Prop38
140
0.0
102
RTVSPost2010PropOp38
 70
     1
102
RTVSPost2010Prop39
140
1.0
102
RTVSPost2010PropOp39
 70
     1
102
RTVSPost2010Prop40
 90
        0
102
RTVSPost2010PropOp40
 70
     1
102
RTVSPost2010Prop41ColorIndex
 90
       18
102
RTVSPost2010Prop41ColorRGB
 90
        0
102
RTVSPost2010PropOp41
 70
     1
102
RTVSPost2010Prop42
 90
       50
102
RTVSPost2010PropOp42
 70
     1
102
RTVSPost2010Prop43
 90
        3
102
RTVSPost2010PropOp43
 70
     1
102
RTVSPost2010Prop44ColorIndex
 90
        5
102
RTVSPost2010Prop44ColorRGB
 90
      255
102
RTVSPost2010PropOp44
 70
     1
102
RTVSPost2010Prop45
280
     0
102
RTVSPost2010PropOp45
 70
     1
102
RTVSPost2010Prop46
 90
       50
102
RTVSPost2010PropOp46
 70
     1
102
RTVSPost2010Prop47
 90
       50
102
RTVSPost2010PropOp47
 70
     1
102
RTVSPost2010Prop48
 90
       50
102
RTVSPost2010PropOp48
 70
     1
102
RTVSPost2010Prop49
280
     0
102
RTVSPost2010PropOp49
 70
     1
102
RTVSPost2010Prop50
 90
       50
102
RTVSPost2010PropOp50
 70
     1
102
RTVSPost2010Prop51ColorIndex
 90
      256
102
RTVSPost2010Prop51ColorRGB
 90
-16777216
102
RTVSPost2010PropOp51
 70
     0
102
RTVSPost2010Prop52
140
1.0
102
RTVSPost2010PropOp52
 70
     0
102
RTVSPost2010Prop53
 90
        2
102
RTVSPost2010PropOp53
 70
     1
102
RTVSPost2010Prop54
  1
strokes_ogs.tif
102
RTVSPost2010PropOp54
 70
     1
102
RTVSPost2010Prop55
280
     0
102
RTVSPost2010PropOp55
 70
     1
102
RTVSPost2010Prop56
140
1.0
102
RTVSPost2010PropOp56
 70
     1
102
RTVSPost2010Prop57
140
1.0
102
RTVSPost2010PropOp57
 70
     1
102
RTVSPropertyOp0
 70
     1
102
RTVSPropertyOp1
 70
     1
102
RTVSPropertyOp2
 70
     1
102
RTVSPropertyOp3
 70
     1
102
RTVSPropertyOp4
 70
     1
102
RTVSPropertyOp5
 70
     1
102
RTVSPropertyOp6
 70
     1
102
RTVSPropertyOp7
 70
     1
102
RTVSPropertyOp8
 70
     1
102
RTVSPropertyOp9
 70
     1
102
RTVSPropertyOp10
 70
     1
102
RTVSPropertyOp11
 70
     1
102
RTVSPropertyOp12
 70
     1
102
RTVSPropertyOp13
 70
     1
102
RTVSPropertyOp14
 70
     1
102
RTVSPropertyOp15
 70
     1
102
RTVSPropertyOp16
 70
     1
102
RTVSPropertyOp17
 70
     1
102
RTVSPropertyOp18
 70
     1
102
RTVSPropertyOp19
 70
     1
102
RTVSPropertyOp20
 70
     1
102
RTVSPropertyOp21
 70
     1
102
RTVSPropertyOp22
 70
     1
102
RTVSPropertyOp23
 70
     1
102
RTVSPropertyOp24
 70
     1
102
RTVSPropertyOp25
 70
     1
102
RTVSPropertyOp26
 70
     1
102
RTVSPropertyOp27
 70
     1
102
RTVSPropertyOp28
 70
     1
102
RTVSPropertyOp29
 70
     1
102
RTVSPropertyOp30
 70
     1
102
RTVSPropertyOp31
 70
     1
102
RTVSPropertyOp32
 70
     1
102
RTVSPropertyOp33
 70
     1
102
RTVSPropertyOp34
 70
     1
102
RTVSPropertyOp35
 70
     1
102
RTVSPropertyOp36
 70
     1
102
RTVSPropertyOp37
 70
     1
102
RTVSPropertyOp38
 70
     1
102
RTVSPropertyOp39
 70
     1
102
RTVSPropertyOp40
 70
     1
102
RTVSPropertyOp41
 70
     1
102
RTVSPropertyOp42
 70
     1
102
RTVSPropertyOp43
 70
     1
102
RTVSPropertyOp44
 70
     1
102
RTVSPropertyOp45
 70
     1
102
RTVSPropertyOp46
 70
     1
102
RTVSPropertyOp47
 70
     1
102
RTVSPropertyOp48
 70
     1
102
RTVSPropertyOp49
 70
     1
102
RTVSPropertyOp50
 70
     1
102
RTVSPropertyOp51
 70
     0
102
RTVSPropertyOp52
 70
     0
102
RTVSPropertyOp53
 70
     1
102
RTVSPropertyOp54
 70
     1
102
RTVSPropertyOp55
 70
     1
102
RTVSPropertyOp56
 70
     1
102
RTVSPropertyOp57
 70
     1
102
RTVSPropertyOp58
 70
     1
102
RTVSPropertyOp59
 70
     1
102
RTVSPropertyOp60
 70
     1
102
RTVSPropertyOp61
 70
     1
102
RTVSPropertyOp62
 70
     1
  0
XRECORD
  5
1972
102
{ACAD_REACTORS
330
1971
102
}
330
1971
100
AcDbXrecord
280
     1
102
RTVSPost2010Prop28
280
     0
102
RTVSPost2010PropOp28
 70
     1
102
RTVSPost2010Prop29
280
     1
102
RTVSPost2010PropOp29
 70
     1
102
RTVSPost2010Prop30
280
     1
102
RTVSPost2010PropOp30
 70
     1
102
RTVSPost2010Prop31
280
     0
102
RTVSPost2010PropOp31
 70
     1
102
RTVSPost2010Prop32
280
     0
102
RTVSPost2010PropOp32
 70
     1
102
RTVSPost2010Prop33
280
     0
102
RTVSPost2010PropOp33
 70
     1
102
RTVSPost2010Prop34
280
     0
102
RTVSPost2010PropOp34
 70
     1
102
RTVSPost2010Prop35
280
     0
102
RTVSPost2010PropOp35
 70
     1
102
RTVSPost2010Prop36
280
     0
102
RTVSPost2010PropOp36
 70
     1
102
RTVSPost2010Prop37
 90
       50
102
RTVSPost2010PropOp37
 70
     1
102
RTVSPost2010Prop38
140
0.0
102
RTVSPost2010PropOp38
 70
     1
102
RTVSPost2010Prop39
140
1.0
102
RTVSPost2010PropOp39
 70
     1
102
RTVSPost2010Prop40
 90
        0
102
RTVSPost2010PropOp40
 70
     1
102
RTVSPost2010Prop41ColorIndex
 90
       18
102
RTVSPost2010Prop41ColorRGB
 90
        0
102
RTVSPost2010PropOp41
 70
     1
102
RTVSPost2010Prop42
 90
       50
102
RTVSPost2010PropOp42
 70
     1
102
RTVSPost2010Prop43
 90
        3
102
RTVSPost2010PropOp43
 70
     1
102
RTVSPost2010Prop44ColorIndex
 90
        5
102
RTVSPost2010Prop44ColorRGB
 90
      255
102
RTVSPost2010PropOp44
 70
     1
102
RTVSPost2010Prop45
280
     0
102
RTVSPost2010PropOp45
 70
     1
102
RTVSPost2010Prop46
 90
       50
102
RTVSPost2010PropOp46
 70
     1
102
RTVSPost2010Prop47
 90
       50
102
RTVSPost2010PropOp47
 70
     1
102
RTVSPost2010Prop48
 90
       50
102
RTVSPost2010PropOp48
 70
     1
102
RTVSPost2010Prop49
280
     0
102
RTVSPost2010PropOp49
 70
     1
102
RTVSPost2010Prop50
 90
       50
102
RTVSPost2010PropOp50
 70
     1
102
RTVSPost2010Prop51ColorIndex
 90
      256
102
RTVSPost2010Prop51ColorRGB
 90
-16777216
102
RTVSPost2010PropOp51
 70
     0
102
RTVSPost2010Prop52
140
1.0
102
RTVSPost2010PropOp52
 70
     0
102
RTVSPost2010Prop53
 90
        2
102
RTVSPost2010PropOp53
 70
     1
102
RTVSPost2010Prop54
  1
strokes_ogs.tif
102
RTVSPost2010PropOp54
 70
     1
102
RTVSPost2010Prop55
280
     0
102
RTVSPost2010PropOp55
 70
     1
102
RTVSPost2010Prop56
140
1.0
102
RTVSPost2010PropOp56
 70
     1
102
RTVSPost2010Prop57
140
1.0
102
RTVSPost2010PropOp57
 70
     1
102
RTVSPropertyOp0
 70
     0
102
RTVSPropertyOp1
 70
     0
102
RTVSPropertyOp2
 70
     0
102
RTVSPropertyOp3
 70
     0
102
RTVSPropertyOp4
 70
     0
102
RTVSPropertyOp5
 70
     0
102
RTVSPropertyOp6
 70
     0
102
RTVSPropertyOp7
 70
     0
102
RTVSPropertyOp8
 70
     0
102
RTVSPropertyOp9
 70
     0
102
RTVSPropertyOp10
 70
     0
102
RTVSPropertyOp11
 70
     0
102
RTVSPropertyOp12
 70
     0
102
RTVSPropertyOp13
 70
     0
102
RTVSPropertyOp14
 70
     2
102
RTVSPropertyOp15
 70
     0
102
RTVSPropertyOp16
 70
     0
102
RTVSPropertyOp17
 70
     0
102
RTVSPropertyOp18
 70
     0
102
RTVSPropertyOp19
 70
     0
102
RTVSPropertyOp20
 70
     0
102
RTVSPropertyOp21
 70
     0
102
RTVSPropertyOp22
 70
     0
102
RTVSPropertyOp23
 70
     0
102
RTVSPropertyOp24
 70
     0
102
RTVSPropertyOp25
 70
     0
102
RTVSPropertyOp26
 70
     0
102
RTVSPropertyOp27
 70
     0
102
RTVSPropertyOp28
 70
     1
102
RTVSPropertyOp29
 70
     1
102
RTVSPropertyOp30
 70
     1
102
RTVSPropertyOp31
 70
     1
102
RTVSPropertyOp32
 70
     1
102
RTVSPropertyOp33
 70
     1
102
RTVSPropertyOp34
 70
     1
102
RTVSPropertyOp35
 70
     1
102
RTVSPropertyOp36
 70
     1
102
RTVSPropertyOp37
 70
     1
102
RTVSPropertyOp38
 70
     1
102
RTVSPropertyOp39
 70
     1
102
RTVSPropertyOp40
 70
     1
102
RTVSPropertyOp41
 70
     1
102
RTVSPropertyOp42
 70
     1
102
RTVSPropertyOp43
 70
     1
102
RTVSPropertyOp44
 70
     1
102
RTVSPropertyOp45
 70
     1
102
RTVSPropertyOp46
 70
     1
102
RTVSPropertyOp47
 70
     1
102
RTVSPropertyOp48
 70
     1
102
RTVSPropertyOp49
 70
     1
102
RTVSPropertyOp50
 70
     1
102
RTVSPropertyOp51
 70
     0
102
RTVSPropertyOp52
 70
     0
102
RTVSPropertyOp53
 70
     1
102
RTVSPropertyOp54
 70
     1
102
RTVSPropertyOp55
 70
     1
102
RTVSPropertyOp56
 70
     1
102
RTVSPropertyOp57
 70
     1
102
RTVSPropertyOp58
 70
     1
102
RTVSPropertyOp59
 70
     1
102
RTVSPropertyOp60
 70
     1
102
RTVSPropertyOp61
 70
     1
102
RTVSPropertyOp62
 70
     1
  0
XRECORD
  5
196C
102
{ACAD_REACTORS
330
196B
102
}
330
196B
100
AcDbXrecord
280
     1
102
RTVSPost2010Prop28
280
     0
102
RTVSPost2010PropOp28
 70
     1
102
RTVSPost2010Prop29
280
     1
102
RTVSPost2010PropOp29
 70
     1
102
RTVSPost2010Prop30
280
     1
102
RTVSPost2010PropOp30
 70
     1
102
RTVSPost2010Prop31
280
     0
102
RTVSPost2010PropOp31
 70
     1
102
RTVSPost2010Prop32
280
     0
102
RTVSPost2010PropOp32
 70
     1
102
RTVSPost2010Prop33
280
     0
102
RTVSPost2010PropOp33
 70
     1
102
RTVSPost2010Prop34
280
     0
102
RTVSPost2010PropOp34
 70
     1
102
RTVSPost2010Prop35
280
     0
102
RTVSPost2010PropOp35
 70
     1
102
RTVSPost2010Prop36
280
     0
102
RTVSPost2010PropOp36
 70
     1
102
RTVSPost2010Prop37
 90
       50
102
RTVSPost2010PropOp37
 70
     1
102
RTVSPost2010Prop38
140
0.0
102
RTVSPost2010PropOp38
 70
     1
102
RTVSPost2010Prop39
140
1.0
102
RTVSPost2010PropOp39
 70
     1
102
RTVSPost2010Prop40
 90
        0
102
RTVSPost2010PropOp40
 70
     1
102
RTVSPost2010Prop41ColorIndex
 90
       18
102
RTVSPost2010Prop41ColorRGB
 90
        0
102
RTVSPost2010PropOp41
 70
     1
102
RTVSPost2010Prop42
 90
       50
102
RTVSPost2010PropOp42
 70
     1
102
RTVSPost2010Prop43
 90
        3
102
RTVSPost2010PropOp43
 70
     1
102
RTVSPost2010Prop44ColorIndex
 90
        5
102
RTVSPost2010Prop44ColorRGB
 90
      255
102
RTVSPost2010PropOp44
 70
     1
102
RTVSPost2010Prop45
280
     0
102
RTVSPost2010PropOp45
 70
     1
102
RTVSPost2010Prop46
 90
       50
102
RTVSPost2010PropOp46
 70
     1
102
RTVSPost2010Prop47
 90
       50
102
RTVSPost2010PropOp47
 70
     1
102
RTVSPost2010Prop48
 90
       50
102
RTVSPost2010PropOp48
 70
     1
102
RTVSPost2010Prop49
280
     0
102
RTVSPost2010PropOp49
 70
     1
102
RTVSPost2010Prop50
 90
       50
102
RTVSPost2010PropOp50
 70
     1
102
RTVSPost2010Prop51ColorIndex
 90
      256
102
RTVSPost2010Prop51ColorRGB
 90
-16777216
102
RTVSPost2010PropOp51
 70
     0
102
RTVSPost2010Prop52
140
1.0
102
RTVSPost2010PropOp52
 70
     0
102
RTVSPost2010Prop53
 90
        2
102
RTVSPost2010PropOp53
 70
     1
102
RTVSPost2010Prop54
  1
strokes_ogs.tif
102
RTVSPost2010PropOp54
 70
     1
102
RTVSPost2010Prop55
280
     0
102
RTVSPost2010PropOp55
 70
     1
102
RTVSPost2010Prop56
140
1.0
102
RTVSPost2010PropOp56
 70
     1
102
RTVSPost2010Prop57
140
1.0
102
RTVSPost2010PropOp57
 70
     1
102
RTVSPropertyOp0
 70
     1
102
RTVSPropertyOp1
 70
     1
102
RTVSPropertyOp2
 70
     1
102
RTVSPropertyOp3
 70
     1
102
RTVSPropertyOp4
 70
     1
102
RTVSPropertyOp5
 70
     1
102
RTVSPropertyOp6
 70
     1
102
RTVSPropertyOp7
 70
     1
102
RTVSPropertyOp8
 70
     1
102
RTVSPropertyOp9
 70
     1
102
RTVSPropertyOp10
 70
     1
102
RTVSPropertyOp11
 70
     1
102
RTVSPropertyOp12
 70
     1
102
RTVSPropertyOp13
 70
     1
102
RTVSPropertyOp14
 70
     1
102
RTVSPropertyOp15
 70
     1
102
RTVSPropertyOp16
 70
     1
102
RTVSPropertyOp17
 70
     1
102
RTVSPropertyOp18
 70
     1
102
RTVSPropertyOp19
 70
     1
102
RTVSPropertyOp20
 70
     1
102
RTVSPropertyOp21
 70
     1
102
RTVSPropertyOp22
 70
     1
102
RTVSPropertyOp23
 70
     1
102
RTVSPropertyOp24
 70
     1
102
RTVSPropertyOp25
 70
     1
102
RTVSPropertyOp26
 70
     1
102
RTVSPropertyOp27
 70
     1
102
RTVSPropertyOp28
 70
     1
102
RTVSPropertyOp29
 70
     1
102
RTVSPropertyOp30
 70
     1
102
RTVSPropertyOp31
 70
     1
102
RTVSPropertyOp32
 70
     1
102
RTVSPropertyOp33
 70
     1
102
RTVSPropertyOp34
 70
     1
102
RTVSPropertyOp35
 70
     1
102
RTVSPropertyOp36
 70
     1
102
RTVSPropertyOp37
 70
     1
102
RTVSPropertyOp38
 70
     1
102
RTVSPropertyOp39
 70
     1
102
RTVSPropertyOp40
 70
     1
102
RTVSPropertyOp41
 70
     1
102
RTVSPropertyOp42
 70
     1
102
RTVSPropertyOp43
 70
     1
102
RTVSPropertyOp44
 70
     1
102
RTVSPropertyOp45
 70
     1
102
RTVSPropertyOp46
 70
     1
102
RTVSPropertyOp47
 70
     1
102
RTVSPropertyOp48
 70
     1
102
RTVSPropertyOp49
 70
     1
102
RTVSPropertyOp50
 70
     1
102
RTVSPropertyOp51
 70
     0
102
RTVSPropertyOp52
 70
     0
102
RTVSPropertyOp53
 70
     1
102
RTVSPropertyOp54
 70
     1
102
RTVSPropertyOp55
 70
     1
102
RTVSPropertyOp56
 70
     1
102
RTVSPropertyOp57
 70
     1
102
RTVSPropertyOp58
 70
     1
102
RTVSPropertyOp59
 70
     1
102
RTVSPropertyOp60
 70
     1
102
RTVSPropertyOp61
 70
     1
102
RTVSPropertyOp62
 70
     1
  0
XRECORD
  5
1974
102
{ACAD_REACTORS
330
1973
102
}
330
1973
100
AcDbXrecord
280
     1
102
RTVSPost2010Prop28
280
     0
102
RTVSPost2010PropOp28
 70
     1
102
RTVSPost2010Prop29
280
     1
102
RTVSPost2010PropOp29
 70
     1
102
RTVSPost2010Prop30
280
     1
102
RTVSPost2010PropOp30
 70
     1
102
RTVSPost2010Prop31
280
     0
102
RTVSPost2010PropOp31
 70
     1
102
RTVSPost2010Prop32
280
     0
102
RTVSPost2010PropOp32
 70
     1
102
RTVSPost2010Prop33
280
     0
102
RTVSPost2010PropOp33
 70
     1
102
RTVSPost2010Prop34
280
     0
102
RTVSPost2010PropOp34
 70
     1
102
RTVSPost2010Prop35
280
     0
102
RTVSPost2010PropOp35
 70
     1
102
RTVSPost2010Prop36
280
     0
102
RTVSPost2010PropOp36
 70
     1
102
RTVSPost2010Prop37
 90
       50
102
RTVSPost2010PropOp37
 70
     1
102
RTVSPost2010Prop38
140
0.0
102
RTVSPost2010PropOp38
 70
     1
102
RTVSPost2010Prop39
140
1.0
102
RTVSPost2010PropOp39
 70
     1
102
RTVSPost2010Prop40
 90
        0
102
RTVSPost2010PropOp40
 70
     1
102
RTVSPost2010Prop41ColorIndex
 90
       18
102
RTVSPost2010Prop41ColorRGB
 90
        0
102
RTVSPost2010PropOp41
 70
     1
102
RTVSPost2010Prop42
 90
       50
102
RTVSPost2010PropOp42
 70
     1
102
RTVSPost2010Prop43
 90
        3
102
RTVSPost2010PropOp43
 70
     1
102
RTVSPost2010Prop44ColorIndex
 90
        5
102
RTVSPost2010Prop44ColorRGB
 90
      255
102
RTVSPost2010PropOp44
 70
     1
102
RTVSPost2010Prop45
280
     0
102
RTVSPost2010PropOp45
 70
     1
102
RTVSPost2010Prop46
 90
       50
102
RTVSPost2010PropOp46
 70
     1
102
RTVSPost2010Prop47
 90
       50
102
RTVSPost2010PropOp47
 70
     1
102
RTVSPost2010Prop48
 90
       50
102
RTVSPost2010PropOp48
 70
     1
102
RTVSPost2010Prop49
280
     0
102
RTVSPost2010PropOp49
 70
     1
102
RTVSPost2010Prop50
 90
       50
102
RTVSPost2010PropOp50
 70
     1
102
RTVSPost2010Prop51ColorIndex
 90
      256
102
RTVSPost2010Prop51ColorRGB
 90
-16777216
102
RTVSPost2010PropOp51
 70
     0
102
RTVSPost2010Prop52
140
1.0
102
RTVSPost2010PropOp52
 70
     0
102
RTVSPost2010Prop53
 90
        2
102
RTVSPost2010PropOp53
 70
     1
102
RTVSPost2010Prop54
  1
strokes_ogs.tif
102
RTVSPost2010PropOp54
 70
     1
102
RTVSPost2010Prop55
280
     0
102
RTVSPost2010PropOp55
 70
     1
102
RTVSPost2010Prop56
140
1.0
102
RTVSPost2010PropOp56
 70
     1
102
RTVSPost2010Prop57
140
1.0
102
RTVSPost2010PropOp57
 70
     1
102
RTVSPropertyOp0
 70
     0
102
RTVSPropertyOp1
 70
     0
102
RTVSPropertyOp2
 70
     0
102
RTVSPropertyOp3
 70
     0
102
RTVSPropertyOp4
 70
     0
102
RTVSPropertyOp5
 70
     0
102
RTVSPropertyOp6
 70
     0
102
RTVSPropertyOp7
 70
     0
102
RTVSPropertyOp8
 70
     0
102
RTVSPropertyOp9
 70
     0
102
RTVSPropertyOp10
 70
     0
102
RTVSPropertyOp11
 70
     0
102
RTVSPropertyOp12
 70
     0
102
RTVSPropertyOp13
 70
     0
102
RTVSPropertyOp14
 70
     2
102
RTVSPropertyOp15
 70
     0
102
RTVSPropertyOp16
 70
     0
102
RTVSPropertyOp17
 70
     0
102
RTVSPropertyOp18
 70
     0
102
RTVSPropertyOp19
 70
     0
102
RTVSPropertyOp20
 70
     0
102
RTVSPropertyOp21
 70
     0
102
RTVSPropertyOp22
 70
     0
102
RTVSPropertyOp23
 70
     0
102
RTVSPropertyOp24
 70
     0
102
RTVSPropertyOp25
 70
     0
102
RTVSPropertyOp26
 70
     0
102
RTVSPropertyOp27
 70
     0
102
RTVSPropertyOp28
 70
     1
102
RTVSPropertyOp29
 70
     1
102
RTVSPropertyOp30
 70
     1
102
RTVSPropertyOp31
 70
     1
102
RTVSPropertyOp32
 70
     1
102
RTVSPropertyOp33
 70
     1
102
RTVSPropertyOp34
 70
     1
102
RTVSPropertyOp35
 70
     1
102
RTVSPropertyOp36
 70
     1
102
RTVSPropertyOp37
 70
     1
102
RTVSPropertyOp38
 70
     1
102
RTVSPropertyOp39
 70
     1
102
RTVSPropertyOp40
 70
     1
102
RTVSPropertyOp41
 70
     1
102
RTVSPropertyOp42
 70
     1
102
RTVSPropertyOp43
 70
     1
102
RTVSPropertyOp44
 70
     1
102
RTVSPropertyOp45
 70
     1
102
RTVSPropertyOp46
 70
     1
102
RTVSPropertyOp47
 70
     1
102
RTVSPropertyOp48
 70
     1
102
RTVSPropertyOp49
 70
     1
102
RTVSPropertyOp50
 70
     1
102
RTVSPropertyOp51
 70
     0
102
RTVSPropertyOp52
 70
     0
102
RTVSPropertyOp53
 70
     1
102
RTVSPropertyOp54
 70
     1
102
RTVSPropertyOp55
 70
     1
102
RTVSPropertyOp56
 70
     1
102
RTVSPropertyOp57
 70
     1
102
RTVSPropertyOp58
 70
     1
102
RTVSPropertyOp59
 70
     1
102
RTVSPropertyOp60
 70
     1
102
RTVSPropertyOp61
 70
     1
102
RTVSPropertyOp62
 70
     1
  0
XRECORD
  5
1964
102
{ACAD_REACTORS
330
1963
102
}
330
1963
100
AcDbXrecord
280
     1
102
RTVSPost2010Prop28
280
     0
102
RTVSPost2010PropOp28
 70
     1
102
RTVSPost2010Prop29
280
     1
102
RTVSPost2010PropOp29
 70
     1
102
RTVSPost2010Prop30
280
     1
102
RTVSPost2010PropOp30
 70
     1
102
RTVSPost2010Prop31
280
     0
102
RTVSPost2010PropOp31
 70
     1
102
RTVSPost2010Prop32
280
     0
102
RTVSPost2010PropOp32
 70
     1
102
RTVSPost2010Prop33
280
     0
102
RTVSPost2010PropOp33
 70
     1
102
RTVSPost2010Prop34
280
     0
102
RTVSPost2010PropOp34
 70
     1
102
RTVSPost2010Prop35
280
     0
102
RTVSPost2010PropOp35
 70
     1
102
RTVSPost2010Prop36
280
     0
102
RTVSPost2010PropOp36
 70
     1
102
RTVSPost2010Prop37
 90
       50
102
RTVSPost2010PropOp37
 70
     1
102
RTVSPost2010Prop38
140
0.0
102
RTVSPost2010PropOp38
 70
     1
102
RTVSPost2010Prop39
140
1.0
102
RTVSPost2010PropOp39
 70
     1
102
RTVSPost2010Prop40
 90
        0
102
RTVSPost2010PropOp40
 70
     1
102
RTVSPost2010Prop41ColorIndex
 90
       18
102
RTVSPost2010Prop41ColorRGB
 90
        0
102
RTVSPost2010PropOp41
 70
     1
102
RTVSPost2010Prop42
 90
       50
102
RTVSPost2010PropOp42
 70
     1
102
RTVSPost2010Prop43
 90
        3
102
RTVSPost2010PropOp43
 70
     1
102
RTVSPost2010Prop44ColorIndex
 90
        5
102
RTVSPost2010Prop44ColorRGB
 90
      255
102
RTVSPost2010PropOp44
 70
     1
102
RTVSPost2010Prop45
280
     0
102
RTVSPost2010PropOp45
 70
     1
102
RTVSPost2010Prop46
 90
       50
102
RTVSPost2010PropOp46
 70
     1
102
RTVSPost2010Prop47
 90
       50
102
RTVSPost2010PropOp47
 70
     1
102
RTVSPost2010Prop48
 90
       50
102
RTVSPost2010PropOp48
 70
     1
102
RTVSPost2010Prop49
280
     0
102
RTVSPost2010PropOp49
 70
     1
102
RTVSPost2010Prop50
 90
       50
102
RTVSPost2010PropOp50
 70
     1
102
RTVSPost2010Prop51ColorIndex
 90
      256
102
RTVSPost2010Prop51ColorRGB
 90
-16777216
102
RTVSPost2010PropOp51
 70
     0
102
RTVSPost2010Prop52
140
1.0
102
RTVSPost2010PropOp52
 70
     0
102
RTVSPost2010Prop53
 90
        2
102
RTVSPost2010PropOp53
 70
     1
102
RTVSPost2010Prop54
  1
strokes_ogs.tif
102
RTVSPost2010PropOp54
 70
     1
102
RTVSPost2010Prop55
280
     0
102
RTVSPost2010PropOp55
 70
     1
102
RTVSPost2010Prop56
140
1.0
102
RTVSPost2010PropOp56
 70
     1
102
RTVSPost2010Prop57
140
1.0
102
RTVSPost2010PropOp57
 70
     1
102
RTVSPropertyOp0
 70
     1
102
RTVSPropertyOp1
 70
     1
102
RTVSPropertyOp2
 70
     1
102
RTVSPropertyOp3
 70
     1
102
RTVSPropertyOp4
 70
     1
102
RTVSPropertyOp5
 70
     1
102
RTVSPropertyOp6
 70
     1
102
RTVSPropertyOp7
 70
     1
102
RTVSPropertyOp8
 70
     1
102
RTVSPropertyOp9
 70
     1
102
RTVSPropertyOp10
 70
     1
102
RTVSPropertyOp11
 70
     1
102
RTVSPropertyOp12
 70
     1
102
RTVSPropertyOp13
 70
     1
102
RTVSPropertyOp14
 70
     1
102
RTVSPropertyOp15
 70
     1
102
RTVSPropertyOp16
 70
     1
102
RTVSPropertyOp17
 70
     1
102
RTVSPropertyOp18
 70
     1
102
RTVSPropertyOp19
 70
     1
102
RTVSPropertyOp20
 70
     1
102
RTVSPropertyOp21
 70
     1
102
RTVSPropertyOp22
 70
     1
102
RTVSPropertyOp23
 70
     1
102
RTVSPropertyOp24
 70
     1
102
RTVSPropertyOp25
 70
     1
102
RTVSPropertyOp26
 70
     1
102
RTVSPropertyOp27
 70
     1
102
RTVSPropertyOp28
 70
     1
102
RTVSPropertyOp29
 70
     1
102
RTVSPropertyOp30
 70
     1
102
RTVSPropertyOp31
 70
     1
102
RTVSPropertyOp32
 70
     1
102
RTVSPropertyOp33
 70
     1
102
RTVSPropertyOp34
 70
     1
102
RTVSPropertyOp35
 70
     1
102
RTVSPropertyOp36
 70
     1
102
RTVSPropertyOp37
 70
     1
102
RTVSPropertyOp38
 70
     1
102
RTVSPropertyOp39
 70
     1
102
RTVSPropertyOp40
 70
     1
102
RTVSPropertyOp41
 70
     1
102
RTVSPropertyOp42
 70
     1
102
RTVSPropertyOp43
 70
     1
102
RTVSPropertyOp44
 70
     1
102
RTVSPropertyOp45
 70
     1
102
RTVSPropertyOp46
 70
     1
102
RTVSPropertyOp47
 70
     1
102
RTVSPropertyOp48
 70
     1
102
RTVSPropertyOp49
 70
     1
102
RTVSPropertyOp50
 70
     1
102
RTVSPropertyOp51
 70
     0
102
RTVSPropertyOp52
 70
     0
102
RTVSPropertyOp53
 70
     1
102
RTVSPropertyOp54
 70
     1
102
RTVSPropertyOp55
 70
     1
102
RTVSPropertyOp56
 70
     1
102
RTVSPropertyOp57
 70
     1
102
RTVSPropertyOp58
 70
     1
102
RTVSPropertyOp59
 70
     1
102
RTVSPropertyOp60
 70
     1
102
RTVSPropertyOp61
 70
     1
102
RTVSPropertyOp62
 70
     1
  0
XRECORD
  5
1980
102
{ACAD_REACTORS
330
197F
102
}
330
197F
100
AcDbXrecord
280
     1
102
RTVSPost2010Prop28
280
     0
102
RTVSPost2010PropOp28
 70
     1
102
RTVSPost2010Prop29
280
     1
102
RTVSPost2010PropOp29
 70
     1
102
RTVSPost2010Prop30
280
     1
102
RTVSPost2010PropOp30
 70
     1
102
RTVSPost2010Prop31
280
     0
102
RTVSPost2010PropOp31
 70
     1
102
RTVSPost2010Prop32
280
     0
102
RTVSPost2010PropOp32
 70
     1
102
RTVSPost2010Prop33
280
     0
102
RTVSPost2010PropOp33
 70
     1
102
RTVSPost2010Prop34
280
     0
102
RTVSPost2010PropOp34
 70
     1
102
RTVSPost2010Prop35
280
     0
102
RTVSPost2010PropOp35
 70
     1
102
RTVSPost2010Prop36
280
     0
102
RTVSPost2010PropOp36
 70
     1
102
RTVSPost2010Prop37
 90
       50
102
RTVSPost2010PropOp37
 70
     1
102
RTVSPost2010Prop38
140
0.0
102
RTVSPost2010PropOp38
 70
     1
102
RTVSPost2010Prop39
140
1.0
102
RTVSPost2010PropOp39
 70
     1
102
RTVSPost2010Prop40
 90
        0
102
RTVSPost2010PropOp40
 70
     1
102
RTVSPost2010Prop41ColorIndex
 90
       18
102
RTVSPost2010Prop41ColorRGB
 90
        0
102
RTVSPost2010PropOp41
 70
     1
102
RTVSPost2010Prop42
 90
       50
102
RTVSPost2010PropOp42
 70
     1
102
RTVSPost2010Prop43
 90
        3
102
RTVSPost2010PropOp43
 70
     1
102
RTVSPost2010Prop44ColorIndex
 90
        5
102
RTVSPost2010Prop44ColorRGB
 90
      255
102
RTVSPost2010PropOp44
 70
     1
102
RTVSPost2010Prop45
280
     0
102
RTVSPost2010PropOp45
 70
     1
102
RTVSPost2010Prop46
 90
       50
102
RTVSPost2010PropOp46
 70
     1
102
RTVSPost2010Prop47
 90
       50
102
RTVSPost2010PropOp47
 70
     1
102
RTVSPost2010Prop48
 90
       50
102
RTVSPost2010PropOp48
 70
     1
102
RTVSPost2010Prop49
280
     0
102
RTVSPost2010PropOp49
 70
     1
102
RTVSPost2010Prop50
 90
       50
102
RTVSPost2010PropOp50
 70
     1
102
RTVSPost2010Prop51ColorIndex
 90
      256
102
RTVSPost2010Prop51ColorRGB
 90
-16777216
102
RTVSPost2010PropOp51
 70
     0
102
RTVSPost2010Prop52
140
1.0
102
RTVSPost2010PropOp52
 70
     0
102
RTVSPost2010Prop53
 90
        2
102
RTVSPost2010PropOp53
 70
     1
102
RTVSPost2010Prop54
  1
strokes_ogs.tif
102
RTVSPost2010PropOp54
 70
     1
102
RTVSPost2010Prop55
280
     0
102
RTVSPost2010PropOp55
 70
     1
102
RTVSPost2010Prop56
140
1.0
102
RTVSPost2010PropOp56
 70
     1
102
RTVSPost2010Prop57
140
1.0
102
RTVSPost2010PropOp57
 70
     1
102
RTVSPropertyOp0
 70
     1
102
RTVSPropertyOp1
 70
     1
102
RTVSPropertyOp2
 70
     1
102
RTVSPropertyOp3
 70
     1
102
RTVSPropertyOp4
 70
     1
102
RTVSPropertyOp5
 70
     1
102
RTVSPropertyOp6
 70
     1
102
RTVSPropertyOp7
 70
     1
102
RTVSPropertyOp8
 70
     1
102
RTVSPropertyOp9
 70
     1
102
RTVSPropertyOp10
 70
     1
102
RTVSPropertyOp11
 70
     1
102
RTVSPropertyOp12
 70
     1
102
RTVSPropertyOp13
 70
     1
102
RTVSPropertyOp14
 70
     1
102
RTVSPropertyOp15
 70
     1
102
RTVSPropertyOp16
 70
     1
102
RTVSPropertyOp17
 70
     1
102
RTVSPropertyOp18
 70
     1
102
RTVSPropertyOp19
 70
     1
102
RTVSPropertyOp20
 70
     1
102
RTVSPropertyOp21
 70
     1
102
RTVSPropertyOp22
 70
     1
102
RTVSPropertyOp23
 70
     1
102
RTVSPropertyOp24
 70
     1
102
RTVSPropertyOp25
 70
     1
102
RTVSPropertyOp26
 70
     1
102
RTVSPropertyOp27
 70
     1
102
RTVSPropertyOp28
 70
     1
102
RTVSPropertyOp29
 70
     1
102
RTVSPropertyOp30
 70
     1
102
RTVSPropertyOp31
 70
     1
102
RTVSPropertyOp32
 70
     1
102
RTVSPropertyOp33
 70
     1
102
RTVSPropertyOp34
 70
     1
102
RTVSPropertyOp35
 70
     1
102
RTVSPropertyOp36
 70
     1
102
RTVSPropertyOp37
 70
     1
102
RTVSPropertyOp38
 70
     1
102
RTVSPropertyOp39
 70
     1
102
RTVSPropertyOp40
 70
     1
102
RTVSPropertyOp41
 70
     1
102
RTVSPropertyOp42
 70
     1
102
RTVSPropertyOp43
 70
     1
102
RTVSPropertyOp44
 70
     1
102
RTVSPropertyOp45
 70
     1
102
RTVSPropertyOp46
 70
     1
102
RTVSPropertyOp47
 70
     1
102
RTVSPropertyOp48
 70
     1
102
RTVSPropertyOp49
 70
     1
102
RTVSPropertyOp50
 70
     1
102
RTVSPropertyOp51
 70
     0
102
RTVSPropertyOp52
 70
     0
102
RTVSPropertyOp53
 70
     1
102
RTVSPropertyOp54
 70
     1
102
RTVSPropertyOp55
 70
     1
102
RTVSPropertyOp56
 70
     1
102
RTVSPropertyOp57
 70
     1
102
RTVSPropertyOp58
 70
     1
102
RTVSPropertyOp59
 70
     1
102
RTVSPropertyOp60
 70
     1
102
RTVSPropertyOp61
 70
     1
102
RTVSPropertyOp62
 70
     1
  0
XRECORD
  5
197E
102
{ACAD_REACTORS
330
197D
102
}
330
197D
100
AcDbXrecord
280
     1
102
RTVSPost2010Prop28
280
     0
102
RTVSPost2010PropOp28
 70
     1
102
RTVSPost2010Prop29
280
     1
102
RTVSPost2010PropOp29
 70
     1
102
RTVSPost2010Prop30
280
     1
102
RTVSPost2010PropOp30
 70
     1
102
RTVSPost2010Prop31
280
     0
102
RTVSPost2010PropOp31
 70
     1
102
RTVSPost2010Prop32
280
     0
102
RTVSPost2010PropOp32
 70
     1
102
RTVSPost2010Prop33
280
     0
102
RTVSPost2010PropOp33
 70
     1
102
RTVSPost2010Prop34
280
     0
102
RTVSPost2010PropOp34
 70
     1
102
RTVSPost2010Prop35
280
     0
102
RTVSPost2010PropOp35
 70
     1
102
RTVSPost2010Prop36
280
     0
102
RTVSPost2010PropOp36
 70
     1
102
RTVSPost2010Prop37
 90
       50
102
RTVSPost2010PropOp37
 70
     1
102
RTVSPost2010Prop38
140
0.0
102
RTVSPost2010PropOp38
 70
     1
102
RTVSPost2010Prop39
140
1.0
102
RTVSPost2010PropOp39
 70
     1
102
RTVSPost2010Prop40
 90
        0
102
RTVSPost2010PropOp40
 70
     1
102
RTVSPost2010Prop41ColorIndex
 90
       18
102
RTVSPost2010Prop41ColorRGB
 90
        0
102
RTVSPost2010PropOp41
 70
     1
102
RTVSPost2010Prop42
 90
       50
102
RTVSPost2010PropOp42
 70
     1
102
RTVSPost2010Prop43
 90
        3
102
RTVSPost2010PropOp43
 70
     1
102
RTVSPost2010Prop44ColorIndex
 90
        5
102
RTVSPost2010Prop44ColorRGB
 90
      255
102
RTVSPost2010PropOp44
 70
     1
102
RTVSPost2010Prop45
280
     0
102
RTVSPost2010PropOp45
 70
     1
102
RTVSPost2010Prop46
 90
       50
102
RTVSPost2010PropOp46
 70
     1
102
RTVSPost2010Prop47
 90
       50
102
RTVSPost2010PropOp47
 70
     1
102
RTVSPost2010Prop48
 90
       50
102
RTVSPost2010PropOp48
 70
     1
102
RTVSPost2010Prop49
280
     0
102
RTVSPost2010PropOp49
 70
     1
102
RTVSPost2010Prop50
 90
       50
102
RTVSPost2010PropOp50
 70
     1
102
RTVSPost2010Prop51ColorIndex
 90
      256
102
RTVSPost2010Prop51ColorRGB
 90
-16777216
102
RTVSPost2010PropOp51
 70
     0
102
RTVSPost2010Prop52
140
1.0
102
RTVSPost2010PropOp52
 70
     0
102
RTVSPost2010Prop53
 90
        2
102
RTVSPost2010PropOp53
 70
     1
102
RTVSPost2010Prop54
  1
strokes_ogs.tif
102
RTVSPost2010PropOp54
 70
     1
102
RTVSPost2010Prop55
280
     0
102
RTVSPost2010PropOp55
 70
     1
102
RTVSPost2010Prop56
140
1.0
102
RTVSPost2010PropOp56
 70
     1
102
RTVSPost2010Prop57
140
1.0
102
RTVSPost2010PropOp57
 70
     1
102
RTVSPropertyOp0
 70
     1
102
RTVSPropertyOp1
 70
     1
102
RTVSPropertyOp2
 70
     1
102
RTVSPropertyOp3
 70
     1
102
RTVSPropertyOp4
 70
     1
102
RTVSPropertyOp5
 70
     1
102
RTVSPropertyOp6
 70
     1
102
RTVSPropertyOp7
 70
     1
102
RTVSPropertyOp8
 70
     1
102
RTVSPropertyOp9
 70
     1
102
RTVSPropertyOp10
 70
     1
102
RTVSPropertyOp11
 70
     1
102
RTVSPropertyOp12
 70
     1
102
RTVSPropertyOp13
 70
     1
102
RTVSPropertyOp14
 70
     1
102
RTVSPropertyOp15
 70
     1
102
RTVSPropertyOp16
 70
     1
102
RTVSPropertyOp17
 70
     1
102
RTVSPropertyOp18
 70
     1
102
RTVSPropertyOp19
 70
     1
102
RTVSPropertyOp20
 70
     1
102
RTVSPropertyOp21
 70
     1
102
RTVSPropertyOp22
 70
     1
102
RTVSPropertyOp23
 70
     1
102
RTVSPropertyOp24
 70
     1
102
RTVSPropertyOp25
 70
     1
102
RTVSPropertyOp26
 70
     1
102
RTVSPropertyOp27
 70
     1
102
RTVSPropertyOp28
 70
     1
102
RTVSPropertyOp29
 70
     1
102
RTVSPropertyOp30
 70
     1
102
RTVSPropertyOp31
 70
     1
102
RTVSPropertyOp32
 70
     1
102
RTVSPropertyOp33
 70
     1
102
RTVSPropertyOp34
 70
     1
102
RTVSPropertyOp35
 70
     1
102
RTVSPropertyOp36
 70
     1
102
RTVSPropertyOp37
 70
     1
102
RTVSPropertyOp38
 70
     1
102
RTVSPropertyOp39
 70
     1
102
RTVSPropertyOp40
 70
     1
102
RTVSPropertyOp41
 70
     1
102
RTVSPropertyOp42
 70
     1
102
RTVSPropertyOp43
 70
     1
102
RTVSPropertyOp44
 70
     1
102
RTVSPropertyOp45
 70
     1
102
RTVSPropertyOp46
 70
     1
102
RTVSPropertyOp47
 70
     1
102
RTVSPropertyOp48
 70
     1
102
RTVSPropertyOp49
 70
     1
102
RTVSPropertyOp50
 70
     1
102
RTVSPropertyOp51
 70
     0
102
RTVSPropertyOp52
 70
     0
102
RTVSPropertyOp53
 70
     1
102
RTVSPropertyOp54
 70
     1
102
RTVSPropertyOp55
 70
     1
102
RTVSPropertyOp56
 70
     1
102
RTVSPropertyOp57
 70
     1
102
RTVSPropertyOp58
 70
     1
102
RTVSPropertyOp59
 70
     1
102
RTVSPropertyOp60
 70
     1
102
RTVSPropertyOp61
 70
     1
102
RTVSPropertyOp62
 70
     1
  0
XRECORD
  5
1978
102
{ACAD_REACTORS
330
1977
102
}
330
1977
100
AcDbXrecord
280
     1
102
RTVSPost2010Prop28
280
     0
102
RTVSPost2010PropOp28
 70
     1
102
RTVSPost2010Prop29
280
     1
102
RTVSPost2010PropOp29
 70
     1
102
RTVSPost2010Prop30
280
     1
102
RTVSPost2010PropOp30
 70
     1
102
RTVSPost2010Prop31
280
     0
102
RTVSPost2010PropOp31
 70
     1
102
RTVSPost2010Prop32
280
     0
102
RTVSPost2010PropOp32
 70
     1
102
RTVSPost2010Prop33
280
     0
102
RTVSPost2010PropOp33
 70
     1
102
RTVSPost2010Prop34
280
     0
102
RTVSPost2010PropOp34
 70
     1
102
RTVSPost2010Prop35
280
     0
102
RTVSPost2010PropOp35
 70
     1
102
RTVSPost2010Prop36
280
     0
102
RTVSPost2010PropOp36
 70
     1
102
RTVSPost2010Prop37
 90
       50
102
RTVSPost2010PropOp37
 70
     1
102
RTVSPost2010Prop38
140
0.0
102
RTVSPost2010PropOp38
 70
     1
102
RTVSPost2010Prop39
140
1.0
102
RTVSPost2010PropOp39
 70
     1
102
RTVSPost2010Prop40
 90
        0
102
RTVSPost2010PropOp40
 70
     1
102
RTVSPost2010Prop41ColorIndex
 90
       18
102
RTVSPost2010Prop41ColorRGB
 90
        0
102
RTVSPost2010PropOp41
 70
     1
102
RTVSPost2010Prop42
 90
       50
102
RTVSPost2010PropOp42
 70
     1
102
RTVSPost2010Prop43
 90
        3
102
RTVSPost2010PropOp43
 70
     1
102
RTVSPost2010Prop44ColorIndex
 90
        5
102
RTVSPost2010Prop44ColorRGB
 90
      255
102
RTVSPost2010PropOp44
 70
     1
102
RTVSPost2010Prop45
280
     0
102
RTVSPost2010PropOp45
 70
     1
102
RTVSPost2010Prop46
 90
       50
102
RTVSPost2010PropOp46
 70
     1
102
RTVSPost2010Prop47
 90
       50
102
RTVSPost2010PropOp47
 70
     1
102
RTVSPost2010Prop48
 90
       50
102
RTVSPost2010PropOp48
 70
     1
102
RTVSPost2010Prop49
280
     0
102
RTVSPost2010PropOp49
 70
     1
102
RTVSPost2010Prop50
 90
       50
102
RTVSPost2010PropOp50
 70
     1
102
RTVSPost2010Prop51ColorIndex
 90
      256
102
RTVSPost2010Prop51ColorRGB
 90
-16777216
102
RTVSPost2010PropOp51
 70
     0
102
RTVSPost2010Prop52
140
1.0
102
RTVSPost2010PropOp52
 70
     0
102
RTVSPost2010Prop53
 90
        2
102
RTVSPost2010PropOp53
 70
     1
102
RTVSPost2010Prop54
  1
strokes_ogs.tif
102
RTVSPost2010PropOp54
 70
     1
102
RTVSPost2010Prop55
280
     0
102
RTVSPost2010PropOp55
 70
     1
102
RTVSPost2010Prop56
140
1.0
102
RTVSPost2010PropOp56
 70
     1
102
RTVSPost2010Prop57
140
1.0
102
RTVSPost2010PropOp57
 70
     1
102
RTVSPropertyOp0
 70
     1
102
RTVSPropertyOp1
 70
     1
102
RTVSPropertyOp2
 70
     1
102
RTVSPropertyOp3
 70
     1
102
RTVSPropertyOp4
 70
     1
102
RTVSPropertyOp5
 70
     1
102
RTVSPropertyOp6
 70
     1
102
RTVSPropertyOp7
 70
     1
102
RTVSPropertyOp8
 70
     1
102
RTVSPropertyOp9
 70
     1
102
RTVSPropertyOp10
 70
     1
102
RTVSPropertyOp11
 70
     1
102
RTVSPropertyOp12
 70
     1
102
RTVSPropertyOp13
 70
     1
102
RTVSPropertyOp14
 70
     1
102
RTVSPropertyOp15
 70
     1
102
RTVSPropertyOp16
 70
     1
102
RTVSPropertyOp17
 70
     1
102
RTVSPropertyOp18
 70
     1
102
RTVSPropertyOp19
 70
     1
102
RTVSPropertyOp20
 70
     1
102
RTVSPropertyOp21
 70
     1
102
RTVSPropertyOp22
 70
     1
102
RTVSPropertyOp23
 70
     1
102
RTVSPropertyOp24
 70
     1
102
RTVSPropertyOp25
 70
     1
102
RTVSPropertyOp26
 70
     1
102
RTVSPropertyOp27
 70
     1
102
RTVSPropertyOp28
 70
     1
102
RTVSPropertyOp29
 70
     1
102
RTVSPropertyOp30
 70
     1
102
RTVSPropertyOp31
 70
     1
102
RTVSPropertyOp32
 70
     1
102
RTVSPropertyOp33
 70
     1
102
RTVSPropertyOp34
 70
     1
102
RTVSPropertyOp35
 70
     1
102
RTVSPropertyOp36
 70
     1
102
RTVSPropertyOp37
 70
     1
102
RTVSPropertyOp38
 70
     1
102
RTVSPropertyOp39
 70
     1
102
RTVSPropertyOp40
 70
     1
102
RTVSPropertyOp41
 70
     1
102
RTVSPropertyOp42
 70
     1
102
RTVSPropertyOp43
 70
     1
102
RTVSPropertyOp44
 70
     1
102
RTVSPropertyOp45
 70
     1
102
RTVSPropertyOp46
 70
     1
102
RTVSPropertyOp47
 70
     1
102
RTVSPropertyOp48
 70
     1
102
RTVSPropertyOp49
 70
     1
102
RTVSPropertyOp50
 70
     1
102
RTVSPropertyOp51
 70
     0
102
RTVSPropertyOp52
 70
     0
102
RTVSPropertyOp53
 70
     1
102
RTVSPropertyOp54
 70
     1
102
RTVSPropertyOp55
 70
     1
102
RTVSPropertyOp56
 70
     1
102
RTVSPropertyOp57
 70
     1
102
RTVSPropertyOp58
 70
     1
102
RTVSPropertyOp59
 70
     1
102
RTVSPropertyOp60
 70
     1
102
RTVSPropertyOp61
 70
     1
102
RTVSPropertyOp62
 70
     1
  0
XRECORD
  5
197A
102
{ACAD_REACTORS
330
1979
102
}
330
1979
100
AcDbXrecord
280
     1
102
RTVSPost2010Prop28
280
     0
102
RTVSPost2010PropOp28
 70
     1
102
RTVSPost2010Prop29
280
     1
102
RTVSPost2010PropOp29
 70
     1
102
RTVSPost2010Prop30
280
     1
102
RTVSPost2010PropOp30
 70
     1
102
RTVSPost2010Prop31
280
     0
102
RTVSPost2010PropOp31
 70
     1
102
RTVSPost2010Prop32
280
     0
102
RTVSPost2010PropOp32
 70
     1
102
RTVSPost2010Prop33
280
     0
102
RTVSPost2010PropOp33
 70
     1
102
RTVSPost2010Prop34
280
     0
102
RTVSPost2010PropOp34
 70
     1
102
RTVSPost2010Prop35
280
     0
102
RTVSPost2010PropOp35
 70
     1
102
RTVSPost2010Prop36
280
     0
102
RTVSPost2010PropOp36
 70
     1
102
RTVSPost2010Prop37
 90
       50
102
RTVSPost2010PropOp37
 70
     1
102
RTVSPost2010Prop38
140
0.0
102
RTVSPost2010PropOp38
 70
     1
102
RTVSPost2010Prop39
140
1.0
102
RTVSPost2010PropOp39
 70
     1
102
RTVSPost2010Prop40
 90
        0
102
RTVSPost2010PropOp40
 70
     1
102
RTVSPost2010Prop41ColorIndex
 90
       18
102
RTVSPost2010Prop41ColorRGB
 90
        0
102
RTVSPost2010PropOp41
 70
     1
102
RTVSPost2010Prop42
 90
       50
102
RTVSPost2010PropOp42
 70
     1
102
RTVSPost2010Prop43
 90
        3
102
RTVSPost2010PropOp43
 70
     1
102
RTVSPost2010Prop44ColorIndex
 90
        5
102
RTVSPost2010Prop44ColorRGB
 90
      255
102
RTVSPost2010PropOp44
 70
     1
102
RTVSPost2010Prop45
280
     0
102
RTVSPost2010PropOp45
 70
     1
102
RTVSPost2010Prop46
 90
       50
102
RTVSPost2010PropOp46
 70
     1
102
RTVSPost2010Prop47
 90
       50
102
RTVSPost2010PropOp47
 70
     1
102
RTVSPost2010Prop48
 90
       50
102
RTVSPost2010PropOp48
 70
     1
102
RTVSPost2010Prop49
280
     0
102
RTVSPost2010PropOp49
 70
     1
102
RTVSPost2010Prop50
 90
       50
102
RTVSPost2010PropOp50
 70
     1
102
RTVSPost2010Prop51ColorIndex
 90
      256
102
RTVSPost2010Prop51ColorRGB
 90
-16777216
102
RTVSPost2010PropOp51
 70
     0
102
RTVSPost2010Prop52
140
1.0
102
RTVSPost2010PropOp52
 70
     0
102
RTVSPost2010Prop53
 90
        2
102
RTVSPost2010PropOp53
 70
     1
102
RTVSPost2010Prop54
  1
strokes_ogs.tif
102
RTVSPost2010PropOp54
 70
     1
102
RTVSPost2010Prop55
280
     0
102
RTVSPost2010PropOp55
 70
     1
102
RTVSPost2010Prop56
140
1.0
102
RTVSPost2010PropOp56
 70
     1
102
RTVSPost2010Prop57
140
1.0
102
RTVSPost2010PropOp57
 70
     1
102
RTVSPropertyOp0
 70
     1
102
RTVSPropertyOp1
 70
     1
102
RTVSPropertyOp2
 70
     1
102
RTVSPropertyOp3
 70
     1
102
RTVSPropertyOp4
 70
     1
102
RTVSPropertyOp5
 70
     1
102
RTVSPropertyOp6
 70
     1
102
RTVSPropertyOp7
 70
     1
102
RTVSPropertyOp8
 70
     1
102
RTVSPropertyOp9
 70
     1
102
RTVSPropertyOp10
 70
     1
102
RTVSPropertyOp11
 70
     1
102
RTVSPropertyOp12
 70
     1
102
RTVSPropertyOp13
 70
     1
102
RTVSPropertyOp14
 70
     1
102
RTVSPropertyOp15
 70
     1
102
RTVSPropertyOp16
 70
     1
102
RTVSPropertyOp17
 70
     1
102
RTVSPropertyOp18
 70
     1
102
RTVSPropertyOp19
 70
     1
102
RTVSPropertyOp20
 70
     1
102
RTVSPropertyOp21
 70
     1
102
RTVSPropertyOp22
 70
     1
102
RTVSPropertyOp23
 70
     1
102
RTVSPropertyOp24
 70
     1
102
RTVSPropertyOp25
 70
     1
102
RTVSPropertyOp26
 70
     1
102
RTVSPropertyOp27
 70
     1
102
RTVSPropertyOp28
 70
     1
102
RTVSPropertyOp29
 70
     1
102
RTVSPropertyOp30
 70
     1
102
RTVSPropertyOp31
 70
     1
102
RTVSPropertyOp32
 70
     1
102
RTVSPropertyOp33
 70
     1
102
RTVSPropertyOp34
 70
     1
102
RTVSPropertyOp35
 70
     1
102
RTVSPropertyOp36
 70
     1
102
RTVSPropertyOp37
 70
     1
102
RTVSPropertyOp38
 70
     1
102
RTVSPropertyOp39
 70
     1
102
RTVSPropertyOp40
 70
     1
102
RTVSPropertyOp41
 70
     1
102
RTVSPropertyOp42
 70
     1
102
RTVSPropertyOp43
 70
     1
102
RTVSPropertyOp44
 70
     1
102
RTVSPropertyOp45
 70
     1
102
RTVSPropertyOp46
 70
     1
102
RTVSPropertyOp47
 70
     1
102
RTVSPropertyOp48
 70
     1
102
RTVSPropertyOp49
 70
     1
102
RTVSPropertyOp50
 70
     1
102
RTVSPropertyOp51
 70
     0
102
RTVSPropertyOp52
 70
     0
102
RTVSPropertyOp53
 70
     1
102
RTVSPropertyOp54
 70
     1
102
RTVSPropertyOp55
 70
     1
102
RTVSPropertyOp56
 70
     1
102
RTVSPropertyOp57
 70
     1
102
RTVSPropertyOp58
 70
     1
102
RTVSPropertyOp59
 70
     1
102
RTVSPropertyOp60
 70
     1
102
RTVSPropertyOp61
 70
     1
102
RTVSPropertyOp62
 70
     1
  0
XRECORD
  5
196A
102
{ACAD_REACTORS
330
1969
102
}
330
1969
100
AcDbXrecord
280
     1
102
RTVSPost2010Prop28
280
     0
102
RTVSPost2010PropOp28
 70
     1
102
RTVSPost2010Prop29
280
     1
102
RTVSPost2010PropOp29
 70
     1
102
RTVSPost2010Prop30
280
     1
102
RTVSPost2010PropOp30
 70
     1
102
RTVSPost2010Prop31
280
     0
102
RTVSPost2010PropOp31
 70
     1
102
RTVSPost2010Prop32
280
     0
102
RTVSPost2010PropOp32
 70
     1
102
RTVSPost2010Prop33
280
     0
102
RTVSPost2010PropOp33
 70
     1
102
RTVSPost2010Prop34
280
     0
102
RTVSPost2010PropOp34
 70
     1
102
RTVSPost2010Prop35
280
     0
102
RTVSPost2010PropOp35
 70
     1
102
RTVSPost2010Prop36
280
     0
102
RTVSPost2010PropOp36
 70
     1
102
RTVSPost2010Prop37
 90
       50
102
RTVSPost2010PropOp37
 70
     1
102
RTVSPost2010Prop38
140
0.0
102
RTVSPost2010PropOp38
 70
     1
102
RTVSPost2010Prop39
140
1.0
102
RTVSPost2010PropOp39
 70
     1
102
RTVSPost2010Prop40
 90
        0
102
RTVSPost2010PropOp40
 70
     1
102
RTVSPost2010Prop41ColorIndex
 90
       18
102
RTVSPost2010Prop41ColorRGB
 90
        0
102
RTVSPost2010PropOp41
 70
     1
102
RTVSPost2010Prop42
 90
       50
102
RTVSPost2010PropOp42
 70
     1
102
RTVSPost2010Prop43
 90
        3
102
RTVSPost2010PropOp43
 70
     1
102
RTVSPost2010Prop44ColorIndex
 90
        5
102
RTVSPost2010Prop44ColorRGB
 90
      255
102
RTVSPost2010PropOp44
 70
     1
102
RTVSPost2010Prop45
280
     0
102
RTVSPost2010PropOp45
 70
     1
102
RTVSPost2010Prop46
 90
       50
102
RTVSPost2010PropOp46
 70
     1
102
RTVSPost2010Prop47
 90
       50
102
RTVSPost2010PropOp47
 70
     1
102
RTVSPost2010Prop48
 90
       50
102
RTVSPost2010PropOp48
 70
     1
102
RTVSPost2010Prop49
280
     0
102
RTVSPost2010PropOp49
 70
     1
102
RTVSPost2010Prop50
 90
       50
102
RTVSPost2010PropOp50
 70
     1
102
RTVSPost2010Prop51ColorIndex
 90
      256
102
RTVSPost2010Prop51ColorRGB
 90
-16777216
102
RTVSPost2010PropOp51
 70
     0
102
RTVSPost2010Prop52
140
1.0
102
RTVSPost2010PropOp52
 70
     0
102
RTVSPost2010Prop53
 90
        2
102
RTVSPost2010PropOp53
 70
     1
102
RTVSPost2010Prop54
  1
strokes_ogs.tif
102
RTVSPost2010PropOp54
 70
     1
102
RTVSPost2010Prop55
280
     0
102
RTVSPost2010PropOp55
 70
     1
102
RTVSPost2010Prop56
140
1.0
102
RTVSPost2010PropOp56
 70
     1
102
RTVSPost2010Prop57
140
1.0
102
RTVSPost2010PropOp57
 70
     1
102
RTVSPropertyOp0
 70
     1
102
RTVSPropertyOp1
 70
     1
102
RTVSPropertyOp2
 70
     1
102
RTVSPropertyOp3
 70
     1
102
RTVSPropertyOp4
 70
     1
102
RTVSPropertyOp5
 70
     1
102
RTVSPropertyOp6
 70
     1
102
RTVSPropertyOp7
 70
     1
102
RTVSPropertyOp8
 70
     1
102
RTVSPropertyOp9
 70
     1
102
RTVSPropertyOp10
 70
     1
102
RTVSPropertyOp11
 70
     1
102
RTVSPropertyOp12
 70
     1
102
RTVSPropertyOp13
 70
     1
102
RTVSPropertyOp14
 70
     1
102
RTVSPropertyOp15
 70
     1
102
RTVSPropertyOp16
 70
     1
102
RTVSPropertyOp17
 70
     1
102
RTVSPropertyOp18
 70
     1
102
RTVSPropertyOp19
 70
     1
102
RTVSPropertyOp20
 70
     1
102
RTVSPropertyOp21
 70
     1
102
RTVSPropertyOp22
 70
     1
102
RTVSPropertyOp23
 70
     1
102
RTVSPropertyOp24
 70
     1
102
RTVSPropertyOp25
 70
     1
102
RTVSPropertyOp26
 70
     1
102
RTVSPropertyOp27
 70
     1
102
RTVSPropertyOp28
 70
     1
102
RTVSPropertyOp29
 70
     1
102
RTVSPropertyOp30
 70
     1
102
RTVSPropertyOp31
 70
     1
102
RTVSPropertyOp32
 70
     1
102
RTVSPropertyOp33
 70
     1
102
RTVSPropertyOp34
 70
     1
102
RTVSPropertyOp35
 70
     1
102
RTVSPropertyOp36
 70
     1
102
RTVSPropertyOp37
 70
     1
102
RTVSPropertyOp38
 70
     1
102
RTVSPropertyOp39
 70
     1
102
RTVSPropertyOp40
 70
     1
102
RTVSPropertyOp41
 70
     1
102
RTVSPropertyOp42
 70
     1
102
RTVSPropertyOp43
 70
     1
102
RTVSPropertyOp44
 70
     1
102
RTVSPropertyOp45
 70
     1
102
RTVSPropertyOp46
 70
     1
102
RTVSPropertyOp47
 70
     1
102
RTVSPropertyOp48
 70
     1
102
RTVSPropertyOp49
 70
     1
102
RTVSPropertyOp50
 70
     1
102
RTVSPropertyOp51
 70
     0
102
RTVSPropertyOp52
 70
     0
102
RTVSPropertyOp53
 70
     1
102
RTVSPropertyOp54
 70
     1
102
RTVSPropertyOp55
 70
     1
102
RTVSPropertyOp56
 70
     1
102
RTVSPropertyOp57
 70
     1
102
RTVSPropertyOp58
 70
     1
102
RTVSPropertyOp59
 70
     1
102
RTVSPropertyOp60
 70
     1
102
RTVSPropertyOp61
 70
     1
102
RTVSPropertyOp62
 70
     1
  0
XRECORD
  5
195E
102
{ACAD_REACTORS
330
195D
102
}
330
195D
100
AcDbXrecord
280
     1
102
RTVSPost2010Prop28
280
     0
102
RTVSPost2010PropOp28
 70
     1
102
RTVSPost2010Prop29
280
     1
102
RTVSPost2010PropOp29
 70
     1
102
RTVSPost2010Prop30
280
     1
102
RTVSPost2010PropOp30
 70
     1
102
RTVSPost2010Prop31
280
     0
102
RTVSPost2010PropOp31
 70
     1
102
RTVSPost2010Prop32
280
     0
102
RTVSPost2010PropOp32
 70
     1
102
RTVSPost2010Prop33
280
     0
102
RTVSPost2010PropOp33
 70
     1
102
RTVSPost2010Prop34
280
     0
102
RTVSPost2010PropOp34
 70
     1
102
RTVSPost2010Prop35
280
     0
102
RTVSPost2010PropOp35
 70
     1
102
RTVSPost2010Prop36
280
     0
102
RTVSPost2010PropOp36
 70
     1
102
RTVSPost2010Prop37
 90
       50
102
RTVSPost2010PropOp37
 70
     1
102
RTVSPost2010Prop38
140
0.0
102
RTVSPost2010PropOp38
 70
     1
102
RTVSPost2010Prop39
140
1.0
102
RTVSPost2010PropOp39
 70
     1
102
RTVSPost2010Prop40
 90
        0
102
RTVSPost2010PropOp40
 70
     1
102
RTVSPost2010Prop41ColorIndex
 90
       18
102
RTVSPost2010Prop41ColorRGB
 90
        0
102
RTVSPost2010PropOp41
 70
     1
102
RTVSPost2010Prop42
 90
       50
102
RTVSPost2010PropOp42
 70
     1
102
RTVSPost2010Prop43
 90
        3
102
RTVSPost2010PropOp43
 70
     1
102
RTVSPost2010Prop44ColorIndex
 90
        5
102
RTVSPost2010Prop44ColorRGB
 90
      255
102
RTVSPost2010PropOp44
 70
     1
102
RTVSPost2010Prop45
280
     0
102
RTVSPost2010PropOp45
 70
     1
102
RTVSPost2010Prop46
 90
       50
102
RTVSPost2010PropOp46
 70
     1
102
RTVSPost2010Prop47
 90
       50
102
RTVSPost2010PropOp47
 70
     1
102
RTVSPost2010Prop48
 90
       50
102
RTVSPost2010PropOp48
 70
     1
102
RTVSPost2010Prop49
280
     0
102
RTVSPost2010PropOp49
 70
     1
102
RTVSPost2010Prop50
 90
       50
102
RTVSPost2010PropOp50
 70
     1
102
RTVSPost2010Prop51ColorIndex
 90
      256
102
RTVSPost2010Prop51ColorRGB
 90
-16777216
102
RTVSPost2010PropOp51
 70
     0
102
RTVSPost2010Prop52
140
1.0
102
RTVSPost2010PropOp52
 70
     0
102
RTVSPost2010Prop53
 90
        2
102
RTVSPost2010PropOp53
 70
     1
102
RTVSPost2010Prop54
  1
strokes_ogs.tif
102
RTVSPost2010PropOp54
 70
     1
102
RTVSPost2010Prop55
280
     0
102
RTVSPost2010PropOp55
 70
     1
102
RTVSPost2010Prop56
140
1.0
102
RTVSPost2010PropOp56
 70
     1
102
RTVSPost2010Prop57
140
1.0
102
RTVSPost2010PropOp57
 70
     1
102
RTVSPropertyOp0
 70
     1
102
RTVSPropertyOp1
 70
     1
102
RTVSPropertyOp2
 70
     1
102
RTVSPropertyOp3
 70
     1
102
RTVSPropertyOp4
 70
     1
102
RTVSPropertyOp5
 70
     1
102
RTVSPropertyOp6
 70
     1
102
RTVSPropertyOp7
 70
     1
102
RTVSPropertyOp8
 70
     1
102
RTVSPropertyOp9
 70
     1
102
RTVSPropertyOp10
 70
     1
102
RTVSPropertyOp11
 70
     1
102
RTVSPropertyOp12
 70
     1
102
RTVSPropertyOp13
 70
     1
102
RTVSPropertyOp14
 70
     1
102
RTVSPropertyOp15
 70
     1
102
RTVSPropertyOp16
 70
     1
102
RTVSPropertyOp17
 70
     1
102
RTVSPropertyOp18
 70
     1
102
RTVSPropertyOp19
 70
     1
102
RTVSPropertyOp20
 70
     1
102
RTVSPropertyOp21
 70
     1
102
RTVSPropertyOp22
 70
     1
102
RTVSPropertyOp23
 70
     1
102
RTVSPropertyOp24
 70
     1
102
RTVSPropertyOp25
 70
     1
102
RTVSPropertyOp26
 70
     1
102
RTVSPropertyOp27
 70
     1
102
RTVSPropertyOp28
 70
     1
102
RTVSPropertyOp29
 70
     1
102
RTVSPropertyOp30
 70
     1
102
RTVSPropertyOp31
 70
     1
102
RTVSPropertyOp32
 70
     1
102
RTVSPropertyOp33
 70
     1
102
RTVSPropertyOp34
 70
     1
102
RTVSPropertyOp35
 70
     1
102
RTVSPropertyOp36
 70
     1
102
RTVSPropertyOp37
 70
     1
102
RTVSPropertyOp38
 70
     1
102
RTVSPropertyOp39
 70
     1
102
RTVSPropertyOp40
 70
     1
102
RTVSPropertyOp41
 70
     1
102
RTVSPropertyOp42
 70
     1
102
RTVSPropertyOp43
 70
     1
102
RTVSPropertyOp44
 70
     1
102
RTVSPropertyOp45
 70
     1
102
RTVSPropertyOp46
 70
     1
102
RTVSPropertyOp47
 70
     1
102
RTVSPropertyOp48
 70
     1
102
RTVSPropertyOp49
 70
     1
102
RTVSPropertyOp50
 70
     1
102
RTVSPropertyOp51
 70
     0
102
RTVSPropertyOp52
 70
     0
102
RTVSPropertyOp53
 70
     1
102
RTVSPropertyOp54
 70
     1
102
RTVSPropertyOp55
 70
     1
102
RTVSPropertyOp56
 70
     1
102
RTVSPropertyOp57
 70
     1
102
RTVSPropertyOp58
 70
     1
102
RTVSPropertyOp59
 70
     1
102
RTVSPropertyOp60
 70
     1
102
RTVSPropertyOp61
 70
     1
102
RTVSPropertyOp62
 70
     1
  0
XRECORD
  5
197C
102
{ACAD_REACTORS
330
197B
102
}
330
197B
100
AcDbXrecord
280
     1
102
RTVSPost2010Prop28
280
     0
102
RTVSPost2010PropOp28
 70
     1
102
RTVSPost2010Prop29
280
     1
102
RTVSPost2010PropOp29
 70
     1
102
RTVSPost2010Prop30
280
     1
102
RTVSPost2010PropOp30
 70
     1
102
RTVSPost2010Prop31
280
     0
102
RTVSPost2010PropOp31
 70
     1
102
RTVSPost2010Prop32
280
     0
102
RTVSPost2010PropOp32
 70
     1
102
RTVSPost2010Prop33
280
     0
102
RTVSPost2010PropOp33
 70
     1
102
RTVSPost2010Prop34
280
     0
102
RTVSPost2010PropOp34
 70
     1
102
RTVSPost2010Prop35
280
     0
102
RTVSPost2010PropOp35
 70
     1
102
RTVSPost2010Prop36
280
     0
102
RTVSPost2010PropOp36
 70
     1
102
RTVSPost2010Prop37
 90
       50
102
RTVSPost2010PropOp37
 70
     1
102
RTVSPost2010Prop38
140
0.0
102
RTVSPost2010PropOp38
 70
     1
102
RTVSPost2010Prop39
140
1.0
102
RTVSPost2010PropOp39
 70
     1
102
RTVSPost2010Prop40
 90
        0
102
RTVSPost2010PropOp40
 70
     1
102
RTVSPost2010Prop41ColorIndex
 90
       18
102
RTVSPost2010Prop41ColorRGB
 90
        0
102
RTVSPost2010PropOp41
 70
     1
102
RTVSPost2010Prop42
 90
       50
102
RTVSPost2010PropOp42
 70
     1
102
RTVSPost2010Prop43
 90
        3
102
RTVSPost2010PropOp43
 70
     1
102
RTVSPost2010Prop44ColorIndex
 90
        5
102
RTVSPost2010Prop44ColorRGB
 90
      255
102
RTVSPost2010PropOp44
 70
     1
102
RTVSPost2010Prop45
280
     0
102
RTVSPost2010PropOp45
 70
     1
102
RTVSPost2010Prop46
 90
       50
102
RTVSPost2010PropOp46
 70
     1
102
RTVSPost2010Prop47
 90
       50
102
RTVSPost2010PropOp47
 70
     1
102
RTVSPost2010Prop48
 90
       50
102
RTVSPost2010PropOp48
 70
     1
102
RTVSPost2010Prop49
280
     0
102
RTVSPost2010PropOp49
 70
     1
102
RTVSPost2010Prop50
 90
       50
102
RTVSPost2010PropOp50
 70
     1
102
RTVSPost2010Prop51ColorIndex
 90
      256
102
RTVSPost2010Prop51ColorRGB
 90
-16777216
102
RTVSPost2010PropOp51
 70
     0
102
RTVSPost2010Prop52
140
1.0
102
RTVSPost2010PropOp52
 70
     0
102
RTVSPost2010Prop53
 90
        2
102
RTVSPost2010PropOp53
 70
     1
102
RTVSPost2010Prop54
  1
strokes_ogs.tif
102
RTVSPost2010PropOp54
 70
     1
102
RTVSPost2010Prop55
280
     0
102
RTVSPost2010PropOp55
 70
     1
102
RTVSPost2010Prop56
140
1.0
102
RTVSPost2010PropOp56
 70
     1
102
RTVSPost2010Prop57
140
1.0
102
RTVSPost2010PropOp57
 70
     1
102
RTVSPropertyOp0
 70
     1
102
RTVSPropertyOp1
 70
     1
102
RTVSPropertyOp2
 70
     1
102
RTVSPropertyOp3
 70
     1
102
RTVSPropertyOp4
 70
     1
102
RTVSPropertyOp5
 70
     1
102
RTVSPropertyOp6
 70
     1
102
RTVSPropertyOp7
 70
     1
102
RTVSPropertyOp8
 70
     1
102
RTVSPropertyOp9
 70
     1
102
RTVSPropertyOp10
 70
     1
102
RTVSPropertyOp11
 70
     1
102
RTVSPropertyOp12
 70
     1
102
RTVSPropertyOp13
 70
     1
102
RTVSPropertyOp14
 70
     1
102
RTVSPropertyOp15
 70
     1
102
RTVSPropertyOp16
 70
     1
102
RTVSPropertyOp17
 70
     1
102
RTVSPropertyOp18
 70
     1
102
RTVSPropertyOp19
 70
     1
102
RTVSPropertyOp20
 70
     1
102
RTVSPropertyOp21
 70
     1
102
RTVSPropertyOp22
 70
     1
102
RTVSPropertyOp23
 70
     1
102
RTVSPropertyOp24
 70
     1
102
RTVSPropertyOp25
 70
     1
102
RTVSPropertyOp26
 70
     1
102
RTVSPropertyOp27
 70
     1
102
RTVSPropertyOp28
 70
     1
102
RTVSPropertyOp29
 70
     1
102
RTVSPropertyOp30
 70
     1
102
RTVSPropertyOp31
 70
     1
102
RTVSPropertyOp32
 70
     1
102
RTVSPropertyOp33
 70
     1
102
RTVSPropertyOp34
 70
     1
102
RTVSPropertyOp35
 70
     1
102
RTVSPropertyOp36
 70
     1
102
RTVSPropertyOp37
 70
     1
102
RTVSPropertyOp38
 70
     1
102
RTVSPropertyOp39
 70
     1
102
RTVSPropertyOp40
 70
     1
102
RTVSPropertyOp41
 70
     1
102
RTVSPropertyOp42
 70
     1
102
RTVSPropertyOp43
 70
     1
102
RTVSPropertyOp44
 70
     1
102
RTVSPropertyOp45
 70
     1
102
RTVSPropertyOp46
 70
     1
102
RTVSPropertyOp47
 70
     1
102
RTVSPropertyOp48
 70
     1
102
RTVSPropertyOp49
 70
     1
102
RTVSPropertyOp50
 70
     1
102
RTVSPropertyOp51
 70
     0
102
RTVSPropertyOp52
 70
     0
102
RTVSPropertyOp53
 70
     1
102
RTVSPropertyOp54
 70
     1
102
RTVSPropertyOp55
 70
     1
102
RTVSPropertyOp56
 70
     1
102
RTVSPropertyOp57
 70
     1
102
RTVSPropertyOp58
 70
     1
102
RTVSPropertyOp59
 70
     1
102
RTVSPropertyOp60
 70
     1
102
RTVSPropertyOp61
 70
     1
102
RTVSPropertyOp62
 70
     1
  0
ENDSEC
  0
EOF
