  0
SECTION
  2
HEADER
  9
$ACADVER
  1
AC1018
  9
$ACADMAINTVER
 70
   104
  9
$DWGCODEPAGE
  3
ANSI_1252
  9
$LASTSAVEDBY
  1
alexb
  9
$INSBASE
 10
0.0
 20
0.0
 30
0.0
  9
$EXTMIN
 10
-0.0060127360054025
 20
-0.0042733639701851
 30
-0.0000000349181948
  9
$EXTMAX
 10
185.0456474146685
 20
131.0439993369253
 30
0.0000000814935746
  9
$LIMMIN
 10
0.0
 20
0.0
  9
$LIMMAX
 10
12.0
 20
9.0
  9
$ORTHOMODE
 70
     1
  9
$REGENMODE
 70
     1
  9
$FILLMODE
 70
     1
  9
$QTEXTMODE
 70
     0
  9
$MIRRTEXT
 70
     0
  9
$LTSCALE
 40
1.0
  9
$ATTMODE
 70
     1
  9
$TEXTSIZE
 40
1.0
  9
$TRACEWID
 40
0.05
  9
$TEXTSTYLE
  7
ARCH
  9
$CLAYER
  8
A-ANNO-DIM
  9
$CELTYPE
  6
ByLayer
  9
$CECOLOR
 62
   256
  9
$CELTSCALE
 40
1.0
  9
$DISPSILH
 70
     0
  9
$DIMSCALE
 40
8.0
  9
$DIMASZ
 40
0.18
  9
$DIMEXO
 40
0.1
  9
$DIMDLI
 40
0.38
  9
$DIMRND
 40
0.0
  9
$DIMDLE
 40
0.0
  9
$DIMEXE
 40
0.1
  9
$DIMTP
 40
0.0
  9
$DIMTM
 40
0.0
  9
$DIMTXT
 40
0.125
  9
$DIMCEN
 40
0.09
  9
$DIMTSZ
 40
0.0
  9
$DIMTOL
 70
     0
  9
$DIMLIM
 70
     0
  9
$DIMTIH
 70
     1
  9
$DIMTOH
 70
     1
  9
$DIMSE1
 70
     0
  9
$DIMSE2
 70
     0
  9
$DIMTAD
 70
     0
  9
$DIMZIN
 70
     4
  9
$DIMBLK
  1

  9
$DIMASO
 70
     1
  9
$DIMSHO
 70
     1
  9
$DIMPOST
  1

  9
$DIMAPOST
  1

  9
$DIMALT
 70
     1
  9
$DIMALTD
 70
     1
  9
$DIMALTF
 40
25.4
  9
$DIMLFAC
 40
1.0
  9
$DIMTOFL
 70
     0
  9
$DIMTVP
 40
0.0
  9
$DIMTIX
 70
     0
  9
$DIMSOXD
 70
     0
  9
$DIMSAH
 70
     0
  9
$DIMBLK1
  1

  9
$DIMBLK2
  1

  9
$DIMSTYLE
  2
00
  9
$DIMCLRD
 70
     1
  9
$DIMCLRE
 70
     1
  9
$DIMCLRT
 70
     4
  9
$DIMTFAC
 40
1.0
  9
$DIMGAP
 40
0.09
  9
$DIMJUST
 70
     0
  9
$DIMSD1
 70
     0
  9
$DIMSD2
 70
     0
  9
$DIMTOLJ
 70
     1
  9
$DIMTZIN
 70
     4
  9
$DIMALTZ
 70
     4
  9
$DIMALTTZ
 70
     4
  9
$DIMUPT
 70
     1
  9
$DIMDEC
 70
     2
  9
$DIMTDEC
 70
     2
  9
$DIMALTU
 70
     2
  9
$DIMALTTD
 70
     1
  9
$DIMTXSTY
  7
ARCH
  9
$DIMAUNIT
 70
     0
  9
$DIMADEC
 70
     0
  9
$DIMALTRND
 40
0.0
  9
$DIMAZIN
 70
     0
  9
$DIMDSEP
 70
    46
  9
$DIMATFIT
 70
     3
  9
$DIMFRAC
 70
     0
  9
$DIMLDRBLK
  1

  9
$DIMLUNIT
 70
     2
  9
$DIMLWD
 70
    -2
  9
$DIMLWE
 70
    -2
  9
$DIMTMOVE
 70
     2
  9
$LUNITS
 70
     2
  9
$LUPREC
 70
     4
  9
$SKETCHINC
 40
0.1
  9
$FILLETRAD
 40
0.0
  9
$AUNITS
 70
     0
  9
$AUPREC
 70
     0
  9
$MENU
  1
.
  9
$ELEVATION
 40
0.0
  9
$PELEVATION
 40
0.0
  9
$THICKNESS
 40
0.0
  9
$LIMCHECK
 70
     0
  9
$CHAMFERA
 40
0.0
  9
$CHAMFERB
 40
0.0
  9
$CHAMFERC
 40
0.0
  9
$CHAMFERD
 40
0.0
  9
$SKPOLY
 70
     0
  9
$TDCREATE
 40
2454923.615469398
  9
$TDUCREATE
 40
2454923.907136065
  9
$TDUPDATE
 40
2454923.633892257
  9
$TDUUPDATE
 40
2454923.925558924
  9
$TDINDWG
 40
0.0184243171
  9
$TDUSRTIMER
 40
0.0184241319
  9
$USRTIMER
 70
     1
  9
$ANGBASE
 50
0.0
  9
$ANGDIR
 70
     0
  9
$PDMODE
 70
     0
  9
$PDSIZE
 40
0.0
  9
$PLINEWID
 40
0.0
  9
$SPLFRAME
 70
     0
  9
$SPLINETYPE
 70
     6
  9
$SPLINESEGS
 70
     8
  9
$HANDSEED
  5
413F
  9
$SURFTAB1
 70
     6
  9
$SURFTAB2
 70
     6
  9
$SURFTYPE
 70
     6
  9
$SURFU
 70
     6
  9
$SURFV
 70
     6
  9
$UCSBASE
  2

  9
$UCSNAME
  2

  9
$UCSORG
 10
0.0
 20
0.0
 30
0.0
  9
$UCSXDIR
 10
1.0
 20
0.0
 30
0.0
  9
$UCSYDIR
 10
0.0
 20
1.0
 30
0.0
  9
$UCSORTHOREF
  2

  9
$UCSORTHOVIEW
 70
     0
  9
$UCSORGTOP
 10
0.0
 20
0.0
 30
0.0
  9
$UCSORGBOTTOM
 10
0.0
 20
0.0
 30
0.0
  9
$UCSORGLEFT
 10
0.0
 20
0.0
 30
0.0
  9
$UCSORGRIGHT
 10
0.0
 20
0.0
 30
0.0
  9
$UCSORGFRONT
 10
0.0
 20
0.0
 30
0.0
  9
$UCSORGBACK
 10
0.0
 20
0.0
 30
0.0
  9
$PUCSBASE
  2

  9
$PUCSNAME
  2

  9
$PUCSORG
 10
0.0
 20
0.0
 30
0.0
  9
$PUCSXDIR
 10
1.0
 20
0.0
 30
0.0
  9
$PUCSYDIR
 10
0.0
 20
1.0
 30
0.0
  9
$PUCSORTHOREF
  2

  9
$PUCSORTHOVIEW
 70
     0
  9
$PUCSORGTOP
 10
0.0
 20
0.0
 30
0.0
  9
$PUCSORGBOTTOM
 10
0.0
 20
0.0
 30
0.0
  9
$PUCSORGLEFT
 10
0.0
 20
0.0
 30
0.0
  9
$PUCSORGRIGHT
 10
0.0
 20
0.0
 30
0.0
  9
$PUCSORGFRONT
 10
0.0
 20
0.0
 30
0.0
  9
$PUCSORGBACK
 10
0.0
 20
0.0
 30
0.0
  9
$USERI1
 70
     0
  9
$USERI2
 70
     0
  9
$USERI3
 70
     0
  9
$USERI4
 70
     0
  9
$USERI5
 70
     0
  9
$USERR1
 40
0.0
  9
$USERR2
 40
0.0
  9
$USERR3
 40
0.0
  9
$USERR4
 40
0.0
  9
$USERR5
 40
0.0
  9
$WORLDVIEW
 70
     1
  9
$SHADEDGE
 70
     3
  9
$SHADEDIF
 70
    70
  9
$TILEMODE
 70
     1
  9
$MAXACTVP
 70
    64
  9
$PINSBASE
 10
0.0
 20
0.0
 30
0.0
  9
$PLIMCHECK
 70
     0
  9
$PEXTMIN
 10
1.000000000000000E+20
 20
1.000000000000000E+20
 30
1.000000000000000E+20
  9
$PEXTMAX
 10
-1.000000000000000E+20
 20
-1.000000000000000E+20
 30
-1.000000000000000E+20
  9
$PLIMMIN
 10
-0.2500002402958907
 20
-0.2499999962453767
  9
$PLIMMAX
 10
10.74999951940822
 20
8.249999763458733
  9
$UNITMODE
 70
     0
  9
$VISRETAIN
 70
     1
  9
$PLINEGEN
 70
     0
  9
$PSLTSCALE
 70
     1
  9
$TREEDEPTH
 70
  3020
  9
$CMLSTYLE
  2
Standard
  9
$CMLJUST
 70
     0
  9
$CMLSCALE
 40
1.0
  9
$PROXYGRAPHICS
 70
     1
  9
$MEASUREMENT
 70
     0
  9
$CELWEIGHT
370
    -1
  9
$ENDCAPS
280
     0
  9
$JOINSTYLE
280
     0
  9
$LWDISPLAY
290
     0
  9
$INSUNITS
 70
     1
  9
$HYPERLINKBASE
  1

  9
$STYLESHEET
  1
CAD Dwg's.ctb
  9
$XEDIT
290
     1
  9
$CEPSNTYPE
380
     0
  9
$PSTYLEMODE
290
     1
  9
$FINGERPRINTGUID
  2
{31D0920C-9E4F-4AC9-8B7E-C7F721D67E1E}
  9
$VERSIONGUID
  2
{96C343A3-01E6-412E-BCA9-2073E70F1F04}
  9
$EXTNAMES
290
     1
  9
$PSVPSCALE
 40
0.0
  9
$OLESTARTUP
290
     0
  9
$SORTENTS
280
   127
  9
$INDEXCTL
280
     0
  9
$HIDETEXT
280
     0
  9
$XCLIPFRAME
290
     0
  9
$HALOGAP
280
     0
  9
$OBSCOLOR
 70
   257
  9
$OBSLTYPE
280
     0
  9
$INTERSECTIONDISPLAY
280
     0
  9
$INTERSECTIONCOLOR
 70
   257
  9
$DIMASSOC
280
     1
  9
$PROJECTNAME
  1

  0
ENDSEC
  0
SECTION
  2
CLASSES
  0
CLASS
  1
ACDBDICTIONARYWDFLT
  2
AcDbDictionaryWithDefault
  3
ObjectDBX Classes
 90
        0
 91
        1
280
     0
281
     0
  0
CLASS
  1
PLOTSETTINGS
  2
AcDbPlotSettings
  3
ObjectDBX Classes
 90
        0
 91
        5
280
     0
281
     0
  0
CLASS
  1
ACAD_EVALUATION_GRAPH
  2
AcDbEvalGraph
  3
ObjectDBX Classes
 90
     1153
 91
        0
280
     0
281
     0
  0
CLASS
  1
BLOCKVISIBILITYPARAMETER
  2
AcDbBlockVisibilityParameter
  3
ObjectDBX Classes
 90
     1153
 91
        0
280
     0
281
     0
  0
CLASS
  1
BLOCKVISIBILITYGRIP
  2
AcDbBlockVisibilityGrip
  3
ObjectDBX Classes
 90
     1153
 91
        0
280
     0
281
     0
  0
CLASS
  1
BLOCKGRIPLOCATIONCOMPONENT
  2
AcDbBlockGripExpr
  3
ObjectDBX Classes
 90
     1153
 91
        0
280
     0
281
     0
  0
CLASS
  1
BLOCKLINEARPARAMETER
  2
AcDbBlockLinearParameter
  3
ObjectDBX Classes
 90
     1153
 91
        0
280
     0
281
     0
  0
CLASS
  1
BLOCKLINEARGRIP
  2
AcDbBlockLinearGrip
  3
ObjectDBX Classes
 90
     1153
 91
        0
280
     0
281
     0
  0
CLASS
  1
BLOCKSTRETCHACTION
  2
AcDbBlockStretchAction
  3
ObjectDBX Classes
 90
     1153
 91
        0
280
     0
281
     0
  0
CLASS
  1
BLOCKARRAYACTION
  2
AcDbBlockArrayAction
  3
ObjectDBX Classes
 90
     1153
 91
        0
280
     0
281
     0
  0
CLASS
  1
BLOCKBASEPOINTPARAMETER
  2
AcDbBlockBasepointParameter
  3
ObjectDBX Classes
 90
     1153
 91
        0
280
     0
281
     0
  0
CLASS
  1
SORTENTSTABLE
  2
AcDbSortentsTable
  3
ObjectDBX Classes
 90
        0
 91
        0
280
     0
281
     0
  0
CLASS
  1
ACDB_DYNAMICBLOCKPURGEPREVENTER_VERSION
  2
AcDbDynamicBlockPurgePreventer
  3
ObjectDBX Classes
 90
     1153
 91
        0
280
     0
281
     0
  0
CLASS
  1
MATERIAL
  2
AcDbMaterial
  3
ObjectDBX Classes
 90
     1153
 91
        3
280
     0
281
     0
  0
CLASS
  1
ACDB_BLOCKREPRESENTATION_DATA
  2
AcDbBlockRepresentationData
  3
ObjectDBX Classes
 90
     1153
 91
        0
280
     0
281
     0
  0
CLASS
  1
VISUALSTYLE
  2
AcDbVisualStyle
  3
ObjectDBX Classes
 90
     4095
 91
       16
280
     0
281
     0
  0
CLASS
  1
TABLESTYLE
  2
AcDbTableStyle
  3
ObjectDBX Classes
 90
     4095
 91
        1
280
     0
281
     0
  0
CLASS
  1
SCALE
  2
AcDbScale
  3
ObjectDBX Classes
 90
     1153
 91
       33
280
     0
281
     0
  0
CLASS
  1
MLEADERSTYLE
  2
AcDbMLeaderStyle
  3
ACDB_MLEADERSTYLE_CLASS
 90
     4095
 91
        1
280
     0
281
     0
  0
CLASS
  1
EXACXREFPANELOBJECT
  2
ExAcXREFPanelObject
  3
EXAC_ESW
 90
     1025
 91
        0
280
     0
281
     0
  0
CLASS
  1
NPOCOLLECTION
  2
AcDbImpNonPersistentObjectsCollection
  3
ObjectDBX Classes
 90
     1153
 91
        0
280
     0
281
     0
  0
CLASS
  1
EXACTERMXREFMAP
  2
ExAcTermXrefMap
  3
EXAC_SERVICE
 90
     1025
 91
        0
280
     0
281
     0
  0
CLASS
  1
CELLSTYLEMAP
  2
AcDbCellStyleMap
  3
ObjectDBX Classes
 90
     1152
 91
       11
280
     0
281
     0
  0
CLASS
  1
DICTIONARYVAR
  2
AcDbDictionaryVar
  3
ObjectDBX Classes
 90
        0
 91
       10
280
     0
281
     0
  0
ENDSEC
  0
SECTION
  2
TABLES
  0
TABLE
  2
VPORT
  5
19
102
{ACAD_XDICTIONARY
360
4CF
102
}
330
0
100
AcDbSymbolTable
 70
     1
  0
VPORT
  5
43A
330
19
100
AcDbSymbolTableRecord
100
AcDbViewportTableRecord
  2
*Active
 70
     0
 10
0.0
 20
0.0
 11
1.0
 21
1.0
 12
92.51981733933158
 22
65.51986298647756
 13
0.0
 23
0.0
 14
0.5
 24
0.5
 15
0.5
 25
0.5
 16
0.0
 26
0.0
 36
1.0
 17
0.0
 27
0.0
 37
0.0
 40
131.869034325327
 41
2.001044932079414
 42
50.0
 43
0.0
 44
0.0
 50
0.0
 51
0.0
 71
     0
 72
  1000
 73
     1
 74
     2
 75
     0
 76
     0
 77
     0
 78
     0
281
     0
 65
     1
110
0.0
120
0.0
130
0.0
111
1.0
121
0.0
131
0.0
112
0.0
122
1.0
132
0.0
 79
     0
146
0.0
  0
ENDTAB
  0
TABLE
  2
LTYPE
  5
14
330
0
100
AcDbSymbolTable
 70
     6
  0
LTYPE
  5
15
330
14
100
AcDbSymbolTableRecord
100
AcDbLinetypeTableRecord
  2
ByBlock
 70
     0
  3

 72
    65
 73
     0
 40
0.0
  0
LTYPE
  5
16
330
14
100
AcDbSymbolTableRecord
100
AcDbLinetypeTableRecord
  2
ByLayer
 70
     0
  3

 72
    65
 73
     0
 40
0.0
  0
LTYPE
  5
8
330
14
100
AcDbSymbolTableRecord
100
AcDbLinetypeTableRecord
  2
Continuous
 70
     0
  3
Solid line
 72
    65
 73
     0
 40
0.0
  0
ENDTAB
  0
TABLE
  2
LAYER
  5
10
102
{ACAD_XDICTIONARY
360
5AB
102
}
330
0
100
AcDbSymbolTable
 70
    15
  0
LAYER
  5
4
102
{ACAD_XDICTIONARY
360
483
102
}
330
10
100
AcDbSymbolTableRecord
100
AcDbLayerTableRecord
  2
0
 70
     0
 62
     7
  6
Continuous
370
    -3
390
5
  0
LAYER
  5
1F8
102
{ACAD_XDICTIONARY
360
48B
102
}
330
10
100
AcDbSymbolTableRecord
100
AcDbLayerTableRecord
  2
A-ANNO-DIM
 70
     0
 62
     1
  6
Continuous
370
    -3
390
5
  0
LAYER
  5
1FB
102
{ACAD_XDICTIONARY
360
48D
102
}
330
10
100
AcDbSymbolTableRecord
100
AcDbLayerTableRecord
  2
A-ANNO-NOTES
 70
     0
 62
     4
  6
Continuous
370
    -3
390
5
  0
LAYER
  5
216
102
{ACAD_XDICTIONARY
360
38EA
102
}
330
10
100
AcDbSymbolTableRecord
100
AcDbLayerTableRecord
  2
Defpoints
 70
     0
 62
     7
  6
Continuous
290
     0
370
    -3
390
5
  0
LAYER
  5
386E
102
{ACAD_XDICTIONARY
360
38F2
102
}
330
10
100
AcDbSymbolTableRecord
100
AcDbLayerTableRecord
  2
A-AENCL-DETAIL
 70
     0
 62
     2
  6
Continuous
370
    -3
390
5
1001
AcAecLayerStandard
1000

1000

  0
LAYER
  5
392C
102
{ACAD_XDICTIONARY
360
392D
102
}
330
10
100
AcDbSymbolTableRecord
100
AcDbLayerTableRecord
  2
TB
 70
     0
 62
   254
  6
Continuous
370
    70
390
5
  0
ENDTAB
  0
TABLE
  2
STYLE
  5
11
330
0
100
AcDbSymbolTable
 70
     9
  0
STYLE
  5
12
330
11
100
AcDbSymbolTableRecord
100
AcDbTextStyleTableRecord
  2
Standard
 70
     0
 40
0.0
 41
1.0
 50
0.0
 71
     0
 42
1.0
  3
ARIAL.TTF
  4

1001
ACAD
1000
Arial
1071
       34
  0
STYLE
  5
21B
330
11
100
AcDbSymbolTableRecord
100
AcDbTextStyleTableRecord
  2
ARCH
 70
     0
 40
0.0
 41
1.0
 50
0.0
 71
     0
 42
1.0
  3
archquik.shx
  4

  0
STYLE
  5
3C0C
330
11
100
AcDbSymbolTableRecord
100
AcDbTextStyleTableRecord
  2
SLDTEXTSTYLE0
 70
     0
 40
0.0
 41
0.913
 50
0.0
 71
     0
 42
0.2
  3
GOTHIC.TTF
  4

1001
ACAD
1000
Century Gothic
1071
      290
  0
ENDTAB
  0
TABLE
  2
VIEW
  5
17
330
0
100
AcDbSymbolTable
 70
     0
  0
ENDTAB
  0
TABLE
  2
UCS
  5
18
330
0
100
AcDbSymbolTable
 70
     0
  0
ENDTAB
  0
TABLE
  2
APPID
  5
1B
330
0
100
AcDbSymbolTable
 70
    15
  0
APPID
  5
1C
330
1B
100
AcDbSymbolTableRecord
100
AcDbRegAppTableRecord
  2
ACAD
 70
     0
  0
APPID
  5
21F
330
1B
100
AcDbSymbolTableRecord
100
AcDbRegAppTableRecord
  2
ACAD_EXEMPT_FROM_CAD_STANDARDS
 70
     0
  0
APPID
  5
220
330
1B
100
AcDbSymbolTableRecord
100
AcDbRegAppTableRecord
  2
AcDbBlockRepETag
 70
     0
  0
APPID
  5
221
330
1B
100
AcDbSymbolTableRecord
100
AcDbRegAppTableRecord
  2
DWAVARS
 70
     0
  0
APPID
  5
222
330
1B
100
AcDbSymbolTableRecord
100
AcDbRegAppTableRecord
  2
AcDbDynamicBlockTrueName
 70
     0
  0
APPID
  5
223
330
1B
100
AcDbSymbolTableRecord
100
AcDbRegAppTableRecord
  2
AcDbDynamicBlockGUID
 70
     0
  0
APPID
  5
224
330
1B
100
AcDbSymbolTableRecord
100
AcDbRegAppTableRecord
  2
AcDbBlockArrayActionTag
 70
     0
  0
APPID
  5
225
330
1B
100
AcDbSymbolTableRecord
100
AcDbRegAppTableRecord
  2
AcDbBlockRepBTag
 70
     0
  0
APPID
  5
473
330
1B
100
AcDbSymbolTableRecord
100
AcDbRegAppTableRecord
  2
ACAD_MLEADERVER
 70
     0
  0
APPID
  5
4B2
330
1B
100
AcDbSymbolTableRecord
100
AcDbRegAppTableRecord
  2
ACAD_PSEXT
 70
     0
  0
APPID
  5
5AA
330
1B
100
AcDbSymbolTableRecord
100
AcDbRegAppTableRecord
  2
AcAecLayerStandard
 70
     0
  0
APPID
  5
38A1
330
1B
100
AcDbSymbolTableRecord
100
AcDbRegAppTableRecord
  2
AcadAnnoPO
 70
     0
  0
APPID
  5
38FF
330
1B
100
AcDbSymbolTableRecord
100
AcDbRegAppTableRecord
  2
ACAD_DSTYLE_DIMJAG
 70
     0
  0
APPID
  5
3900
330
1B
100
AcDbSymbolTableRecord
100
AcDbRegAppTableRecord
  2
ACAD_DSTYLE_DIMTALN
 70
     0
  0
APPID
  5
3B59
330
1B
100
AcDbSymbolTableRecord
100
AcDbRegAppTableRecord
  2
ACAD_DSTYLE_DIMRADIAL_EXTENSION
 70
     0
  0
ENDTAB
  0
TABLE
  2
DIMSTYLE
  5
1D
330
0
100
AcDbSymbolTable
 70
    13
100
AcDbDimStyleTable
 71
     2
340
21D
340
24
  0
DIMSTYLE
105
24
330
1D
100
AcDbSymbolTableRecord
100
AcDbDimStyleTableRecord
  2
Standard
 70
     0
340
12
  0
DIMSTYLE
105
21D
102
{ACAD_REACTORS
330
4079
330
4091
330
409F
330
40AD
330
40C5
330
40D2
102
}
330
1D
100
AcDbSymbolTableRecord
100
AcDbDimStyleTableRecord
  2
00
 70
     0
 40
8.0
 42
0.1
 44
0.1
 78
     4
140
0.125
170
     1
171
     1
176
     1
177
     1
178
     4
271
     2
272
     2
274
     1
279
     2
284
     4
285
     4
286
     4
288
     1
340
21B
1001
ACAD_DSTYLE_DIMJAG
1070
   388
1040
1.5
1001
ACAD_DSTYLE_DIMTALN
1070
   392
1070
     0
  0
DIMSTYLE
105
3C0D
102
{ACAD_REACTORS
330
3C2C
330
3C2D
102
}
330
1D
100
AcDbSymbolTableRecord
100
AcDbDimStyleTableRecord
  2
SLDDIMSTYLE0
 70
     0
 41
0.5200000000000001
 44
0.0
 45
0.000000001
 78
     4
140
0.5
147
0.125
148
0.000000001
170
     1
173
     1
271
     3
272
     3
284
    12
340
3C0C
  0
DIMSTYLE
105
3C0E
102
{ACAD_REACTORS
330
3C2E
330
3C2F
102
}
330
1D
100
AcDbSymbolTableRecord
100
AcDbDimStyleTableRecord
  2
SLDDIMSTYLE1
 70
     0
 41
0.5200000000000001
 44
0.0
 45
0.000000001
 78
    12
140
0.5
147
0.125
148
0.000000001
170
     1
173
     1
271
     3
272
     3
284
    12
340
3C0C
  0
DIMSTYLE
105
3ED9
102
{ACAD_REACTORS
330
3F03
102
}
330
1D
100
AcDbSymbolTableRecord
100
AcDbDimStyleTableRecord
  2
SLDDIMSTYLE2
 70
     0
 41
1.04
 44
0.0
 45
0.000000001
 78
    12
140
1.0
147
0.25
148
0.000000001
170
     1
173
     1
271
     3
272
     3
284
    12
340
3C0C
  0
ENDTAB
  0
TABLE
  2
BLOCK_RECORD
  5
1
330
0
100
AcDbSymbolTable
 70
    42
  0
BLOCK_RECORD
  5
2
330
1
100
AcDbSymbolTableRecord
100
AcDbBlockTableRecord
  2
*Model_Space
340
A
  0
BLOCK_RECORD
  5
1F31
330
1
100
AcDbSymbolTableRecord
100
AcDbBlockTableRecord
  2
*Paper_Space
340
1F32
  0
BLOCK_RECORD
  5
392E
330
1
100
AcDbSymbolTableRecord
100
AcDbBlockTableRecord
  2
SONANCE C title
340
0
102
{BLKREFS
331
3950
102
}
1001
ACAD
1000
DesignCenter Data
1002
{
1070
     1
1070
     1
1002
}
  0
BLOCK_RECORD
  5
3A5D
330
1
100
AcDbSymbolTableRecord
100
AcDbBlockTableRecord
  2
*D5
340
0
  0
BLOCK_RECORD
  5
3A77
330
1
100
AcDbSymbolTableRecord
100
AcDbBlockTableRecord
  2
*D7
340
0
  0
BLOCK_RECORD
  5
3B5B
330
1
100
AcDbSymbolTableRecord
100
AcDbBlockTableRecord
  2
*D8
340
0
  0
BLOCK_RECORD
  5
3B69
330
1
100
AcDbSymbolTableRecord
100
AcDbBlockTableRecord
  2
*D9
340
0
  0
BLOCK_RECORD
  5
3B89
330
1
100
AcDbSymbolTableRecord
100
AcDbBlockTableRecord
  2
*D11
340
0
  0
BLOCK_RECORD
  5
3BD8
330
1
100
AcDbSymbolTableRecord
100
AcDbBlockTableRecord
  2
*D13
340
0
  0
BLOCK_RECORD
  5
3BE5
330
1
100
AcDbSymbolTableRecord
100
AcDbBlockTableRecord
  2
*D14
340
0
  0
BLOCK_RECORD
  5
3BF2
330
1
100
AcDbSymbolTableRecord
100
AcDbBlockTableRecord
  2
*D15
340
0
  0
BLOCK_RECORD
  5
3BFF
330
1
100
AcDbSymbolTableRecord
100
AcDbBlockTableRecord
  2
*D16
340
0
  0
BLOCK_RECORD
  5
3D1B
330
1
100
AcDbSymbolTableRecord
100
AcDbBlockTableRecord
  2
*D18
340
0
  0
BLOCK_RECORD
  5
3D28
330
1
100
AcDbSymbolTableRecord
100
AcDbBlockTableRecord
  2
*D19
340
0
  0
BLOCK_RECORD
  5
3D35
330
1
100
AcDbSymbolTableRecord
100
AcDbBlockTableRecord
  2
*D20
340
0
  0
BLOCK_RECORD
  5
3D42
330
1
100
AcDbSymbolTableRecord
100
AcDbBlockTableRecord
  2
*D21
340
0
  0
BLOCK_RECORD
  5
3DC8
330
1
100
AcDbSymbolTableRecord
100
AcDbBlockTableRecord
  2
*D22
340
0
  0
BLOCK_RECORD
  5
3DD6
330
1
100
AcDbSymbolTableRecord
100
AcDbBlockTableRecord
  2
*D23
340
0
  0
BLOCK_RECORD
  5
3DE4
330
1
100
AcDbSymbolTableRecord
100
AcDbBlockTableRecord
  2
*D24
340
0
  0
BLOCK_RECORD
  5
3E1A
330
1
100
AcDbSymbolTableRecord
100
AcDbBlockTableRecord
  2
*D25
340
0
  0
BLOCK_RECORD
  5
3E3B
330
1
100
AcDbSymbolTableRecord
100
AcDbBlockTableRecord
  2
*D26
340
0
  0
BLOCK_RECORD
  5
3EB2
330
1
100
AcDbSymbolTableRecord
100
AcDbBlockTableRecord
  2
*D28
340
0
  0
BLOCK_RECORD
  5
3EBF
330
1
100
AcDbSymbolTableRecord
100
AcDbBlockTableRecord
  2
*D29
340
0
  0
BLOCK_RECORD
  5
3ECC
330
1
100
AcDbSymbolTableRecord
100
AcDbBlockTableRecord
  2
*D30
340
0
  0
BLOCK_RECORD
  5
3FF8
330
1
100
AcDbSymbolTableRecord
100
AcDbBlockTableRecord
  2
*D32
340
0
  0
BLOCK_RECORD
  5
4005
330
1
100
AcDbSymbolTableRecord
100
AcDbBlockTableRecord
  2
*D33
340
0
  0
BLOCK_RECORD
  5
4012
330
1
100
AcDbSymbolTableRecord
100
AcDbBlockTableRecord
  2
*D34
340
0
  0
BLOCK_RECORD
  5
407A
330
1
100
AcDbSymbolTableRecord
100
AcDbBlockTableRecord
  2
*D35
340
0
  0
BLOCK_RECORD
  5
4092
330
1
100
AcDbSymbolTableRecord
100
AcDbBlockTableRecord
  2
*D36
340
0
  0
BLOCK_RECORD
  5
40A0
330
1
100
AcDbSymbolTableRecord
100
AcDbBlockTableRecord
  2
*D37
340
0
  0
BLOCK_RECORD
  5
40AE
330
1
100
AcDbSymbolTableRecord
100
AcDbBlockTableRecord
  2
*D38
340
0
  0
BLOCK_RECORD
  5
40C6
330
1
100
AcDbSymbolTableRecord
100
AcDbBlockTableRecord
  2
*D39
340
0
  0
BLOCK_RECORD
  5
40D3
330
1
100
AcDbSymbolTableRecord
100
AcDbBlockTableRecord
  2
*D40
340
0
  0
ENDTAB
  0
ENDSEC
  0
SECTION
  2
BLOCKS
  0
BLOCK
  5
3
330
2
100
AcDbEntity
  8
0
100
AcDbBlockBegin
  2
*Model_Space
 70
     2
 10
0.0
 20
0.0
 30
0.0
  3
*Model_Space
  1

  0
ENDBLK
  5
9
330
2
100
AcDbEntity
  8
0
100
AcDbBlockEnd
  0
BLOCK
  5
1F33
330
1F31
100
AcDbEntity
 67
     1
  8
0
100
AcDbBlockBegin
  2
*Paper_Space
 70
     0
 10
0.0
 20
0.0
 30
0.0
  3
*Paper_Space
  1

  0
ENDBLK
  5
1F34
330
1F31
100
AcDbEntity
 67
     1
  8
0
100
AcDbBlockEnd
  0
BLOCK
  5
394E
330
392E
100
AcDbEntity
  8
0
100
AcDbBlockBegin
  2
SONANCE C title
 70
     0
 10
0.0
 20
0.0
 30
0.0
  3
SONANCE C title
  1

  0
LINE
  5
392F
330
392E
100
AcDbEntity
  8
TB
100
AcDbLine
 10
22.05527055715532
 20
6.245000000000008
 30
0.0
 11
23.13
 21
6.245000000000007
 31
0.0
  0
TEXT
  5
3930
330
392E
100
AcDbEntity
  8
TB
 62
     3
100
AcDbText
 10
22.68521463589621
 20
15.70110031525818
 30
0.0
 40
0.07
  1
REV.
 50
90.0
 72
     1
 11
22.68521463589621
 21
15.81522036982844
 31
0.0
100
AcDbText
  0
TEXT
  5
3931
330
392E
100
AcDbEntity
  8
TB
 62
     3
100
AcDbText
 10
22.68521463589621
 20
13.91872739654802
 30
0.0
 40
0.07
  1
DRAWN - PART NUMBER
 50
90.0
 72
     1
 11
22.68521463589621
 21
14.50274513188226
 31
0.0
100
AcDbText
  0
LINE
  5
3932
330
392E
100
AcDbEntity
  8
TB
 62
     3
100
AcDbLine
 10
22.58
 20
15.45
 30
0.0
 11
23.13
 21
15.45
 31
0.0
  0
TEXT
  5
3933
330
392E
100
AcDbEntity
  8
TB
 62
     3
100
AcDbText
 10
22.75624177926581
 20
6.305659393059728
 30
0.0
 40
0.07
  1
SCALE:
 50
90.0
100
AcDbText
  0
LINE
  5
3934
330
392E
100
AcDbEntity
  8
TB
 62
     3
100
AcDbLine
 10
22.86
 20
6.245000000000007
 30
0.0
 11
22.86
 21
7.770000000000002
 31
0.0
  0
TEXT
  5
3935
330
392E
100
AcDbEntity
  8
TB
 62
     3
100
AcDbText
 10
23.02851249551596
 20
6.305659393059728
 30
0.0
 40
0.07
  1
SHEET:      OF
 50
90.0
100
AcDbText
  0
LINE
  5
3936
330
392E
100
AcDbEntity
  8
TB
 62
     3
100
AcDbLine
 10
22.58
 20
13.64999999999999
 30
0.0
 11
23.13
 21
13.64999999999999
 31
0.0
  0
LINE
  5
3937
330
392E
100
AcDbEntity
  8
TB
100
AcDbLine
 10
22.58
 20
6.245000000000007
 30
0.0
 11
22.58
 21
16.38
 31
0.0
  0
LINE
  5
3938
330
392E
100
AcDbEntity
  8
TB
100
AcDbLine
 10
23.13
 20
0.5000000000000058
 30
0.0
 11
23.13
 21
14.63
 31
0.0
  0
LWPOLYLINE
  5
3939
330
392E
100
AcDbEntity
  8
TB
100
AcDbPolyline
 90
        2
 70
     0
 43
0.0
 10
23.13
 20
0.5000000000000059
 10
23.13
 20
15.88
  0
LWPOLYLINE
  5
393A
330
392E
100
AcDbEntity
  8
TB
100
AcDbPolyline
 90
        2
 70
     0
 43
0.0
 10
22.63
 20
16.38
 10
22.05527055715532
 20
16.38
  0
LINE
  5
393B
330
392E
100
AcDbEntity
  8
TB
100
AcDbLine
 10
22.05527055715532
 20
16.38
 30
0.0
 11
22.05527055715532
 21
0.0000000000000059
 31
0.0
  0
LINE
  5
393C
330
392E
100
AcDbEntity
  8
TB
 62
     3
100
AcDbLine
 10
22.58
 20
7.770000000000004
 30
0.0
 11
23.13
 21
7.770000000000004
 31
0.0
  0
LWPOLYLINE
  5
393D
330
392E
100
AcDbEntity
  8
TB
100
AcDbPolyline
 90
        6
 70
     0
 43
0.0
 10
21.93027055715532
 20
16.38
 10
0.5
 20
16.38
 42
0.4142135623730951
 10
0.0
 20
15.88
 10
0.0
 20
0.5
 42
0.4142135623730951
 10
0.5
 20
0.0
 10
21.93027055715532
 20
0.0
  0
LINE
  5
393E
330
392E
100
AcDbEntity
  8
TB
100
AcDbLine
 10
21.93027055715532
 20
16.38
 30
0.0
 11
21.93027055715532
 21
0.0000000000000059
 31
0.0
  0
LWPOLYLINE
  5
393F
330
392E
100
AcDbEntity
  8
TB
100
AcDbPolyline
 90
        6
 70
     0
 43
0.0
 10
22.05527055715531
 20
0.0
 10
22.63
 20
0.0
 42
0.4142135623730951
 10
23.13
 20
0.5
 10
23.13
 20
15.88
 42
0.4142135623730951
 10
22.63
 20
16.38
 10
22.05527055715531
 20
16.38
  0
LINE
  5
3940
330
392E
100
AcDbEntity
  8
TB
100
AcDbLine
 10
21.93027055715532
 20
-0.0000000000000027
 30
0.0
 11
0.4935834155000004
 21
0.0
 31
0.0
  0
LINE
  5
3941
330
392E
100
AcDbEntity
  8
TB
100
AcDbLine
 10
22.05527055715532
 20
10.47804403519833
 30
0.0
 11
23.13
 21
10.47804403519833
 31
0.0
  0
LWPOLYLINE
  5
3942
102
{ACAD_REACTORS
330
3945
102
}
330
392E
100
AcDbEntity
  8
0
100
AcDbPolyline
 90
        4
 70
     1
 43
0.0
 10
22.56873514127288
 20
1.164880466104363
 10
22.12718259871661
 20
1.164880466104363
 10
22.12718259871661
 20
0.7233279235480952
 10
22.56873514127288
 20
0.7233279235480951
  0
LWPOLYLINE
  5
3943
102
{ACAD_REACTORS
330
3945
102
}
330
392E
100
AcDbEntity
  8
0
100
AcDbPolyline
 90
        4
 70
     1
 43
0.0
 10
22.56873514127288
 20
0.7233279235480951
 10
22.56873514127288
 20
0.4289595618439176
 10
22.86310350297706
 20
0.4289595618439176
 10
22.86310350297706
 20
0.7233279235480951
  0
LWPOLYLINE
  5
3944
102
{ACAD_REACTORS
330
3945
102
}
330
392E
100
AcDbEntity
  8
0
100
AcDbPolyline
 90
        4
 70
     1
 43
0.0
 10
22.86310350297706
 20
0.4289595618439176
 10
22.86310350297706
 20
0.2817753809918267
 10
23.01028768382915
 20
0.2817753809918267
 10
23.01028768382915
 20
0.4289595618439176
  0
HATCH
  5
3945
330
392E
100
AcDbEntity
  8
0
100
AcDbHatch
 10
0.0
 20
0.0
 30
0.0
210
0.0
220
0.0
230
1.0
  2
SOLID
 70
     1
 71
     1
 91
        3
 92
        7
 72
     0
 73
     1
 93
        4
 10
22.12718259871661
 20
1.164880466104363
 10
22.12718259871661
 20
0.7233279235480953
 10
22.56873514127288
 20
0.7233279235480948
 10
22.56873514127288
 20
1.164880466104363
 97
        1
330
3942
 92
        7
 72
     0
 73
     1
 93
        4
 10
22.56873514127288
 20
0.7233279235480951
 10
22.56873514127288
 20
0.4289595618439176
 10
22.86310350297706
 20
0.4289595618439177
 10
22.86310350297705
 20
0.7233279235480951
 97
        1
330
3943
 92
        7
 72
     0
 73
     1
 93
        4
 10
22.86310350297706
 20
0.4289595618439176
 10
22.86310350297705
 20
0.2817753809918267
 10
23.01028768382916
 20
0.2817753809918267
 10
23.01028768382915
 20
0.4289595618439176
 97
        1
330
3944
 75
     0
 76
     1
 47
0.0190738167194834
 98
        3
 10
22.29642082565282
 20
0.9991672460854573
 10
22.68664443696888
 20
0.6284190360521094
 10
22.93649984457154
 20
0.3615926693586694
450
        0
451
        0
460
0.0
461
0.0
452
        1
462
1.0
453
        2
463
0.0
 63
     5
421
      255
463
1.0
 63
     7
421
 16777215
470
LINEAR
  0
TEXT
  5
3946
330
392E
100
AcDbEntity
  8
TB
 62
     3
100
AcDbText
 10
22.6014082205021
 20
1.277470937075838
 30
0.0
 40
0.1002375
  1
212 Avenida Fabricante, San Clemente, CA. 92630
 50
90.0
100
AcDbText
  0
TEXT
  5
3947
330
392E
100
AcDbEntity
  8
TB
 62
     3
100
AcDbText
 10
22.80265277658931
 20
1.277470937075838
 30
0.0
 40
0.1002375
  1
800 582-7777 949 492-7777  FAX 949 361-5579
 50
90.0
100
AcDbText
  0
TEXT
  5
3948
330
392E
100
AcDbEntity
  8
TB
 62
     3
100
AcDbText
 10
22.40077235440836
 20
1.277470937075838
 30
0.0
 40
0.15035625
  1
SONANCE
 50
90.0
100
AcDbText
  0
TEXT
  5
3949
330
392E
100
AcDbEntity
  8
TB
 62
     3
100
AcDbText
 10
22.96939141345307
 20
1.277470937075838
 30
0.0
 40
0.1002375
  1
www.sonance.com
 50
90.0
100
AcDbText
  0
TEXT
  5
394A
330
392E
100
AcDbEntity
  8
TB
 62
     3
100
AcDbText
 10
22.75624177926581
 20
7.830659393059725
 30
0.0
 40
0.07
  1
DRAWN BY:
 50
90.0
100
AcDbText
  0
LINE
  5
394B
330
392E
100
AcDbEntity
  8
TB
 62
     3
100
AcDbLine
 10
22.86
 20
7.770000000000004
 30
0.0
 11
22.86
 21
9.578830931448063
 31
0.0
  0
TEXT
  5
394C
330
392E
100
AcDbEntity
  8
TB
 62
     3
100
AcDbText
 10
23.02851249551596
 20
7.830659393059725
 30
0.0
 40
0.07
  1
RELEASED ON:
 50
90.0
100
AcDbText
  0
LINE
  5
394D
330
392E
100
AcDbEntity
  8
TB
 62
     3
100
AcDbLine
 10
22.58
 20
9.578830931448063
 30
0.0
 11
23.13
 21
9.578830931448063
 31
0.0
  0
ENDBLK
  5
394F
330
392E
100
AcDbEntity
  8
0
100
AcDbBlockEnd
  0
BLOCK
  5
3A5E
330
3A5D
100
AcDbEntity
  8
0
100
AcDbBlockBegin
  2
*D5
 70
     1
 10
0.0
 20
0.0
 30
0.0
  3
*D5
  1

  0
LINE
  5
3B1A
330
3A5D
100
AcDbEntity
  8
A-ANNO-DIM
 62
     1
370
    -2
100
AcDbLine
 10
62.57096160969526
 20
84.8182428299124
 30
0.0
 11
62.57096160969526
 21
93.63714046770791
 31
0.0
  0
LINE
  5
3B1B
330
3A5D
100
AcDbEntity
  8
A-ANNO-DIM
 62
     1
370
    -2
100
AcDbLine
 10
48.57096160969487
 20
84.8182428299124
 30
0.0
 11
48.57096160969487
 21
93.63714046770791
 31
0.0
  0
LINE
  5
3B1C
330
3A5D
100
AcDbEntity
  8
A-ANNO-DIM
 62
     1
370
    -2
100
AcDbLine
 10
64.01096160969526
 20
92.83714046770791
 30
0.0
 11
65.45096160969525
 21
92.83714046770791
 31
0.0
  0
LINE
  5
3B1D
330
3A5D
100
AcDbEntity
  8
A-ANNO-DIM
 62
     1
370
    -2
100
AcDbLine
 10
47.13096160969487
 20
92.83714046770791
 30
0.0
 11
45.69096160969487
 21
92.83714046770791
 31
0.0
  0
MTEXT
  5
3B1E
330
3A5D
100
AcDbEntity
  8
A-ANNO-DIM
 62
     4
100
AcDbMText
 10
54.96558081022062
 20
93.47507150219067
 30
0.0
 40
1.0
 41
0.0
 71
     2
 72
     1
  1
\A1;14.00 [355.6]
  7
ARCH
 73
     1
 44
1.0
  0
SOLID
  5
3B1F
330
3A5D
100
AcDbEntity
  8
A-ANNO-DIM
 62
     1
100
AcDbTrace
 10
64.01096160969526
 20
93.0771404677079
 30
0.0
 11
64.01096160969526
 21
92.59714046770792
 31
0.0
 12
62.57096160969526
 22
92.83714046770791
 32
0.0
 13
62.57096160969526
 23
92.83714046770791
 33
0.0
  0
SOLID
  5
3B20
330
3A5D
100
AcDbEntity
  8
A-ANNO-DIM
 62
     1
100
AcDbTrace
 10
47.13096160969487
 20
93.0771404677079
 30
0.0
 11
47.13096160969487
 21
92.59714046770792
 31
0.0
 12
48.57096160969487
 22
92.83714046770791
 32
0.0
 13
48.57096160969487
 23
92.83714046770791
 33
0.0
  0
POINT
  5
3B21
330
3A5D
100
AcDbEntity
  8
Defpoints
 62
     0
100
AcDbPoint
 10
62.57096160969526
 20
84.0182428299124
 30
0.0
  0
POINT
  5
3B22
330
3A5D
100
AcDbEntity
  8
Defpoints
 62
     0
100
AcDbPoint
 10
48.57096160969487
 20
84.0182428299124
 30
0.0
  0
POINT
  5
3B23
330
3A5D
100
AcDbEntity
  8
Defpoints
 62
     0
100
AcDbPoint
 10
48.57096160969487
 20
92.83714046770791
 30
0.0
  0
ENDBLK
  5
3A5F
330
3A5D
100
AcDbEntity
  8
0
100
AcDbBlockEnd
  0
BLOCK
  5
3A78
330
3A77
100
AcDbEntity
  8
0
100
AcDbBlockBegin
  2
*D7
 70
     1
 10
0.0
 20
0.0
 30
0.0
  3
*D7
  1

  0
LINE
  5
3B9F
330
3A77
100
AcDbEntity
  8
A-ANNO-DIM
 62
     1
370
    -2
100
AcDbLine
 10
63.37096160969503
 20
84.01824282991212
 30
0.0
 11
76.64600754541713
 21
84.01824282991212
 31
0.0
  0
LINE
  5
3BA0
330
3A77
100
AcDbEntity
  8
A-ANNO-DIM
 62
     1
370
    -2
100
AcDbLine
 10
63.37096160969505
 20
57.01824282991267
 30
0.0
 11
76.64600754541713
 21
57.01824282991267
 31
0.0
  0
LINE
  5
3BA1
330
3A77
100
AcDbEntity
  8
A-ANNO-DIM
 62
     1
370
    -2
100
AcDbLine
 10
75.84600754541714
 20
82.57824282991212
 30
0.0
 11
75.84600754541714
 21
71.87617386439514
 31
0.0
  0
LINE
  5
3BA2
330
3A77
100
AcDbEntity
  8
A-ANNO-DIM
 62
     1
370
    -2
100
AcDbLine
 10
75.84600754541714
 20
58.45824282991268
 30
0.0
 11
75.84600754541714
 21
69.16031179542962
 31
0.0
  0
MTEXT
  5
3BA3
330
3A77
100
AcDbEntity
  8
A-ANNO-DIM
 62
     4
100
AcDbMText
 10
75.84600754541714
 20
71.15617386439516
 30
0.0
 40
1.0
 41
0.0
 71
     2
 72
     1
  1
\A1;27.00 [685.8]
  7
ARCH
 73
     1
 44
1.0
  0
SOLID
  5
3BA4
330
3A77
100
AcDbEntity
  8
A-ANNO-DIM
 62
     1
100
AcDbTrace
 10
75.60600754541714
 20
82.57824282991212
 30
0.0
 11
76.08600754541713
 21
82.57824282991212
 31
0.0
 12
75.84600754541714
 22
84.01824282991212
 32
0.0
 13
75.84600754541714
 23
84.01824282991212
 33
0.0
  0
SOLID
  5
3BA5
330
3A77
100
AcDbEntity
  8
A-ANNO-DIM
 62
     1
100
AcDbTrace
 10
75.60600754541714
 20
58.45824282991268
 30
0.0
 11
76.08600754541713
 21
58.45824282991268
 31
0.0
 12
75.84600754541714
 22
57.01824282991267
 32
0.0
 13
75.84600754541714
 23
57.01824282991267
 33
0.0
  0
POINT
  5
3BA6
330
3A77
100
AcDbEntity
  8
Defpoints
 62
     0
100
AcDbPoint
 10
62.57096160969503
 20
84.01824282991212
 30
0.0
  0
POINT
  5
3BA7
330
3A77
100
AcDbEntity
  8
Defpoints
 62
     0
100
AcDbPoint
 10
62.57096160969505
 20
57.01824282991267
 30
0.0
  0
POINT
  5
3BA8
330
3A77
100
AcDbEntity
  8
Defpoints
 62
     0
100
AcDbPoint
 10
75.84600754541714
 20
57.01824282991267
 30
0.0
  0
ENDBLK
  5
3A79
330
3A77
100
AcDbEntity
  8
0
100
AcDbBlockEnd
  0
BLOCK
  5
3B5C
330
3B5B
100
AcDbEntity
  8
0
100
AcDbBlockBegin
  2
*D8
 70
     1
 10
0.0
 20
0.0
 30
0.0
  3
*D8
  1

  0
LINE
  5
3B5E
330
3B5B
100
AcDbEntity
  8
A-ANNO-DIM
 62
     1
370
    -2
100
AcDbLine
 10
54.77096160969505
 20
81.39324282991241
 30
0.0
 11
39.76406458473056
 21
81.39324282991241
 31
0.0
  0
LINE
  5
3B5F
330
3B5B
100
AcDbEntity
  8
A-ANNO-DIM
 62
     1
370
    -2
100
AcDbLine
 10
54.77096160969505
 20
71.1432428299124
 30
0.0
 11
39.76406458473055
 21
71.1432428299124
 31
0.0
  0
LINE
  5
3B60
330
3B5B
100
AcDbEntity
  8
A-ANNO-DIM
 62
     1
370
    -2
100
AcDbLine
 10
40.56406458473055
 20
79.95324282991241
 30
0.0
 11
40.56406458473055
 21
77.65783271558972
 31
0.0
  0
LINE
  5
3B61
330
3B5B
100
AcDbEntity
  8
A-ANNO-DIM
 62
     1
370
    -2
100
AcDbLine
 10
40.56406458473055
 20
72.58324282991241
 30
0.0
 11
40.56406458473055
 21
74.9419706466242
 31
0.0
  0
MTEXT
  5
3B62
330
3B5B
100
AcDbEntity
  8
A-ANNO-DIM
 62
     4
100
AcDbMText
 10
40.56406458473055
 20
76.29990168110698
 30
0.0
 40
1.0
 41
0.0
 71
     5
 72
     1
  1
\A1;10.25 [260.4]
  7
ARCH
 73
     1
 44
1.0
  0
SOLID
  5
3B63
330
3B5B
100
AcDbEntity
  8
A-ANNO-DIM
 62
     1
100
AcDbTrace
 10
40.32406458473054
 20
79.95324282991241
 30
0.0
 11
40.80406458473055
 21
79.95324282991241
 31
0.0
 12
40.56406458473055
 22
81.39324282991241
 32
0.0
 13
40.56406458473055
 23
81.39324282991241
 33
0.0
  0
SOLID
  5
3B64
330
3B5B
100
AcDbEntity
  8
A-ANNO-DIM
 62
     1
100
AcDbTrace
 10
40.32406458473054
 20
72.58324282991241
 30
0.0
 11
40.80406458473055
 21
72.58324282991241
 31
0.0
 12
40.56406458473055
 22
71.1432428299124
 32
0.0
 13
40.56406458473055
 23
71.1432428299124
 33
0.0
  0
POINT
  5
3B65
330
3B5B
100
AcDbEntity
  8
Defpoints
 62
     0
100
AcDbPoint
 10
55.57096160969504
 20
81.39324282991241
 30
0.0
  0
POINT
  5
3B66
330
3B5B
100
AcDbEntity
  8
Defpoints
 62
     0
100
AcDbPoint
 10
55.57096160969504
 20
71.1432428299124
 30
0.0
  0
POINT
  5
3B67
330
3B5B
100
AcDbEntity
  8
Defpoints
 62
     0
100
AcDbPoint
 10
40.56406458473055
 20
71.1432428299124
 30
0.0
  0
ENDBLK
  5
3B5D
330
3B5B
100
AcDbEntity
  8
0
100
AcDbBlockEnd
  0
BLOCK
  5
3B6A
330
3B69
100
AcDbEntity
  8
0
100
AcDbBlockBegin
  2
*D9
 70
     1
 10
0.0
 20
0.0
 30
0.0
  3
*D9
  1

  0
LINE
  5
3B6C
330
3B69
100
AcDbEntity
  8
A-ANNO-DIM
 62
     1
370
    -2
100
AcDbLine
 10
63.37096160969526
 20
111.8563040936295
 30
0.0
 11
73.02609747921422
 21
111.8563040936295
 31
0.0
  0
LINE
  5
3B6D
330
3B69
100
AcDbEntity
  8
A-ANNO-DIM
 62
     1
370
    -2
100
AcDbLine
 10
63.37096160969526
 20
117.8563040936295
 30
0.0
 11
73.02609747921422
 21
117.8563040936295
 31
0.0
  0
LINE
  5
3B6E
330
3B69
100
AcDbEntity
  8
A-ANNO-DIM
 62
     1
370
    -2
100
AcDbLine
 10
72.22609747921421
 20
113.2963040936295
 30
0.0
 11
72.22609747921421
 21
113.4266146234138
 31
0.0
  0
LINE
  5
3B6F
330
3B69
100
AcDbEntity
  8
A-ANNO-DIM
 62
     1
370
    -2
100
AcDbLine
 10
72.22609747921421
 20
116.4163040936295
 30
0.0
 11
72.22609747921421
 21
116.1424766923793
 31
0.0
  0
MTEXT
  5
3B70
330
3B69
100
AcDbEntity
  8
A-ANNO-DIM
 62
     4
100
AcDbMText
 10
72.22609747921421
 20
114.7845456578966
 30
0.0
 40
1.0
 41
0.0
 71
     5
 72
     1
  1
\A1;6.00 [152.4]
  7
ARCH
 73
     1
 44
1.0
  0
SOLID
  5
3B71
330
3B69
100
AcDbEntity
  8
A-ANNO-DIM
 62
     1
100
AcDbTrace
 10
71.98609747921422
 20
113.2963040936295
 30
0.0
 11
72.46609747921421
 21
113.2963040936295
 31
0.0
 12
72.22609747921421
 22
111.8563040936295
 32
0.0
 13
72.22609747921421
 23
111.8563040936295
 33
0.0
  0
SOLID
  5
3B72
330
3B69
100
AcDbEntity
  8
A-ANNO-DIM
 62
     1
100
AcDbTrace
 10
71.98609747921422
 20
116.4163040936295
 30
0.0
 11
72.46609747921421
 21
116.4163040936295
 31
0.0
 12
72.22609747921421
 22
117.8563040936295
 32
0.0
 13
72.22609747921421
 23
117.8563040936295
 33
0.0
  0
POINT
  5
3B73
330
3B69
100
AcDbEntity
  8
Defpoints
 62
     0
100
AcDbPoint
 10
62.57096160969526
 20
111.8563040936295
 30
0.0
  0
POINT
  5
3B74
330
3B69
100
AcDbEntity
  8
Defpoints
 62
     0
100
AcDbPoint
 10
62.57096160969526
 20
117.8563040936295
 30
0.0
  0
POINT
  5
3B75
330
3B69
100
AcDbEntity
  8
Defpoints
 62
     0
100
AcDbPoint
 10
72.22609747921421
 20
117.8563040936295
 30
0.0
  0
ENDBLK
  5
3B6B
330
3B69
100
AcDbEntity
  8
0
100
AcDbBlockEnd
  0
BLOCK
  5
3B8A
330
3B89
100
AcDbEntity
  8
0
100
AcDbBlockBegin
  2
*D11
 70
     1
 10
0.0
 20
0.0
 30
0.0
  3
*D11
  1

  0
LINE
  5
3BA9
330
3B89
100
AcDbEntity
  8
A-AENCL-DETAIL
 62
     1
370
    -2
100
AcDbLine
 10
63.37096160969522
 20
84.0182428299124
 30
0.0
 11
69.67231919037958
 21
84.0182428299124
 31
0.0
  0
LINE
  5
3BAA
330
3B89
100
AcDbEntity
  8
A-AENCL-DETAIL
 62
     1
370
    -2
100
AcDbLine
 10
56.62096160969504
 20
76.26824282991241
 30
0.0
 11
69.67231919037958
 21
76.26824282991241
 31
0.0
  0
LINE
  5
3BAB
330
3B89
100
AcDbEntity
  8
A-AENCL-DETAIL
 62
     1
370
    -2
100
AcDbLine
 10
68.87231919037958
 20
85.4582428299124
 30
0.0
 11
68.87231919037958
 21
86.8982428299124
 31
0.0
  0
LINE
  5
3BAC
330
3B89
100
AcDbEntity
  8
A-AENCL-DETAIL
 62
     1
370
    -2
100
AcDbLine
 10
68.87231919037958
 20
74.82824282991241
 30
0.0
 11
68.87231919037958
 21
73.38824282991241
 31
0.0
  0
MTEXT
  5
3BAD
330
3B89
100
AcDbEntity
  8
A-AENCL-DETAIL
 62
     4
100
AcDbMText
 10
68.87231919037958
 20
79.05091029404331
 30
0.0
 40
1.0
 41
0.0
 71
     5
 72
     1
  1
\A1;7.75 [196.9]
  7
ARCH
 73
     1
 44
1.0
  0
SOLID
  5
3BAE
330
3B89
100
AcDbEntity
  8
A-AENCL-DETAIL
 62
     1
100
AcDbTrace
 10
68.63231919037959
 20
85.4582428299124
 30
0.0
 11
69.11231919037958
 21
85.4582428299124
 31
0.0
 12
68.87231919037958
 22
84.0182428299124
 32
0.0
 13
68.87231919037958
 23
84.0182428299124
 33
0.0
  0
SOLID
  5
3BAF
330
3B89
100
AcDbEntity
  8
A-AENCL-DETAIL
 62
     1
100
AcDbTrace
 10
68.63231919037959
 20
74.82824282991241
 30
0.0
 11
69.11231919037958
 21
74.82824282991241
 31
0.0
 12
68.87231919037958
 22
76.26824282991241
 32
0.0
 13
68.87231919037958
 23
76.26824282991241
 33
0.0
  0
POINT
  5
3BB0
330
3B89
100
AcDbEntity
  8
Defpoints
 62
     0
100
AcDbPoint
 10
62.57096160969523
 20
84.0182428299124
 30
0.0
  0
POINT
  5
3BB1
330
3B89
100
AcDbEntity
  8
Defpoints
 62
     0
100
AcDbPoint
 10
55.82096160969505
 20
76.26824282991241
 30
0.0
  0
POINT
  5
3BB2
330
3B89
100
AcDbEntity
  8
Defpoints
 62
     0
100
AcDbPoint
 10
68.87231919037958
 20
76.26824282991241
 30
0.0
  0
ENDBLK
  5
3B8B
330
3B89
100
AcDbEntity
  8
0
100
AcDbBlockEnd
  0
BLOCK
  5
3BD9
330
3BD8
100
AcDbEntity
  8
0
100
AcDbBlockBegin
  2
*D13
 70
     1
 10
0.0
 20
0.0
 30
0.0
  3
*D13
  1

  0
LINE
  5
3BDA
330
3BD8
100
AcDbEntity
  8
0
 62
     0
370
    -2
100
AcDbLine
 10
30.03539042443199
 20
56.33700330793902
 30
0.0
 11
30.03539042443199
 21
57.84930645754536
 31
0.0
  0
LINE
  5
3BDB
330
3BD8
100
AcDbEntity
  8
0
 62
     0
370
    -2
100
AcDbLine
 10
44.03539042443209
 20
56.33700330793903
 30
0.0
 11
44.03539042443209
 21
57.84930645754536
 31
0.0
  0
LINE
  5
3BDC
330
3BD8
100
AcDbEntity
  8
0
 62
     0
370
    -2
100
AcDbLine
 10
30.55539042443199
 20
57.84930645754536
 30
0.0
 11
36.32523532243987
 21
57.84930645754536
 31
0.0
  0
LINE
  5
3BDD
330
3BD8
100
AcDbEntity
  8
0
 62
     0
370
    -2
100
AcDbLine
 10
43.51539042443208
 20
57.84930645754536
 30
0.0
 11
40.8913481708423
 21
57.84930645754536
 31
0.0
  0
SOLID
  5
3BDE
330
3BD8
100
AcDbEntity
  8
0
 62
     0
100
AcDbTrace
 10
30.55539042443199
 20
57.93597312421202
 30
0.0
 11
30.55539042443199
 21
57.76263979087869
 31
0.0
 12
30.03539042443199
 22
57.84930645754536
 32
0.0
 13
30.03539042443199
 23
57.84930645754536
 33
0.0
  0
SOLID
  5
3BDF
330
3BD8
100
AcDbEntity
  8
0
 62
     0
100
AcDbTrace
 10
43.51539042443208
 20
57.93597312421202
 30
0.0
 11
43.51539042443208
 21
57.76263979087869
 31
0.0
 12
44.03539042443209
 22
57.84930645754536
 32
0.0
 13
44.03539042443209
 23
57.84930645754536
 33
0.0
  0
MTEXT
  5
3BE0
330
3BD8
100
AcDbEntity
  8
0
 62
     0
100
AcDbMText
 10
38.60829174664109
 20
58.17323575734142
 30
0.0
 40
0.5
 41
0.0
 71
     2
 72
     1
  1
\A1;14.000 [355.60]
  7
SLDTEXTSTYLE0
 73
     1
 44
1.0
  0
POINT
  5
3BE1
330
3BD8
100
AcDbEntity
  8
Defpoints
 62
     0
100
AcDbPoint
 10
30.03539042443199
 20
56.27450330793902
 30
0.0
  0
POINT
  5
3BE2
330
3BD8
100
AcDbEntity
  8
Defpoints
 62
     0
100
AcDbPoint
 10
44.03539042443209
 20
56.27450330793902
 30
0.0
  0
POINT
  5
3BE3
330
3BD8
100
AcDbEntity
  8
Defpoints
 62
     0
100
AcDbPoint
 10
44.03539042443209
 20
57.84930645754536
 30
0.0
  0
ENDBLK
  5
3BE4
330
3BD8
100
AcDbEntity
  8
0
100
AcDbBlockEnd
  0
BLOCK
  5
3BE6
330
3BE5
100
AcDbEntity
  8
0
100
AcDbBlockBegin
  2
*D14
 70
     1
 10
0.0
 20
0.0
 30
0.0
  3
*D14
  1

  0
LINE
  5
3BE7
330
3BE5
100
AcDbEntity
  8
0
 62
     0
370
    -2
100
AcDbLine
 10
44.09789042443203
 20
56.27450330793892
 30
0.0
 11
48.44483924332972
 21
56.27450330793891
 31
0.0
  0
LINE
  5
3BE8
330
3BE5
100
AcDbEntity
  8
0
 62
     0
370
    -2
100
AcDbLine
 10
44.09789042443203
 20
35.77450330793912
 30
0.0
 11
48.44483924332971
 21
35.77450330793911
 31
0.0
  0
LINE
  5
3BE9
330
3BE5
100
AcDbEntity
  8
0
 62
     0
370
    -2
100
AcDbLine
 10
48.44483924332972
 20
55.75450330793891
 30
0.0
 11
48.44483924332971
 21
47.49553198693614
 31
0.0
  0
LINE
  5
3BEA
330
3BE5
100
AcDbEntity
  8
0
 62
     0
370
    -2
100
AcDbLine
 10
48.44483924332971
 20
36.29450330793911
 30
0.0
 11
48.44483924332971
 21
46.59767338734402
 31
0.0
  0
SOLID
  5
3BEB
330
3BE5
100
AcDbEntity
  8
0
 62
     0
100
AcDbTrace
 10
48.35817257666305
 20
55.75450330793891
 30
0.0
 11
48.53150590999638
 21
55.75450330793891
 31
0.0
 12
48.44483924332972
 22
56.27450330793891
 32
0.0
 13
48.44483924332972
 23
56.27450330793891
 33
0.0
  0
SOLID
  5
3BEC
330
3BE5
100
AcDbEntity
  8
0
 62
     0
100
AcDbTrace
 10
48.35817257666304
 20
36.29450330793911
 30
0.0
 11
48.53150590999637
 21
36.29450330793911
 31
0.0
 12
48.44483924332971
 22
35.77450330793911
 32
0.0
 13
48.44483924332971
 23
35.77450330793911
 33
0.0
  0
MTEXT
  5
3BED
330
3BE5
100
AcDbEntity
  8
0
 62
     0
100
AcDbMText
 10
48.4448392433297
 20
47.37053198693614
 30
0.0
 40
0.5
 41
0.0
 71
     2
 72
     1
  1
\A1;20.500 [520.70]
  7
SLDTEXTSTYLE0
 73
     1
 44
1.0
  0
POINT
  5
3BEE
330
3BE5
100
AcDbEntity
  8
Defpoints
 62
     0
100
AcDbPoint
 10
44.03539042443203
 20
56.27450330793892
 30
0.0
  0
POINT
  5
3BEF
330
3BE5
100
AcDbEntity
  8
Defpoints
 62
     0
100
AcDbPoint
 10
44.03539042443203
 20
35.77450330793912
 30
0.0
  0
POINT
  5
3BF0
330
3BE5
100
AcDbEntity
  8
Defpoints
 62
     0
100
AcDbPoint
 10
48.44483924332971
 20
35.77450330793911
 30
0.0
  0
ENDBLK
  5
3BF1
330
3BE5
100
AcDbEntity
  8
0
100
AcDbBlockEnd
  0
BLOCK
  5
3BF3
330
3BF2
100
AcDbEntity
  8
0
100
AcDbBlockBegin
  2
*D15
 70
     1
 10
0.0
 20
0.0
 30
0.0
  3
*D15
  1

  0
LINE
  5
3BF4
330
3BF2
100
AcDbEntity
  8
0
 62
     0
370
    -2
100
AcDbLine
 10
33.03539042443204
 20
53.71200330793902
 30
0.0
 11
23.73617782600681
 21
53.71200330793902
 31
0.0
  0
LINE
  5
3BF5
330
3BF2
100
AcDbEntity
  8
0
 62
     0
370
    -2
100
AcDbLine
 10
33.03539042443205
 20
45.33700330793902
 30
0.0
 11
23.73617782600681
 21
45.33700330793902
 31
0.0
  0
LINE
  5
3BF6
330
3BF2
100
AcDbEntity
  8
0
 62
     0
370
    -2
100
AcDbLine
 10
23.73617782600681
 20
53.19200330793901
 30
0.0
 11
23.73617782600681
 21
50.49092546102443
 31
0.0
  0
LINE
  5
3BF7
330
3BF2
100
AcDbEntity
  8
0
 62
     0
370
    -2
100
AcDbLine
 10
23.73617782600681
 20
45.85700330793903
 30
0.0
 11
23.73617782600681
 21
49.59306686143232
 31
0.0
  0
SOLID
  5
3BF8
330
3BF2
100
AcDbEntity
  8
0
 62
     0
100
AcDbTrace
 10
23.64951115934015
 20
53.19200330793901
 30
0.0
 11
23.82284449267348
 21
53.19200330793901
 31
0.0
 12
23.73617782600681
 22
53.71200330793902
 32
0.0
 13
23.73617782600681
 23
53.71200330793902
 33
0.0
  0
SOLID
  5
3BF9
330
3BF2
100
AcDbEntity
  8
0
 62
     0
100
AcDbTrace
 10
23.64951115934015
 20
45.85700330793903
 30
0.0
 11
23.82284449267348
 21
45.85700330793903
 31
0.0
 12
23.73617782600681
 22
45.33700330793902
 32
0.0
 13
23.73617782600681
 23
45.33700330793902
 33
0.0
  0
MTEXT
  5
3BFA
330
3BF2
100
AcDbEntity
  8
0
 62
     0
100
AcDbMText
 10
23.73617782600681
 20
50.36592546102443
 30
0.0
 40
0.5
 41
0.0
 71
     2
 72
     1
  1
\A1;8.375 [212.72]
  7
SLDTEXTSTYLE0
 73
     1
 44
1.0
  0
POINT
  5
3BFB
330
3BF2
100
AcDbEntity
  8
Defpoints
 62
     0
100
AcDbPoint
 10
33.09789042443204
 20
53.71200330793902
 30
0.0
  0
POINT
  5
3BFC
330
3BF2
100
AcDbEntity
  8
Defpoints
 62
     0
100
AcDbPoint
 10
33.09789042443205
 20
45.33700330793902
 30
0.0
  0
POINT
  5
3BFD
330
3BF2
100
AcDbEntity
  8
Defpoints
 62
     0
100
AcDbPoint
 10
23.73617782600681
 20
45.33700330793902
 30
0.0
  0
ENDBLK
  5
3BFE
330
3BF2
100
AcDbEntity
  8
0
100
AcDbBlockEnd
  0
BLOCK
  5
3C00
330
3BFF
100
AcDbEntity
  8
0
100
AcDbBlockBegin
  2
*D16
 70
     1
 10
0.0
 20
0.0
 30
0.0
  3
*D16
  1

  0
LINE
  5
3C01
330
3BFF
100
AcDbEntity
  8
0
 62
     0
370
    -2
100
AcDbLine
 10
32.84789042443204
 20
45.52450330793901
 30
0.0
 11
32.84789042443204
 21
40.85612284069097
 31
0.0
  0
LINE
  5
3C02
330
3BFF
100
AcDbEntity
  8
0
 62
     0
370
    -2
100
AcDbLine
 10
41.22289042443204
 20
45.52450330793901
 30
0.0
 11
41.22289042443204
 21
40.85612284069097
 31
0.0
  0
LINE
  5
3C03
330
3BFF
100
AcDbEntity
  8
0
 62
     0
370
    -2
100
AcDbLine
 10
33.36789042443204
 20
40.85612284069097
 30
0.0
 11
35.0024877983301
 21
40.85612284069097
 31
0.0
  0
LINE
  5
3C04
330
3BFF
100
AcDbEntity
  8
0
 62
     0
370
    -2
100
AcDbLine
 10
40.70289042443204
 20
40.85612284069097
 30
0.0
 11
39.28526652028796
 21
40.85612284069097
 31
0.0
  0
SOLID
  5
3C05
330
3BFF
100
AcDbEntity
  8
0
 62
     0
100
AcDbTrace
 10
33.36789042443204
 20
40.94278950735763
 30
0.0
 11
33.36789042443204
 21
40.7694561740243
 31
0.0
 12
32.84789042443204
 22
40.85612284069097
 32
0.0
 13
32.84789042443204
 23
40.85612284069097
 33
0.0
  0
SOLID
  5
3C06
330
3BFF
100
AcDbEntity
  8
0
 62
     0
100
AcDbTrace
 10
40.70289042443204
 20
40.94278950735763
 30
0.0
 11
40.70289042443204
 21
40.7694561740243
 31
0.0
 12
41.22289042443204
 22
40.85612284069097
 32
0.0
 13
41.22289042443204
 23
40.85612284069097
 33
0.0
  0
MTEXT
  5
3C07
330
3BFF
100
AcDbEntity
  8
0
 62
     0
100
AcDbMText
 10
37.14387715930903
 20
41.18005214048703
 30
0.0
 40
0.5
 41
0.0
 71
     2
 72
     1
  1
\A1;8.375 [212.73]
  7
SLDTEXTSTYLE0
 73
     1
 44
1.0
  0
POINT
  5
3C08
330
3BFF
100
AcDbEntity
  8
Defpoints
 62
     0
100
AcDbPoint
 10
32.84789042443204
 20
45.58700330793902
 30
0.0
  0
POINT
  5
3C09
330
3BFF
100
AcDbEntity
  8
Defpoints
 62
     0
100
AcDbPoint
 10
41.22289042443204
 20
45.58700330793902
 30
0.0
  0
POINT
  5
3C0A
330
3BFF
100
AcDbEntity
  8
Defpoints
 62
     0
100
AcDbPoint
 10
41.22289042443204
 20
40.85612284069097
 30
0.0
  0
ENDBLK
  5
3C0B
330
3BFF
100
AcDbEntity
  8
0
100
AcDbBlockEnd
  0
BLOCK
  5
3D1C
330
3D1B
100
AcDbEntity
  8
0
100
AcDbBlockBegin
  2
*D18
 70
     1
 10
0.0
 20
0.0
 30
0.0
  3
*D18
  1

  0
LINE
  5
3DBD
330
3D1B
100
AcDbEntity
  8
A-AENCL-DETAIL
 62
     0
370
    -2
100
AcDbLine
 10
226.356760487105
 20
84.49843457079984
 30
0.0
 11
226.356760487105
 21
86.01073772040619
 31
0.0
  0
LINE
  5
3DBE
330
3D1B
100
AcDbEntity
  8
A-AENCL-DETAIL
 62
     0
370
    -2
100
AcDbLine
 10
240.3567604871051
 20
84.49843457079984
 30
0.0
 11
240.3567604871051
 21
86.01073772040619
 31
0.0
  0
LINE
  5
3DBF
330
3D1B
100
AcDbEntity
  8
A-AENCL-DETAIL
 62
     0
370
    -2
100
AcDbLine
 10
226.876760487105
 20
86.01073772040619
 30
0.0
 11
232.6466053851129
 21
86.01073772040619
 31
0.0
  0
LINE
  5
3DC0
330
3D1B
100
AcDbEntity
  8
A-AENCL-DETAIL
 62
     0
370
    -2
100
AcDbLine
 10
239.8367604871051
 20
86.01073772040619
 30
0.0
 11
237.2127182335153
 21
86.01073772040619
 31
0.0
  0
SOLID
  5
3DC1
330
3D1B
100
AcDbEntity
  8
A-AENCL-DETAIL
 62
     0
100
AcDbTrace
 10
226.876760487105
 20
86.09740438707286
 30
0.0
 11
226.876760487105
 21
85.92407105373951
 31
0.0
 12
226.356760487105
 22
86.01073772040619
 32
0.0
 13
226.356760487105
 23
86.01073772040619
 33
0.0
  0
SOLID
  5
3DC2
330
3D1B
100
AcDbEntity
  8
A-AENCL-DETAIL
 62
     0
100
AcDbTrace
 10
239.8367604871051
 20
86.09740438707286
 30
0.0
 11
239.8367604871051
 21
85.92407105373951
 31
0.0
 12
240.3567604871051
 22
86.01073772040619
 32
0.0
 13
240.3567604871051
 23
86.01073772040619
 33
0.0
  0
MTEXT
  5
3DC3
330
3D1B
100
AcDbEntity
  8
A-AENCL-DETAIL
 62
     0
100
AcDbMText
 10
234.9296618093141
 20
86.33466702020225
 30
0.0
 40
0.5
 41
0.0
 71
     2
 72
     1
  1
\A1;14.000 [355.60]
  7
SLDTEXTSTYLE0
 73
     1
 44
1.0
  0
POINT
  5
3DC4
330
3D1B
100
AcDbEntity
  8
Defpoints
 62
     0
100
AcDbPoint
 10
226.356760487105
 20
84.43593457079984
 30
0.0
  0
POINT
  5
3DC5
330
3D1B
100
AcDbEntity
  8
Defpoints
 62
     0
100
AcDbPoint
 10
240.3567604871051
 20
84.43593457079984
 30
0.0
  0
POINT
  5
3DC6
330
3D1B
100
AcDbEntity
  8
Defpoints
 62
     0
100
AcDbPoint
 10
240.3567604871051
 20
86.01073772040619
 30
0.0
  0
ENDBLK
  5
3D1D
330
3D1B
100
AcDbEntity
  8
0
100
AcDbBlockEnd
  0
BLOCK
  5
3D29
330
3D28
100
AcDbEntity
  8
0
100
AcDbBlockBegin
  2
*D19
 70
     1
 10
0.0
 20
0.0
 30
0.0
  3
*D19
  1

  0
LINE
  5
3DB3
330
3D28
100
AcDbEntity
  8
A-AENCL-DETAIL
 62
     0
370
    -2
100
AcDbLine
 10
240.419260487105
 20
84.43593457079973
 30
0.0
 11
244.7662093060027
 21
84.43593457079973
 31
0.0
  0
LINE
  5
3DB4
330
3D28
100
AcDbEntity
  8
A-AENCL-DETAIL
 62
     0
370
    -2
100
AcDbLine
 10
240.419260487105
 20
63.93593457079993
 30
0.0
 11
244.7662093060027
 21
63.93593457079993
 31
0.0
  0
LINE
  5
3DB5
330
3D28
100
AcDbEntity
  8
A-AENCL-DETAIL
 62
     0
370
    -2
100
AcDbLine
 10
244.7662093060027
 20
83.91593457079974
 30
0.0
 11
244.7662093060027
 21
75.65696324979693
 31
0.0
  0
LINE
  5
3DB6
330
3D28
100
AcDbEntity
  8
A-AENCL-DETAIL
 62
     0
370
    -2
100
AcDbLine
 10
244.7662093060027
 20
64.45593457079993
 30
0.0
 11
244.7662093060027
 21
74.7591046502048
 31
0.0
  0
SOLID
  5
3DB7
330
3D28
100
AcDbEntity
  8
A-AENCL-DETAIL
 62
     0
100
AcDbTrace
 10
244.6795426393361
 20
83.91593457079974
 30
0.0
 11
244.8528759726694
 21
83.91593457079974
 31
0.0
 12
244.7662093060027
 22
84.43593457079973
 32
0.0
 13
244.7662093060027
 23
84.43593457079973
 33
0.0
  0
SOLID
  5
3DB8
330
3D28
100
AcDbEntity
  8
A-AENCL-DETAIL
 62
     0
100
AcDbTrace
 10
244.6795426393361
 20
64.45593457079993
 30
0.0
 11
244.8528759726694
 21
64.45593457079993
 31
0.0
 12
244.7662093060027
 22
63.93593457079993
 32
0.0
 13
244.7662093060027
 23
63.93593457079993
 33
0.0
  0
MTEXT
  5
3DB9
330
3D28
100
AcDbEntity
  8
A-AENCL-DETAIL
 62
     0
100
AcDbMText
 10
244.7662093060027
 20
75.53196324979698
 30
0.0
 40
0.5
 41
0.0
 71
     2
 72
     1
  1
\A1;20.500 [520.70]
  7
SLDTEXTSTYLE0
 73
     1
 44
1.0
  0
POINT
  5
3DBA
330
3D28
100
AcDbEntity
  8
Defpoints
 62
     0
100
AcDbPoint
 10
240.356760487105
 20
84.43593457079973
 30
0.0
  0
POINT
  5
3DBB
330
3D28
100
AcDbEntity
  8
Defpoints
 62
     0
100
AcDbPoint
 10
240.356760487105
 20
63.93593457079993
 30
0.0
  0
POINT
  5
3DBC
330
3D28
100
AcDbEntity
  8
Defpoints
 62
     0
100
AcDbPoint
 10
244.7662093060027
 20
63.93593457079993
 30
0.0
  0
ENDBLK
  5
3D2A
330
3D28
100
AcDbEntity
  8
0
100
AcDbBlockEnd
  0
BLOCK
  5
3D36
330
3D35
100
AcDbEntity
  8
0
100
AcDbBlockBegin
  2
*D20
 70
     1
 10
0.0
 20
0.0
 30
0.0
  3
*D20
  1

  0
LINE
  5
3DA9
330
3D35
100
AcDbEntity
  8
A-AENCL-DETAIL
 62
     0
370
    -2
100
AcDbLine
 10
229.356760487105
 20
81.87343457079984
 30
0.0
 11
220.0575478886798
 21
81.87343457079986
 31
0.0
  0
LINE
  5
3DAA
330
3D35
100
AcDbEntity
  8
A-AENCL-DETAIL
 62
     0
370
    -2
100
AcDbLine
 10
229.356760487105
 20
73.49843457079984
 30
0.0
 11
220.0575478886798
 21
73.49843457079986
 31
0.0
  0
LINE
  5
3DAB
330
3D35
100
AcDbEntity
  8
A-AENCL-DETAIL
 62
     0
370
    -2
100
AcDbLine
 10
220.0575478886798
 20
81.35343457079986
 30
0.0
 11
220.0575478886798
 21
78.65235672388523
 31
0.0
  0
LINE
  5
3DAC
330
3D35
100
AcDbEntity
  8
A-AENCL-DETAIL
 62
     0
370
    -2
100
AcDbLine
 10
220.0575478886798
 20
74.01843457079985
 30
0.0
 11
220.0575478886798
 21
77.75449812429311
 31
0.0
  0
SOLID
  5
3DAD
330
3D35
100
AcDbEntity
  8
A-AENCL-DETAIL
 62
     0
100
AcDbTrace
 10
219.9708812220132
 20
81.35343457079986
 30
0.0
 11
220.1442145553465
 21
81.35343457079986
 31
0.0
 12
220.0575478886798
 22
81.87343457079986
 32
0.0
 13
220.0575478886798
 23
81.87343457079986
 33
0.0
  0
SOLID
  5
3DAE
330
3D35
100
AcDbEntity
  8
A-AENCL-DETAIL
 62
     0
100
AcDbTrace
 10
219.9708812220132
 20
74.01843457079985
 30
0.0
 11
220.1442145553465
 21
74.01843457079985
 31
0.0
 12
220.0575478886798
 22
73.49843457079986
 32
0.0
 13
220.0575478886798
 23
73.49843457079986
 33
0.0
  0
MTEXT
  5
3DAF
330
3D35
100
AcDbEntity
  8
A-AENCL-DETAIL
 62
     0
100
AcDbMText
 10
220.0575478886798
 20
78.52735672388526
 30
0.0
 40
0.5
 41
0.0
 71
     2
 72
     1
  1
\A1;8.375 [212.73]
  7
SLDTEXTSTYLE0
 73
     1
 44
1.0
  0
POINT
  5
3DB0
330
3D35
100
AcDbEntity
  8
Defpoints
 62
     0
100
AcDbPoint
 10
229.419260487105
 20
81.87343457079984
 30
0.0
  0
POINT
  5
3DB1
330
3D35
100
AcDbEntity
  8
Defpoints
 62
     0
100
AcDbPoint
 10
229.419260487105
 20
73.49843457079984
 30
0.0
  0
POINT
  5
3DB2
330
3D35
100
AcDbEntity
  8
Defpoints
 62
     0
100
AcDbPoint
 10
220.0575478886798
 20
73.49843457079986
 30
0.0
  0
ENDBLK
  5
3D37
330
3D35
100
AcDbEntity
  8
0
100
AcDbBlockEnd
  0
BLOCK
  5
3D43
330
3D42
100
AcDbEntity
  8
0
100
AcDbBlockBegin
  2
*D21
 70
     1
 10
0.0
 20
0.0
 30
0.0
  3
*D21
  1

  0
LINE
  5
3D9F
330
3D42
100
AcDbEntity
  8
A-AENCL-DETAIL
 62
     0
370
    -2
100
AcDbLine
 10
229.169260487105
 20
73.68593457079985
 30
0.0
 11
229.169260487105
 21
69.01755410355178
 31
0.0
  0
LINE
  5
3DA0
330
3D42
100
AcDbEntity
  8
A-AENCL-DETAIL
 62
     0
370
    -2
100
AcDbLine
 10
237.5442604871051
 20
73.68593457079985
 30
0.0
 11
237.5442604871051
 21
69.01755410355178
 31
0.0
  0
LINE
  5
3DA1
330
3D42
100
AcDbEntity
  8
A-AENCL-DETAIL
 62
     0
370
    -2
100
AcDbLine
 10
229.689260487105
 20
69.01755410355178
 30
0.0
 11
231.3238578610031
 21
69.01755410355178
 31
0.0
  0
LINE
  5
3DA2
330
3D42
100
AcDbEntity
  8
A-AENCL-DETAIL
 62
     0
370
    -2
100
AcDbLine
 10
237.024260487105
 20
69.01755410355178
 30
0.0
 11
235.6066365829609
 21
69.01755410355178
 31
0.0
  0
SOLID
  5
3DA3
330
3D42
100
AcDbEntity
  8
A-AENCL-DETAIL
 62
     0
100
AcDbTrace
 10
229.689260487105
 20
69.10422077021846
 30
0.0
 11
229.689260487105
 21
68.93088743688512
 31
0.0
 12
229.169260487105
 22
69.01755410355178
 32
0.0
 13
229.169260487105
 23
69.01755410355178
 33
0.0
  0
SOLID
  5
3DA4
330
3D42
100
AcDbEntity
  8
A-AENCL-DETAIL
 62
     0
100
AcDbTrace
 10
237.024260487105
 20
69.10422077021846
 30
0.0
 11
237.024260487105
 21
68.93088743688512
 31
0.0
 12
237.5442604871051
 22
69.01755410355178
 32
0.0
 13
237.5442604871051
 23
69.01755410355178
 33
0.0
  0
MTEXT
  5
3DA5
330
3D42
100
AcDbEntity
  8
A-AENCL-DETAIL
 62
     0
100
AcDbMText
 10
233.465247221982
 20
69.34148340334785
 30
0.0
 40
0.5
 41
0.0
 71
     2
 72
     1
  1
\A1;8.375 [212.73]
  7
SLDTEXTSTYLE0
 73
     1
 44
1.0
  0
POINT
  5
3DA6
330
3D42
100
AcDbEntity
  8
Defpoints
 62
     0
100
AcDbPoint
 10
229.169260487105
 20
73.74843457079984
 30
0.0
  0
POINT
  5
3DA7
330
3D42
100
AcDbEntity
  8
Defpoints
 62
     0
100
AcDbPoint
 10
237.5442604871051
 20
73.74843457079984
 30
0.0
  0
POINT
  5
3DA8
330
3D42
100
AcDbEntity
  8
Defpoints
 62
     0
100
AcDbPoint
 10
237.5442604871051
 20
69.01755410355178
 30
0.0
  0
ENDBLK
  5
3D44
330
3D42
100
AcDbEntity
  8
0
100
AcDbBlockEnd
  0
BLOCK
  5
3DC9
330
3DC8
100
AcDbEntity
  8
0
100
AcDbBlockBegin
  2
*D22
 70
     1
 10
0.0
 20
0.0
 30
0.0
  3
*D22
  1

  0
LINE
  5
3E8E
330
3DC8
100
AcDbEntity
  8
A-ANNO-DIM
 62
     1
370
    -2
100
AcDbLine
 10
50.91129801905546
 20
89.56621573405966
 30
0.0
 11
50.91129801905546
 21
97.52092080849632
 31
0.0
  0
LINE
  5
3E8F
330
3DC8
100
AcDbEntity
  8
A-ANNO-DIM
 62
     1
370
    -2
100
AcDbLine
 10
64.97379801905549
 20
89.56621573405955
 30
0.0
 11
64.97379801905549
 21
97.52092080849632
 31
0.0
  0
LINE
  5
3E90
330
3DC8
100
AcDbEntity
  8
A-ANNO-DIM
 62
     1
370
    -2
100
AcDbLine
 10
49.47129801905546
 20
96.72092080849632
 30
0.0
 11
48.03129801905546
 21
96.72092080849632
 31
0.0
  0
LINE
  5
3E91
330
3DC8
100
AcDbEntity
  8
A-ANNO-DIM
 62
     1
370
    -2
100
AcDbLine
 10
66.41379801905549
 20
96.72092080849632
 30
0.0
 11
67.85379801905548
 21
96.72092080849632
 31
0.0
  0
MTEXT
  5
3E92
330
3DC8
100
AcDbEntity
  8
A-ANNO-DIM
 62
     4
100
AcDbMText
 10
57.94254801905548
 20
96.72092080849632
 30
0.0
 40
1.0
 41
0.0
 71
     5
 72
     1
  1
\A1;14.06 [357.2]
  7
ARCH
 73
     1
 44
1.0
  0
SOLID
  5
3E93
330
3DC8
100
AcDbEntity
  8
A-ANNO-DIM
 62
     1
100
AcDbTrace
 10
49.47129801905546
 20
96.96092080849631
 30
0.0
 11
49.47129801905546
 21
96.48092080849632
 31
0.0
 12
50.91129801905546
 22
96.72092080849632
 32
0.0
 13
50.91129801905546
 23
96.72092080849632
 33
0.0
  0
SOLID
  5
3E94
330
3DC8
100
AcDbEntity
  8
A-ANNO-DIM
 62
     1
100
AcDbTrace
 10
66.41379801905549
 20
96.96092080849631
 30
0.0
 11
66.41379801905549
 21
96.48092080849632
 31
0.0
 12
64.97379801905549
 22
96.72092080849632
 32
0.0
 13
64.97379801905549
 23
96.72092080849632
 33
0.0
  0
POINT
  5
3E95
330
3DC8
100
AcDbEntity
  8
Defpoints
 62
     0
100
AcDbPoint
 10
50.91129801905546
 20
88.76621573405968
 30
0.0
  0
POINT
  5
3E96
330
3DC8
100
AcDbEntity
  8
Defpoints
 62
     0
100
AcDbPoint
 10
64.97379801905549
 20
88.76621573405955
 30
0.0
  0
POINT
  5
3E97
330
3DC8
100
AcDbEntity
  8
Defpoints
 62
     0
100
AcDbPoint
 10
64.97379801905549
 20
96.72092080849632
 30
0.0
  0
ENDBLK
  5
3DCA
330
3DC8
100
AcDbEntity
  8
0
100
AcDbBlockEnd
  0
BLOCK
  5
3DD7
330
3DD6
100
AcDbEntity
  8
0
100
AcDbBlockBegin
  2
*D23
 70
     1
 10
0.0
 20
0.0
 30
0.0
  3
*D23
  1

  0
LINE
  5
3E52
330
3DD6
100
AcDbEntity
  8
A-ANNO-DIM
 62
     1
370
    -2
100
AcDbLine
 10
65.71129801905546
 20
88.76621573405959
 30
0.0
 11
79.22961917339619
 21
88.76621573405959
 31
0.0
  0
LINE
  5
3E53
330
3DD6
100
AcDbEntity
  8
A-ANNO-DIM
 62
     1
370
    -2
100
AcDbLine
 10
65.71129801905569
 20
68.26621573405976
 30
0.0
 11
79.22961917339619
 21
68.26621573405976
 31
0.0
  0
LINE
  5
3E54
330
3DD6
100
AcDbEntity
  8
A-ANNO-DIM
 62
     1
370
    -2
100
AcDbLine
 10
78.42961917339619
 20
87.32621573405959
 30
0.0
 11
78.42961917339619
 21
79.87414676854242
 31
0.0
  0
LINE
  5
3E55
330
3DD6
100
AcDbEntity
  8
A-ANNO-DIM
 62
     1
370
    -2
100
AcDbLine
 10
78.42961917339619
 20
69.70621573405975
 30
0.0
 11
78.42961917339619
 21
77.15828469957689
 31
0.0
  0
MTEXT
  5
3E56
330
3DD6
100
AcDbEntity
  8
A-ANNO-DIM
 62
     4
100
AcDbMText
 10
78.42961917339621
 20
78.51621573405967
 30
0.0
 40
1.0
 41
0.0
 71
     5
 72
     1
  1
\A1;20.50 [520.7]
  7
ARCH
 73
     1
 44
1.0
  0
SOLID
  5
3E57
330
3DD6
100
AcDbEntity
  8
A-ANNO-DIM
 62
     1
100
AcDbTrace
 10
78.1896191733962
 20
87.32621573405959
 30
0.0
 11
78.66961917339619
 21
87.32621573405959
 31
0.0
 12
78.42961917339619
 22
88.76621573405959
 32
0.0
 13
78.42961917339619
 23
88.76621573405959
 33
0.0
  0
SOLID
  5
3E58
330
3DD6
100
AcDbEntity
  8
A-ANNO-DIM
 62
     1
100
AcDbTrace
 10
78.1896191733962
 20
69.70621573405975
 30
0.0
 11
78.66961917339619
 21
69.70621573405975
 31
0.0
 12
78.42961917339619
 22
68.26621573405976
 32
0.0
 13
78.42961917339619
 23
68.26621573405976
 33
0.0
  0
POINT
  5
3E59
330
3DD6
100
AcDbEntity
  8
Defpoints
 62
     0
100
AcDbPoint
 10
64.91129801905547
 20
88.76621573405959
 30
0.0
  0
POINT
  5
3E5A
330
3DD6
100
AcDbEntity
  8
Defpoints
 62
     0
100
AcDbPoint
 10
64.91129801905569
 20
68.26621573405976
 30
0.0
  0
POINT
  5
3E5B
330
3DD6
100
AcDbEntity
  8
Defpoints
 62
     0
100
AcDbPoint
 10
78.42961917339619
 20
68.26621573405976
 30
0.0
  0
ENDBLK
  5
3DD8
330
3DD6
100
AcDbEntity
  8
0
100
AcDbBlockEnd
  0
BLOCK
  5
3DE5
330
3DE4
100
AcDbEntity
  8
0
100
AcDbBlockBegin
  2
*D24
 70
     1
 10
0.0
 20
0.0
 30
0.0
  3
*D24
  1

  0
LINE
  5
3E7A
330
3DE4
100
AcDbEntity
  8
A-ANNO-DIM
 62
     1
370
    -2
100
AcDbLine
 10
53.17379801905552
 20
86.20371573405966
 30
0.0
 11
38.96596728033975
 21
86.20371573405966
 31
0.0
  0
LINE
  5
3E7B
330
3DE4
100
AcDbEntity
  8
A-ANNO-DIM
 62
     1
370
    -2
100
AcDbLine
 10
53.17379801905552
 20
77.82871573405967
 30
0.0
 11
38.96596728033974
 21
77.82871573405967
 31
0.0
  0
LINE
  5
3E7C
330
3DE4
100
AcDbEntity
  8
A-ANNO-DIM
 62
     1
370
    -2
100
AcDbLine
 10
39.76596728033975
 20
87.64371573405966
 30
0.0
 11
39.76596728033975
 21
89.08371573405966
 31
0.0
  0
LINE
  5
3E7D
330
3DE4
100
AcDbEntity
  8
A-ANNO-DIM
 62
     1
370
    -2
100
AcDbLine
 10
39.76596728033974
 20
76.38871573405968
 30
0.0
 11
39.76596728033974
 21
74.94871573405967
 31
0.0
  0
MTEXT
  5
3E7E
330
3DE4
100
AcDbEntity
  8
A-ANNO-DIM
 62
     4
100
AcDbMText
 10
39.76596728033974
 20
81.06344266103581
 30
0.0
 40
1.0
 41
0.0
 71
     5
 72
     1
  1
\A1;8.38 [212.7]\PSQ.
  7
ARCH
 73
     1
 44
1.0
  0
SOLID
  5
3E7F
330
3DE4
100
AcDbEntity
  8
A-ANNO-DIM
 62
     1
100
AcDbTrace
 10
39.52596728033974
 20
87.64371573405966
 30
0.0
 11
40.00596728033975
 21
87.64371573405966
 31
0.0
 12
39.76596728033975
 22
86.20371573405966
 32
0.0
 13
39.76596728033975
 23
86.20371573405966
 33
0.0
  0
SOLID
  5
3E80
330
3DE4
100
AcDbEntity
  8
A-ANNO-DIM
 62
     1
100
AcDbTrace
 10
39.52596728033974
 20
76.38871573405968
 30
0.0
 11
40.00596728033974
 21
76.38871573405968
 31
0.0
 12
39.76596728033974
 22
77.82871573405967
 32
0.0
 13
39.76596728033974
 23
77.82871573405967
 33
0.0
  0
POINT
  5
3E81
330
3DE4
100
AcDbEntity
  8
Defpoints
 62
     0
100
AcDbPoint
 10
53.97379801905552
 20
86.20371573405966
 30
0.0
  0
POINT
  5
3E82
330
3DE4
100
AcDbEntity
  8
Defpoints
 62
     0
100
AcDbPoint
 10
53.97379801905552
 20
77.82871573405967
 30
0.0
  0
POINT
  5
3E83
330
3DE4
100
AcDbEntity
  8
Defpoints
 62
     0
100
AcDbPoint
 10
39.76596728033974
 20
77.82871573405967
 30
0.0
  0
ENDBLK
  5
3DE6
330
3DE4
100
AcDbEntity
  8
0
100
AcDbBlockEnd
  0
BLOCK
  5
3E1B
330
3E1A
100
AcDbEntity
  8
0
100
AcDbBlockBegin
  2
*D25
 70
     1
 10
0.0
 20
0.0
 30
0.0
  3
*D25
  1

  0
LINE
  5
3E66
330
3E1A
100
AcDbEntity
  8
A-ANNO-DIM
 62
     1
370
    -2
100
AcDbLine
 10
65.71129801905555
 20
88.76621573405968
 30
0.0
 11
71.04171391450101
 21
88.76621573405968
 31
0.0
  0
LINE
  5
3E67
330
3E1A
100
AcDbEntity
  8
A-ANNO-DIM
 62
     1
370
    -2
100
AcDbLine
 10
62.64879801905549
 20
86.20371573405966
 30
0.0
 11
71.04171391450101
 21
86.20371573405966
 31
0.0
  0
LINE
  5
3E68
330
3E1A
100
AcDbEntity
  8
A-ANNO-DIM
 62
     1
370
    -2
100
AcDbLine
 10
70.24171391450102
 20
90.20621573405966
 30
0.0
 11
70.24171391450102
 21
91.64621573405966
 31
0.0
  0
LINE
  5
3E69
330
3E1A
100
AcDbEntity
  8
A-ANNO-DIM
 62
     1
370
    -2
100
AcDbLine
 10
70.24171391450102
 20
84.76371573405968
 30
0.0
 11
70.24171391450102
 21
83.32371573405968
 31
0.0
  0
MTEXT
  5
3E6A
330
3E1A
100
AcDbEntity
  8
A-ANNO-DIM
 62
     4
100
AcDbMText
 10
70.24171391450102
 20
87.36777240185034
 30
0.0
 40
1.0
 41
0.0
 71
     5
 72
     1
  1
\A1;2.56 [65.1]
  7
ARCH
 73
     1
 44
1.0
  0
SOLID
  5
3E6B
330
3E1A
100
AcDbEntity
  8
A-ANNO-DIM
 62
     1
100
AcDbTrace
 10
70.00171391450102
 20
90.20621573405966
 30
0.0
 11
70.48171391450101
 21
90.20621573405966
 31
0.0
 12
70.24171391450102
 22
88.76621573405968
 32
0.0
 13
70.24171391450102
 23
88.76621573405968
 33
0.0
  0
SOLID
  5
3E6C
330
3E1A
100
AcDbEntity
  8
A-ANNO-DIM
 62
     1
100
AcDbTrace
 10
70.00171391450102
 20
84.76371573405968
 30
0.0
 11
70.48171391450101
 21
84.76371573405968
 31
0.0
 12
70.24171391450102
 22
86.20371573405966
 32
0.0
 13
70.24171391450102
 23
86.20371573405966
 33
0.0
  0
POINT
  5
3E6D
330
3E1A
100
AcDbEntity
  8
Defpoints
 62
     0
100
AcDbPoint
 10
64.91129801905555
 20
88.76621573405968
 30
0.0
  0
POINT
  5
3E6E
330
3E1A
100
AcDbEntity
  8
Defpoints
 62
     0
100
AcDbPoint
 10
61.84879801905549
 20
86.20371573405966
 30
0.0
  0
POINT
  5
3E6F
330
3E1A
100
AcDbEntity
  8
Defpoints
 62
     0
100
AcDbPoint
 10
70.24171391450102
 20
86.20371573405966
 30
0.0
  0
ENDBLK
  5
3E1C
330
3E1A
100
AcDbEntity
  8
0
100
AcDbBlockEnd
  0
BLOCK
  5
3E3C
330
3E3B
100
AcDbEntity
  8
0
100
AcDbBlockBegin
  2
*D26
 70
     1
 10
0.0
 20
0.0
 30
0.0
  3
*D26
  1

  0
LINE
  5
3E70
330
3E3B
100
AcDbEntity
  8
A-ANNO-DIM
 62
     1
370
    -2
100
AcDbLine
 10
65.71129801905549
 20
121.9693693328981
 30
0.0
 11
77.36909636875331
 21
121.9693693328981
 31
0.0
  0
LINE
  5
3E71
330
3E3B
100
AcDbEntity
  8
A-ANNO-DIM
 62
     1
370
    -2
100
AcDbLine
 10
65.71129801905552
 20
116.7193693328981
 30
0.0
 11
77.36909636875331
 21
116.7193693328981
 31
0.0
  0
LINE
  5
3E72
330
3E3B
100
AcDbEntity
  8
A-ANNO-DIM
 62
     1
370
    -2
100
AcDbLine
 10
76.56909636875332
 20
123.4093693328981
 30
0.0
 11
76.56909636875332
 21
124.8493693328981
 31
0.0
  0
LINE
  5
3E73
330
3E3B
100
AcDbEntity
  8
A-ANNO-DIM
 62
     1
370
    -2
100
AcDbLine
 10
76.56909636875332
 20
115.2793693328981
 30
0.0
 11
76.56909636875332
 21
113.8393693328981
 31
0.0
  0
MTEXT
  5
3E74
330
3E3B
100
AcDbEntity
  8
A-ANNO-DIM
 62
     4
100
AcDbMText
 10
76.56909636875332
 20
119.1895626359368
 30
0.0
 40
1.0
 41
0.0
 71
     5
 72
     1
  1
\A1;5.25 [133.4]
  7
ARCH
 73
     1
 44
1.0
  0
SOLID
  5
3E75
330
3E3B
100
AcDbEntity
  8
A-ANNO-DIM
 62
     1
100
AcDbTrace
 10
76.32909636875332
 20
123.4093693328981
 30
0.0
 11
76.80909636875331
 21
123.4093693328981
 31
0.0
 12
76.56909636875332
 22
121.9693693328981
 32
0.0
 13
76.56909636875332
 23
121.9693693328981
 33
0.0
  0
SOLID
  5
3E76
330
3E3B
100
AcDbEntity
  8
A-ANNO-DIM
 62
     1
100
AcDbTrace
 10
76.32909636875332
 20
115.2793693328981
 30
0.0
 11
76.80909636875331
 21
115.2793693328981
 31
0.0
 12
76.56909636875332
 22
116.7193693328981
 32
0.0
 13
76.56909636875332
 23
116.7193693328981
 33
0.0
  0
POINT
  5
3E77
330
3E3B
100
AcDbEntity
  8
Defpoints
 62
     0
100
AcDbPoint
 10
64.91129801905549
 20
121.9693693328981
 30
0.0
  0
POINT
  5
3E78
330
3E3B
100
AcDbEntity
  8
Defpoints
 62
     0
100
AcDbPoint
 10
64.91129801905552
 20
116.7193693328981
 30
0.0
  0
POINT
  5
3E79
330
3E3B
100
AcDbEntity
  8
Defpoints
 62
     0
100
AcDbPoint
 10
76.56909636875332
 20
116.7193693328981
 30
0.0
  0
ENDBLK
  5
3E3D
330
3E3B
100
AcDbEntity
  8
0
100
AcDbBlockEnd
  0
BLOCK
  5
3EB3
330
3EB2
100
AcDbEntity
  8
0
100
AcDbBlockBegin
  2
*D28
 70
     1
 10
0.0
 20
0.0
 30
0.0
  3
*D28
  1

  0
LINE
  5
3EB4
330
3EB2
100
AcDbEntity
  8
0
 62
     0
370
    -2
100
AcDbLine
 10
65.56001460074091
 20
115.8116397746913
 30
0.0
 11
65.56001460074091
 21
118.2553076703603
 31
0.0
  0
LINE
  5
3EB5
330
3EB2
100
AcDbEntity
  8
0
 62
     0
370
    -2
100
AcDbLine
 10
79.56001460074102
 20
115.8116397746913
 30
0.0
 11
79.56001460074102
 21
118.2553076703603
 31
0.0
  0
LINE
  5
3EB6
330
3EB2
100
AcDbEntity
  8
0
 62
     0
370
    -2
100
AcDbLine
 10
66.60001460074091
 20
118.2553076703603
 30
0.0
 11
67.39753335530406
 21
118.2553076703603
 31
0.0
  0
LINE
  5
3EB7
330
3EB2
100
AcDbEntity
  8
0
 62
     0
370
    -2
100
AcDbLine
 10
78.52001460074102
 20
118.2553076703603
 30
0.0
 11
76.52975905210894
 21
118.2553076703603
 31
0.0
  0
SOLID
  5
3EB8
330
3EB2
100
AcDbEntity
  8
0
 62
     0
100
AcDbTrace
 10
66.60001460074091
 20
118.4286410036937
 30
0.0
 11
66.60001460074091
 21
118.081974337027
 31
0.0
 12
65.56001460074091
 22
118.2553076703603
 32
0.0
 13
65.56001460074091
 23
118.2553076703603
 33
0.0
  0
SOLID
  5
3EB9
330
3EB2
100
AcDbEntity
  8
0
 62
     0
100
AcDbTrace
 10
78.52001460074102
 20
118.4286410036937
 30
0.0
 11
78.52001460074102
 21
118.081974337027
 31
0.0
 12
79.56001460074102
 22
118.2553076703603
 32
0.0
 13
79.56001460074102
 23
118.2553076703603
 33
0.0
  0
MTEXT
  5
3EBA
330
3EB2
100
AcDbEntity
  8
0
 62
     0
100
AcDbMText
 10
71.9636462037065
 20
118.9031662699524
 30
0.0
 40
1.0
 41
0.0
 71
     2
 72
     1
  1
\A1;14.000 [355.60]
  7
SLDTEXTSTYLE0
 73
     1
 44
1.0
  0
POINT
  5
3EBB
330
3EB2
100
AcDbEntity
  8
Defpoints
 62
     0
100
AcDbPoint
 10
65.56001460074091
 20
115.7491397746913
 30
0.0
  0
POINT
  5
3EBC
330
3EB2
100
AcDbEntity
  8
Defpoints
 62
     0
100
AcDbPoint
 10
79.56001460074102
 20
115.7491397746913
 30
0.0
  0
POINT
  5
3EBD
330
3EB2
100
AcDbEntity
  8
Defpoints
 62
     0
100
AcDbPoint
 10
79.56001460074102
 20
118.2553076703603
 30
0.0
  0
ENDBLK
  5
3EBE
330
3EB2
100
AcDbEntity
  8
0
100
AcDbBlockEnd
  0
BLOCK
  5
3EC0
330
3EBF
100
AcDbEntity
  8
0
100
AcDbBlockBegin
  2
*D29
 70
     1
 10
0.0
 20
0.0
 30
0.0
  3
*D29
  1

  0
LINE
  5
3EC1
330
3EBF
100
AcDbEntity
  8
0
 62
     0
370
    -2
100
AcDbLine
 10
69.03001460074095
 20
101.1241397746913
 30
0.0
 11
69.03001460074095
 21
96.57054717898803
 31
0.0
  0
LINE
  5
3EC2
330
3EBF
100
AcDbEntity
  8
0
 62
     0
370
    -2
100
AcDbLine
 10
76.09001460074097
 20
101.1241397746913
 30
0.0
 11
76.09001460074097
 21
96.57054717898803
 31
0.0
  0
LINE
  5
3EC3
330
3EBF
100
AcDbEntity
  8
0
 62
     0
370
    -2
100
AcDbLine
 10
70.07001460074096
 20
96.57054717898803
 30
0.0
 11
75.05001460074097
 21
96.57054717898803
 31
0.0
  0
LINE
  5
3EC4
330
3EBF
100
AcDbEntity
  8
0
 62
     0
370
    -2
100
AcDbLine
 10
76.09001460074097
 20
96.57054717898803
 30
0.0
 11
84.92656286401782
 21
96.57054717898803
 31
0.0
  0
SOLID
  5
3EC5
330
3EBF
100
AcDbEntity
  8
0
 62
     0
100
AcDbTrace
 10
70.07001460074096
 20
96.74388051232137
 30
0.0
 11
70.07001460074096
 21
96.3972138456547
 31
0.0
 12
69.03001460074095
 22
96.57054717898803
 32
0.0
 13
69.03001460074095
 23
96.57054717898803
 33
0.0
  0
SOLID
  5
3EC6
330
3EBF
100
AcDbEntity
  8
0
 62
     0
100
AcDbTrace
 10
75.05001460074097
 20
96.74388051232137
 30
0.0
 11
75.05001460074097
 21
96.3972138456547
 31
0.0
 12
76.09001460074097
 22
96.57054717898803
 32
0.0
 13
76.09001460074097
 23
96.57054717898803
 33
0.0
  0
MTEXT
  5
3EC7
330
3EBF
100
AcDbEntity
  8
0
 62
     0
100
AcDbMText
 10
89.18513560365072
 20
97.21840577858015
 30
0.0
 40
1.0
 41
0.0
 71
     2
 72
     1
  1
\A1;7.060 [179.32]
  7
SLDTEXTSTYLE0
 73
     1
 44
1.0
  0
POINT
  5
3EC8
330
3EBF
100
AcDbEntity
  8
Defpoints
 62
     0
100
AcDbPoint
 10
69.03001460074095
 20
101.1866397746913
 30
0.0
  0
POINT
  5
3EC9
330
3EBF
100
AcDbEntity
  8
Defpoints
 62
     0
100
AcDbPoint
 10
76.09001460074097
 20
101.1866397746913
 30
0.0
  0
POINT
  5
3ECA
330
3EBF
100
AcDbEntity
  8
Defpoints
 62
     0
100
AcDbPoint
 10
76.09001460074097
 20
96.57054717898803
 30
0.0
  0
ENDBLK
  5
3ECB
330
3EBF
100
AcDbEntity
  8
0
100
AcDbBlockEnd
  0
BLOCK
  5
3ECD
330
3ECC
100
AcDbEntity
  8
0
100
AcDbBlockBegin
  2
*D30
 70
     1
 10
0.0
 20
0.0
 30
0.0
  3
*D30
  1

  0
LINE
  5
3ECE
330
3ECC
100
AcDbEntity
  8
0
 62
     0
370
    -2
100
AcDbLine
 10
69.21751460074095
 20
111.8116397746913
 30
0.0
 11
56.74111696294549
 21
111.8116397746913
 31
0.0
  0
LINE
  5
3ECF
330
3ECC
100
AcDbEntity
  8
0
 62
     0
370
    -2
100
AcDbLine
 10
69.21751460074095
 20
100.9366397746913
 30
0.0
 11
56.74111696294549
 21
100.9366397746913
 31
0.0
  0
LINE
  5
3ED0
330
3ECC
100
AcDbEntity
  8
0
 62
     0
370
    -2
100
AcDbLine
 10
56.74111696294549
 20
110.7716397746913
 30
0.0
 11
56.74111696294549
 21
107.4476062377165
 31
0.0
  0
LINE
  5
3ED1
330
3ECC
100
AcDbEntity
  8
0
 62
     0
370
    -2
100
AcDbLine
 10
56.74111696294549
 20
101.9766397746913
 30
0.0
 11
56.74111696294549
 21
105.6518890385323
 31
0.0
  0
SOLID
  5
3ED2
330
3ECC
100
AcDbEntity
  8
0
 62
     0
100
AcDbTrace
 10
56.56778362961216
 20
110.7716397746913
 30
0.0
 11
56.91445029627883
 21
110.7716397746913
 31
0.0
 12
56.74111696294549
 22
111.8116397746913
 32
0.0
 13
56.74111696294549
 23
111.8116397746913
 33
0.0
  0
SOLID
  5
3ED3
330
3ECC
100
AcDbEntity
  8
0
 62
     0
100
AcDbTrace
 10
56.56778362961216
 20
101.9766397746913
 30
0.0
 11
56.91445029627883
 21
101.9766397746913
 31
0.0
 12
56.74111696294549
 22
100.9366397746913
 32
0.0
 13
56.74111696294549
 23
100.9366397746913
 33
0.0
  0
MTEXT
  5
3ED4
330
3ECC
100
AcDbEntity
  8
0
 62
     0
100
AcDbMText
 10
56.74111696294549
 20
107.1976062377165
 30
0.0
 40
1.0
 41
0.0
 71
     2
 72
     1
  1
\A1;10.875 [276.22]
  7
SLDTEXTSTYLE0
 73
     1
 44
1.0
  0
POINT
  5
3ED5
330
3ECC
100
AcDbEntity
  8
Defpoints
 62
     0
100
AcDbPoint
 10
69.28001460074096
 20
111.8116397746913
 30
0.0
  0
POINT
  5
3ED6
330
3ECC
100
AcDbEntity
  8
Defpoints
 62
     0
100
AcDbPoint
 10
69.28001460074096
 20
100.9366397746913
 30
0.0
  0
POINT
  5
3ED7
330
3ECC
100
AcDbEntity
  8
Defpoints
 62
     0
100
AcDbPoint
 10
56.74111696294549
 20
100.9366397746913
 30
0.0
  0
ENDBLK
  5
3ED8
330
3ECC
100
AcDbEntity
  8
0
100
AcDbBlockEnd
  0
BLOCK
  5
3FF9
330
3FF8
100
AcDbEntity
  8
0
100
AcDbBlockBegin
  2
*D32
 70
     1
 10
0.0
 20
0.0
 30
0.0
  3
*D32
  1

  0
LINE
  5
406F
330
3FF8
100
AcDbEntity
  8
A-AENCL-DETAIL
 62
     0
370
    -2
100
AcDbLine
 10
240.4738894069556
 20
98.08728380258322
 30
0.0
 11
240.4738894069556
 21
100.5309516982522
 31
0.0
  0
LINE
  5
4070
330
3FF8
100
AcDbEntity
  8
A-AENCL-DETAIL
 62
     0
370
    -2
100
AcDbLine
 10
254.4738894069558
 20
98.08728380258322
 30
0.0
 11
254.4738894069558
 21
100.5309516982522
 31
0.0
  0
LINE
  5
4071
330
3FF8
100
AcDbEntity
  8
A-AENCL-DETAIL
 62
     0
370
    -2
100
AcDbLine
 10
240.9938894069556
 20
100.5309516982522
 30
0.0
 11
244.59446458572
 21
100.5309516982522
 31
0.0
  0
LINE
  5
4072
330
3FF8
100
AcDbEntity
  8
A-AENCL-DETAIL
 62
     0
370
    -2
100
AcDbLine
 10
253.9538894069557
 20
100.5309516982522
 30
0.0
 11
249.1605774341224
 21
100.5309516982522
 31
0.0
  0
SOLID
  5
4073
330
3FF8
100
AcDbEntity
  8
A-AENCL-DETAIL
 62
     0
100
AcDbTrace
 10
240.9938894069556
 20
100.6176183649189
 30
0.0
 11
240.9938894069556
 21
100.4442850315855
 31
0.0
 12
240.4738894069556
 22
100.5309516982522
 32
0.0
 13
240.4738894069556
 23
100.5309516982522
 33
0.0
  0
SOLID
  5
4074
330
3FF8
100
AcDbEntity
  8
A-AENCL-DETAIL
 62
     0
100
AcDbTrace
 10
253.9538894069557
 20
100.6176183649189
 30
0.0
 11
253.9538894069557
 21
100.4442850315855
 31
0.0
 12
254.4738894069558
 22
100.5309516982522
 32
0.0
 13
254.4738894069558
 23
100.5309516982522
 33
0.0
  0
MTEXT
  5
4075
330
3FF8
100
AcDbEntity
  8
A-AENCL-DETAIL
 62
     0
100
AcDbMText
 10
246.8775210099212
 20
100.8548809980482
 30
0.0
 40
0.5
 41
0.0
 71
     2
 72
     1
  1
\A1;14.000 [355.60]
  7
SLDTEXTSTYLE0
 73
     1
 44
1.0
  0
POINT
  5
4076
330
3FF8
100
AcDbEntity
  8
Defpoints
 62
     0
100
AcDbPoint
 10
240.4738894069556
 20
98.02478380258321
 30
0.0
  0
POINT
  5
4077
330
3FF8
100
AcDbEntity
  8
Defpoints
 62
     0
100
AcDbPoint
 10
254.4738894069558
 20
98.02478380258321
 30
0.0
  0
POINT
  5
4078
330
3FF8
100
AcDbEntity
  8
Defpoints
 62
     0
100
AcDbPoint
 10
254.4738894069558
 20
100.5309516982522
 30
0.0
  0
ENDBLK
  5
3FFA
330
3FF8
100
AcDbEntity
  8
0
100
AcDbBlockEnd
  0
BLOCK
  5
4006
330
4005
100
AcDbEntity
  8
0
100
AcDbBlockBegin
  2
*D33
 70
     1
 10
0.0
 20
0.0
 30
0.0
  3
*D33
  1

  0
LINE
  5
4065
330
4005
100
AcDbEntity
  8
A-AENCL-DETAIL
 62
     0
370
    -2
100
AcDbLine
 10
243.9438894069557
 20
83.39978380258321
 30
0.0
 11
243.9438894069557
 21
78.8461912068799
 31
0.0
  0
LINE
  5
4066
330
4005
100
AcDbEntity
  8
A-AENCL-DETAIL
 62
     0
370
    -2
100
AcDbLine
 10
251.0038894069557
 20
83.39978380258321
 30
0.0
 11
251.0038894069557
 21
78.8461912068799
 31
0.0
  0
LINE
  5
4067
330
4005
100
AcDbEntity
  8
A-AENCL-DETAIL
 62
     0
370
    -2
100
AcDbLine
 10
244.4638894069557
 20
78.8461912068799
 30
0.0
 11
250.4838894069557
 21
78.8461912068799
 31
0.0
  0
LINE
  5
4068
330
4005
100
AcDbEntity
  8
A-AENCL-DETAIL
 62
     0
370
    -2
100
AcDbLine
 10
251.0038894069557
 20
78.8461912068799
 30
0.0
 11
262.1458380781183
 21
78.8461912068799
 31
0.0
  0
SOLID
  5
4069
330
4005
100
AcDbEntity
  8
A-AENCL-DETAIL
 62
     0
100
AcDbTrace
 10
244.4638894069557
 20
78.93285787354658
 30
0.0
 11
244.4638894069557
 21
78.75952454021323
 31
0.0
 12
243.9438894069557
 22
78.8461912068799
 32
0.0
 13
243.9438894069557
 23
78.8461912068799
 33
0.0
  0
SOLID
  5
406A
330
4005
100
AcDbEntity
  8
A-AENCL-DETAIL
 62
     0
100
AcDbTrace
 10
250.4838894069557
 20
78.93285787354658
 30
0.0
 11
250.4838894069557
 21
78.75952454021323
 31
0.0
 12
251.0038894069557
 22
78.8461912068799
 32
0.0
 13
251.0038894069557
 23
78.8461912068799
 33
0.0
  0
MTEXT
  5
406B
330
4005
100
AcDbEntity
  8
A-AENCL-DETAIL
 62
     0
100
AcDbMText
 10
264.0990104098654
 20
79.17012050667597
 30
0.0
 40
0.5
 41
0.0
 71
     2
 72
     1
  1
\A1;7.06 [179.32]
  7
SLDTEXTSTYLE0
 73
     1
 44
1.0
  0
POINT
  5
406C
330
4005
100
AcDbEntity
  8
Defpoints
 62
     0
100
AcDbPoint
 10
243.9438894069557
 20
83.46228380258322
 30
0.0
  0
POINT
  5
406D
330
4005
100
AcDbEntity
  8
Defpoints
 62
     0
100
AcDbPoint
 10
251.0038894069557
 20
83.46228380258322
 30
0.0
  0
POINT
  5
406E
330
4005
100
AcDbEntity
  8
Defpoints
 62
     0
100
AcDbPoint
 10
251.0038894069557
 20
78.8461912068799
 30
0.0
  0
ENDBLK
  5
4007
330
4005
100
AcDbEntity
  8
0
100
AcDbBlockEnd
  0
BLOCK
  5
4013
330
4012
100
AcDbEntity
  8
0
100
AcDbBlockBegin
  2
*D34
 70
     1
 10
0.0
 20
0.0
 30
0.0
  3
*D34
  1

  0
LINE
  5
405B
330
4012
100
AcDbEntity
  8
A-AENCL-DETAIL
 62
     0
370
    -2
100
AcDbLine
 10
244.1313894069557
 20
94.0872838025832
 30
0.0
 11
231.6549917691602
 21
94.0872838025832
 31
0.0
  0
LINE
  5
405C
330
4012
100
AcDbEntity
  8
A-AENCL-DETAIL
 62
     0
370
    -2
100
AcDbLine
 10
244.1313894069557
 20
83.21228380258322
 30
0.0
 11
231.6549917691602
 21
83.21228380258322
 31
0.0
  0
LINE
  5
405D
330
4012
100
AcDbEntity
  8
A-AENCL-DETAIL
 62
     0
370
    -2
100
AcDbLine
 10
231.6549917691602
 20
93.04728380258319
 30
0.0
 11
231.6549917691602
 21
89.72325026560836
 31
0.0
  0
LINE
  5
405E
330
4012
100
AcDbEntity
  8
A-AENCL-DETAIL
 62
     0
370
    -2
100
AcDbLine
 10
231.6549917691602
 20
84.25228380258323
 30
0.0
 11
231.6549917691602
 21
87.92753306642415
 31
0.0
  0
SOLID
  5
405F
330
4012
100
AcDbEntity
  8
A-AENCL-DETAIL
 62
     0
100
AcDbTrace
 10
231.4816584358269
 20
93.04728380258319
 30
0.0
 11
231.8283251024936
 21
93.04728380258319
 31
0.0
 12
231.6549917691602
 22
94.0872838025832
 32
0.0
 13
231.6549917691602
 23
94.0872838025832
 33
0.0
  0
SOLID
  5
4060
330
4012
100
AcDbEntity
  8
A-AENCL-DETAIL
 62
     0
100
AcDbTrace
 10
231.4816584358269
 20
84.25228380258323
 30
0.0
 11
231.8283251024936
 21
84.25228380258323
 31
0.0
 12
231.6549917691602
 22
83.21228380258322
 32
0.0
 13
231.6549917691602
 23
83.21228380258322
 33
0.0
  0
MTEXT
  5
4061
330
4012
100
AcDbEntity
  8
A-AENCL-DETAIL
 62
     0
100
AcDbMText
 10
231.6549917691602
 20
89.47325026560841
 30
0.0
 40
1.0
 41
0.0
 71
     2
 72
     1
  1
\A1;10.875 [276.22]
  7
SLDTEXTSTYLE0
 73
     1
 44
1.0
  0
POINT
  5
4062
330
4012
100
AcDbEntity
  8
Defpoints
 62
     0
100
AcDbPoint
 10
244.1938894069557
 20
94.0872838025832
 30
0.0
  0
POINT
  5
4063
330
4012
100
AcDbEntity
  8
Defpoints
 62
     0
100
AcDbPoint
 10
244.1938894069557
 20
83.21228380258322
 30
0.0
  0
POINT
  5
4064
330
4012
100
AcDbEntity
  8
Defpoints
 62
     0
100
AcDbPoint
 10
231.6549917691602
 20
83.21228380258322
 30
0.0
  0
ENDBLK
  5
4014
330
4012
100
AcDbEntity
  8
0
100
AcDbBlockEnd
  0
BLOCK
  5
407B
330
407A
100
AcDbEntity
  8
0
100
AcDbBlockBegin
  2
*D35
 70
     1
 10
0.0
 20
0.0
 30
0.0
  3
*D35
  1

  0
LINE
  5
40E0
330
407A
100
AcDbEntity
  8
A-ANNO-DIM
 62
     1
370
    -2
100
AcDbLine
 10
57.73220213010013
 20
94.08728380258322
 30
0.0
 11
35.54224349360613
 21
94.08728380258322
 31
0.0
  0
LINE
  5
40E1
330
407A
100
AcDbEntity
  8
A-ANNO-DIM
 62
     1
370
    -2
100
AcDbLine
 10
57.73220213010013
 20
83.21228380258322
 30
0.0
 11
35.54224349360613
 21
83.21228380258322
 31
0.0
  0
LINE
  5
40E2
330
407A
100
AcDbEntity
  8
A-ANNO-DIM
 62
     1
370
    -2
100
AcDbLine
 10
36.34224349360613
 20
92.64728380258324
 30
0.0
 11
36.34224349360613
 21
89.85884430795543
 31
0.0
  0
LINE
  5
40E3
330
407A
100
AcDbEntity
  8
A-ANNO-DIM
 62
     1
370
    -2
100
AcDbLine
 10
36.34224349360613
 20
84.65228380258322
 30
0.0
 11
36.34224349360613
 21
87.14298223898991
 31
0.0
  0
MTEXT
  5
40E4
330
407A
100
AcDbEntity
  8
A-ANNO-DIM
 62
     4
100
AcDbMText
 10
36.34224349360613
 20
88.5009132734727
 30
0.0
 40
1.0
 41
0.0
 71
     5
 72
     1
  1
\A1;10.88 [276.2]
  7
ARCH
 73
     1
 44
1.0
  0
SOLID
  5
40E5
330
407A
100
AcDbEntity
  8
A-ANNO-DIM
 62
     1
100
AcDbTrace
 10
36.10224349360613
 20
92.64728380258324
 30
0.0
 11
36.58224349360614
 21
92.64728380258324
 31
0.0
 12
36.34224349360613
 22
94.08728380258322
 32
0.0
 13
36.34224349360613
 23
94.08728380258322
 33
0.0
  0
SOLID
  5
40E6
330
407A
100
AcDbEntity
  8
A-ANNO-DIM
 62
     1
100
AcDbTrace
 10
36.10224349360613
 20
84.65228380258322
 30
0.0
 11
36.58224349360614
 21
84.65228380258322
 31
0.0
 12
36.34224349360613
 22
83.21228380258322
 32
0.0
 13
36.34224349360613
 23
83.21228380258322
 33
0.0
  0
POINT
  5
40E7
330
407A
100
AcDbEntity
  8
Defpoints
 62
     0
100
AcDbPoint
 10
58.53220213010013
 20
94.08728380258322
 30
0.0
  0
POINT
  5
40E8
330
407A
100
AcDbEntity
  8
Defpoints
 62
     0
100
AcDbPoint
 10
58.53220213010013
 20
83.21228380258322
 30
0.0
  0
POINT
  5
40E9
330
407A
100
AcDbEntity
  8
Defpoints
 62
     0
100
AcDbPoint
 10
36.34224349360613
 20
83.21228380258322
 30
0.0
  0
ENDBLK
  5
407C
330
407A
100
AcDbEntity
  8
0
100
AcDbBlockEnd
  0
BLOCK
  5
4093
330
4092
100
AcDbEntity
  8
0
100
AcDbBlockBegin
  2
*D36
 70
     1
 10
0.0
 20
0.0
 30
0.0
  3
*D36
  1

  0
LINE
  5
40EA
330
4092
100
AcDbEntity
  8
A-ANNO-DIM
 62
     1
370
    -2
100
AcDbLine
 10
54.81220213010008
 20
98.82478380258326
 30
0.0
 11
54.81220213010008
 21
110.2726985971523
 31
0.0
  0
LINE
  5
40EB
330
4092
100
AcDbEntity
  8
A-ANNO-DIM
 62
     1
370
    -2
100
AcDbLine
 10
68.8122021301001
 20
98.82478380258318
 30
0.0
 11
68.8122021301001
 21
110.2726985971523
 31
0.0
  0
LINE
  5
40EC
330
4092
100
AcDbEntity
  8
A-ANNO-DIM
 62
     1
370
    -2
100
AcDbLine
 10
53.37220213010008
 20
109.4726985971524
 30
0.0
 11
51.93220213010008
 21
109.4726985971524
 31
0.0
  0
LINE
  5
40ED
330
4092
100
AcDbEntity
  8
A-ANNO-DIM
 62
     1
370
    -2
100
AcDbLine
 10
70.2522021301001
 20
109.4726985971524
 30
0.0
 11
71.6922021301001
 21
109.4726985971524
 31
0.0
  0
MTEXT
  5
40EE
330
4092
100
AcDbEntity
  8
A-ANNO-DIM
 62
     4
100
AcDbMText
 10
61.83451493990651
 20
109.4726985971524
 30
0.0
 40
1.0
 41
0.0
 71
     5
 72
     1
  1
\A1;14.00 [355.6]
  7
ARCH
 73
     1
 44
1.0
  0
SOLID
  5
40EF
330
4092
100
AcDbEntity
  8
A-ANNO-DIM
 62
     1
100
AcDbTrace
 10
53.37220213010008
 20
109.7126985971524
 30
0.0
 11
53.37220213010008
 21
109.2326985971524
 31
0.0
 12
54.81220213010008
 22
109.4726985971524
 32
0.0
 13
54.81220213010008
 23
109.4726985971524
 33
0.0
  0
SOLID
  5
40F0
330
4092
100
AcDbEntity
  8
A-ANNO-DIM
 62
     1
100
AcDbTrace
 10
70.2522021301001
 20
109.7126985971524
 30
0.0
 11
70.2522021301001
 21
109.2326985971524
 31
0.0
 12
68.8122021301001
 22
109.4726985971524
 32
0.0
 13
68.8122021301001
 23
109.4726985971524
 33
0.0
  0
POINT
  5
40F1
330
4092
100
AcDbEntity
  8
Defpoints
 62
     0
100
AcDbPoint
 10
54.81220213010008
 20
98.02478380258328
 30
0.0
  0
POINT
  5
40F2
330
4092
100
AcDbEntity
  8
Defpoints
 62
     0
100
AcDbPoint
 10
68.8122021301001
 20
98.02478380258317
 30
0.0
  0
POINT
  5
40F3
330
4092
100
AcDbEntity
  8
Defpoints
 62
     0
100
AcDbPoint
 10
68.8122021301001
 20
109.4726985971524
 30
0.0
  0
ENDBLK
  5
4094
330
4092
100
AcDbEntity
  8
0
100
AcDbBlockEnd
  0
BLOCK
  5
40A1
330
40A0
100
AcDbEntity
  8
0
100
AcDbBlockBegin
  2
*D37
 70
     1
 10
0.0
 20
0.0
 30
0.0
  3
*D37
  1

  0
LINE
  5
40F4
330
40A0
100
AcDbEntity
  8
A-ANNO-DIM
 62
     1
370
    -2
100
AcDbLine
 10
69.6122021301001
 20
98.02478380258317
 30
0.0
 11
86.28329080565828
 21
98.02478380258317
 31
0.0
  0
LINE
  5
40F5
330
40A0
100
AcDbEntity
  8
A-ANNO-DIM
 62
     1
370
    -2
100
AcDbLine
 10
69.6122021301003
 20
62.02478380258325
 30
0.0
 11
86.28329080565826
 21
62.02478380258324
 31
0.0
  0
LINE
  5
40F6
330
40A0
100
AcDbEntity
  8
A-ANNO-DIM
 62
     1
370
    -2
100
AcDbLine
 10
85.48329080565828
 20
96.58478380258317
 30
0.0
 11
85.48329080565826
 21
82.80973440567764
 31
0.0
  0
LINE
  5
40F7
330
40A0
100
AcDbEntity
  8
A-ANNO-DIM
 62
     1
370
    -2
100
AcDbLine
 10
85.48329080565826
 20
63.46478380258324
 30
0.0
 11
85.48329080565826
 21
80.09387233671212
 31
0.0
  0
MTEXT
  5
40F8
330
40A0
100
AcDbEntity
  8
A-ANNO-DIM
 62
     4
100
AcDbMText
 10
85.48329080565826
 20
81.45180337119489
 30
0.0
 40
1.0
 41
0.0
 71
     5
 72
     1
  1
\A1;36.00 [914.4]
  7
ARCH
 73
     1
 44
1.0
  0
SOLID
  5
40F9
330
40A0
100
AcDbEntity
  8
A-ANNO-DIM
 62
     1
100
AcDbTrace
 10
85.24329080565829
 20
96.58478380258317
 30
0.0
 11
85.72329080565827
 21
96.58478380258317
 31
0.0
 12
85.48329080565828
 22
98.02478380258317
 32
0.0
 13
85.48329080565828
 23
98.02478380258317
 33
0.0
  0
SOLID
  5
40FA
330
40A0
100
AcDbEntity
  8
A-ANNO-DIM
 62
     1
100
AcDbTrace
 10
85.24329080565827
 20
63.46478380258324
 30
0.0
 11
85.72329080565827
 21
63.46478380258324
 31
0.0
 12
85.48329080565826
 22
62.02478380258324
 32
0.0
 13
85.48329080565826
 23
62.02478380258324
 33
0.0
  0
POINT
  5
40FB
330
40A0
100
AcDbEntity
  8
Defpoints
 62
     0
100
AcDbPoint
 10
68.8122021301001
 20
98.02478380258317
 30
0.0
  0
POINT
  5
40FC
330
40A0
100
AcDbEntity
  8
Defpoints
 62
     0
100
AcDbPoint
 10
68.8122021301003
 20
62.02478380258325
 30
0.0
  0
POINT
  5
40FD
330
40A0
100
AcDbEntity
  8
Defpoints
 62
     0
100
AcDbPoint
 10
85.48329080565826
 20
62.02478380258324
 30
0.0
  0
ENDBLK
  5
40A2
330
40A0
100
AcDbEntity
  8
0
100
AcDbBlockEnd
  0
BLOCK
  5
40AF
330
40AE
100
AcDbEntity
  8
0
100
AcDbBlockBegin
  2
*D38
 70
     1
 10
0.0
 20
0.0
 30
0.0
  3
*D38
  1

  0
LINE
  5
40FE
330
40AE
100
AcDbEntity
  8
A-ANNO-DIM
 62
     1
370
    -2
100
AcDbLine
 10
69.61220213010015
 20
98.02478380258317
 30
0.0
 11
77.86518934617976
 21
98.02478380258317
 31
0.0
  0
LINE
  5
40FF
330
40AE
100
AcDbEntity
  8
A-ANNO-DIM
 62
     1
370
    -2
100
AcDbLine
 10
65.89220213010013
 20
94.08728380258322
 30
0.0
 11
77.86518934617975
 21
94.08728380258322
 31
0.0
  0
LINE
  5
4100
330
40AE
100
AcDbEntity
  8
A-ANNO-DIM
 62
     1
370
    -2
100
AcDbLine
 10
77.06518934617976
 20
99.46478380258318
 30
0.0
 11
77.06518934617976
 21
100.9047838025831
 31
0.0
  0
LINE
  5
4101
330
40AE
100
AcDbEntity
  8
A-ANNO-DIM
 62
     1
370
    -2
100
AcDbLine
 10
77.06518934617974
 20
92.64728380258324
 30
0.0
 11
77.06518934617974
 21
91.20728380258324
 31
0.0
  0
MTEXT
  5
4102
330
40AE
100
AcDbEntity
  8
A-ANNO-DIM
 62
     4
100
AcDbMText
 10
77.06518934617974
 20
96.07234095353199
 30
0.0
 40
1.0
 41
0.0
 71
     5
 72
     1
  1
\A1;3.94 [100.0]
  7
ARCH
 73
     1
 44
1.0
  0
SOLID
  5
4103
330
40AE
100
AcDbEntity
  8
A-ANNO-DIM
 62
     1
100
AcDbTrace
 10
76.82518934617977
 20
99.46478380258318
 30
0.0
 11
77.30518934617975
 21
99.46478380258318
 31
0.0
 12
77.06518934617976
 22
98.02478380258317
 32
0.0
 13
77.06518934617976
 23
98.02478380258317
 33
0.0
  0
SOLID
  5
4104
330
40AE
100
AcDbEntity
  8
A-ANNO-DIM
 62
     1
100
AcDbTrace
 10
76.82518934617975
 20
92.64728380258324
 30
0.0
 11
77.30518934617975
 21
92.64728380258324
 31
0.0
 12
77.06518934617974
 22
94.08728380258322
 32
0.0
 13
77.06518934617974
 23
94.08728380258322
 33
0.0
  0
POINT
  5
4105
330
40AE
100
AcDbEntity
  8
Defpoints
 62
     0
100
AcDbPoint
 10
68.81220213010016
 20
98.02478380258317
 30
0.0
  0
POINT
  5
4106
330
40AE
100
AcDbEntity
  8
Defpoints
 62
     0
100
AcDbPoint
 10
65.09220213010014
 20
94.08728380258322
 30
0.0
  0
POINT
  5
4107
330
40AE
100
AcDbEntity
  8
Defpoints
 62
     0
100
AcDbPoint
 10
77.06518934617974
 20
94.08728380258322
 30
0.0
  0
ENDBLK
  5
40B0
330
40AE
100
AcDbEntity
  8
0
100
AcDbBlockEnd
  0
BLOCK
  5
40C7
330
40C6
100
AcDbEntity
  8
0
100
AcDbBlockBegin
  2
*D39
 70
     1
 10
0.0
 20
0.0
 30
0.0
  3
*D39
  1

  0
LINE
  5
4108
330
40C6
100
AcDbEntity
  8
A-ANNO-DIM
 62
     1
370
    -2
100
AcDbLine
 10
58.28220213010013
 20
82.66228380258322
 30
0.0
 11
58.28220213010013
 21
56.15102829672425
 31
0.0
  0
LINE
  5
4109
330
40C6
100
AcDbEntity
  8
A-ANNO-DIM
 62
     1
370
    -2
100
AcDbLine
 10
65.34220213010013
 20
82.66228380258322
 30
0.0
 11
65.34220213010013
 21
56.15102829672425
 31
0.0
  0
LINE
  5
410A
330
40C6
100
AcDbEntity
  8
A-ANNO-DIM
 62
     1
370
    -2
100
AcDbLine
 10
59.72220213010013
 20
56.95102829672425
 30
0.0
 11
63.90220213010014
 21
56.95102829672425
 31
0.0
  0
MTEXT
  5
410B
330
40C6
100
AcDbEntity
  8
A-ANNO-DIM
 62
     4
100
AcDbMText
 10
49.07736429344845
 20
56.95102829672425
 30
0.0
 40
1.0
 41
0.0
 71
     5
 72
     1
  1
\A1;7.06 [179.3]
  7
ARCH
 73
     1
 44
1.0
  0
SOLID
  5
410C
330
40C6
100
AcDbEntity
  8
A-ANNO-DIM
 62
     1
100
AcDbTrace
 10
59.72220213010013
 20
57.19102829672425
 30
0.0
 11
59.72220213010013
 21
56.71102829672424
 31
0.0
 12
58.28220213010013
 22
56.95102829672425
 32
0.0
 13
58.28220213010013
 23
56.95102829672425
 33
0.0
  0
SOLID
  5
410D
330
40C6
100
AcDbEntity
  8
A-ANNO-DIM
 62
     1
100
AcDbTrace
 10
63.90220213010014
 20
57.19102829672425
 30
0.0
 11
63.90220213010014
 21
56.71102829672424
 31
0.0
 12
65.34220213010013
 22
56.95102829672425
 32
0.0
 13
65.34220213010013
 23
56.95102829672425
 33
0.0
  0
POINT
  5
410E
330
40C6
100
AcDbEntity
  8
Defpoints
 62
     0
100
AcDbPoint
 10
58.28220213010013
 20
83.46228380258322
 30
0.0
  0
POINT
  5
410F
330
40C6
100
AcDbEntity
  8
Defpoints
 62
     0
100
AcDbPoint
 10
65.34220213010013
 20
83.46228380258322
 30
0.0
  0
POINT
  5
4110
330
40C6
100
AcDbEntity
  8
Defpoints
 62
     0
100
AcDbPoint
 10
65.34220213010013
 20
56.95102829672425
 30
0.0
  0
ENDBLK
  5
40C8
330
40C6
100
AcDbEntity
  8
0
100
AcDbBlockEnd
  0
BLOCK
  5
40D4
330
40D3
100
AcDbEntity
  8
0
100
AcDbBlockBegin
  2
*D40
 70
     1
 10
0.0
 20
0.0
 30
0.0
  3
*D40
  1

  0
LINE
  5
4111
330
40D3
100
AcDbEntity
  8
A-ANNO-DIM
 62
     1
370
    -2
100
AcDbLine
 10
69.6122021301001
 20
118.4965533483925
 30
0.0
 11
77.43994247236144
 21
118.4965533483925
 31
0.0
  0
LINE
  5
4112
330
40D3
100
AcDbEntity
  8
A-ANNO-DIM
 62
     1
370
    -2
100
AcDbLine
 10
69.6122021301001
 20
121.9715533483925
 30
0.0
 11
77.43994247236144
 21
121.9715533483925
 31
0.0
  0
LINE
  5
4113
330
40D3
100
AcDbEntity
  8
A-ANNO-DIM
 62
     1
370
    -2
100
AcDbLine
 10
76.63994247236144
 20
117.0565533483925
 30
0.0
 11
76.63994247236144
 21
115.6165533483925
 31
0.0
  0
LINE
  5
4114
330
40D3
100
AcDbEntity
  8
A-ANNO-DIM
 62
     1
370
    -2
100
AcDbLine
 10
76.63994247236144
 20
123.4115533483925
 30
0.0
 11
76.63994247236144
 21
124.8515533483925
 31
0.0
  0
MTEXT
  5
4115
330
40D3
100
AcDbEntity
  8
A-ANNO-DIM
 62
     4
100
AcDbMText
 10
76.63994247236144
 20
120.288044220448
 30
0.0
 40
1.0
 41
0.0
 71
     5
 72
     1
  1
\A1;3.48 [88.3]
  7
ARCH
 73
     1
 44
1.0
  0
SOLID
  5
4116
330
40D3
100
AcDbEntity
  8
A-ANNO-DIM
 62
     1
100
AcDbTrace
 10
76.39994247236145
 20
117.0565533483925
 30
0.0
 11
76.87994247236144
 21
117.0565533483925
 31
0.0
 12
76.63994247236144
 22
118.4965533483925
 32
0.0
 13
76.63994247236144
 23
118.4965533483925
 33
0.0
  0
SOLID
  5
4117
330
40D3
100
AcDbEntity
  8
A-ANNO-DIM
 62
     1
100
AcDbTrace
 10
76.39994247236145
 20
123.4115533483925
 30
0.0
 11
76.87994247236144
 21
123.4115533483925
 31
0.0
 12
76.63994247236144
 22
121.9715533483925
 32
0.0
 13
76.63994247236144
 23
121.9715533483925
 33
0.0
  0
POINT
  5
4118
330
40D3
100
AcDbEntity
  8
Defpoints
 62
     0
100
AcDbPoint
 10
68.8122021301001
 20
118.4965533483925
 30
0.0
  0
POINT
  5
4119
330
40D3
100
AcDbEntity
  8
Defpoints
 62
     0
100
AcDbPoint
 10
68.8122021301001
 20
121.9715533483925
 30
0.0
  0
POINT
  5
411A
330
40D3
100
AcDbEntity
  8
Defpoints
 62
     0
100
AcDbPoint
 10
76.63994247236144
 20
121.9715533483925
 30
0.0
  0
ENDBLK
  5
40D5
330
40D3
100
AcDbEntity
  8
0
100
AcDbBlockEnd
  0
ENDSEC
  0
SECTION
  2
ENTITIES
  0
INSERT
  5
3950
330
2
100
AcDbEntity
  8
0
100
AcDbBlockReference
  2
SONANCE C title
 10
0.0
 20
0.0
 30
0.0
 41
8.0
 42
8.0
 43
8.0
  0
TEXT
  5
3B81
330
2
100
AcDbEntity
  8
A-ANNO-NOTES
100
AcDbText
 10
182.2519818598505
 20
67.52878205882808
 30
0.0
 40
1.0
  1
A.B.
 50
90.0
  7
ARCH
100
AcDbText
  0
TEXT
  5
3B82
330
2
100
AcDbEntity
  8
A-ANNO-NOTES
100
AcDbText
 10
184.4015385316325
 20
68.89503744557595
 30
0.0
 40
1.0
  1
1APR09
 50
90.0
  7
ARCH
100
AcDbText
  0
TEXT
  5
3B83
330
2
100
AcDbEntity
  8
A-ANNO-NOTES
100
AcDbText
 10
182.1888827877097
 20
53.8080863589468
 30
0.0
 40
1.0
  1
1:8
 50
90.0
  7
ARCH
100
AcDbText
  0
TEXT
  5
3B84
330
2
100
AcDbEntity
  8
A-ANNO-NOTES
100
AcDbText
 10
184.5710906041203
 20
53.72087852257777
 30
0.0
 40
1.0
  1
1
 50
90.0
  7
ARCH
100
AcDbText
  0
TEXT
  5
3B85
330
2
100
AcDbEntity
  8
A-ANNO-NOTES
100
AcDbText
 10
184.5395410680496
 20
56.36618176671902
 30
0.0
 40
1.0
  1
1
 50
90.0
  7
ARCH
100
AcDbText
  0
TEXT
  5
3B86
330
2
100
AcDbEntity
  8
A-ANNO-NOTES
100
AcDbText
 10
178.3232225999766
 20
96.57372788571406
 30
0.0
 40
1.0
  1
MEDIUM RECTANGLE
 50
90.0
  7
ARCH
100
AcDbText
  0
TEXT
  5
3B87
330
2
100
AcDbEntity
  8
A-ANNO-NOTES
100
AcDbText
 10
179.9783950137696
 20
94.58631274305782
 30
0.0
 40
1.0
  1
ACOUSTIC ENCLOSURE
 50
90.0
  7
ARCH
100
AcDbText
  0
ARC
  5
3F6B
330
2
100
AcDbEntity
  8
A-AENCL-DETAIL
  6
Continuous
370
     0
100
AcDbCircle
 10
65.09220213010014
 20
83.46228380258322
 30
0.0
 40
0.2500000000000142
100
AcDbArc
 50
270.0
 51
0.0
  0
ARC
  5
3F6C
330
2
100
AcDbEntity
  8
A-AENCL-DETAIL
  6
Continuous
370
     0
100
AcDbCircle
 10
58.53220213010013
 20
93.83728380258322
 30
0.0
 40
0.2500000000000142
100
AcDbArc
 50
90.0
 51
180.0
  0
LINE
  5
3F6D
330
2
100
AcDbEntity
  8
A-AENCL-DETAIL
  6
Continuous
370
     0
100
AcDbLine
 10
68.3122021301001
 20
62.52478380258321
 30
0.0
 11
68.3122021301001
 21
97.52478380258322
 31
0.0
  0
LINE
  5
3F6E
330
2
100
AcDbEntity
  8
A-AENCL-DETAIL
  6
Continuous
370
     0
100
AcDbLine
 10
65.34220213010013
 20
83.46228380258322
 30
0.0
 11
65.34220213010013
 21
93.83728380258322
 31
0.0
  0
ARC
  5
3F6F
330
2
100
AcDbEntity
  8
A-AENCL-DETAIL
  6
Continuous
370
     0
100
AcDbCircle
 10
58.53220213010013
 20
83.46228380258322
 30
0.0
 40
0.25
100
AcDbArc
 50
180.0
 51
270.0
  0
LINE
  5
3F70
330
2
100
AcDbEntity
  8
A-AENCL-DETAIL
  6
Continuous
370
     0
100
AcDbLine
 10
58.28220213010013
 20
93.83728380258322
 30
0.0
 11
58.28220213010013
 21
83.46228380258322
 31
0.0
  0
LINE
  5
3F71
330
2
100
AcDbEntity
  8
A-AENCL-DETAIL
  6
Continuous
370
     0
100
AcDbLine
 10
55.3122021301001
 20
62.52478380258321
 30
0.0
 11
68.3122021301001
 21
62.52478380258321
 31
0.0
  0
LINE
  5
3F72
330
2
100
AcDbEntity
  8
A-AENCL-DETAIL
  6
Continuous
370
     0
100
AcDbLine
 10
65.09220213010014
 20
94.08728380258322
 30
0.0
 11
58.53220213010013
 21
94.08728380258322
 31
0.0
  0
ARC
  5
3F73
330
2
100
AcDbEntity
  8
A-AENCL-DETAIL
  6
Continuous
370
     0
100
AcDbCircle
 10
65.09220213010014
 20
93.83728380258322
 30
0.0
 40
0.2500000000000142
100
AcDbArc
 50
0.0
 51
90.0
  0
LINE
  5
3F74
330
2
100
AcDbEntity
  8
A-AENCL-DETAIL
  6
Continuous
370
     0
100
AcDbLine
 10
68.3122021301001
 20
97.52478380258322
 30
0.0
 11
55.3122021301001
 21
97.52478380258322
 31
0.0
  0
LINE
  5
3F75
330
2
100
AcDbEntity
  8
A-AENCL-DETAIL
  6
Continuous
370
     0
100
AcDbLine
 10
55.3122021301001
 20
97.52478380258322
 30
0.0
 11
55.3122021301001
 21
62.52478380258321
 31
0.0
  0
LINE
  5
3F76
330
2
100
AcDbEntity
  8
A-AENCL-DETAIL
  6
Continuous
370
     0
100
AcDbLine
 10
58.53220213010013
 20
83.21228380258322
 30
0.0
 11
65.09220213010014
 21
83.21228380258322
 31
0.0
  0
LINE
  5
3F77
330
2
100
AcDbEntity
  8
A-AENCL-DETAIL
  6
Continuous
370
     0
100
AcDbLine
 10
64.1247021301001
 20
93.2127838025832
 30
0.0
 11
59.49970213010013
 21
93.2127838025832
 31
0.0
  0
ARC
  5
3F78
330
2
100
AcDbEntity
  8
A-AENCL-DETAIL
  6
Continuous
370
     0
100
AcDbCircle
 10
59.49970213010013
 20
84.33678380258319
 30
0.0
 40
0.2500000000000142
100
AcDbArc
 50
180.0
 51
270.0
  0
LINE
  5
3F79
330
2
100
AcDbEntity
  8
A-AENCL-DETAIL
  6
Continuous
370
     0
100
AcDbLine
 10
64.3747021301001
 20
84.33678380258319
 30
0.0
 11
64.3747021301001
 21
92.96278380258319
 31
0.0
  0
ARC
  5
3F7A
330
2
100
AcDbEntity
  8
A-AENCL-DETAIL
  6
Continuous
370
     0
100
AcDbCircle
 10
64.12470213010013
 20
84.33678380258319
 30
0.0
 40
0.25
100
AcDbArc
 50
270.0
 51
0.0
  0
LINE
  5
3F7B
330
2
100
AcDbEntity
  8
A-AENCL-DETAIL
  6
Continuous
370
     0
100
AcDbLine
 10
59.2497021301001
 20
92.96278380258319
 30
0.0
 11
59.2497021301001
 21
84.33678380258319
 31
0.0
  0
ARC
  5
3F7C
330
2
100
AcDbEntity
  8
A-AENCL-DETAIL
  6
Continuous
370
     0
100
AcDbCircle
 10
64.12470213010013
 20
92.96278380258319
 30
0.0
 40
0.25
100
AcDbArc
 50
0.0
 51
90.00000000000325
  0
LINE
  5
3F7D
330
2
100
AcDbEntity
  8
A-AENCL-DETAIL
  6
Continuous
370
     0
100
AcDbLine
 10
59.49970213010013
 20
84.0867838025832
 30
0.0
 11
64.12470213010013
 21
84.0867838025832
 31
0.0
  0
ARC
  5
3F7E
330
2
100
AcDbEntity
  8
A-AENCL-DETAIL
  6
Continuous
370
     0
100
AcDbCircle
 10
59.49970213010013
 20
92.96278380258319
 30
0.0
 40
0.2500000000000142
100
AcDbArc
 50
90.0
 51
180.0
  0
ARC
  5
3F7F
330
2
100
AcDbEntity
  8
A-AENCL-DETAIL
  6
Continuous
370
     0
100
AcDbCircle
 10
61.81220213010011
 20
90.32578380258321
 30
0.0
 40
2.125000000000017
100
AcDbArc
 50
307.9352618706252
 51
232.0647381293769
  0
ARC
  5
3F80
330
2
100
AcDbEntity
  8
A-AENCL-DETAIL
  6
Continuous
370
     0
100
AcDbCircle
 10
61.81220213010011
 20
86.97378380258321
 30
0.0
 40
2.124999999999994
100
AcDbArc
 50
127.935261870625
 51
52.06473812937487
  0
LINE
  5
3F81
330
2
100
AcDbEntity
  8
A-AENCL-DETAIL
  6
Continuous
370
     0
100
AcDbLine
 10
54.8122021301001
 20
98.02478380258325
 30
0.0
 11
55.3122021301001
 21
97.52478380258326
 31
0.0
  0
LINE
  5
3F82
330
2
100
AcDbEntity
  8
A-AENCL-DETAIL
  6
Continuous
370
     0
100
AcDbLine
 10
68.3122021301001
 20
97.52478380258319
 30
0.0
 11
68.8122021301001
 21
98.02478380258317
 31
0.0
  0
LINE
  5
3F83
330
2
100
AcDbEntity
  8
A-AENCL-DETAIL
  6
Continuous
370
     0
100
AcDbLine
 10
55.3122021301001
 20
97.52478380258326
 30
0.0
 11
68.3122021301001
 21
97.52478380258319
 31
0.0
  0
LINE
  5
3F84
330
2
100
AcDbEntity
  8
A-AENCL-DETAIL
  6
Continuous
370
     0
100
AcDbLine
 10
54.8122021301001
 20
98.02478380258325
 30
0.0
 11
68.8122021301001
 21
98.02478380258317
 31
0.0
  0
LINE
  5
3F85
330
2
100
AcDbEntity
  8
A-AENCL-DETAIL
  6
Continuous
370
     0
100
AcDbLine
 10
68.3122021301001
 20
62.52478380258324
 30
0.0
 11
55.3122021301001
 21
62.52478380258317
 31
0.0
  0
LINE
  5
3F86
330
2
100
AcDbEntity
  8
A-AENCL-DETAIL
  6
Continuous
370
     0
100
AcDbLine
 10
68.8122021301001
 20
62.02478380258324
 30
0.0
 11
68.3122021301001
 21
62.52478380258324
 31
0.0
  0
LINE
  5
3F87
330
2
100
AcDbEntity
  8
A-AENCL-DETAIL
  6
Continuous
370
     0
100
AcDbLine
 10
68.8122021301001
 20
62.02478380258324
 30
0.0
 11
54.8122021301001
 21
62.02478380258317
 31
0.0
  0
LINE
  5
3F88
330
2
100
AcDbEntity
  8
A-AENCL-DETAIL
  6
Continuous
370
     0
100
AcDbLine
 10
55.3122021301001
 20
62.52478380258317
 30
0.0
 11
54.8122021301001
 21
62.02478380258317
 31
0.0
  0
LINE
  5
3F89
330
2
100
AcDbEntity
  8
A-AENCL-DETAIL
  6
Continuous
370
     0
100
AcDbLine
 10
54.81220213010013
 20
62.0247838025832
 30
0.0
 11
54.81220213010008
 21
98.02478380258321
 31
0.0
  0
LINE
  5
3F8A
330
2
100
AcDbEntity
  8
A-AENCL-DETAIL
  6
Continuous
370
     0
100
AcDbLine
 10
55.31220213010008
 20
97.5247838025832
 30
0.0
 11
54.81220213010008
 21
98.02478380258321
 31
0.0
  0
LINE
  5
3F8B
330
2
100
AcDbEntity
  8
A-AENCL-DETAIL
  6
Continuous
370
     0
100
AcDbLine
 10
55.31220213010013
 20
62.52478380258321
 30
0.0
 11
55.31220213010008
 21
97.5247838025832
 31
0.0
  0
LINE
  5
3F8C
330
2
100
AcDbEntity
  8
A-AENCL-DETAIL
  6
Continuous
370
     0
100
AcDbLine
 10
54.81220213010013
 20
62.0247838025832
 30
0.0
 11
55.31220213010013
 21
62.52478380258321
 31
0.0
  0
LINE
  5
3F8D
330
2
100
AcDbEntity
  8
A-AENCL-DETAIL
  6
Continuous
370
     0
100
AcDbLine
 10
68.3122021301001
 20
62.52478380258321
 30
0.0
 11
68.8122021301001
 21
62.0247838025832
 31
0.0
  0
LINE
  5
3F8E
330
2
100
AcDbEntity
  8
A-AENCL-DETAIL
  6
Continuous
370
     0
100
AcDbLine
 10
68.31220213010019
 20
97.52478380258322
 30
0.0
 11
68.3122021301001
 21
62.52478380258321
 31
0.0
  0
LINE
  5
3F8F
330
2
100
AcDbEntity
  8
A-AENCL-DETAIL
  6
Continuous
370
     0
100
AcDbLine
 10
68.81220213010016
 20
98.02478380258321
 30
0.0
 11
68.31220213010019
 21
97.52478380258322
 31
0.0
  0
LINE
  5
3F90
330
2
100
AcDbEntity
  8
A-AENCL-DETAIL
  6
Continuous
370
     0
100
AcDbLine
 10
68.81220213010016
 20
98.02478380258321
 30
0.0
 11
68.8122021301001
 21
62.0247838025832
 31
0.0
  0
LINE
  5
3F94
330
2
100
AcDbEntity
  8
A-AENCL-DETAIL
  6
Continuous
370
     0
100
AcDbLine
 10
94.57386392985313
 20
98.02478380258323
 30
0.0
 11
98.04886392985316
 21
98.02478380258323
 31
0.0
  0
LINE
  5
3F95
330
2
100
AcDbEntity
  8
A-AENCL-DETAIL
  6
Continuous
370
     0
100
AcDbLine
 10
98.04886392985316
 20
62.0247838025832
 30
0.0
 11
94.57386392985313
 21
62.0247838025832
 31
0.0
  0
LINE
  5
3F96
330
2
100
AcDbEntity
  8
A-AENCL-DETAIL
  6
Continuous
370
     0
100
AcDbLine
 10
98.04886392985316
 20
98.02478380258321
 30
0.0
 11
94.57386392985313
 21
98.02478380258321
 31
0.0
  0
LINE
  5
3F97
330
2
100
AcDbEntity
  8
A-AENCL-DETAIL
  6
Continuous
370
     0
100
AcDbLine
 10
98.04886392985316
 20
62.0247838025832
 30
0.0
 11
98.04886392985316
 21
98.02478380258321
 31
0.0
  0
LINE
  5
3F98
330
2
100
AcDbEntity
  8
A-AENCL-DETAIL
  6
Continuous
370
     0
100
AcDbLine
 10
94.57386392985318
 20
62.0247838025832
 30
0.0
 11
98.04886392985316
 21
62.0247838025832
 31
0.0
  0
LINE
  5
3F99
330
2
100
AcDbEntity
  8
A-AENCL-DETAIL
  6
Continuous
370
     0
100
AcDbLine
 10
94.57386392985313
 20
98.02478380258321
 30
0.0
 11
94.57386392985318
 21
62.0247838025832
 31
0.0
  0
LINE
  5
3F9A
330
2
100
AcDbEntity
  8
A-AENCL-DETAIL
  6
Continuous
370
     0
100
AcDbLine
 10
137.3105257296062
 20
62.52478380258319
 30
0.0
 11
137.3105257296062
 21
97.5247838025832
 31
0.0
  0
LINE
  5
3F9B
330
2
100
AcDbEntity
  8
A-AENCL-DETAIL
  6
Continuous
370
     0
100
AcDbLine
 10
124.3105257296062
 20
97.5247838025832
 30
0.0
 11
124.3105257296062
 21
62.52478380258321
 31
0.0
  0
LINE
  5
3F9C
330
2
100
AcDbEntity
  8
A-AENCL-DETAIL
  6
Continuous
370
     0
100
AcDbLine
 10
137.3105257296062
 20
97.5247838025832
 30
0.0
 11
124.3105257296062
 21
97.5247838025832
 31
0.0
  0
LINE
  5
3F9D
330
2
100
AcDbEntity
  8
A-AENCL-DETAIL
  6
Continuous
370
     0
100
AcDbLine
 10
124.3105257296062
 20
62.52478380258321
 30
0.0
 11
137.3105257296062
 21
62.52478380258319
 31
0.0
  0
LINE
  5
3F9E
330
2
100
AcDbEntity
  8
A-AENCL-DETAIL
  6
Continuous
370
     0
100
AcDbLine
 10
137.3105257296062
 20
97.52478380258326
 30
0.0
 11
137.8105257296062
 21
98.02478380258326
 31
0.0
  0
LINE
  5
3F9F
330
2
100
AcDbEntity
  8
A-AENCL-DETAIL
  6
Continuous
370
     0
100
AcDbLine
 10
124.3105257296062
 20
97.52478380258317
 30
0.0
 11
137.3105257296062
 21
97.52478380258326
 31
0.0
  0
LINE
  5
3FA0
330
2
100
AcDbEntity
  8
A-AENCL-DETAIL
  6
Continuous
370
     0
100
AcDbLine
 10
123.8105257296062
 20
98.02478380258317
 30
0.0
 11
124.3105257296062
 21
97.52478380258317
 31
0.0
  0
LINE
  5
3FA1
330
2
100
AcDbEntity
  8
A-AENCL-DETAIL
  6
Continuous
370
     0
100
AcDbLine
 10
123.8105257296062
 20
98.02478380258317
 30
0.0
 11
137.8105257296062
 21
98.02478380258326
 31
0.0
  0
LINE
  5
3FA2
330
2
100
AcDbEntity
  8
A-AENCL-DETAIL
  6
Continuous
370
     0
100
AcDbLine
 10
137.8105257296062
 20
62.02478380258317
 30
0.0
 11
137.3105257296062
 21
62.52478380258317
 31
0.0
  0
LINE
  5
3FA3
330
2
100
AcDbEntity
  8
A-AENCL-DETAIL
  6
Continuous
370
     0
100
AcDbLine
 10
124.3105257296062
 20
62.52478380258326
 30
0.0
 11
123.8105257296062
 21
62.02478380258326
 31
0.0
  0
LINE
  5
3FA4
330
2
100
AcDbEntity
  8
A-AENCL-DETAIL
  6
Continuous
370
     0
100
AcDbLine
 10
137.3105257296062
 20
62.52478380258317
 30
0.0
 11
124.3105257296062
 21
62.52478380258326
 31
0.0
  0
LINE
  5
3FA5
330
2
100
AcDbEntity
  8
A-AENCL-DETAIL
  6
Continuous
370
     0
100
AcDbLine
 10
137.8105257296062
 20
62.02478380258317
 30
0.0
 11
123.8105257296062
 21
62.02478380258326
 31
0.0
  0
LINE
  5
3FA6
330
2
100
AcDbEntity
  8
A-AENCL-DETAIL
  6
Continuous
370
     0
100
AcDbLine
 10
137.3105257296062
 20
62.52478380258321
 30
0.0
 11
137.8105257296062
 21
62.0247838025832
 31
0.0
  0
LINE
  5
3FA7
330
2
100
AcDbEntity
  8
A-AENCL-DETAIL
  6
Continuous
370
     0
100
AcDbLine
 10
137.3105257296062
 20
97.5247838025832
 30
0.0
 11
137.3105257296062
 21
62.52478380258321
 31
0.0
  0
LINE
  5
3FA8
330
2
100
AcDbEntity
  8
A-AENCL-DETAIL
  6
Continuous
370
     0
100
AcDbLine
 10
137.8105257296062
 20
98.02478380258321
 30
0.0
 11
137.3105257296062
 21
97.5247838025832
 31
0.0
  0
LINE
  5
3FA9
330
2
100
AcDbEntity
  8
A-AENCL-DETAIL
  6
Continuous
370
     0
100
AcDbLine
 10
137.8105257296062
 20
98.02478380258321
 30
0.0
 11
137.8105257296062
 21
62.0247838025832
 31
0.0
  0
LINE
  5
3FAA
330
2
100
AcDbEntity
  8
A-AENCL-DETAIL
  6
Continuous
370
     0
100
AcDbLine
 10
124.3105257296062
 20
97.52478380258322
 30
0.0
 11
123.8105257296061
 21
98.02478380258321
 31
0.0
  0
LINE
  5
3FAB
330
2
100
AcDbEntity
  8
A-AENCL-DETAIL
  6
Continuous
370
     0
100
AcDbLine
 10
124.3105257296062
 20
62.52478380258321
 30
0.0
 11
124.3105257296062
 21
97.52478380258322
 31
0.0
  0
LINE
  5
3FAC
330
2
100
AcDbEntity
  8
A-AENCL-DETAIL
  6
Continuous
370
     0
100
AcDbLine
 10
123.8105257296062
 20
62.0247838025832
 30
0.0
 11
123.8105257296061
 21
98.02478380258321
 31
0.0
  0
LINE
  5
3FAD
330
2
100
AcDbEntity
  8
A-AENCL-DETAIL
  6
Continuous
370
     0
100
AcDbLine
 10
123.8105257296062
 20
62.0247838025832
 30
0.0
 11
124.3105257296062
 21
62.52478380258321
 31
0.0
  0
LINE
  5
3FBA
330
2
100
AcDbEntity
  8
A-AENCL-DETAIL
  6
Continuous
370
     0
100
AcDbLine
 10
68.8122021301001
 20
121.9715533483925
 30
0.0
 11
54.8122021301001
 21
121.9715533483925
 31
0.0
  0
LINE
  5
3FBB
330
2
100
AcDbEntity
  8
A-AENCL-DETAIL
  6
Continuous
370
     0
100
AcDbLine
 10
68.8122021301001
 20
118.4965533483925
 30
0.0
 11
68.8122021301001
 21
121.9715533483925
 31
0.0
  0
LINE
  5
3FBC
330
2
100
AcDbEntity
  8
A-AENCL-DETAIL
  6
Continuous
370
     0
100
AcDbLine
 10
54.8122021301001
 20
118.4965533483925
 30
0.0
 11
68.8122021301001
 21
118.4965533483925
 31
0.0
  0
LINE
  5
3FBD
330
2
100
AcDbEntity
  8
A-AENCL-DETAIL
  6
Continuous
370
     0
100
AcDbLine
 10
54.8122021301001
 20
121.9715533483925
 30
0.0
 11
54.8122021301001
 21
118.4965533483925
 31
0.0
  0
LINE
  5
3FBE
330
2
100
AcDbEntity
  8
A-AENCL-DETAIL
  6
Continuous
370
     0
100
AcDbLine
 10
54.8122021301001
 20
118.4965533483925
 30
0.0
 11
54.81220213010013
 21
121.9715533483925
 31
0.0
  0
LINE
  5
3FBF
330
2
100
AcDbEntity
  8
A-AENCL-DETAIL
  6
Continuous
370
     0
100
AcDbLine
 10
68.8122021301001
 20
121.9715533483925
 30
0.0
 11
68.8122021301001
 21
118.4965533483925
 31
0.0
  0
LINE
  5
3FC0
330
2
100
AcDbEntity
  8
A-AENCL-DETAIL
  6
Continuous
370
     0
100
AcDbLine
 10
148.1765024117225
 20
52.13486105062699
 30
0.0
 11
148.1765024117225
 21
23.55593263462576
 31
0.0
  0
LINE
  5
3FC1
330
2
100
AcDbEntity
  8
A-AENCL-DETAIL
  6
Continuous
370
     0
100
AcDbLine
 10
157.3688905671475
 20
46.82820832377937
 30
0.0
 11
148.1765024117225
 21
52.13486105062699
 31
0.0
  0
LINE
  5
3FC2
330
2
100
AcDbEntity
  8
A-AENCL-DETAIL
  6
Continuous
370
     0
100
AcDbLine
 10
157.3688905671475
 20
18.24927990777814
 30
0.0
 11
157.3688905671475
 21
46.82820832377937
 31
0.0
  0
LINE
  5
3FC3
330
2
100
AcDbEntity
  8
A-AENCL-DETAIL
  6
Continuous
370
     0
100
AcDbLine
 10
148.1765024117225
 20
23.55593263462576
 30
0.0
 11
157.3688905671475
 21
18.24927990777814
 31
0.0
  0
ARC
  5
3FC4
330
2
100
AcDbEntity
  8
A-AENCL-DETAIL
  6
Continuous
370
     0
100
AcDbCircle
 10
150.6604135771883
 20
39.45735505049206
 30
0.0
 40
0.384201201893006
100
AcDbArc
 50
182.6054784856549
 51
237.3945216599759
  0
LINE
  5
3FC5
330
2
100
AcDbEntity
  8
A-AENCL-DETAIL
  6
Continuous
370
     0
100
AcDbLine
 10
150.4533862471431
 20
39.13370362047765
 30
0.0
 11
155.0920067317269
 21
36.45588501369916
 31
0.0
  0
ARC
  5
3FC6
330
2
100
AcDbEntity
  8
A-AENCL-DETAIL
  6
Continuous
370
     0
100
AcDbCircle
 10
155.1610148351669
 20
36.54048740346758
 30
0.0
 40
0.1091772993571198
100
AcDbArc
 50
230.7967147642811
 51
9.214036990467583
  0
LINE
  5
3FC7
330
2
100
AcDbEntity
  8
A-AENCL-DETAIL
  6
Continuous
370
     0
100
AcDbLine
 10
155.2687834270235
 20
36.55796920269275
 30
0.0
 11
155.2687834270235
 21
45.02958012600741
 31
0.0
  0
ARC
  5
3FC8
330
2
100
AcDbEntity
  8
A-AENCL-DETAIL
  6
Continuous
370
     0
100
AcDbCircle
 10
154.8849794016817
 20
45.01211491294226
 30
0.0
 40
0.3842012018930178
100
AcDbArc
 50
2.605478485654913
 51
57.39452165997397
  0
LINE
  5
3FC9
330
2
100
AcDbEntity
  8
A-AENCL-DETAIL
  6
Continuous
370
     0
100
AcDbLine
 10
155.0920067317269
 20
45.33576634295668
 30
0.0
 11
150.4533862471431
 21
48.01358494973517
 31
0.0
  0
ARC
  5
3FCA
330
2
100
AcDbEntity
  8
A-AENCL-DETAIL
  6
Continuous
370
     0
100
AcDbCircle
 10
150.3843781437032
 20
47.92898255996672
 30
0.0
 40
0.1091772993571308
100
AcDbArc
 50
50.79671476429372
 51
189.2140369904533
  0
LINE
  5
3FCB
330
2
100
AcDbEntity
  8
A-AENCL-DETAIL
  6
Continuous
370
     0
100
AcDbLine
 10
150.2766095518465
 20
47.91150076074157
 30
0.0
 11
150.2766095518465
 21
39.43988983742692
 31
0.0
  0
LINE
  5
3FCC
330
2
100
AcDbEntity
  8
A-AENCL-DETAIL
  6
Continuous
370
     0
100
AcDbLine
 10
150.2766095518465
 20
39.43988983742692
 30
0.0
 11
150.6301629424398
 21
39.6439918653826
 31
0.0
  0
LINE
  5
3FCD
330
2
100
AcDbEntity
  8
A-AENCL-DETAIL
  6
Continuous
370
     0
100
AcDbLine
 10
150.6301629424398
 20
47.91153393575735
 30
0.0
 11
150.6301629424398
 21
39.6439918653826
 31
0.0
  0
LINE
  5
3FCE
330
2
100
AcDbEntity
  8
A-AENCL-DETAIL
  6
Continuous
370
     0
100
AcDbLine
 10
150.8069396377364
 20
39.33780564843332
 30
0.0
 11
150.4533862471431
 21
39.13370362047765
 31
0.0
  0
LINE
  5
3FCF
330
2
100
AcDbEntity
  8
A-AENCL-DETAIL
  6
Continuous
370
     0
100
AcDbLine
 10
150.8069396377364
 20
39.33780564843332
 30
0.0
 11
155.2687834270235
 21
36.76203805563267
 31
0.0
  0
ARC
  5
3FD0
330
2
100
AcDbEntity
  8
A-AENCL-DETAIL
  6
Continuous
370
     0
100
AcDbCircle
 10
151.0139669677817
 20
39.66145707844774
 30
0.0
 40
0.3842012018930235
100
AcDbArc
 50
182.6054784856549
 51
237.394521659974
  0
LINE
  5
3FD1
330
2
100
AcDbEntity
  8
A-AENCL-DETAIL
  6
Continuous
370
     0
100
AcDbLine
 10
153.0643780366745
 20
46.50629147328248
 30
0.0
 11
153.0643780366745
 21
40.97342441966303
 31
0.0
  0
ARC
  5
3FD2
330
2
100
AcDbEntity
  8
A-AENCL-DETAIL
  6
Continuous
370
     0
100
AcDbCircle
 10
153.4481820620164
 20
40.99088963272818
 30
0.0
 40
0.384201201893021
100
AcDbArc
 50
182.6054784856536
 51
237.3945216599739
  0
LINE
  5
3FD3
330
2
100
AcDbEntity
  8
A-AENCL-DETAIL
  6
Continuous
370
     0
100
AcDbLine
 10
153.2411547319711
 20
40.66723820271376
 30
0.0
 11
155.2687834270235
 21
39.49671307238796
 31
0.0
  0
LWPOLYLINE
  5
3FD4
330
2
100
AcDbEntity
  8
A-AENCL-DETAIL
  6
Continuous
370
     0
100
AcDbPolyline
 90
       34
 70
   128
 43
0.0
 10
154.1293602092526
 20
44.08446584746247
 10
154.0361735142411
 20
44.04711824819393
 10
153.9497039651321
 20
43.99745552945377
 10
153.8705227138503
 20
43.93580572530363
 10
153.799152771381
 20
43.86257604735343
 10
153.7360655531581
 20
43.77825019503198
 10
153.6816777652532
 20
43.68338516063728
 10
153.6363486519328
 20
43.57860755026996
 10
153.6003776227647
 20
43.46460944495103
 10
153.5740022749465
 20
43.34214382926236
 10
153.5573968239196
 20
43.21201961770437
 10
153.5506709526351
 20
43.07509631162363
 10
153.5538690870714
 20
42.93227832200208
 10
153.5669701027904
 20
42.78450899560755
 10
153.5898874644693
 20
42.63276438396411
 10
153.6224697974871
 20
42.47804679629985
 10
153.6645018877896
 20
42.32137817905609
 10
153.7157061034298
 20
42.16379336568826
 10
153.7757442283927
 20
42.00633324134495
 10
153.8442196965924
 20
41.85003786757413
 10
153.9206802112856
 20
41.69593961246937
 10
154.0046207325987
 20
41.54505633163322
 10
154.0954868134368
 20
41.39838464499905
 10
154.192678261738
 20
41.25689335391942
 10
154.2955531048848
 20
41.12151704200296
 10
154.4034318300859
 20
40.99314990196747
 10
154.5156018727197
 20
40.87263982928442
 10
154.6313223229929
 20
40.76078282162792
 10
154.7498288198259
 20
40.6583177211208
 10
154.8703385996393
 20
40.56592133410684
 10
154.9920556666935
 20
40.48420396068393
 10
155.1141760508297
 20
40.41370536352693
 10
155.2358931178839
 20
40.35489120262687
 10
155.2687834270235
 20
40.34098484409721
  0
LWPOLYLINE
  5
3FD5
330
2
100
AcDbEntity
  8
A-AENCL-DETAIL
  6
Continuous
370
     0
100
AcDbPolyline
 90
       16
 70
   128
 43
0.0
 10
153.599288134335
 20
46.19749444683259
 10
153.5898874644693
 20
46.15902928409759
 10
153.5669701027904
 20
46.03374449503553
 10
153.5538690870714
 20
45.90110127942184
 10
153.5506709526351
 20
45.76197577722363
 10
153.5573968239196
 20
45.61728694545162
 10
153.5740022749465
 20
45.46799048823073
 10
153.6003776227647
 20
45.31507254414714
 10
153.6363486519329
 20
45.15954317256858
 10
153.6816777652533
 20
45.00242968196208
 10
153.7360655531581
 20
44.84476984427736
 10
153.799152771381
 20
44.68760504021648
 10
153.8705227138503
 20
44.53197338066672
 10
153.9497039651321
 20
44.37890284973149
 10
154.0361735142411
 20
44.22940451465092
 10
154.1293602092526
 20
44.08446584746247
  0
LINE
  5
3FD6
330
2
100
AcDbEntity
  8
A-AENCL-DETAIL
  6
Continuous
370
     0
100
AcDbLine
 10
153.4179314272678
 20
40.7692892166916
 30
0.0
 11
155.2687834270235
 21
39.70081510034364
 31
0.0
  0
ARC
  5
3FD7
330
2
100
AcDbEntity
  8
A-AENCL-DETAIL
  6
Continuous
370
     0
100
AcDbCircle
 10
153.624958757313
 20
41.09294064670601
 30
0.0
 40
0.3842012018930065
100
AcDbArc
 50
182.6054784856528
 51
237.3945216599758
  0
LINE
  5
3FD8
330
2
100
AcDbEntity
  8
A-AENCL-DETAIL
  6
Continuous
370
     0
100
AcDbLine
 10
153.2411547319711
 20
46.40424045930465
 30
0.0
 11
153.2411547319711
 21
41.07547543364088
 31
0.0
  0
LWPOLYLINE
  5
3FD9
330
2
100
AcDbEntity
  8
A-AENCL-DETAIL
  6
Continuous
370
     0
100
AcDbPolyline
 90
       15
 70
   128
 43
0.0
 10
154.2177485569008
 20
44.1354913544514
 10
154.1245618618894
 20
44.28043002163987
 10
154.0380923127804
 20
44.42992835672044
 10
153.9589110614986
 20
44.58299888765567
 10
153.8875411190294
 20
44.73863054720542
 10
153.8244539008065
 20
44.8957953512663
 10
153.7700661129016
 20
45.05345518895103
 10
153.7247369995812
 20
45.21056867955754
 10
153.6887659704131
 20
45.36609805113609
 10
153.6623906225948
 20
45.51901599521968
 10
153.6457851715679
 20
45.66831245244057
 10
153.6390593002834
 20
45.81300128421259
 10
153.6422574347197
 20
45.9521267864108
 10
153.6553584504387
 20
46.08477000202447
 10
153.6674206959115
 20
46.15816235624156
  0
LINE
  5
3FDA
330
2
100
AcDbEntity
  8
A-AENCL-DETAIL
  6
Continuous
370
     0
100
AcDbLine
 10
154.2177485569008
 20
44.1354913544514
 30
0.0
 11
154.1293602092526
 21
44.08446584746247
 31
0.0
  0
LWPOLYLINE
  5
3FDB
330
2
100
AcDbEntity
  8
A-AENCL-DETAIL
  6
Continuous
370
     0
100
AcDbPolyline
 90
       31
 70
   128
 43
0.0
 10
155.2687834270235
 20
40.43130634220318
 10
155.2025643984781
 20
40.46473087051587
 10
155.0804440143419
 20
40.53522946767286
 10
154.9587269472877
 20
40.61694684109578
 10
154.8382171674742
 20
40.70934322810973
 10
154.7197106706412
 20
40.81180832861686
 10
154.603990220368
 20
40.92366533627336
 10
154.4918201777342
 20
41.0441754089564
 10
154.3839414525331
 20
41.17254254899191
 10
154.2810666093863
 20
41.30791886090836
 10
154.1838751610852
 20
41.44941015198798
 10
154.093009080247
 20
41.59608183862217
 10
154.0090685589339
 20
41.74696511945831
 10
153.9326080442407
 20
41.90106337456307
 10
153.864132576041
 20
42.05735874833389
 10
153.8040944510782
 20
42.2148188726772
 10
153.7528902354379
 20
42.37240368604505
 10
153.7108581451355
 20
42.52907230328879
 10
153.6782758121177
 20
42.68378989095306
 10
153.6553584504387
 20
42.83553450259648
 10
153.6422574347197
 20
42.98330382899102
 10
153.6390593002834
 20
43.12612181861259
 10
153.6457851715679
 20
43.26304512469333
 10
153.6623906225948
 20
43.39316933625131
 10
153.6887659704131
 20
43.51563495193997
 10
153.7247369995812
 20
43.62963305725888
 10
153.7700661129016
 20
43.73441066762622
 10
153.8244539008065
 20
43.82927570202092
 10
153.8875411190294
 20
43.91360155434235
 10
153.9589110614986
 20
43.98683123229256
 10
154.0358156705086
 20
44.04694481553921
  0
LINE
  5
3FDC
330
2
100
AcDbEntity
  8
A-AENCL-DETAIL
  6
Continuous
370
     0
100
AcDbLine
 10
153.2411547319711
 20
41.07547543364088
 30
0.0
 11
153.0643780366745
 21
40.97342441966303
 31
0.0
  0
LINE
  5
3FDD
330
2
100
AcDbEntity
  8
A-AENCL-DETAIL
  6
Continuous
370
     0
100
AcDbLine
 10
153.4179314272678
 20
40.7692892166916
 30
0.0
 11
153.2411547319711
 21
40.66723820271376
 31
0.0
  0
LINE
  5
3FDE
330
2
100
AcDbEntity
  8
A-AENCL-DETAIL
  6
Continuous
370
     0
100
AcDbLine
 10
160.1796400223641
 20
48.45088579605851
 30
0.0
 11
150.2801450857524
 21
54.16574257881754
 31
0.0
  0
LINE
  5
3FDF
330
2
100
AcDbEntity
  8
A-AENCL-DETAIL
  6
Continuous
370
     0
100
AcDbLine
 10
157.7224439577409
 20
47.03237670176655
 30
0.0
 11
160.1796400223641
 21
48.45088579605851
 31
0.0
  0
LINE
  5
3FE0
330
2
100
AcDbEntity
  8
A-AENCL-DETAIL
  6
Continuous
370
     0
100
AcDbLine
 10
147.8229490211292
 20
52.74723348452558
 30
0.0
 11
157.7224439577409
 21
47.03237670176655
 31
0.0
  0
LINE
  5
3FE1
330
2
100
AcDbEntity
  8
A-AENCL-DETAIL
  6
Continuous
370
     0
100
AcDbLine
 10
150.2801450857524
 20
54.16574257881754
 30
0.0
 11
147.8229490211292
 21
52.74723348452558
 31
0.0
  0
LINE
  5
3FE2
330
2
100
AcDbEntity
  8
A-AENCL-DETAIL
  6
Continuous
370
     0
100
AcDbLine
 10
147.8229490211292
 20
52.74723348452558
 30
0.0
 11
148.1765024117225
 21
52.13486105062703
 31
0.0
  0
LINE
  5
3FE3
330
2
100
AcDbEntity
  8
A-AENCL-DETAIL
  6
Continuous
370
     0
100
AcDbLine
 10
157.3688905671475
 20
46.82820832377936
 30
0.0
 11
157.7224439577409
 21
47.03237670176655
 31
0.0
  0
LINE
  5
3FE4
330
2
100
AcDbEntity
  8
A-AENCL-DETAIL
  6
Continuous
370
     0
100
AcDbLine
 10
148.1765024117225
 20
52.13486105062703
 30
0.0
 11
157.3688905671475
 21
46.82820832377936
 31
0.0
  0
LINE
  5
3FE5
330
2
100
AcDbEntity
  8
A-AENCL-DETAIL
  6
Continuous
370
     0
100
AcDbLine
 10
160.1796400223641
 20
19.05541656817156
 30
0.0
 11
157.7224439577409
 21
17.63690747387961
 31
0.0
  0
LINE
  5
3FE6
330
2
100
AcDbEntity
  8
A-AENCL-DETAIL
  6
Continuous
370
     0
100
AcDbLine
 10
157.7224439577409
 20
17.63690747387961
 30
0.0
 11
157.3688905671475
 21
18.24927990777817
 31
0.0
  0
LINE
  5
3FE7
330
2
100
AcDbEntity
  8
A-AENCL-DETAIL
  6
Continuous
370
     0
100
AcDbLine
 10
148.1765024117225
 20
23.55593263462573
 30
0.0
 11
147.8229490211292
 21
23.35176425663853
 31
0.0
  0
LINE
  5
3FE8
330
2
100
AcDbEntity
  8
A-AENCL-DETAIL
  6
Continuous
370
     0
100
AcDbLine
 10
157.3688905671475
 20
18.24927990777817
 30
0.0
 11
148.1765024117225
 21
23.55593263462573
 31
0.0
  0
LINE
  5
3FE9
330
2
100
AcDbEntity
  8
A-AENCL-DETAIL
  6
Continuous
370
     0
100
AcDbLine
 10
157.7224439577409
 20
17.63690747387961
 30
0.0
 11
147.8229490211292
 21
23.35176425663853
 31
0.0
  0
LINE
  5
3FEA
330
2
100
AcDbEntity
  8
A-AENCL-DETAIL
  6
Continuous
370
     0
100
AcDbLine
 10
147.8229490211292
 20
23.35176425663854
 30
0.0
 11
148.1765024117225
 21
23.55593263462574
 31
0.0
  0
LINE
  5
3FEB
330
2
100
AcDbEntity
  8
A-AENCL-DETAIL
  6
Continuous
370
     0
100
AcDbLine
 10
147.8229490211292
 20
23.35176425663854
 30
0.0
 11
147.8229490211291
 21
52.74723348452557
 31
0.0
  0
LINE
  5
3FEC
330
2
100
AcDbEntity
  8
A-AENCL-DETAIL
  6
Continuous
370
     0
100
AcDbLine
 10
148.1765024117225
 20
52.13486105062701
 30
0.0
 11
147.8229490211291
 21
52.74723348452557
 31
0.0
  0
LINE
  5
3FED
330
2
100
AcDbEntity
  8
A-AENCL-DETAIL
  6
Continuous
370
     0
100
AcDbLine
 10
148.1765024117225
 20
23.55593263462574
 30
0.0
 11
148.1765024117225
 21
52.13486105062701
 31
0.0
  0
LINE
  5
3FEE
330
2
100
AcDbEntity
  8
A-AENCL-DETAIL
  6
Continuous
370
     0
100
AcDbLine
 10
147.8229490211291
 20
52.74723348452557
 30
0.0
 11
150.2801450857524
 21
54.16574257881754
 31
0.0
  0
LINE
  5
3FEF
330
2
100
AcDbEntity
  8
A-AENCL-DETAIL
  6
Continuous
370
     0
100
AcDbLine
 10
160.1796400223641
 20
48.45088579605851
 30
0.0
 11
157.7224439577409
 21
47.03237670176655
 31
0.0
  0
LINE
  5
3FF0
330
2
100
AcDbEntity
  8
A-AENCL-DETAIL
  6
Continuous
370
     0
100
AcDbLine
 10
160.1796400223641
 20
19.05541656817155
 30
0.0
 11
160.1796400223641
 21
48.45088579605851
 31
0.0
  0
LINE
  5
3FF1
330
2
100
AcDbEntity
  8
A-AENCL-DETAIL
  6
Continuous
370
     0
100
AcDbLine
 10
157.7224439577409
 20
17.63690747387959
 30
0.0
 11
160.1796400223641
 21
19.05541656817155
 31
0.0
  0
LINE
  5
3FF2
330
2
100
AcDbEntity
  8
A-AENCL-DETAIL
  6
Continuous
370
     0
100
AcDbLine
 10
157.7224439577409
 20
47.03237670176655
 30
0.0
 11
157.7224439577409
 21
17.63690747387959
 31
0.0
  0
LINE
  5
3FF3
330
2
100
AcDbEntity
  8
A-AENCL-DETAIL
  6
Continuous
370
     0
100
AcDbLine
 10
157.3688905671475
 20
18.24927990777814
 30
0.0
 11
157.7224439577409
 21
17.63690747387959
 31
0.0
  0
LINE
  5
3FF4
330
2
100
AcDbEntity
  8
A-AENCL-DETAIL
  6
Continuous
370
     0
100
AcDbLine
 10
157.3688905671476
 20
46.82820832377936
 30
0.0
 11
157.3688905671475
 21
18.24927990777814
 31
0.0
  0
LINE
  5
3FF5
330
2
100
AcDbEntity
  8
A-AENCL-DETAIL
  6
Continuous
370
     0
100
AcDbLine
 10
157.7224439577409
 20
47.03237670176655
 30
0.0
 11
157.3688905671476
 21
46.82820832377936
 31
0.0
  0
LINE
  5
3FF6
330
2
100
AcDbEntity
  8
A-AENCL-DETAIL
  6
Continuous
370
     0
100
AcDbLine
 10
150.4534149806629
 20
48.0135683622273
 30
0.0
 11
150.2766095518465
 21
47.91150076074157
 31
0.0
  0
LINE
  5
3FF7
330
2
100
AcDbEntity
  8
A-AENCL-DETAIL
  6
Continuous
370
     0
100
AcDbLine
 10
155.0920067317269
 20
36.45588501369916
 30
0.0
 11
155.2687834246887
 21
36.55793602632913
 31
0.0
  0
DIMENSION
  5
4079
330
2
100
AcDbEntity
  8
A-ANNO-DIM
100
AcDbDimension
  2
*D35
 10
36.34224349360613
 20
83.21228380258322
 30
0.0
 11
36.34224349360613
 21
88.5009132734727
 31
0.0
 70
   160
 71
     5
 42
10.87500000000001
  3
00
100
AcDbAlignedDimension
 13
58.53220213010013
 23
94.08728380258322
 33
0.0
 14
58.53220213010013
 24
83.21228380258322
 34
0.0
 50
90.0
100
AcDbRotatedDimension
  0
DIMENSION
  5
4091
330
2
100
AcDbEntity
  8
A-ANNO-DIM
100
AcDbDimension
  2
*D36
 10
68.8122021301001
 20
109.4726985971524
 30
0.0
 11
61.83451493990651
 21
109.4726985971524
 31
0.0
 70
   160
 71
     5
 42
14.00000000000003
  3
00
100
AcDbAlignedDimension
 13
54.81220213010008
 23
98.02478380258328
 33
0.0
 14
68.8122021301001
 24
98.02478380258317
 34
0.0
100
AcDbRotatedDimension
  0
DIMENSION
  5
409F
330
2
100
AcDbEntity
  8
A-ANNO-DIM
100
AcDbDimension
  2
*D37
 10
85.48329080565826
 20
62.02478380258324
 30
0.0
 11
85.48329080565826
 21
81.45180337119489
 31
0.0
 70
   160
 71
     5
 42
35.99999999999992
  3
00
100
AcDbAlignedDimension
 13
68.8122021301001
 23
98.02478380258317
 33
0.0
 14
68.8122021301003
 24
62.02478380258325
 34
0.0
 50
90.0
100
AcDbRotatedDimension
  0
DIMENSION
  5
40AD
330
2
100
AcDbEntity
  8
A-ANNO-DIM
100
AcDbDimension
  2
*D38
 10
77.06518934617974
 20
94.08728380258322
 30
0.0
 11
77.06518934617974
 21
96.07234095353199
 31
0.0
 70
   160
 71
     5
 42
3.937499999999943
  3
00
100
AcDbAlignedDimension
 13
68.81220213010016
 23
98.02478380258317
 33
0.0
 14
65.09220213010014
 24
94.08728380258322
 34
0.0
 50
90.0
100
AcDbRotatedDimension
  0
DIMENSION
  5
40C5
330
2
100
AcDbEntity
  8
A-ANNO-DIM
100
AcDbDimension
  2
*D39
 10
65.34220213010013
 20
56.95102829672425
 30
0.0
 11
49.07736429344845
 21
56.95102829672425
 31
0.0
 70
   160
 71
     5
 42
7.060000000000002
  3
00
100
AcDbAlignedDimension
 13
58.28220213010013
 23
83.46228380258322
 33
0.0
 14
65.34220213010013
 24
83.46228380258322
 34
0.0
100
AcDbRotatedDimension
  0
DIMENSION
  5
40D2
330
2
100
AcDbEntity
  8
A-ANNO-DIM
100
AcDbDimension
  2
*D40
 10
76.63994247236144
 20
121.9715533483925
 30
0.0
 11
76.63994247236144
 21
120.288044220448
 31
0.0
 70
   160
 71
     5
 42
3.474999999999994
  3
00
100
AcDbAlignedDimension
 13
68.8122021301001
 23
118.4965533483925
 33
0.0
 14
68.8122021301001
 24
121.9715533483925
 34
0.0
 50
90.0
100
AcDbRotatedDimension
  0
VIEWPORT
  5
1F38
102
{ACAD_XDICTIONARY
360
1F39
102
}
330
1F31
100
AcDbEntity
 67
     1
  8
0
100
AcDbViewport
 10
5.249999639556165
 20
3.999999883606678
 30
0.0
 40
15.08289652418326
 41
8.992999745766949
 68
     1
 69
     1
 12
5.249999639556165
 22
3.999999883606678
 13
0.0
 23
0.0
 14
0.5
 24
0.5
 15
0.5
 25
0.5
 16
0.0
 26
0.0
 36
1.0
 17
0.0
 27
0.0
 37
0.0
 42
50.0
 43
0.0
 44
0.0
 45
8.992999745766949
 50
0.0
 51
0.0
 72
  1000
 90
   819232
  1

281
     0
 71
     1
 74
     0
110
0.0
120
0.0
130
0.0
111
1.0
121
0.0
131
0.0
112
0.0
122
1.0
132
0.0
 79
     0
146
0.0
170
     0
  0
ENDSEC
  0
SECTION
  2
OBJECTS
  0
DICTIONARY
  5
7
330
0
100
AcDbDictionary
281
     1
  3
ACAD_COLOR
350
74
  3
ACAD_GROUP
350
1F
  3
ACAD_LAYOUT
350
B
  3
ACAD_MATERIAL
350
73
  3
ACAD_MLEADERSTYLE
350
471
  3
ACAD_MLINESTYLE
350
20
  3
ACAD_PLOTSETTINGS
350
21
  3
ACAD_PLOTSTYLENAME
350
6
  3
ACAD_SCALELIST
350
44F
  3
ACAD_TABLESTYLE
350
44D
  3
ACAD_VISUALSTYLE
350
43C
  3
AcadDim
350
428
  3
ACDB_RECOMPOSE_DATA
350
4CD
  3
AcDbVariableDictionary
350
4EA
  0
DICTIONARY
  5
4CF
330
19
100
AcDbDictionary
280
     1
281
     1
  0
DICTIONARY
  5
5AB
330
10
100
AcDbDictionary
280
     1
281
     1
  3
ACAD_LAYERFILTERS
360
387A
  3
ACAD_LAYERSTATES
360
1F3F
  3
ACLYDICTIONARY
360
3879
  0
DICTIONARY
  5
483
330
4
100
AcDbDictionary
280
     1
281
     1
  3
ADSK_XREC_LAYER_RECONCILED
360
484
  0
DICTIONARY
  5
48B
330
1F8
100
AcDbDictionary
280
     1
281
     1
  3
ADSK_XREC_LAYER_RECONCILED
360
48C
  0
DICTIONARY
  5
48D
330
1FB
100
AcDbDictionary
280
     1
281
     1
  3
ADSK_XREC_LAYER_RECONCILED
360
48E
  0
DICTIONARY
  5
38EA
330
216
100
AcDbDictionary
280
     1
281
     1
  3
ADSK_XREC_LAYER_RECONCILED
360
38EB
  0
DICTIONARY
  5
38F2
330
386E
100
AcDbDictionary
280
     1
281
     1
  3
ADSK_XREC_LAYER_RECONCILED
360
38F3
  0
DICTIONARY
  5
392D
330
392C
100
AcDbDictionary
280
     1
281
     1
  0
DICTIONARY
  5
1F39
330
1F38
100
AcDbDictionary
280
     1
281
     1
  3
ASDK_XREC_ANNOTATION_SCALE_INFO
360
1F3A
  0
DICTIONARY
  5
74
102
{ACAD_REACTORS
330
7
102
}
330
7
100
AcDbDictionary
281
     1
  0
DICTIONARY
  5
1F
102
{ACAD_REACTORS
330
7
102
}
330
7
100
AcDbDictionary
281
     1
  0
DICTIONARY
  5
B
102
{ACAD_REACTORS
330
7
102
}
330
7
100
AcDbDictionary
281
     1
  3
Layout1
350
1F32
  3
Model
350
A
  0
DICTIONARY
  5
73
102
{ACAD_REACTORS
330
7
102
}
330
7
100
AcDbDictionary
281
     1
  3
ByBlock
350
22B
  3
ByLayer
350
22E
  3
Global
350
231
  0
DICTIONARY
  5
471
102
{ACAD_REACTORS
330
7
102
}
330
7
100
AcDbDictionary
281
     1
  3
Standard
350
472
  0
DICTIONARY
  5
20
102
{ACAD_REACTORS
330
7
102
}
330
7
100
AcDbDictionary
281
     1
  3
Standard
350
23
  0
DICTIONARY
  5
21
102
{ACAD_REACTORS
330
7
102
}
330
7
100
AcDbDictionary
281
     1
  3
A size Postscript
350
226
  3
B size HP 500
350
227
  3
C Size HP 500
350
228
  3
D Size HP 500
350
229
  3
E Size HP 500
350
22A
  0
ACDBDICTIONARYWDFLT
  5
6
102
{ACAD_REACTORS
330
7
102
}
330
7
100
AcDbDictionary
281
     1
  3
Normal
350
5
100
AcDbDictionaryWithDefault
340
5
  0
DICTIONARY
  5
44F
102
{ACAD_REACTORS
330
7
102
}
330
7
100
AcDbDictionary
281
     1
  3
A0
350
450
  3
A1
350
451
  3
A2
350
452
  3
A3
350
453
  3
A4
350
454
  3
A5
350
455
  3
A6
350
456
  3
A7
350
457
  3
A8
350
458
  3
A9
350
459
  3
B0
350
45A
  3
B1
350
45B
  3
B2
350
45C
  3
B3
350
45D
  3
B4
350
45E
  3
B5
350
45F
  3
B6
350
460
  3
B7
350
461
  3
B8
350
462
  3
B9
350
463
  3
C0
350
464
  3
C1
350
465
  3
C2
350
466
  3
C3
350
467
  3
C4
350
468
  3
C5
350
469
  3
C6
350
46A
  3
C7
350
46B
  3
C8
350
46C
  3
C9
350
46D
  3
D0
350
46E
  3
D1
350
46F
  3
D2
350
470
  0
DICTIONARY
  5
44D
102
{ACAD_REACTORS
330
7
102
}
330
7
100
AcDbDictionary
281
     1
  3
Standard
350
44E
  0
DICTIONARY
  5
43C
102
{ACAD_REACTORS
330
7
102
}
330
7
100
AcDbDictionary
281
     1
  3
2dWireframe
350
442
  3
3D Hidden
350
444
  3
3dWireframe
350
443
  3
Basic
350
441
  3
Brighten
350
448
  3
ColorChange
350
44C
  3
Conceptual
350
445
  3
Dim
350
447
  3
Facepattern
350
44B
  3
Flat
350
43D
  3
FlatWithEdges
350
43E
  3
Gouraud
350
43F
  3
GouraudWithEdges
350
440
  3
Linepattern
350
44A
  3
Realistic
350
446
  3
Thicken
350
449
  0
XRECORD
  5
428
102
{ACAD_REACTORS
330
7
102
}
330
7
100
AcDbXrecord
280
     1
 90
   990106
  3

 60
     0
 61
     0
 62
     1
 63
     3
 64
     0
 65
     0
 66
     0
 67
     3
 68
     1
 69
     0
 70
     0
 71
     0
 72
     0
 40
0.0
170
     0
340
0
  0
XRECORD
  5
4CD
102
{ACAD_REACTORS
330
7
102
}
330
7
100
AcDbXrecord
280
     1
 90
        1
330
44E
  0
DICTIONARY
  5
4EA
102
{ACAD_REACTORS
330
7
102
}
330
7
100
AcDbDictionary
281
     1
  3
CANNOSCALE
350
4ED
  3
CMLEADERSTYLE
350
4EC
  3
CTABLESTYLE
350
4EB
  3
DIMASSOC
350
62B
  3
INDEXCTL
350
62A
  3
LAYEREVAL
350
3916
  3
LAYERNOTIFY
350
3917
  3
LIGHTINGUNITS
350
384D
  3
MSLTSCALE
350
384C
  3
SORTENTS
350
629
  0
DICTIONARY
  5
387A
102
{ACAD_REACTORS
330
5AB
102
}
330
5AB
100
AcDbDictionary
281
     1
  0
DICTIONARY
  5
1F3F
102
{ACAD_REACTORS
330
5AB
102
}
330
5AB
100
AcDbDictionary
281
     1
  0
DICTIONARY
  5
3879
102
{ACAD_REACTORS
330
5AB
102
}
330
5AB
100
AcDbDictionary
281
     1
1001
ACAD
1000
<All
  0
XRECORD
  5
484
102
{ACAD_REACTORS
330
483
102
}
330
483
100
AcDbXrecord
280
     1
290
     1
  0
XRECORD
  5
48C
102
{ACAD_REACTORS
330
48B
102
}
330
48B
100
AcDbXrecord
280
     1
290
     1
  0
XRECORD
  5
48E
102
{ACAD_REACTORS
330
48D
102
}
330
48D
100
AcDbXrecord
280
     1
290
     1
  0
XRECORD
  5
38EB
102
{ACAD_REACTORS
330
38EA
102
}
330
38EA
100
AcDbXrecord
280
     1
290
     1
  0
XRECORD
  5
38F3
102
{ACAD_REACTORS
330
38F2
102
}
330
38F2
100
AcDbXrecord
280
     1
290
     1
  0
XRECORD
  5
1F3A
102
{ACAD_REACTORS
330
1F39
102
}
330
1F39
100
AcDbXrecord
280
     1
 90
        1
340
450
  0
LAYOUT
  5
1F32
102
{ACAD_XDICTIONARY
360
1F43
102
}
102
{ACAD_REACTORS
330
B
102
}
330
B
100
AcDbPlotSettings
  1

  2
none_device
  4
Letter_(8.50_x_11.00_Inches)
  6

 40
6.349999904632568
 41
6.349999904632568
 42
6.350006103515625
 43
6.350006103515625
 44
215.8999938964844
 45
279.3999938964844
 46
0.0
 47
0.0
 48
0.0
 49
0.0
140
0.0
141
0.0
142
1.0
143
1.0
 70
   688
 72
     0
 73
     1
 74
     5
  7
CAD Dwg's.ctb
 75
    16
147
1.0
 76
     0
 77
     2
 78
   300
148
0.0
149
0.0
100
AcDbLayout
  1
Layout1
 70
     1
 71
     1
 10
-0.2500002402958907
 20
-0.2499999962453767
 11
10.74999951940822
 21
8.249999763458733
 12
0.0
 22
0.0
 32
0.0
 14
1.000000000000000E+20
 24
1.000000000000000E+20
 34
1.000000000000000E+20
 15
-1.000000000000000E+20
 25
-1.000000000000000E+20
 35
-1.000000000000000E+20
146
0.0
 13
0.0
 23
0.0
 33
0.0
 16
1.0
 26
0.0
 36
0.0
 17
0.0
 27
1.0
 37
0.0
 76
     0
330
1F31
331
1F38
1001
ACAD_PSEXT
1000
None
1000
None
1000
Not applicable
1000
The layout will not be plotted unless a new plotter configuration name is selected.
1070
     0
  0
LAYOUT
  5
A
102
{ACAD_REACTORS
330
B
102
}
330
B
100
AcDbPlotSettings
  1

  2
Adobe PDF.pc3
  4
Letter
  6

 40
3.174999952316284
 41
3.174999952316284
 42
3.175003051757812
 43
3.17498779296875
 44
215.8999938964844
 45
279.3999938964844
 46
3.009385626588922
 47
0.0
 48
0.0
 49
0.0
140
0.0
141
0.0
142
1.0
143
8.744852916879025
 70
 11956
 72
     0
 73
     0
 74
     1
  7
CAD Dwg's.ctb
 75
     0
147
0.1143529810627041
 76
     0
 77
     2
 78
   300
148
0.1357607437129218
149
0.1821316256629984
100
AcDbLayout
  1
Model
 70
     1
 71
     0
 10
0.0
 20
0.0
 11
12.0
 21
9.0
 12
0.0
 22
0.0
 32
0.0
 14
0.0
 24
0.0
 34
0.0
 15
0.0
 25
0.0
 35
0.0
146
0.0
 13
0.0
 23
0.0
 33
0.0
 16
1.0
 26
0.0
 36
0.0
 17
0.0
 27
1.0
 37
0.0
 76
     0
330
2
331
43A
1001
ACAD_PSEXT
1000
Adobe PDF.pc3
1000
Adobe PDF Converter
1000
My Documents
1000
Creates Adobe PDF
1070
     0
  0
MATERIAL
  5
22B
102
{ACAD_XDICTIONARY
360
4138
102
}
102
{ACAD_REACTORS
330
73
102
}
330
73
100
AcDbMaterial
  1
ByBlock
 73
     1
 78
     1
172
     1
176
     1
270
     1
274
     1
  0
MATERIAL
  5
22E
102
{ACAD_XDICTIONARY
360
413A
102
}
102
{ACAD_REACTORS
330
73
102
}
330
73
100
AcDbMaterial
  1
ByLayer
 73
     1
 78
     1
172
     1
176
     1
270
     1
274
     1
  0
MATERIAL
  5
231
102
{ACAD_XDICTIONARY
360
413C
102
}
102
{ACAD_REACTORS
330
73
102
}
330
73
100
AcDbMaterial
  1
Global
 73
     1
 78
     1
172
     1
176
     1
270
     1
274
     1
  0
MLEADERSTYLE
  5
472
102
{ACAD_REACTORS
330
471
102
}
330
471
100
AcDbMLeaderStyle
170
     2
171
     1
172
     0
 90
        2
 40
0.0
 41
0.0
173
     1
 91
-1056964608
340
15
 92
       -2
290
     1
 42
0.09
291
     1
 43
0.36
  3
Standard
 44
0.18
300

342
12
174
     1
178
     6
175
     1
176
     0
 93
-1056964608
 45
0.18
292
     0
297
     0
 46
0.18
 94
-1056964608
 47
1.0
 49
1.0
140
1.0
293
     1
141
0.0
294
     1
177
     0
142
1.0
295
     0
296
     0
143
0.125
1001
ACAD_MLEADERVER
1070
     2
  0
MLINESTYLE
  5
23
102
{ACAD_REACTORS
330
20
102
}
330
20
100
AcDbMlineStyle
  2
STANDARD
 70
     0
  3

 62
   256
 51
90.0
 52
90.0
 71
     2
 49
0.5
 62
   256
  6
BYLAYER
 49
-0.5
 62
   256
  6
BYLAYER
  0
PLOTSETTINGS
  5
226
102
{ACAD_REACTORS
330
21
102
}
330
21
100
AcDbPlotSettings
  1
A SIze Postscript
  2
Postscript.pc3
  4
ANSI_A_(8.50_x_11.00_Inches)
  6

 40
5.027082920074462
 41
5.027082920074462
 42
9.345077514648437
 43
5.11175537109375
 44
215.8999938964844
 45
279.3999938964844
 46
14.478
 47
0.0
 48
0.0
 49
0.0
140
0.0
141
0.0
142
1.0
143
0.7977416634697921
 70
  1716
 72
     0
 73
     1
 74
     1
  7
Postscript B&W.ctb
 75
     0
147
1.253538640128787
 76
     0
 77
     2
 78
   300
148
-48.59238357873678
149
-65.01231139895075
  0
PLOTSETTINGS
  5
227
102
{ACAD_REACTORS
330
21
102
}
330
21
100
AcDbPlotSettings
  1
B size HP 500
  2
500ps.pc3
  4
User1307
  6

 40
5.079999923706054
 41
31.75
 42
5.03765869140625
 43
16.93331909179687
 44
457.1576538085937
 45
304.71533203125
 46
0.0
 47
0.0
 48
0.0
 49
0.0
140
0.0
141
0.0
142
1.0
143
0.2245122754966107
 70
  1712
 72
     0
 73
     0
 74
     1
  7
HP 500.ctb
 75
     0
147
4.454099437494214
 76
     0
 77
     2
 78
   300
148
-58.98709794630657
149
-95.72555301185412
  0
PLOTSETTINGS
  5
228
102
{ACAD_REACTORS
330
21
102
}
330
21
100
AcDbPlotSettings
  1
C Size HP 500
  2
500ps.pc3
  4
User1308
  6

 40
5.079999923706054
 41
17.01799964904785
 42
5.03765869140625
 43
31.66531372070313
 44
609.5576782226562
 45
457.1153259277344
 46
0.0
 47
0.0
 48
0.0
 49
0.0
140
0.0
141
0.0
142
1.0
143
0.167432876144293
 70
  1712
 72
     0
 73
     0
 74
     1
  7
HP 500.ctb
 75
     0
147
5.97254268712558
 76
     0
 77
     2
 78
   300
148
-58.98709794630657
149
-95.72555301185412
  0
PLOTSETTINGS
  5
229
102
{ACAD_REACTORS
330
21
102
}
330
21
100
AcDbPlotSettings
  1
D Size HP 500
  2
500ps.pc3
  4
User1309
  6

 40
12.69999980926513
 41
17.01799964904785
 42
5.03765869140625
 43
57.3193359375
 44
914.357666015625
 45
609.5153198242187
 46
0.0
 47
0.0
 48
0.0
 49
0.0
140
0.0
141
0.0
142
1.0
143
0.1119381295506152
 70
  1712
 72
     0
 73
     0
 74
     1
  7
HP 500.ctb
 75
     0
147
8.933506429083475
 76
     0
 77
     2
 78
   300
148
-58.98709794630657
149
-95.72555301185412
  0
PLOTSETTINGS
  5
22A
102
{ACAD_REACTORS
330
21
102
}
330
21
100
AcDbPlotSettings
  1
E Size HP 500
  2
500ps.pc3
  4
User286
  6

 40
22.85999870300293
 41
17.01799964904785
 42
22.817626953125
 43
16.9334716796875
 44
883.8776245117188
 45
1126.151489257812
 46
0.0
 47
0.0
 48
0.0
 49
0.0
140
0.0
141
0.0
142
1.0
143
0.0918933939858256
 70
  1712
 72
     0
 73
     1
 74
     1
  7
HP 500.ctb
 75
     0
147
10.88217505770054
 76
     0
 77
     2
 78
   300
148
-58.98709794630657
149
-95.72555301185412
  0
ACDBPLACEHOLDER
  5
5
102
{ACAD_REACTORS
330
6
102
}
330
6
  0
SCALE
  5
450
102
{ACAD_REACTORS
330
44F
102
}
330
44F
100
AcDbScale
 70
     0
300
1:1
140
1.0
141
1.0
290
     1
  0
SCALE
  5
451
102
{ACAD_REACTORS
330
44F
102
}
330
44F
100
AcDbScale
 70
     0
300
1:2
140
1.0
141
2.0
290
     0
  0
SCALE
  5
452
102
{ACAD_REACTORS
330
44F
102
}
330
44F
100
AcDbScale
 70
     0
300
1:4
140
1.0
141
4.0
290
     0
  0
SCALE
  5
453
102
{ACAD_REACTORS
330
44F
102
}
330
44F
100
AcDbScale
 70
     0
300
1:5
140
1.0
141
5.0
290
     0
  0
SCALE
  5
454
102
{ACAD_REACTORS
330
44F
102
}
330
44F
100
AcDbScale
 70
     0
300
1:8
140
1.0
141
8.0
290
     0
  0
SCALE
  5
455
102
{ACAD_REACTORS
330
44F
102
}
330
44F
100
AcDbScale
 70
     0
300
1:10
140
1.0
141
10.0
290
     0
  0
SCALE
  5
456
102
{ACAD_REACTORS
330
44F
102
}
330
44F
100
AcDbScale
 70
     0
300
1:16
140
1.0
141
16.0
290
     0
  0
SCALE
  5
457
102
{ACAD_REACTORS
330
44F
102
}
330
44F
100
AcDbScale
 70
     0
300
1:20
140
1.0
141
20.0
290
     0
  0
SCALE
  5
458
102
{ACAD_REACTORS
330
44F
102
}
330
44F
100
AcDbScale
 70
     0
300
1:30
140
1.0
141
30.0
290
     0
  0
SCALE
  5
459
102
{ACAD_REACTORS
330
44F
102
}
330
44F
100
AcDbScale
 70
     0
300
1:40
140
1.0
141
40.0
290
     0
  0
SCALE
  5
45A
102
{ACAD_REACTORS
330
44F
102
}
330
44F
100
AcDbScale
 70
     0
300
1:50
140
1.0
141
50.0
290
     0
  0
SCALE
  5
45B
102
{ACAD_REACTORS
330
44F
102
}
330
44F
100
AcDbScale
 70
     0
300
1:100
140
1.0
141
100.0
290
     0
  0
SCALE
  5
45C
102
{ACAD_REACTORS
330
44F
102
}
330
44F
100
AcDbScale
 70
     0
300
2:1
140
2.0
141
1.0
290
     0
  0
SCALE
  5
45D
102
{ACAD_REACTORS
330
44F
102
}
330
44F
100
AcDbScale
 70
     0
300
4:1
140
4.0
141
1.0
290
     0
  0
SCALE
  5
45E
102
{ACAD_REACTORS
330
44F
102
}
330
44F
100
AcDbScale
 70
     0
300
8:1
140
8.0
141
1.0
290
     0
  0
SCALE
  5
45F
102
{ACAD_REACTORS
330
44F
102
}
330
44F
100
AcDbScale
 70
     0
300
10:1
140
10.0
141
1.0
290
     0
  0
SCALE
  5
460
102
{ACAD_REACTORS
330
44F
102
}
330
44F
100
AcDbScale
 70
     0
300
100:1
140
100.0
141
1.0
290
     0
  0
SCALE
  5
461
102
{ACAD_REACTORS
330
44F
102
}
330
44F
100
AcDbScale
 70
     0
300
1/128" = 1'-0"
140
0.0078125
141
12.0
290
     0
  0
SCALE
  5
462
102
{ACAD_REACTORS
330
44F
102
}
330
44F
100
AcDbScale
 70
     0
300
1/64" = 1'-0"
140
0.015625
141
12.0
290
     0
  0
SCALE
  5
463
102
{ACAD_REACTORS
330
44F
102
}
330
44F
100
AcDbScale
 70
     0
300
1/32" = 1'-0"
140
0.03125
141
12.0
290
     0
  0
SCALE
  5
464
102
{ACAD_REACTORS
330
44F
102
}
330
44F
100
AcDbScale
 70
     0
300
1/16" = 1'-0"
140
0.0625
141
12.0
290
     0
  0
SCALE
  5
465
102
{ACAD_REACTORS
330
44F
102
}
330
44F
100
AcDbScale
 70
     0
300
3/32" = 1'-0"
140
0.09375
141
12.0
290
     0
  0
SCALE
  5
466
102
{ACAD_REACTORS
330
44F
102
}
330
44F
100
AcDbScale
 70
     0
300
1/8" = 1'-0"
140
0.125
141
12.0
290
     0
  0
SCALE
  5
467
102
{ACAD_REACTORS
330
44F
102
}
330
44F
100
AcDbScale
 70
     0
300
3/16" = 1'-0"
140
0.1875
141
12.0
290
     0
  0
SCALE
  5
468
102
{ACAD_REACTORS
330
44F
102
}
330
44F
100
AcDbScale
 70
     0
300
1/4" = 1'-0"
140
0.25
141
12.0
290
     0
  0
SCALE
  5
469
102
{ACAD_REACTORS
330
44F
102
}
330
44F
100
AcDbScale
 70
     0
300
3/8" = 1'-0"
140
0.375
141
12.0
290
     0
  0
SCALE
  5
46A
102
{ACAD_REACTORS
330
44F
102
}
330
44F
100
AcDbScale
 70
     0
300
1/2" = 1'-0"
140
0.5
141
12.0
290
     0
  0
SCALE
  5
46B
102
{ACAD_REACTORS
330
44F
102
}
330
44F
100
AcDbScale
 70
     0
300
3/4" = 1'-0"
140
0.75
141
12.0
290
     0
  0
SCALE
  5
46C
102
{ACAD_REACTORS
330
44F
102
}
330
44F
100
AcDbScale
 70
     0
300
1" = 1'-0"
140
1.0
141
12.0
290
     0
  0
SCALE
  5
46D
102
{ACAD_REACTORS
330
44F
102
}
330
44F
100
AcDbScale
 70
     0
300
1-1/2" = 1'-0"
140
1.5
141
12.0
290
     0
  0
SCALE
  5
46E
102
{ACAD_REACTORS
330
44F
102
}
330
44F
100
AcDbScale
 70
     0
300
3" = 1'-0"
140
3.0
141
12.0
290
     0
  0
SCALE
  5
46F
102
{ACAD_REACTORS
330
44F
102
}
330
44F
100
AcDbScale
 70
     0
300
6" = 1'-0"
140
6.0
141
12.0
290
     0
  0
SCALE
  5
470
102
{ACAD_REACTORS
330
44F
102
}
330
44F
100
AcDbScale
 70
     0
300
1'-0" = 1'-0"
140
12.0
141
12.0
290
     0
  0
TABLESTYLE
  5
44E
102
{ACAD_XDICTIONARY
360
4CB
102
}
102
{ACAD_REACTORS
330
44D
102
}
330
44D
100
AcDbTableStyle
  3
Standard
 70
     0
 71
     0
 40
0.06
 41
0.06
280
     0
281
     0
  7
Standard
140
0.18
170
     2
 62
     0
 63
     7
283
     0
274
    -2
284
     1
 64
     0
275
    -2
285
     1
 65
     0
276
    -2
286
     1
 66
     0
277
    -2
287
     1
 67
     0
278
    -2
288
     1
 68
     0
279
    -2
289
     1
 69
     0
  7
Standard
140
0.25
170
     5
 62
     0
 63
     7
283
     0
274
    -2
284
     1
 64
     0
275
    -2
285
     1
 65
     0
276
    -2
286
     1
 66
     0
277
    -2
287
     1
 67
     0
278
    -2
288
     1
 68
     0
279
    -2
289
     1
 69
     0
  7
Standard
140
0.18
170
     5
 62
     0
 63
     7
283
     0
274
    -2
284
     1
 64
     0
275
    -2
285
     1
 65
     0
276
    -2
286
     1
 66
     0
277
    -2
287
     1
 67
     0
278
    -2
288
     1
 68
     0
279
    -2
289
     1
 69
     0
  0
VISUALSTYLE
  5
442
102
{ACAD_REACTORS
330
43C
102
}
330
43C
100
AcDbVisualStyle
  2
2dWireframe
 70
     4
 71
     0
 72
     2
 73
     0
 90
        0
 40
-0.6
 41
-30.0
 62
     5
 63
     7
421
 16777215
 74
     1
 91
        4
 64
     7
 65
   257
 75
     1
175
     1
 42
1.0
 92
        0
 66
   257
 43
1.0
 76
     1
 77
     6
 78
     2
 67
     7
 79
     5
170
     0
171
     0
290
     0
174
     0
 93
        1
 44
0.0
173
     0
291
     0
 45
0.0
1001
ACAD
1000
AcDbSavedByObjectVersion
1070
     0
  0
VISUALSTYLE
  5
444
102
{ACAD_REACTORS
330
43C
102
}
330
43C
100
AcDbVisualStyle
  2
3D Hidden
 70
     6
 71
     1
 72
     2
 73
     2
 90
        0
 40
-0.6
 41
-30.0
 62
     5
 63
     7
421
 16777215
 74
     2
 91
        2
 64
     7
 65
   257
 75
     2
175
     1
 42
40.0
 92
        0
 66
   257
 43
1.0
 76
     1
 77
     6
 78
     2
 67
     7
 79
     3
170
     0
171
     0
290
     0
174
     0
 93
        1
 44
0.0
173
     0
291
     0
 45
0.0
1001
ACAD
1000
AcDbSavedByObjectVersion
1070
     0
  0
VISUALSTYLE
  5
443
102
{ACAD_REACTORS
330
43C
102
}
330
43C
100
AcDbVisualStyle
  2
3dWireframe
 70
     5
 71
     0
 72
     2
 73
     0
 90
        0
 40
-0.6
 41
-30.0
 62
     5
 63
     7
421
 16777215
 74
     1
 91
        4
 64
     7
 65
   257
 75
     1
175
     1
 42
1.0
 92
        0
 66
   257
 43
1.0
 76
     1
 77
     6
 78
     2
 67
     7
 79
     5
170
     0
171
     0
290
     0
174
     0
 93
        1
 44
0.0
173
     0
291
     0
 45
0.0
1001
ACAD
1000
AcDbSavedByObjectVersion
1070
     0
  0
VISUALSTYLE
  5
441
102
{ACAD_REACTORS
330
43C
102
}
330
43C
100
AcDbVisualStyle
  2
Basic
 70
     7
 71
     1
 72
     0
 73
     1
 90
        0
 40
-0.6
 41
-30.0
 62
     5
 63
     7
421
 16777215
 74
     0
 91
        4
 64
     7
 65
   257
 75
     1
175
     1
 42
1.0
 92
        8
 66
     7
 43
1.0
 76
     1
 77
     6
 78
     2
 67
     7
 79
     5
170
     0
171
     0
290
     0
174
     0
 93
        1
 44
0.0
173
     0
291
     1
 45
0.0
1001
ACAD
1000
AcDbSavedByObjectVersion
1070
     0
  0
VISUALSTYLE
  5
448
102
{ACAD_REACTORS
330
43C
102
}
330
43C
100
AcDbVisualStyle
  2
Brighten
 70
    12
 71
     2
 72
     2
 73
     0
 90
        0
 40
-0.6
 41
-30.0
 62
     5
 63
     7
421
 16777215
 74
     1
 91
        4
 64
     7
 65
   257
 75
     1
175
     1
 42
1.0
 92
        8
 66
     7
 43
1.0
 76
     1
 77
     6
 78
     2
 67
     7
 79
     5
170
     0
171
     0
290
     0
174
     0
 93
        1
 44
50.0
173
     0
291
     1
 45
0.0
1001
ACAD
1000
AcDbSavedByObjectVersion
1070
     0
  0
VISUALSTYLE
  5
44C
102
{ACAD_REACTORS
330
43C
102
}
330
43C
100
AcDbVisualStyle
  2
ColorChange
 70
    16
 71
     2
 72
     2
 73
     3
 90
        0
 40
-0.6
 41
-30.0
 62
     5
 63
     8
421
  8421504
 74
     1
 91
        4
 64
     7
 65
   257
 75
     1
175
     1
 42
1.0
 92
        8
 66
     8
424
  8421504
 43
1.0
 76
     1
 77
     6
 78
     2
 67
     7
 79
     5
170
     0
171
     0
290
     0
174
     0
 93
        1
 44
0.0
173
     0
291
     1
 45
0.0
1001
ACAD
1000
AcDbSavedByObjectVersion
1070
     0
  0
VISUALSTYLE
  5
445
102
{ACAD_REACTORS
330
43C
102
}
330
43C
100
AcDbVisualStyle
  2
Conceptual
 70
     9
 71
     3
 72
     2
 73
     0
 90
        0
 40
-0.6
 41
-30.0
 62
     5
 63
     7
421
 16777215
 74
     2
 91
        2
 64
     7
 65
   257
 75
     1
175
     1
 42
40.0
 92
        8
 66
     7
 43
1.0
 76
     1
 77
     6
 78
     2
 67
     7
 79
     3
170
     0
171
     0
290
     0
174
     0
 93
        1
 44
0.0
173
     0
291
     0
 45
0.0
1001
ACAD
1000
AcDbSavedByObjectVersion
1070
     0
  0
VISUALSTYLE
  5
447
102
{ACAD_REACTORS
330
43C
102
}
330
43C
100
AcDbVisualStyle
  2
Dim
 70
    11
 71
     2
 72
     2
 73
     0
 90
        0
 40
-0.6
 41
-30.0
 62
     5
 63
     7
421
 16777215
 74
     1
 91
        4
 64
     7
 65
   257
 75
     1
175
     1
 42
1.0
 92
        8
 66
     7
 43
1.0
 76
     1
 77
     6
 78
     2
 67
     7
 79
     5
170
     0
171
     0
290
     0
174
     0
 93
        1
 44
-50.0
173
     0
291
     1
 45
0.0
1001
ACAD
1000
AcDbSavedByObjectVersion
1070
     0
  0
VISUALSTYLE
  5
44B
102
{ACAD_REACTORS
330
43C
102
}
330
43C
100
AcDbVisualStyle
  2
Facepattern
 70
    15
 71
     2
 72
     2
 73
     0
 90
        0
 40
-0.6
 41
-30.0
 62
     5
 63
     7
421
 16777215
 74
     1
 91
        4
 64
     7
 65
   257
 75
     1
175
     1
 42
1.0
 92
        8
 66
     7
 43
1.0
 76
     1
 77
     6
 78
     2
 67
     7
 79
     5
170
     0
171
     0
290
     0
174
     0
 93
        1
 44
0.0
173
     0
291
     1
 45
0.0
1001
ACAD
1000
AcDbSavedByObjectVersion
1070
     0
  0
VISUALSTYLE
  5
43D
102
{ACAD_REACTORS
330
43C
102
}
330
43C
100
AcDbVisualStyle
  2
Flat
 70
     0
 71
     2
 72
     1
 73
     1
 90
        2
 40
-0.6
 41
30.0
 62
     5
 63
     7
421
 16777215
 74
     0
 91
        4
 64
     7
 65
   257
 75
     1
175
     1
 42
1.0
 92
        8
 66
     7
 43
1.0
 76
     1
 77
     6
 78
     2
 67
     7
 79
     5
170
     0
171
     0
290
     0
174
     0
 93
       13
 44
0.0
173
     0
291
     1
 45
0.0
1001
ACAD
1000
AcDbSavedByObjectVersion
1070
     0
  0
VISUALSTYLE
  5
43E
102
{ACAD_REACTORS
330
43C
102
}
330
43C
100
AcDbVisualStyle
  2
FlatWithEdges
 70
     1
 71
     2
 72
     1
 73
     1
 90
        2
 40
-0.6
 41
30.0
 62
     5
 63
     7
421
 16777215
 74
     1
 91
        4
 64
     7
 65
   257
 75
     1
175
     1
 42
1.0
 92
        0
 66
   257
 43
1.0
 76
     1
 77
     6
 78
     2
 67
     7
 79
     5
170
     0
171
     0
290
     0
174
     0
 93
       13
 44
0.0
173
     0
291
     1
 45
0.0
1001
ACAD
1000
AcDbSavedByObjectVersion
1070
     0
  0
VISUALSTYLE
  5
43F
102
{ACAD_REACTORS
330
43C
102
}
330
43C
100
AcDbVisualStyle
  2
Gouraud
 70
     2
 71
     2
 72
     2
 73
     1
 90
        2
 40
-0.6
 41
30.0
 62
     5
 63
     7
421
 16777215
 74
     0
 91
        4
 64
     7
 65
   257
 75
     1
175
     1
 42
1.0
 92
        0
 66
     7
 43
1.0
 76
     1
 77
     6
 78
     2
 67
     7
 79
     5
170
     0
171
     0
290
     0
174
     0
 93
       13
 44
0.0
173
     0
291
     1
 45
0.0
1001
ACAD
1000
AcDbSavedByObjectVersion
1070
     0
  0
VISUALSTYLE
  5
440
102
{ACAD_REACTORS
330
43C
102
}
330
43C
100
AcDbVisualStyle
  2
GouraudWithEdges
 70
     3
 71
     2
 72
     2
 73
     1
 90
        2
 40
-0.6
 41
30.0
 62
     5
 63
     7
421
 16777215
 74
     1
 91
        4
 64
     7
 65
   257
 75
     1
175
     1
 42
1.0
 92
        0
 66
   257
 43
1.0
 76
     1
 77
     6
 78
     2
 67
     7
 79
     5
170
     0
171
     0
290
     0
174
     0
 93
       13
 44
0.0
173
     0
291
     1
 45
0.0
1001
ACAD
1000
AcDbSavedByObjectVersion
1070
     0
  0
VISUALSTYLE
  5
44A
102
{ACAD_REACTORS
330
43C
102
}
330
43C
100
AcDbVisualStyle
  2
Linepattern
 70
    14
 71
     2
 72
     2
 73
     0
 90
        0
 40
-0.6
 41
-30.0
 62
     5
 63
     7
421
 16777215
 74
     1
 91
        4
 64
     7
 65
   257
 75
     7
175
     7
 42
1.0
 92
        8
 66
     7
 43
1.0
 76
     1
 77
     6
 78
     2
 67
     7
 79
     5
170
     0
171
     0
290
     0
174
     0
 93
        1
 44
0.0
173
     0
291
     1
 45
0.0
1001
ACAD
1000
AcDbSavedByObjectVersion
1070
     0
  0
VISUALSTYLE
  5
446
102
{ACAD_REACTORS
330
43C
102
}
330
43C
100
AcDbVisualStyle
  2
Realistic
 70
     8
 71
     2
 72
     2
 73
     0
 90
        0
 40
-0.6
 41
-30.0
 62
     5
 63
     7
421
 16777215
 74
     1
 91
        0
 64
     7
 65
   257
 75
     1
175
     1
 42
1.0
 92
        8
 66
     8
424
  7895160
 43
1.0
 76
     1
 77
     6
 78
     2
 67
     7
 79
     5
170
     0
171
     0
290
     0
174
     0
 93
       13
 44
0.0
173
     0
291
     0
 45
0.0
1001
ACAD
1000
AcDbSavedByObjectVersion
1070
     0
  0
VISUALSTYLE
  5
449
102
{ACAD_REACTORS
330
43C
102
}
330
43C
100
AcDbVisualStyle
  2
Thicken
 70
    13
 71
     2
 72
     2
 73
     0
 90
        0
 40
-0.6
 41
-30.0
 62
     5
 63
     7
421
 16777215
 74
     1
 91
        4
 64
     7
 65
   257
 75
     1
175
     1
 42
1.0
 92
       12
 66
     7
 43
1.0
 76
     1
 77
     6
 78
     2
 67
     7
 79
     5
170
     0
171
     0
290
     0
174
     0
 93
        1
 44
0.0
173
     0
291
     1
 45
0.0
1001
ACAD
1000
AcDbSavedByObjectVersion
1070
     0
  0
DICTIONARYVAR
  5
4ED
102
{ACAD_REACTORS
330
4EA
102
}
330
4EA
100
DictionaryVariables
280
     0
  1
1:1
  0
DICTIONARYVAR
  5
4EC
102
{ACAD_REACTORS
330
4EA
102
}
330
4EA
100
DictionaryVariables
280
     0
  1
STANDARD
  0
DICTIONARYVAR
  5
4EB
102
{ACAD_REACTORS
330
4EA
102
}
330
4EA
100
DictionaryVariables
280
     0
  1
STANDARD
  0
DICTIONARYVAR
  5
62B
102
{ACAD_REACTORS
330
4EA
102
}
330
4EA
100
DictionaryVariables
280
     0
  1
1
  0
DICTIONARYVAR
  5
62A
102
{ACAD_REACTORS
330
4EA
102
}
330
4EA
100
DictionaryVariables
280
     0
  1
0
  0
DICTIONARYVAR
  5
3916
102
{ACAD_REACTORS
330
4EA
102
}
330
4EA
100
DictionaryVariables
280
     0
  1
1
  0
DICTIONARYVAR
  5
3917
102
{ACAD_REACTORS
330
4EA
102
}
330
4EA
100
DictionaryVariables
280
     0
  1
15
  0
DICTIONARYVAR
  5
384D
102
{ACAD_REACTORS
330
4EA
102
}
330
4EA
100
DictionaryVariables
280
     0
  1
0
  0
DICTIONARYVAR
  5
384C
102
{ACAD_REACTORS
330
4EA
102
}
330
4EA
100
DictionaryVariables
280
     0
  1
0
  0
DICTIONARYVAR
  5
629
102
{ACAD_REACTORS
330
4EA
102
}
330
4EA
100
DictionaryVariables
280
     0
  1
127
  0
DICTIONARY
  5
1F43
330
1F32
100
AcDbDictionary
280
     1
281
     1
  3
ADSK_XREC_LAYOUTTHUMBNAIL
360
1F44
  0
DICTIONARY
  5
4138
330
22B
100
AcDbDictionary
280
     1
281
     1
  3
ACAD_XREC_ROUNDTRIP
360
4139
  0
DICTIONARY
  5
413A
330
22E
100
AcDbDictionary
280
     1
281
     1
  3
ACAD_XREC_ROUNDTRIP
360
413B
  0
DICTIONARY
  5
413C
330
231
100
AcDbDictionary
280
     1
281
     1
  3
ACAD_XREC_ROUNDTRIP
360
413D
  0
DICTIONARY
  5
4CB
330
44E
100
AcDbDictionary
280
     1
281
     1
  3
ACAD_ROUNDTRIP_2008_TABLESTYLE_CELLSTYLEMAP
360
4137
  3
ACAD_XREC_ROUNDTRIP
360
413E
  0
XRECORD
  5
1F44
102
{ACAD_REACTORS
330
1F43
102
}
330
1F43
100
AcDbXrecord
280
     1
310
28000000B40000008B0000000100080000000000BC610000000000000000000000010000000000000000000000000000FFFFFF000000000000000000000000000000000000000000000000000000000000000000330000006600000099000000CC000000FF00000000330000333300006633000099330000CC330000FF3300
310
0000660000336600006666000099660000CC660000FF66000000990000339900006699000099990000CC990000FF99000000CC000033CC000066CC000099CC0000CCCC0000FFCC000000FF000033FF000066FF000099FF0000CCFF0000FFFF000000003300330033006600330099003300CC003300FF003300003333003333
310
33006633330099333300CC333300FF33330000663300336633006666330099663300CC663300FF66330000993300339933006699330099993300CC993300FF99330000CC330033CC330066CC330099CC3300CCCC3300FFCC330000FF330033FF330066FF330099FF3300CCFF3300FFFF330000006600330066006600660099
310
006600CC006600FF00660000336600333366006633660099336600CC336600FF33660000666600336666006666660099666600CC666600FF66660000996600339966006699660099996600CC996600FF99660000CC660033CC660066CC660099CC6600CCCC6600FFCC660000FF660033FF660066FF660099FF6600CCFF6600
310
FFFF660000009900330099006600990099009900CC009900FF00990000339900333399006633990099339900CC339900FF33990000669900336699006666990099669900CC669900FF66990000999900339999006699990099999900CC999900FF99990000CC990033CC990066CC990099CC9900CCCC9900FFCC990000FF99
310
0033FF990066FF990099FF9900CCFF9900FFFF99000000CC003300CC006600CC009900CC00CC00CC00FF00CC000033CC003333CC006633CC009933CC00CC33CC00FF33CC000066CC003366CC006666CC009966CC00CC66CC00FF66CC000099CC003399CC006699CC009999CC00CC99CC00FF99CC0000CCCC0033CCCC0066CC
310
CC0099CCCC00CCCCCC00FFCCCC0000FFCC0033FFCC0066FFCC0099FFCC00CCFFCC00FFFFCC000000FF003300FF006600FF009900FF00CC00FF00FF00FF000033FF003333FF006633FF009933FF00CC33FF00FF33FF000066FF003366FF006666FF009966FF00CC66FF00FF66FF000099FF003399FF006699FF009999FF00CC
310
99FF00FF99FF0000CCFF0033CCFF0066CCFF0099CCFF00CCCCFF00FFCCFF0000FFFF0033FFFF0066FFFF0099FFFF00CCFFFF00FFFFFF00000000000D0D0D001A1A1A00282828003535350043434300505050005D5D5D006B6B6B00787878008686860093939300A1A1A100AEAEAE00BBBBBB00C9C9C900D6D6D600E4E4E400
310
F1F1F100FFFFFF0000000000000000000000000000000000000000000000000000000000000000000000000000000000F5F5F5F5F5F5F5F5F5F5F5F5F5F5F5F5F5F5F5F5F5F5F5F5F5F5F5F5F5F5F5F5F5F5F5F5F5F5F5F5F5F5F5F5F5F5F5F5F5F5F5F5F5F5F5F5F5F5F5F5F5F5F5F5F5F5F5F5F5F5F5F5F5F5F5F5F5F5F5
310
F5F5F5F5F5F5F5F5F5F5F5F5F5F5F5F5F5F5F5F5F5F5F5F5F5F5F5F5F5F5F5F5F5F5F5F5F5F5F5F5F5F5F5F5F5F5F5F5F5F5F5F5F5F5F5F5F5F5F5F5F5F5F5F5F5F5F5F5F5F5F5F5F5F5F5F5F5F5F5F5F5F5F5F5F5F5F5F5F5F5F5F5F5F5F5F5F5F5F5F5F5F5E2E2E2E2E2E2E2E2E2E2E2E2E2E2E2E2E2E2E2E2E2E2E2E2E2
310
E2E2E2E2E2E2E2E2E2E2E2E2E2E2E2E2E2E2E2E2E2E2E2E2E2E2E2E2E2E2E2E2E2E2E2E2E2E2E2E2E2E2E2E2E2E2E2E2E2E2E2E2E2E2E2E2E2E2E2E2E2E2E2E2E2E2E2E2E2E2E2E2E2E2E2E2E2E2E2E2E2E2E2E2E2E2E2E2E2E2E2E2E2E2E2E2E2E2E2E2E2E2E2E2E2E2E2E2E2E2E2E2E2E2E2E2E2E2E2E2E2E2E2E2E2E2E2
310
E2E2E2E2E2E2E2E2E2E2E2E2E2E2E2E2E2E2E2E2E2E2E2E2E2E2F5F5E2E2E2E2E2E2E2E2E2E2E2E2E2E2E2E2E2E2E2E2E2E2E2E2E2E2E2E2E2E2E2E2E2E2E2E2E2E2E2E2E2E2E2E2E2E2E2E2E2E2E2E2E2E2E2E2E2E2E2E2E2E2E2E2E2E2E2E2E2E2E2E2E2E2E2E2E2E2E2E2E2E2E2E2E2E2E2E2E2E2E2E2E2E2E2E2E2E2E2
310
E2E2E2E2E2E2E2E2E2E2E2E2E2E2E2E2E2E2E2E2E2E2E2E2E2E2E2E2E2E2E2E2E2E2E2E2E2E2E2E2E2E2E2E2E2E2E2E2E2E2E2E2E2E2E2E2E2E2E2E2E2E2E2E2E2E2E2E2E2E2E2E2E2E2E2E2E2E2E2F5F5E2E2E2E2E2E2E2E2E2E2E2E2E2E2E2E2E2E2E2E2E2E2E2E2E2E2E2E2E2E2E2E2E2E2E2E2E2E2E2E2E2E2E2E2E2E2
310
E2E2E2E2E2E2E2E2E2E2E2E2E2E2E2E2E2E2E2E2E2E2E2E2E2E2E2E2E2E2E2E2E2E2E2E2E2E2E2E2E2E2E2E2E2E2E2E2E2E2E2E2E2E2E2E2E2E2E2E2E2E2E2E2E2E2E2E2E2E2E2E2E2E2E2E2E2E2E2E2E2E2E2E2E2E2E2E2E2E2E2E2E2E2E2E2E2E2E2E2E2E2E2E2E2E2E2E2E2E2E2E2E2E2E2E2E2E2E2E2E2E2E2E2E2E2E2
310
E2E2E2E2E2F5F5E2E2E2E2E2E2E2E2E2E2E2E2E2E2E2E2E2E2E2E2E2E2E2E2E2E2E2E2E2E2E2E2E2E2E2E2E2E2E2E2E2E2E2E2E2E2E2E2E2E2E2E2E2E2E2E2E2E2E2E2E2E2E2E2E2E2E2E2E2E2E2E2E2E2E2E2E2E2E2E2E2E2E2E2E2E2E2E2E2E2E2E2E2E2E2E2E2E2E2E2E2E2E2E2E2E2E2E2E2E2E2E2E2E2E2E2E2E2E2E2
310
E2E2E2E2E2E2E2E2E2E2E2E2E2E2E2E2E2E2E2E2E2E2E2E2E2E2E2E2E2E2E2E2E2E2E2E2E2E2E2E2E2E2E2E2E2E2E2E2E2E2E2E2E2E2E2E2E2E2F5F5E2E2E2F5F5F5F5F5F5F5F5E2E2E2E2E2E2E2E2E2F5F5F5F5F5F5F5F5F5F5F5F5F5F5F5F5E2E2E2E2E2E2E2E2E2F5F5F5F5F5F5F5F5F5F5F5F5F5F5F5E2E2E2E2E2E2E2
310
E2E2F5F5F5F5F5F5F5F5F5F5F5F5F5F5F5F5E2E2E2E2E2E2E2E2F5F5F5F5F5F5F5F5F5F5F5F5F5F5F5F5E2E2E2E2E2E2E2E2E2F5F5F5F5F5F5F5F5F5F5F5F5F5F5F5E2E2E2E2E2E2E2E2E2F5F5F5F5F5F5F5F5F5F5F5F5F5F5F5F5E2E2E2E2E2E2E2E2E2F5F5F5F5F5F5F5F5E2E2E2F5F5E2E2E2F5E2E2E2E2E2E2E2E2E2E2
310
E2E2E2E2E2E2E2E2E2E2E2E2E2E2E2E2E2E2E2E2E2E2E2E2E2E2E2E2E2E2E2E2E2E2E2E2E2E2E2E2E2E2E2E2E2E2E2E2E2E2E2E2E2E2E2E2E2E2E2E2E2E2E2E2E2E2E2E2E2E2E2E2E2E2E2E2E2E2E2E2E2E2E2E2E2E2E2E2E2E2E2E2E2E2E2E2E2E2E2E2E2E2E2E2E2E2E2E2E2E2E2E2E2E2E2E2E2E2E2E2E2E2E2E2E2E2E2
310
E2E2E2E2E2E2E2E2E2E2E2E2E2E2E2E2E2E2E2E2E2E2E2E2E2E2E2E2E2E2E2E2E2F5E2E2E2F5F5E2E2E2F5E2E2E2E2E2E2E2E2E2E2E2E2E2E2E2E2E2E2E2E2E2E2E2E2E2E2E2E2E2E2E2E2E2E2E2E2E2E2E2E2E2E2E2E2E2E2E2E2E2E2E2E2E2E2E2E2E2E2E2E2E2E2E2E2E2E2E2E2E2E2E2E2E2E2E2E2E2E2E2E2E2E2E2E2
310
E2E2E2E2E2E2E2E2E2E2E2E2E2E2E2E2E2E2E2E2E2E2E2E2E2E2E2E2E2E2E2E2E2E2E2E2E2E2E2E2E2E2E2E2E2E2E2E2E2E2E2E2E2E2E2E2E2E2E2E2E2E2E2E2E2E2E2E2E2E2E2E2E2E2E2E2E2E2E2E2E2E2E2E2E2E2F5E2E2E2F5F5E2E2E2F5E2E2E2E2E2E2E2E2E2E2E2E2E2E2E2E2E2E2E2E2E2E2E2E2E2E2E2E2E2E2E2
310
E2E2E2E2E2E2E2E2E2E2E2E2E2E2E2E2E2E2E2E2E2E2E2E2E2E2E2E2E2E2E2E2E2E2E2E2E2E2E2E2E2E2E2E2E2E2E2E2E2E2E2E2E2E2E2E2E2E2E2E2E2E2E2E2E2E2E2E2E2E2E2E2E2E2E2E2E2E2E2E2E2E2E2E2E2E2E2E2E2E2E2E2E2E2E2E2E2E2E2E2E2E2E2E2E2E2E2E2E2E2E2E2E2E2E2E2E2E2E2E2E2E2E2E2E2E2E2
310
E2E2E2E2E2E2E2E2E2E2E2E2F5E2E2E2F5F5E2E2E2F5E2E2E2E2E2E2E2E2E2E2E2E2E2E2E2E2E2E2E2E2E2E2E2E2E2E2E2E2E2E2E2E2E2E2E2E2E2E2E2E2E2E2E2E2E2E2E2E2E2E2E2E2E2E2E2E2E2E2E2E2E2E2E2E2E2E2E2E2E2E2E2E2E2E2E2E2E2E2E2E2E2E2E2E2E2E2E2E2E2E2E2E2E2E2E2E2E2E2E2E2E2E2E2E2E2
310
E2E2E2E2E2E2E2E2E2E2E2E2E2E2E2E2E2E2E2E2E2E2E2E2E2E2E2E2E2E2E2E2E2E2E2E2E2E2E2E2E2E2E2E2E2E2E2E2E2E2E2E2E2E2E2E2E2E2E2E2E2E2E2E2E2F5E2E2E2F5F5E2E2E2F5E2E2E2E2E2E2E2E2E2E2E2E2E2E2E2E2E2E2E2E2E2E2E2E2E2E2E2E2E2E2E2E2E2E2E2E2E2E2E2E2E2E2E2E2E2E2E2E2E2E2E2E2
310
E2E2E2E2E2E2E2E2E2E2E2E2E2E2E2E2E2E2E2E2E2E2E2E2E2E2E2E2E2E2E2E2E2E2E2E2E2E2E2E2E2E2E2E2E2E2E2E2E2E2E2E2E2E2E2E2E2E2E2E2E2E2E2E2E2E2E2E2E2E2E2E2E2E2E2E2E2E2E2E2E2E2E2E2E2E2E2E2E2E2E2E2E2E2E2E2E2E2E2E2E2E2E2E2E2E2E2E2E2E2E2E2E2E2E2E2E2E2F5E2E2E2F5F5E2E2E2
310
F5E2E2E2E2E2E2E2E2E2E2E2E2E2E2E2E2E2E2E2E2E2E2E2E2E2E2E2E2E2E2E2E2E2E2E2E2E2E2E2E2E2E2E2E2E2E2E2E2E2E2E2E2E2E2E2E2E2E2E2E2E2E2E2E2E2E2E2E2E2E2E2E2E2E2E2E2E2E2E2E2E2E2E2E2E2E2E2E2E2E2E2E2E2E2E2E2E2E2E2E2E2E2E2E2E2E2E2E2E2E2E2E2E2E2E2E2E2E2E2E2E2E2E2E2E2E2
310
E2E2E2E2E2E2E2E2E2E2E2E2E2E2E2E2E2E2E2E2E2E2E2E2E2E2E2E2E2E2E2E2E2E2E2E2E2E2E2E2E2E2E2E2F5E2E2E2F5F5E2E2E2F5E2E2E2E2E2E2E2E2E2E2E2E2E2E2E2E2E2E2E2E2E2E2E2E2E2E2E2E2E2E2E2E2E2E2E2E2E2E2E2E2E2E2E2E2E2E2E2E2E2E2E2E2E2E2E2E2E2E2E2E2E2E2E2E2E2E2E2E2E2E2E2E2E2
310
E2E2E2E2E2E2E2E2E2E2E2E2E2E2E2E2E2E2E2E2E2E2E2E2E2E2E2E2E2E2E2E2E2E2E2E2E2E2E2E2E2E2E2E2E2E2E2E2E2E2E2E2E2E2E2E2E2E2E2E2E2E2E2E2E2E2E2E2E2E2E2E2E2E2E2E2E2E2E2E2E2E2E2E2E2E2E2E2E2E2E2E2E2E2E2E2E2F5E2E2E2F5F5E2E2E2F5E2E2E2E2E2E2E2E2E2E2E2E2E2E2E2E2E2E2E2E2
310
E2E2E2E2E2E2E2E2E2E2E2E2E2E2E2E2E2E2E2E2E2E2E2E2E2E2E2E2E2E2E2E2E2E2E2E2E2E2E2E2E2E2E2E2E2E2E2E2E2E2E2E2E2E2E2E2E2E2E2E2E2E2E2E2E2E2E2E2E2E2E2E2E2E2E2E2E2E2E2E2E2E2E2E2E2E2E2E2E2E2E2E2E2E2E2E2E2E2E2E2E2E2E2E2E2E2E2E2E2E2E2E2E2E2E2E2E2E2E2E2E2E2E2E2E2E2E2
310
E2E2E2E2E2E2E2E2E2E2E2E2E2E2E2E2E2E2E2E2E2E2E2F5E2E2E2F5F5E2E2E2E2E2E2E2E2E2E2E2E2E2E2E2E2E2E2E2E2E2E2E2E2E2E2E2E2E2E2E2E2E2E2E2E2E2E2E2E2E2E2E2E2E2E2E2E2E2E2E2E2E2E2E2E2E2E2E2E2E2E2E2E2E2E2E2E2E2E2E2E2E2E2E2E2E2E2E2E2E2E2E2E2E2E2E2E2E2E2E2E2E2E2E2E2E2E2
310
E2E2E2E2E2E2E2E2E2E2E2E2E2E2E2E2E2E2E2E2E2E2E2E2E2E2E2E2E2E2E2E2E2E2E2E2E2E2E2E2E2E2E2E2E2E2E2E2E2E2E2E2E2E2E2E2E2E2E2E2E2E2E2E2E2E2E2E2E2E2E2E2E2E2E2E2E2E2E2E2F5F5E2E2E2E2E2E2E2E2E2E2E2E2E2E2E2E2E2E2E2E2E2E2E2E2E2E2E2E2E2E2E2E2E2E2E2E2E2E2E2E2E2E2E2E2E2
310
E2E2E2E2E2E2E2E2E2E2E2E2E2E2E2E2E2E2E2E2E2E2E2E2E2E2E2E2E2E2E2E2E2E2E2E2E2E2E2E2E2E2E2E2E2E2E2E2E2E2E2E2E2E2E2E2E2E2E2E2E2E2E2E2E2E2E2E2E2E2E2E2E2E2E2E2E2E2E2E2E2E2E2E2E2E2E2E2E2E2E2E2E2E2E2E2E2E2E2E2E2E2E2E2E2E2E2E2E2E2E2E2E2E2E2E2E2E2E2E2E2E2E2E2E2E2E2
310
E2E2E2E2E2E2F5F5E2E2E2E2E2E2E2E2E2E2E2E2E2E2E2E2E2E2E2E2E2E2E2E2E2E2E2E2E2E2E2E2E2E2E2E2E2E2E2E2E2E2E2E2E2E2E2E2E2E2E2E2E2E2E2E2E2E2E2E2E2E2E2E2E2E2E2E2E2E2E2E2E2E2E2E2E2E2E2E2E2E2E2E2E2E2E2E2E2E2E2E2E2E2E2E2E2E2E2E2E2E2E2E2E2E2E2E2E2E2E2E2E2E2E2E2E2E2E2
310
E2E2E2E2E2E2E2E2E2E2E2E2E2E2E2E2E2E2E2E2E2E2E2E2E2E2E2E2E2E2E2E2E2E2E2E2E2E2E2E2E2E2E2E2E2E2E2E2E2E2E2E2E2E2E2E2E2E2E2F5F5E2E2E2E2E2E2E2E2E2E2E2E2E2E2E2E2E2E2E2E2E2E2E2E2E2E2E2E2E2E2E2E2E2E2E2E2E2E2E2E2E2E2E2E2E2E2E2E2E2E2E2E2E2E2E2E2E2E2E2E2E2E2E2E2E2E2
310
E2E2E2E2E2E2E2E2E2E2E2E2E2E2E2E2E2E2E2E2E2E2E2E2E2E2E2E2E2E2E2E2E2E2E2E2E2E2E2E2E2E2E2E2E2E2E2E2E2E2E2E2E2E2E2E2E2E2E2E2E2E2E2E2E2E2E2E2E2E2E2E2E2E2E2E2E2E2E2E2E2E2E2E2E2E2E2E2E2E2E2E2E2E2E2E2E2E2E2E2E2E2E2E2E2E2E2E2E2E2E2E2F5F5E2E2E2E2E2E2E2E2E2E2E2E2E2
310
E2E2E2E2E2E2E2E2E2E2E2E2E2E2E2E2E2E2E2E2E2E2E2E2E2E2E2E2E2E2E2E2E2E2E2E2E2E2E2E2E2E2E2E2E2E2E2E2E2E2E2E2E2E2E2E2E2E2E2E2E2E2E2E2E2E2E2E2E2E2E2E2E2E2E2E2E2E2E2E2E2E2E2E2E2E2E2E2E2E2E2E2E2E2E2E2E2E2E2E2E2E2E2E2E2E2E2E2E2E2E2E2E2E2E2E2E2E2E2E2E2E2E2E2E2E2E2
310
E2E2E2E2E2E2E2E2E2E2E2E2E2E2E2E2E2E2E2E2E2E2E2E2E2E2E2E2E2E2E2E2E2E2E2E2E2E2F5F5E2E2E2E2E2E2E2E2E2E2E2E2E2E2E2E2E2E2E2E2E2E2E2E2E2E2E2E2E2E2E2E2E2E2E2E2E2E2E2E2E2E2E2E2E2E2E2E2E2E2E2E2E2E2E2E2E2E2E2E2E2E2E2E2E2E2E2E2E2E2E2E2E2E2E2E2E2E2E2E2E2E2E2E2E2E2E2
310
E2E2E2E2E2E2E2E2E2E2E2E2E2E2E2E2E2E2E2E2E2E2E2E2E2E2E2E2E2E2E2E2E2E2E2E2E2E2E2E2E2E2E2E2E2E2E2E2E2E2E2E2E2E2E2E2E2E2E2E2E2E2E2E2E2E2E2E2E2E2E2E2E2E2E2E2E2E2E2E2E2E2E2E2E2E2E2E2E2E2E2F5F5E2E2E2E2E2E2E2E2E2E2E2E2E2E2E2E2E2E2E2E2E2E2E2E2E2E2E2E2E2E2E2E2E2E2
310
E2E2E2E2E2E2E2E2E2E2E2E2E2E2E2E2E2E2E2E2E2E2E2E2E2E2E2E2E2E2E2E2E2E2E2E2E2E2E2E2E2E2E2E2E2E2E2E2E2E2E2E2E2E2E2E2E2E2E2E2E2E2E2E2E2E2E2E2E2E2E2E2E2E2E2E2E2E2E2E2E2E2E2E2E2E2E2E2E2E2E2E2E2E2E2E2E2E2E2E2E2E2E2E2E2E2E2E2E2E2E2E2E2E2E2E2E2E2E2E2E2E2E2E2E2E2E2
310
E2E2E2E2E2E2E2E2E2E2E2E2E2E2E2E2E2F5F5E2E2E2E2E2E2E2E2E2E2E2E2E2E2E2E2E2E2E2E2E2E2E2E2E2E2E2E2E2E2E2E2E2E2E2E2E2E2E2E2E2E2E2E2E2E2E2E2E2E2E2E2E2E2E2E2E2E2E2E2E2E2E2E2E2E2E2E2E2E2E2E2E2E2E2E2E2E2E2E2E2E2E2E2E2E2E2E2E2E2E2E2E2E2E2E2E2E2E2E2E2E2E2E2E2E2E2E2
310
E2E2E2E2E2E2E2E2E2E2E2E2E2E2E2E2E2E2E2E2E2E2E2E2E2E2E2E2E2E2E2E2E2E2E2E2E2E2E2E2E2E2E2E2E2E2E2E2E2E2E2E2E2E2E2E2E2E2E2E2E2E2E2E2E2E2E2E2E2E2F5F5E2E2E2E2E2E2E2E2E2E2E2E2E2E2E2E2E2E2E2E2E2E2E2E2E2E2E2E2E2E2E2E2E2E2E2E2E2E2E2E2E2E2E2E2E2E2E2E2E2E2E2E2E2E2E2
310
E2E2E2E2E2E2E2E2E2E2E2E2E2E2E2E2E2E2E2E2E2E2E2E2E2E2E2E2E2E2E2E2E2E2E2E2E2E2E2E2E2E2E2E2E2E2E2E2E2E2E2E2E2E2E2E2E2E2E2E2E2E2E2E2E2E2E2E2E2E2E2E2E2E2E2E2E2E2E2E2E2E2E2E2E2E2E2E2E2E2E2E2E2E2E2E2E2E2E2E2E2E2E2E2E2E2E2E2E2E2E2E2E2E2E2E2E2E2E2E2E2E2E2F5F5E2E2
310
E2F5E2E2E2E2E2E2E2E2E2E2E2E2E2E2E2E2E2E2E2E2E2E2E2E2E2E2E2E2E2E2E2E2E2E2E2E2E2E2E2E2E2E2E2E2E2E2E2E2E2E2E2E2E2E2E2E2E2E2E2E2E2E2E2E2E2E2E2E2E2E2E2E2E2E2E2E2E2E2E2E2E2E2E2E2E2E2E2E2E2E2E2E2E2E2E2E2E2E2E2E2E2E2E2E2E2E2E2E2E2E2E2E2E2E2E2E2E2E2E2E2E2E2E2E2E2
310
E2E2E2E2E2E2E2E2E2E2E2E2E2E2E2E2E2E2E2E2E2E2E2E2E2E2E2E2E2E2E2E2E2E2E2E2E2E2E2E2E2E2E2E2E2F5E2E2E2F5F5E2E2E2F5E2E2E2E2E2E2E2E2E2E2E2E2E2E2E2E2E2E2E2E2E2E2E2E2E2E2E2E2E2E2E2E2E2E2E2E2E2E2E2E2E2E2E2E2E2E2E2E2E2E2E2E2E2E2E2E2E2E2E2E2E2E2E2E2E2E2E2E2E2E2E2E2
310
E2E2E2E2E2E2E2E2E2E2E2E2E2E2E2E2E2E2E2E2E2E2E2E2E2E2E2E2E2E2E2E2E2E2E2E2E2E2E2E2E2E2E2E2E2E2E2E2E2E2E2E2E2E2E2E2E2E2E2E2E2E2E2E2E2E2E2E2E2E2E2E2E2E2E2E2E2E2E2E2E2E2E2E2E2E2E2E2E2E2E2E2E2E2E2E2E2E2F5E2E2E2F5F5E2E2E2F5E2E2E2E2E2E2E2E2E2E2E2E2E2E2E2E2E2E2E2
310
E2E2E2E2E2E2E2E2E2E2E2E2E2E2E2E2E2E2E2E2E2E2E2E2E2E2E2E2E2E2E2E2E2E2E2E2E2E2E2E2E2E2E2E2E2E2E2E2E2E2E2E2E2E2E2E2E2E2E2E2E2E2E2E2E2E2E2E2E2E2E2E2E2E2E2E2E2E2E2E2E2E2E2E2E2E2E2E2E2E2E2E2E2E2E2E2E2E2E2E2E2E2E2E2E2E2E2E2E2E2E2E2E2E2E2E2E2E2E2E2E2E2E2E2E2E2E2
310
E2E2E2E2E2E2E2E2E2E2E2E2E2E2E2E2E2E2E2E2E2E2E2E2F5E2E2E2F5F5E2E2E2F5E2E2E2E2E2E2E2E2E2E2E2E2E2E2E2E2E2E2E2E2E2E2E2E2E2E2E2E2E2E2E2E2E2E2E2E2E2E2E2E2E2E2E2E2E2E2E2E2E2E2E2E2E2E2E2E2E2E2E2E2E2E2E2E2E2E2E2E2E2E2E2E2E2E2E2E2E2E2E2E2E2E2E2E2E2E2E2E2E2E2E2E2E2
310
E2E2E2E2E2E2E2E2E2E2E2E2E2E2E2E2E2E2E2E2E2E2E2E2E2E2E2E2E2E2E2E2E2E2E2E2E2E2E2E2E2E2E2E2E2E2E2E2E2E2E2E2E2E2E2E2E2E2E2E2E2E2E2E2E2E2E2E2E2E2E2E2E2E2E2E2E2F5E2E2E2F5F5E2E2E2F5E2E2E2E2E2E2E2E2E2E2E2E2E2E2E2E2E2E2E2E2E2E2E2E2E2E2E2E2E2E2E2E2E2E2E2E2E2E2E2E2
310
E2E2E2E2E2E2E2E2E2E2E2E2E2E2E2E2E2E2E2E2E2E2E2E2E2E2E2E2E2E2E2E2E2E2E2E2E2E2E2E2E2E2E2E2E2E2E2E2E2E2E2E2E2E2E2E2E2E2E2E2E2E2E2E2E2E2E2E2E2E2E2E2E2E2E2E2E2E2E2E2E2E2E2E2E2E2E2E2E2E2E2E2E2E2E2E2E2E2E2E2E2E2E2E2E2E2E2E2E2E2E2E2E2E2E2E2E2E2E2E2E2E2E2E2E2E2E2
310
E2E2E2F5E2E2E2F5F5E2E2E2F5E2E2E2E2E2E2E2E2E2E2E2E2E2E2E2E2E2E2E2E2E2E2E2E2E2E2E2E2E2E2E2E2E2E2E2E2E2E2E2E2E2E2E2E2E2E2E2E2E2E2E2E2E2E2E2E2E2E2E2E2E2E2E2E2E2E2E2E2E2E2E2E2E2E2E2E2E2E2E2E2E2E2E2E2E2E2E2E2E2E2E2E2E2E2E2E2E2E2E2E2E2E2E2E2E2E2E2E2E2E2E2E2E2E2
310
E2E2E2E2E2E2E2E2E2E2E2E2E2E2E2E2E2E2E2E2E2E2E2E2E2E2E2E2E2E2E2E2E2E2E2E2E2E2E2E2E2E2E2E2E2E2E2E2E2E2E2E2E2E2E2E2F5E2E2E2F5F5E2E2E2F5E2E2E2E2E2E2E2E2E2E2E2E2E2E2E2E2E2E2E2E2E2E2E2E2E2E2E2E2E2E2E2E2E2E2E2E2E2E2E2E2E2E2E2E2E2E2E2E2E2E2E2E2E2E2E2E2E2E2E2E2E2
310
E2E2E2E2E2E2E2E2E2E2E2E2E2E2E2E2E2E2E2E2E2E2E2E2E2E2E2E2E2E2E2E2E2E2E2E2E2E2E2E2E2E2E2E2E2E2E2E2E2E2E2E2E2E2E2E2E2E2E2E2E2E2E2E2E2E2E2E2E2E2E2E2E2E2E2E2E2E2E2E2E2E2E2E2E2E2E2E2E2E2E2E2E2E2E2E2E2E2E2E2E2E2E2E2E2E2E2E2E2F5E2E2E2F5F5E2E2E2F5E2E2E2E2E2E2E2E2
310
E2E2E2E2E2E2E2E2E2E2E2E2E2E2E2E2E2E2E2E2E2E2E2E2E2E2E2E2E2E2E2E2E2E2E2E2E2E2E2E2E2E2E2E2E2E2E2E2E2E2E2E2E2E2E2E2E2E2E2E2E2E2E2E2E2E2E2E2E2E2E2E2E2E2E2E2E2E2E2E2E2E2E2E2E2E2E2E2E2E2E2E2E2E2E2E2E2E2E2E2E2E2E2E2E2E2E2E2E2E2E2E2E2E2E2E2E2E2E2E2E2E2E2E2E2E2E2
310
E2E2E2E2E2E2E2E2E2E2E2E2E2E2E2E2E2E2E2E2E2E2E2E2E2E2E2E2E2E2E2E2E2E2E2F5E2E2E2F5F5E2E2E2F5E2E2E2E2E2E2E2E2E2E2E2E2E2E2E2E2E2E2E2E2E2E2E2E2E2E2E2E2E2E2E2E2E2E2E2E2E2E2E2E2E2E2E2E2E2E2E2E2E2E2E2E2E2E2E2E2E2E2E2E2E2E2E2E2E2E2E2E2E2E2E2E2E2E2E2E2E2E2E2E2E2E2
310
E2E2E2E2E2E2E2E2E2E2E2E2E2E2E2E2E2E2E2E2E2E2E2E2E2E2E2E2E2E2E2E2E2E2E2E2E2E2E2E2E2E2E2E2E2E2E2E2E2E2E2E2E2E2E2E2E2E2E2E2E2E2E2E2E2E2E2E2E2E2E2E2E2E2E2E2E2E2E2E2E2E2E2E2E2E2E2E2F5E2E2E2F5F5E2E2E2F5E2E2E2E2E2E2E2E2E2E2E2E2E2E2E2E2E2E2E2E2E2E2E2E2E2E2E2E2E2
310
E2E2E2E2E2E2E2E2E2E2E2E2E2E2E2E2E2E2E2E2E2E2E2E2E2E2E2E2E2E2E2E2E2E2E2E2E2E2E2E2E2E2E2E2E2E2E2E2E2E2E2E2E2E2E2E2E2E2E2E2E2E2E2E2E2E2E2E2E2E2E2E2E2E2E2E2E2E2E2E2E2E2E2E2E2E2E2E2E2E2E2E2E2E2E2E2E2E2E2E2E2E2E2E2E2E2E2E2E2E2E2E2E2E2E2E2E2E2E2E2E2E2E2E2E2E2E2
310
E2E2E2E2E2E2E2E2E2E2E2E2E2E2F5E2E2E2F5F5E2E2E2F5E2E2E2E2E2E2E2E2E2E2E2E2E2E2E2E2E2E2E2E2E2E2E2E2E2E2E2E2E2E2E2E2E2E2E2E2E2E2E2E2E2E2E2E2E2E2E2E2E2E2E2E2E2E2E2E2E2E2E2E2E2E2E2E2E2E2E2E2E2E2E2E2E2E2E2E2E2E2E2E2E2E2E2E2E2E2E2E2E2E2E2E2E2E2E2E2E2E2E2E2E2E2E2
310
E2E2E2E2E2E2E2E2E2E2E2E2E2E2E2E2E2E2E2E2E2E2E2E2E2E2E2E2E2E2E2E2E2E2E2E2E2E2E2E2E2E2E2E2E2E2E2E2E2E2E2E2E2E2E2E2E2E2E2E2E2E2E2E2E2E2E2F5E2E2E2F5F5E2E2E2F5E2E2E2E2E2E2E2E2E2E2E2E2E2E2E2E2E2E2E2E2E2E2E2E2E2E2E2E2E2E2E2E2E2E2E2E2E2E2E2E2E2E2E2E2E2E2E2E2E2E2
310
E2E2E2E2E2E2E2E2E2E2E2E2E2E2E2E2E2E2E2E2E2E2E2E2E2E2E2E2E2E2E2E2E2E2E2E2E2E2E2E2E2E2E2E2E2E2E2E2E2E2E2E2E2E2E2E2E2E2E2E2E2E2E2E2E2E2E2E2E2E2E2E2E2E2E2E2E2E2E2E2E2E2E2E2E2E2E2E2E2E2E2E2E2E2E2E2E2E2E2E2E2E2E2E2E2E2E2E2E2E2E2E2E2E2E2E2E2E2E2E2F5E2E2E2F5F5E2
310
E2E2F5E2E2E2E2E2E2E2E2E2E2E2E2E2E2E2E2E2E2E2E2E2E2E2E2E2E2E2E2E2E2E2E2E2E2E2E2E2E2E2E2E2E2E2E2E2E2E2E2E2E2E2E2E2E2E2E2E2E2E2E2E2E2E2E2E2E2E2E2E2E2E2E2E2E2E2E2E2E2E2E2E2E2E2E2E2E2E2E2E2E2E2E2E2E2E2E2E2E2E2E2E2E2E2E2E2E2E2E2E2E2E2E2E2E2E2E2E2E2E2E2E2E2E2E2
310
E2E2E2E2E2E2E2E2E2E2E2E2E2E2E2E2E2E2E2E2E2E2E2E2E2E2E2E2E2E2E2E2E2E2E2E2E2E2E2E2E2E2E2E2E2E2F5E2E2E2F5F5E2E2E2F5E2E2E2E2E2E2E2E2E2E2E2E2E2E2E2E2E2E2E2E2E2E2E2E2E2E2E2E2E2E2E2E2E2E2E2E2E2E2E2E2E2E2E2E2E2E2E2E2E2E2E2E2E2E2E2E2E2E2E2E2E2E2E2E2E2E2E2E2E2E2E2
310
E2E2E2E2E2E2E2E2E2E2E2E2E2E2E2E2E2E2E2E2E2E2E2E2E2E2E2E2E2E2E2E2E2E2E2E2E2E2E2E2E2E2E2E2E2E2E2E2E2E2E2E2E2E2E2E2E2E2E2E2E2E2E2E2E2E2E2E2E2E2E2E2E2E2E2E2E2E2E2E2E2E2E2E2E2E2E2E2E2E2E2E2E2E2E2E2E2E2E2F5E2E2E2F5F5E2E2E2F5E2E2E2E2E2E2E2E2E2E2E2E2E2E2E2E2E2E2
310
E2E2E2E2E2E2E2E2E2E2E2E2E2E2E2E2E2E2E2E2E2E2E2E2E2E2E2E2E2E2E2E2E2E2E2E2E2E2E2E2E2E2E2E2E2E2E2E2E2E2E2E2E2E2E2E2E2E2E2E2E2E2E2E2E2E2E2E2E2E2E2E2E2E2E2E2E2E2E2E2E2E2E2E2E2E2E2E2E2E2E2E2E2E2E2E2E2E2E2E2E2E2E2E2E2E2E2E2E2E2E2E2E2E2E2E2E2E2E2E2E2E2E2E2E2E2E2
310
E2E2E2E2E2E2E2E2E2E2E2E2E2E2E2E2E2E2E2E2E2E2E2E2E2F5E2E2E2F5F5E2E2E2F5E2E2E2E2E2E2E2E2E2E2E2E2E2E2E2E2E2E2E2E2E2E2E2E2E2E2E2E2E2E2E2E2E2E2E2E2E2E2E2E2E2E2E2E2E2E2E2E2E2E2E2E2E2E2E2E2E2E2E2E2E2E2E2E2E2E2E2E2E2E2E2E2E2E2E2E2E2E2E2E2E2E2E2E2E2E2E2E2E2E2E2E2
310
E2E2E2E2E2E2E2E2E2E2E2E2E2E2E2E2E2E2E2E2E2E2E2E2E2E2E2E2E2E2E2E2E2E2E2E2E2E2E2E2E2E2E2E2E2E2E2E2E2E2E2E2E2E2E2E2E2E2E2E2E2E2E2E2E2E2E2E2E2E2E2E2E2E2E2E2E2E2F5E2E2E2F5F5E2E2E2F5E2E2E2E2E2E2E2E2E2E2E2E2E2E2E2E2E2E2E2E2E2E2E2E2E2E2E2E2E2E2E2E2E2E2E2E2E2E2E2
310
E2E2E2E2E2E2E2E2E2E2E2E2E2E2E2E2E2E2E2E2E2E2E2E2E2E2E2E2E2E2E2E2E2E2E2E2E2E2E2E2E2E2E2E2E2E2E2E2E2E2E2E2E2E2E2E2E2E2E2E2E2E2E2E2E2E2E2E2E2E2E2E2E2E2E2E2E2E2E2E2E2E2E2E2E2E2E2E2E2E2E2E2E2E2E2E2E2E2E2E2E2E2E2E2E2E2E2E2E2E2E2E2E2E2E2E2E2E2E2E2E2E2E2E2E2E2E2
310
E2E2E2E2F5E2E2E2F5F5E2E2E2E2E2E2E2E2E2E2E2E2E2E2E2E2E2E2E2E2E2E2E2E2E2E2E2E2E2E2E2E2E2E2E2E2E2E2E2E2E2E2E2E2E2E2E2E2E2E2E2E2E2E2E2E2E2E2E2E2E2E2E2E2E2E2E2E2E2E2E2E2E2E2E2E2E2E2E2E2E2E2E2E2E2E2E2E2E2E2E2E2E2E2E2E2E2E2E2E2E2E2E2E2E2E2E2E2E2E2E2E2E2E2E2E2E2
310
E2E2E2E2E2E2E2E2E2E2E2E2E2E2E2E2E2E2E2E2E2E2E2E2E2E2E2E2E2E2E2E2E2E2E2E2E2E2E2E2E2E2E2E2E2E2E2E2E2E2E2E2E2E2E2E2E2E2E2E2E2F5F5E2E2E2E2E2E2E2E2E2E2E2E2E2E2E2E2E2E2E2E2E2E2E2E2E2E2E2E2E2E2E2E2E2E2E2E2E2E2E2E2E2E2E2E2E2E2E2E2E2E2E2E2E2E2E2E2E2E2E2E2E2E2E2E2
310
E2E2E2E2E2E2E2E2E2E2E2E2E2E2E2E2E2E2E2E2E2E2E2E2E2E2E2E2E2E2E2E2E2E2E2E2E2E2E2E2E2E2E2E2E2E2E2E2E2E2E2E2E2E2E2E2E2E2E2E2E2E2E2E2E2E2E2E2E2E2E2E2E2E2E2E2E2E2E2E2E2E2E2E2E2E2E2E2E2E2E2E2E2E2E2E2E2E2E2E2E2E2E2E2E2E2E2E2E2E2E2E2E2E2F5F5E2E2E2E2E2E2E2E2E2E2E2
310
E2E2E2E2E2E2E2E2E2E2E2E2E2E2E2E2E2E2E2E2E2E2E2E2E2E2E2E2E2E2E2E2E2E2E2E2E2E2E2E2E2E2E2E2E2E2E2E2E2E2E2E2E2E2E2E2E2E2E2E2E2E2E2E2E2E2E2E2E2E2E2E2E2E2E2E2E2E2E2E2E2E2E2E2E2E2E2E2E2E2E2E2E2E2E2E2E2E2E2E2E2E2E2E2E2E2E2E2E2E2E2E2E2E2E2E2E2E2E2E2E2E2E2E2E2E2E2
310
E2E2E2E2E2E2E2E2E2E2E2E2E2E2E2E2E2E2E2E2E2E2E2E2E2E2E2E2E2E2E2E2E2E2E2E2E2E2E2E2F5F5E2E2E2E2E2E2E2E2E2E2E2E2E2E2E2E2E2E2E2E2E2E2E2E2E2E2E2E2E2E2E2E2E2E2E2E2E2E2E2E2E2E2E2E2E2E2E2E2E2E2E2E2E2E2E2E2E2E2E2E2E2E2E2E2E2E2E2E2E2E2E2E2E2E2E2E2E2E2E2E2E2E2E2E2E2
310
E2E2E2E2E2E2E2E2E2E2E2E2E2E2E2E2E2E2E2E2E2E2E2E2E2E2E2E2E2E2E2E2E2E2E2E2E2E2E2E2E2E2E2E2E2E2E2E2E2E2E2E2E2E2E2E2E2E2E2E2E2E2E2E2E2E2E2E2E2E2E2E2E2E2E2E2E2E2E2E2E2E2E2E2E2E2E2E2E2E2E2E2E2F5F5E2E2E2E2E2E2E2E2E2E2E2E2E2E2E2E2E2E2E2E2E2E2E2E2E2E2E2E2E2E2E2E2
310
E2E2E2E2E2E2E2E2E2E2E2E2E2E2E2E2E2E2E2E2E2E2E2E2E2E2E2E2E2E2E2E2E2E2E2E2E2E2E2E2E2E2E2E2E2E2E2E2E2E2E2E2E2E2E2E2E2E2E2E2E2E2E2E2E2E2E2E2E2E2E2E2E2E2E2E2E2E2E2E2E2E2E2E2E2E2E2E2E2E2E2E2E2E2E2E2E2E2E2E2E2E2E2E2E2E2E2E2E2E2E2E2E2E2E2E2E2E2E2E2E2E2E2E2E2E2E2
310
E2E2E2E2E2E2E2E2E2E2E2E2E2E2E2E2E2E2E2F5F5E2E2E2E2E2E2E2E2E2E2E2E2E2E2E2E2E2E2E2E2E2E2E2E2E2E2E2E2E2E2E2E2E2E2E2E2E2E2E2E2E2E2E2E2E2E2E2E2E2E2E2E2E2E2E2E2E2E2E2E2E2E2E2E2E2E2E2E2E2E2E2E2E2E2E2E2E2E2E2E2E2E2E2E2E2E2E2E2E2E2E2E2E2E2E2E2E2E2E2E2E2E2E2E2E2E2
310
E2E2E2E2E2E2E2E2E2E2E2E2E2E2E2E2E2E2E2E2E2E2E2E2E2E2E2E2E2E2E2E2E2E2E2E2E2E2E2E2E2E2E2E2E2E2E2E2E2E2E2E2E2E2E2E2E2E2E2E2E2E2E2E2E2E2E2E2E2E2E2E2F5F5E2E2E2E2E2E2E2E2E2E2E2E2E2E2E2E2E2E2E2E2E2E2E2E2E2E2E2E2E2E2E2E2E2E2E2E2E2E2E2E2E2E2E2E2E2E2E2E2E2E2E2E2E2
310
E2E2E2E2E2E2E2E2E2E2E2E2E2E2E2E2E2E2E2E2E2E2E2E2E2E2E2E2E2E2E2E2E2E2E2E2E2E2E2E2E2E2E2E2E2E2E2E2E2E2E2E2E2E2E2E2E2E2E2E2E2E2E2E2E2E2E2E2E2E2E2E2E2E2E2E2E2E2E2E2E2E2E2E2E2E2E2E2E2E2E2E2E2E2E2E2E2E2E2E2E2E2E2E2E2E2E2E2E2E2E2E2E2E2E2E2E2E2E2E2E2E2E2E2E2F5F5
310
E2E2E2E2E2E2E2E2E2E2E2E2E2E2E2E2E2E2E2E2E2E2E2E2E2E2E2E2E2E2E2E2E2E2E2E2E2E2E2E2E2E2E2E2E2E2E2E2E2E2E2E2E2E2E2E2E2E2E2E2E2E2E2E2E2E2E2E2E2E2E2E2E2E2E2E2E2E2E2E2E2E2E2E2E2E2E2E2E2E2E2E2E2E2E2E2E2E2E2E2E2E2E2E2E2E2E2E2E2E2E2E2E2E2E2E2E2E2E2E2E2E2E2E2E2E2E2
310
E2E2E2E2E2E2E2E2E2E2E2E2E2E2E2E2E2E2E2E2E2E2E2E2E2E2E2E2E2E2E2E2E2E2E2E2E2E2E2E2E2E2E2E2E2E2E2E2E2E2E2F5F5E2E2E2E2E2E2E2E2E2E2E2E2E2E2E2E2E2E2E2E2E2E2E2E2E2E2E2E2E2E2E2E2E2E2E2E2E2E2E2E2E2E2E2E2E2E2E2E2E2E2E2E2E2E2E2E2E2E2E2E2E2E2E2E2E2E2E2E2E2E2E2E2E2E2
310
E2E2E2E2E2E2E2E2E2E2E2E2E2E2E2E2E2E2E2E2E2E2E2E2E2E2E2E2E2E2E2E2E2E2E2E2E2E2E2E2E2E2E2E2E2E2E2E2E2E2E2E2E2E2E2E2E2E2E2E2E2E2E2E2E2E2E2E2E2E2E2E2E2E2E2E2E2E2E2E2E2E2E2E2E2E2E2E2E2E2E2E2E2E2E2E2E2E2E2E2E2E2E2E2F5F5E2E2E2F5E2E2E2E2E2E2E2E2E2E2E2E2E2E2E2E2E2
310
E2E2E2E2E2E2E2E2E2E2E2E2E2E2E2E2E2E2E2E2E2E2E2E2E2E2E2E2E2E2E2E2E2E2E2E2E2E2E2E2E2E2E2E2E2E2E2E2E2E2E2E2E2E2E2E2E2E2E2E2E2E2E2E2E2E2E2E2E2E2E2E2E2E2E2E2E2E2E2E2E2E2E2E2E2E2E2E2E2E2E2E2E2E2E2E2E2E2E2E2E2E2E2E2E2E2E2E2E2E2E2E2E2E2E2E2E2E2E2E2E2E2E2E2E2E2E2
310
E2E2E2E2E2E2E2E2E2E2E2E2E2E2E2E2E2E2E2E2E2E2E2E2E2E2F5E2E2E2F5F5E2E2E2F5E2E2E2E2E2E2E2E2E2E2E2E2E2E2E2E2E2E2E2E2E2E2E2E2E2E2E2E2E2E2E2E2E2E2E2E2E2E2E2E2E2E2E2E2E2E2E2E2E2E2E2E2E2E2E2E2E2E2E2E2E2E2E2E2E2E2E2E2E2E2E2E2E2E2E2E2E2E2E2E2E2E2E2E2E2E2E2E2E2E2E2
310
E2E2E2E2E2E2E2E2E2E2E2E2E2E2E2E2E2E2E2E2E2E2E2E2E2E2E2E2E2E2E2E2E2E2E2E2E2E2E2E2E2E2E2E2E2E2E2E2E2E2E2E2E2E2E2E2E2E2E2E2E2E2E2E2E2E2E2E2E2E2E2E2E2E2E2E2E2E2E2F5E2E2E2F5F5E2E2E2F5E2E2E2E2E2E2E2E2E2E2E2E2E2E2E2E2E2E2E2E2E2E2E2E2E2E2E2E2E2E2E2E2E2E2E2E2E2E2
310
E2E2E2E2E2E2E2E2E2E2E2E2E2E2E2E2E2E2E2E2E2E2E2E2E2E2E2E2E2E2E2E2E2E2E2E2E2E2E2E2E2E2E2E2E2E2E2E2E2E2E2E2E2E2E2E2E2E2E2E2E2E2E2E2E2E2E2E2E2E2E2E2E2E2E2E2E2E2E2E2E2E2E2E2E2E2E2E2E2E2E2E2E2E2E2E2E2E2E2E2E2E2E2E2E2E2E2E2E2E2E2E2E2E2E2E2E2E2E2E2E2E2E2E2E2E2E2
310
E2E2E2E2E2F5E2E2E2F5F5E2E2E2F5E2E2E2E2E2E2E2E2E2E2E2E2E2E2E2E2E2E2E2E2E2E2E2E2E2E2E2E2E2E2E2E2E2E2E2E2E2E2E2E2E2E2E2E2E2E2E2E2E2E2E2E2E2E2E2E2E2E2E2E2E2E2E2E2E2E2E2E2E2E2E2E2E2E2E2E2E2E2E2E2E2E2E2E2E2E2E2E2E2E2E2E2E2E2E2E2E2E2E2E2E2E2E2E2E2E2E2E2E2E2E2E2
310
E2E2E2E2E2E2E2E2E2E2E2E2E2E2E2E2E2E2E2E2E2E2E2E2E2E2E2E2E2E2E2E2E2E2E2E2E2E2E2E2E2E2E2E2E2E2E2E2E2E2E2E2E2E2E2E2E2E2F5E2E2E2F5F5E2E2E2F5E2E2E2E2E2E2E2E2E2E2E2E2E2E2E2E2E2E2E2E2E2E2E2E2E2E2E2E2E2E2E2E2E2E2E2E2E2E2E2E2E2E2E2E2E2E2E2E2E2E2E2E2E2E2E2E2E2E2E2
310
E2E2E2E2E2E2E2E2E2E2E2E2E2E2E2E2E2E2E2E2E2E2E2E2E2E2E2E2E2E2E2E2E2E2E2E2E2E2E2E2E2E2E2E2E2E2E2E2E2E2E2E2E2E2E2E2E2E2E2E2E2E2E2E2E2E2E2E2E2E2E2E2E2E2E2E2E2E2E2E2E2E2E2E2E2E2E2E2E2E2E2E2E2E2E2E2E2E2E2E2E2E2E2E2E2E2E2E2E2E2E2F5E2E2E2F5F5E2E2E2F5E2E2E2E2E2E2
310
E2E2E2E2E2E2E2E2E2E2E2E2E2E2E2E2E2E2E2E2E2E2E2E2E2E2E2E2E2E2E2E2E2E2E2E2E2E2E2E2E2E2E2E2E2E2E2E2E2E2E2E2E2E2E2E2E2E2E2E2E2E2E2E2E2E2E2E2E2E2E2E2E2E2E2E2E2E2E2E2E2E2E2E2E2E2E2E2E2E2E2E2E2E2E2E2E2E2E2E2E2E2E2E2E2E2E2E2E2E2E2E2E2E2E2E2E2E2E2E2E2E2E2E2E2E2E2
310
E2E2E2E2E2E2E2E2E2E2E2E2E2E2E2E2E2E2E2E2E2E2E2E2E2E2E2E2E2E2E2E2E2E2E2E2E2F5E2E2E2F5F5E2E2E2F5E2E2E2E2E2E2E2E2E2E2E2E2E2E2E2E2E2E2E2E2E2E2E2E2E2E2E2E2E2E2E2E2E2E2E2E2E2E2E2E2E2E2E2E2E2E2E2E2E2E2E2E2E2E2E2E2E2E2E2E2E2E2E2E2E2E2E2E2E2E2E2E2E2E2E2E2E2E2E2E2
310
E2E2E2E2E2E2E2E2E2E2E2E2E2E2E2E2E2E2E2E2E2E2E2E2E2E2E2E2E2E2E2E2E2E2E2E2E2E2E2E2E2E2E2E2E2E2E2E2E2E2E2E2E2E2E2E2E2E2E2E2E2E2E2E2E2E2E2E2E2E2E2E2E2E2E2E2E2E2E2E2E2E2E2E2E2E2E2E2E2E2F5E2E2E2F5F5E2E2E2F5E2E2E2E2E2E2E2E2E2E2E2E2E2E2E2E2E2E2E2E2E2E2E2E2E2E2E2
310
E2E2E2E2E2E2E2E2E2E2E2E2E2E2E2E2E2E2E2E2E2E2E2E2E2E2E2E2E2E2E2E2E2E2E2E2E2E2E2E2E2E2E2E2E2E2E2E2E2E2E2E2E2E2E2E2E2E2E2E2E2E2E2E2E2E2E2E2E2E2E2E2E2E2E2E2E2E2E2E2E2E2E2E2E2E2E2E2E2E2E2E2E2E2E2E2E2E2E2E2E2E2E2E2E2E2E2E2E2E2E2E2E2E2E2E2E2E2E2E2E2E2E2E2E2E2E2
310
E2E2E2E2E2E2E2E2E2E2E2E2E2E2E2E2F5E2E2E2F5F5E2E2E2F5E2E2E2E2E2E2E2E2E2E2E2E2E2E2E2E2E2E2E2E2E2E2E2E2E2E2E2E2E2E2E2E2E2E2E2E2E2E2E2E2E2E2E2E2E2E2E2E2E2E2E2E2E2E2E2E2E2E2E2E2E2E2E2E2E2E2E2E2E2E2E2E2E2E2E2E2E2E2E2E2E2E2E2E2E2E2E2E2E2E2E2E2E2E2E2E2E2E2E2E2E2
310
E2E2E2E2E2E2E2E2E2E2E2E2E2E2E2E2E2E2E2E2E2E2E2E2E2E2E2E2E2E2E2E2E2E2E2E2E2E2E2E2E2E2E2E2E2E2E2E2E2E2E2E2E2E2E2E2E2E2E2E2E2E2E2E2E2E2E2E2E2F5E2E2E2F5F5E2E2E2F5E2E2E2E2E2E2E2E2E2E2E2E2E2E2E2E2E2E2E2E2E2E2E2E2E2E2E2E2E2E2E2E2E2E2E2E2E2E2E2E2E2E2E2E2E2E2E2E2
310
E2E2E2E2E2E2E2E2E2E2E2E2E2E2E2E2E2E2E2E2E2E2E2E2E2E2E2E2E2E2E2E2E2E2E2E2E2E2E2E2E2E2E2E2E2E2E2E2E2E2E2E2E2E2E2E2E2E2E2E2E2E2E2E2E2E2E2E2E2E2E2E2E2E2E2E2E2E2E2E2E2E2E2E2E2E2E2E2E2E2E2E2E2E2E2E2E2E2E2E2E2E2E2E2E2E2E2E2E2E2E2E2E2E2E2E2E2E2E2E2E2E2F5E2E2E2F5
310
F5E2E2E2F5E2E2E2E2E2E2E2E2E2E2E2E2E2E2E2E2E2E2E2E2E2E2E2E2E2E2E2E2E2E2E2E2E2E2E2E2E2E2E2E2E2E2E2E2E2E2E2E2E2E2E2E2E2E2E2E2E2E2E2E2E2E2E2E2E2E2E2E2E2E2E2E2E2E2E2E2E2E2E2E2E2E2E2E2E2E2E2E2E2E2E2E2E2E2E2E2E2E2E2E2E2E2E2E2E2E2E2E2E2E2E2E2E2E2E2E2E2E2E2E2E2E2
310
E2E2E2E2E2E2E2E2E2E2E2E2E2E2E2E2E2E2E2E2E2E2E2E2E2E2E2E2E2E2E2E2E2E2E2E2E2E2E2E2E2E2E2E2E2E2E2E2F5E2E2E2F5F5E2E2E2F5E2E2E2E2E2E2E2E2E2E2E2E2E2E2E2E2E2E2E2E2E2E2E2E2E2E2E2E2E2E2E2E2E2E2E2E2E2E2E2E2E2E2E2E2E2E2E2E2E2E2E2E2E2E2E2E2E2E2E2E2E2E2E2E2E2E2E2E2E2
310
E2E2E2E2E2E2E2E2E2E2E2E2E2E2E2E2E2E2E2E2E2E2E2E2E2E2E2E2E2E2E2E2E2E2E2E2E2E2E2E2E2E2E2E2E2E2E2E2E2E2E2E2E2E2E2E2E2E2E2E2E2E2E2E2E2E2E2E2E2E2E2E2E2E2E2E2E2E2E2E2E2E2E2E2E2E2E2E2E2E2E2E2E2E2E2E2E2E2E2E2E2F5E2E2E2F5F5E2E2E2F5E2E2E2E2E2E2E2E2E2E2E2E2E2E2E2E2
310
E2E2E2E2E2E2E2E2E2E2E2E2E2E2E2E2E2E2E2E2E2E2E2E2E2E2E2E2E2E2E2E2E2E2E2E2E2E2E2E2E2E2E2E2E2E2E2E2E2E2E2E2E2E2E2E2E2E2E2E2E2E2E2E2E2E2E2E2E2E2E2E2E2E2E2E2E2E2E2E2E2E2E2E2E2E2E2E2E2E2E2E2E2E2E2E2E2E2E2E2E2E2E2E2E2E2E2E2E2E2E2E2E2E2E2E2E2E2E2E2E2E2E2E2E2E2E2
310
E2E2E2E2E2E2E2E2E2E2E2E2E2E2E2E2E2E2E2E2E2E2E2E2E2E2E2F5E2E2E2F5F5E2E2E2F5E2E2E2E2E2E2E2E2E2E2E2E2E2E2E2E2E2E2E2E2E2E2E2E2E2E2E2E2E2E2E2E2E2E2E2E2E2E2E2E2E2E2E2E2E2E2E2E2E2E2E2E2E2E2E2E2E2E2E2E2E2E2E2E2E2E2E2E2E2E2E2E2E2E2E2E2E2E2E2E2E2E2E2E2E2E2E2E2E2E2
310
E2E2E2E2E2E2E2E2E2E2E2E2E2E2E2E2E2E2E2E2E2E2E2E2E2E2E2E2E2E2E2E2E2E2E2E2E2E2E2E2E2E2E2E2E2E2E2E2E2E2E2E2E2E2E2E2E2E2E2E2E2E2E2E2E2E2E2E2E2E2E2E2E2E2E2E2E2E2E2E2F5E2E2E2F5F5E2E2E2F5E2E2E2E2E2E2E2E2E2E2E2E2E2E2E2E2E2E2E2E2E2E2E2E2E2E2E2E2E2E2E2E2E2E2E2E2E2
310
E2E2E2E2E2E2E2E2E2E2E2E2E2E2E2E2E2E2E2E2E2E2E2E2E2E2E2E2E2E2E2E2E2E2E2E2E2E2E2E2E2E2E2E2E2E2E2E2E2E2E2E2E2E2E2E2E2E2E2E2E2E2E2E2E2E2E2E2E2E2E2E2E2E2E2E2E2E2E2E2E2E2E2E2E2E2E2E2E2E2E2E2E2E2E2E2E2E2E2E2E2E2E2E2E2E2E2E2E2E2E2E2E2E2E2E2E2E2E2E2E2E2E2E2E2E2E2
310
E2E2E2E2E2E2F5E2E2E2F5F5E2E2E2F5E2E2E2E2E2E2E2E2E2E2E2E2E2E2E2E2E2E2E2E2E2E2E2E2E2E2E2E2E2E2E2E2E2E2E2E2E2E2E2E2E2E2E2E2E2E2E2E2E2E2E2E2E2E2E2E2E2E2E2E2E2E2E2E2E2E2E2E2E2E2E2E2E2E2E2E2E2E2E2E2E2E2E2E2E2E2E2E2E2E2E2E2E2E2E2E2E2E2E2E2E2E2E2E2E2E2E2E2E2E2E2
310
E2E2E2E2E2E2E2E2E2E2E2E2E2E2E2E2E2E2E2E2E2E2E2E2E2E2E2E2E2E2E2E2E2E2E2E2E2E2E2E2E2E2E2E2E2E2E2E2E2E2E2E2E2E2E2E2E2E2E2F5E2E2E2F5F5E2E2E2E2E2E2E2E2E2E2E2E2E2E2E2E2E2E2E2E2E2E2E2E2E2E2E2E2E2E2E2E2E2E2E2E2E2E2E2E2E2E2E2E2E2E2E2E2E2E2E2E2E2E2E2E2E2E2E2E2E2E2
310
E2E2E2E2E2E2E2E2E2E2E2E2E2E2E2E2E2E2E2E2E2E2E2E2E2E2E2E2E2E2E2E2E2E2E2E2E2E2E2E2E2E2E2E2E2E2E2E2E2E2E2E2E2E2E2E2E2E2E2E2E2E2E2E2E2E2E2E2E2E2E2E2E2E2E2E2E2E2E2E2E2E2E2E2E2E2E2E2E2E2E2E2E2E2E2E2E2E2E2E2E2E2E2E2E2E2E2E2E2E2E2E2E2E2E2E2F5F5E2E2E2E2E2E2E2E2E2
310
E2E2E2E2E2E2E2E2E2E2E2E2E2E2E2E2E2E2E2E2E2E2E2E2E2E2E2E2E2E2E2E2E2E2E2E2E2E2E2E2E2E2E2E2E2E2E2E2E2E2E2E2E2E2E2E2E2E2E2E2E2E2E2E2E2E2E2E2E2E2E2E2E2E2E2E2E2E2E2E2E2E2E2E2E2E2E2E2E2E2E2E2E2E2E2E2E2E2E2E2E2E2E2E2E2E2E2E2E2E2E2E2E2E2E2E2E2E2E2E2E2E2E2E2E2E2E2
310
E2E2E2E2E2E2E2E2E2E2E2E2E2E2E2E2E2E2E2E2E2E2E2E2E2E2E2E2E2E2E2E2E2E2E2E2E2E2E2E2E2E2F5F5E2E2E2E2E2E2E2E2E2E2E2E2E2E2E2E2E2E2E2E2E2E2E2E2E2E2E2E2E2E2E2E2E2E2E2E2E2E2E2E2E2E2E2E2E2E2E2E2E2E2E2E2E2E2E2E2E2E2E2E2E2E2E2E2E2E2E2E2E2E2E2E2E2E2E2E2E2E2E2E2E2E2E2
310
E2E2E2E2E2E2E2E2E2E2E2E2E2E2E2E2E2E2E2E2E2E2E2E2E2E2E2E2E2E2E2E2E2E2E2E2E2E2E2E2E2E2E2E2E2E2E2E2E2E2E2E2E2E2E2E2E2E2E2E2E2E2E2E2E2E2E2E2E2E2E2E2E2E2E2E2E2E2E2E2E2E2E2E2E2E2E2E2E2E2E2E2E2E2E2F5F5E2E2E2E2E2E2E2E2E2E2E2E2E2E2E2E2E2E2E2E2E2E2E2E2E2E2E2E2E2E2
310
E2E2E2E2E2E2E2E2E2E2E2E2E2E2E2E2E2E2E2E2E2E2E2E2E2E2E2E2E2E2E2E2E2E2E2E2E2E2E2E2E2E2E2E2E2E2E2E2E2E2E2E2E2E2E2E2E2E2E2E2E2E2E2E2E2E2E2E2E2E2E2E2E2E2E2E2E2E2E2E2E2E2E2E2E2E2E2E2E2E2E2E2E2E2E2E2E2E2E2E2E2E2E2E2E2E2E2E2E2E2E2E2E2E2E2E2E2E2E2E2E2E2E2E2E2E2E2
310
E2E2E2E2E2E2E2E2E2E2E2E2E2E2E2E2E2E2E2E2E2F5F5E2E2E2E2E2E2E2E2E2E2E2E2E2E2E2E2E2E2E2E2E2E2E2E2E2E2E2E2E2E2E2E2E2E2E2E2E2E2E2E2E2E2E2E2E2E2E2E2E2E2E2E2E2E2E2E2E2E2E2E2E2E2E2E2E2E2E2E2E2E2E2E2E2E2E2E2E2E2E2E2E2E2E2E2E2E2E2E2E2E2E2E2E2E2E2E2E2E2E2E2E2E2E2E2
310
E2E2E2E2E2E2E2E2E2E2E2E2E2E2E2E2E2E2E2E2E2E2E2E2E2E2E2E2E2E2E2E2E2E2E2E2E2E2E2E2E2E2E2E2E2E2E2E2E2E2E2E2E2E2E2E2E2E2E2E2E2E2E2E2E2E2E2E2E2E2E2E2E2E2F5F5E2E2E2E2E2E2E2E2E2E2E2E2E2E2E2E2E2E2E2E2E2E2E2E2E2E2E2E2E2E2E2E2E2E2E2E2E2E2E2E2E2E2E2E2E2E2E2E2E2E2E2
310
E2E2E2E2E2E2E2E2E2E2E2E2E2E2E2E2E2E2E2E2E2E2E2E2E2E2E2E2E2E2E2E2E2E2E2E2E2E2E2E2E2E2E2E2E2E2E2E2E2E2E2E2E2E2E2E2E2E2E2E2E2E2E2E2E2E2E2E2E2E2E2E2E2E2E2E2E2E2E2E2E2E2E2E2E2E2E2E2E2E2E2E2E2E2E2E2E2E2E2E2E2E2E2E2E2E2E2E2E2E2E2E2E2E2E2E2E2E2E2E2E2E2E2E2E2E2E2
310
F5F5E2E2E2E2E2E2E2E2E2E2E2E2E2E2E2E2E2E2E2E2E2E2E2E2E2E2E2E2E2E2E2E2E2E2E2E2E2E2E2E2E2E2E2E2E2E2E2E2E2E2E2E2E2E2E2E2E2E2E2E2E2E2E2E2E2E2E2E2E2E2E2E2E2E2E2E2E2E2E2E2E2E2E2E2E2E2E2E2E2E2E2E2E2E2E2E2E2E2E2E2E2E2E2E2E2E2E2E2E2E2E2E2E2E2E2E2E2E2E2E2E2E2E2E2E2
310
E2E2E2E2E2E2E2E2E2E2E2E2E2E2E2E2E2E2E2E2E2E2E2E2E2E2E2E2E2E2E2E2E2E2E2E2E2E2E2E2E2E2E2E2E2E2E2E2E2E2E2E2E2F5F5E2E2E2E2E2E2E2E2E2E2E2E2E2E2E2E2E2E2E2E2E2E2E2E2E2E2E2E2E2E2E2E2E2E2E2E2E2E2E2E2E2E2E2E2E2E2E2E2E2E2E2E2E2E2E2E2E2E2E2E2E2E2E2E2E2E2E2E2E2E2E2E2
310
E2E2E2E2E2E2E2E2E2E2E2E2E2E2E2E2E2E2E2E2E2E2E2E2E2E2E2E2E2E2E2E2E2E2E2E2E2E2E2E2E2E2E2E2E2E2E2E2E2E2E2E2E2E2E2E2E2E2E2E2E2E2E2E2E2E2E2E2E2E2E2E2E2E2E2E2E2E2E2E2E2E2E2E2E2E2E2E2E2E2E2E2E2E2E2E2E2E2E2E2E2E2E2E2E2E2F5F5E2E2E2E2E2E2E2E2E2E2E2E2E2E2E2E2E2E2E2
310
E2E2E2E2E2E2E2E2E2E2E2E2E2E2E2E2E2E2E2E2E2E2E2E2E2E2E2E2E2E2E2E2E2E2E2E2E2E2E2E2E2E2E2E2E2E2E2E2E2E2E2E2E2E2E2E2E2E2E2E2E2E2E2E2E2E2E2E2E2E2E2E2E2E2E2E2E2E2E2E2E2E2E2E2E2E2E2E2E2E2E2E2E2E2E2E2E2E2E2E2E2E2E2E2E2E2E2E2E2E2E2E2E2E2E2E2E2E2E2E2E2E2E2E2E2E2E2
310
E2E2E2E2E2E2E2E2E2E2E2E2E2E2E2E2E2E2E2E2E2E2E2E2E2E2E2E2E2E2E2E2F5F5E2E2E2E2E2E2E2E2E2E2E2E2E2E2E2E2E2E2E2E2E2E2E2E2E2E2E2E2E2E2E2E2E2E2E2E2E2E2E2E2E2E2E2E2E2E2E2E2E2E2E2E2E2E2E2E2E2E2E2E2E2E2E2E2E2E2E2E2E2E2E2E2E2E2E2E2E2E2E2E2E2E2E2E2E2E2E2E2E2E2E2E2E2
310
E2E2E2E2E2E2E2E2E2E2E2E2E2E2E2E2E2E2E2E2E2E2E2E2E2E2E2E2E2E2E2E2E2E2E2E2E2E2E2E2E2E2E2E2E2E2E2E2E2E2E2E2E2E2E2E2E2E2E2E2E2E2E2E2E2E2E2E2E2E2E2E2E2E2E2E2E2E2E2E2E2E2E2E2E2F5F5E2E2E2F5E2E2E2E2E2E2E2E2E2E2E2E2E2E2E2E2E2E2E2E2E2E2E2E2E2E2E2E2E2E2E2E2E2E2E2E2
310
E2E2E2E2E2E2E2E2E2E2E2E2E2E2E2E2E2E2E2E2E2E2E2E2E2E2E2E2E2E2E2E2E2E2E2E2E2E2E2E2E2E2E2E2E2E2E2E2E2E2E2E2E2E2E2E2E2E2E2E2E2E2E2E2E2E2E2E2E2E2E2E2E2E2E2E2E2E2E2E2E2E2E2E2E2E2E2E2E2E2E2E2E2E2E2E2E2E2E2E2E2E2E2E2E2E2E2E2E2E2E2E2E2E2E2E2E2E2E2E2E2E2E2E2E2E2E2
310
E2E2E2E2E2E2E2F5E2E2E2F5F5E2E2E2F5E2E2E2E2E2E2E2E2E2E2E2E2E2E2E2E2E2E2E2E2E2E2E2E2E2E2E2E2E2E2E2E2E2E2E2E2E2E2E2E2E2E2E2E2E2E2E2E2E2E2E2E2E2E2E2E2E2E2E2E2E2E2E2E2E2E2E2E2E2E2E2E2E2E2E2E2E2E2E2E2E2E2E2E2E2E2E2E2E2E2E2E2E2E2E2E2E2E2E2E2E2E2E2E2E2E2E2E2E2E2
310
E2E2E2E2E2E2E2E2E2E2E2E2E2E2E2E2E2E2E2E2E2E2E2E2E2E2E2E2E2E2E2E2E2E2E2E2E2E2E2E2E2E2E2E2E2E2E2E2E2E2E2E2E2E2E2E2E2E2E2E2F5E2E2E2F5F5E2E2E2F5E2E2E2E2E2E2E2E2E2E2E2E2E2E2E2E2E2E2E2E2E2E2E2E2E2E2E2E2E2E2E2E2E2E2E2E2E2E2E2E2E2E2E2E2E2E2E2E2E2E2E2E2E2E2E2E2E2
310
E2E2E2E2E2E2E2E2E2E2E2E2E2E2E2E2E2E2E2E2E2E2E2E2E2E2E2E2E2E2E2E2E2E2E2E2E2E2E2E2E2E2E2E2E2E2E2E2E2E2E2E2E2E2E2E2E2E2E2E2E2E2E2E2E2E2E2E2E2E2E2E2E2E2E2E2E2E2E2E2E2E2E2E2E2E2E2E2E2E2E2E2E2E2E2E2E2E2E2E2E2E2E2E2E2E2E2E2E2E2E2E2E2F5E2E2E2F5F5E2E2E2F5E2E2E2E2
310
E2E2E2E2E2E2E2E2E2E2E2E2E2E2E2E2E2E2E2E2E2E2E2E2E2E2E2E2E2E2E2E2E2E2E2E2E2E2E2E2E2E2E2E2E2E2E2E2E2E2E2E2E2E2E2E2E2E2E2E2E2E2E2E2E2E2E2E2E2E2E2E2E2E2E2E2E2E2E2E2E2E2E2E2E2E2E2E2E2E2E2E2E2E2E2E2E2E2E2E2E2E2E2E2E2E2E2E2E2E2E2E2E2E2E2E2E2E2E2E2E2E2E2E2E2E2E2
310
E2E2E2E2E2E2E2E2E2E2E2E2E2E2E2E2E2E2E2E2E2E2E2E2E2E2E2E2E2E2E2E2E2E2E2E2E2E2E2F5E2E2E2F5F5E2E2E2F5E2E2E2E2E2E2E2E2E2E2E2E2E2E2E2E2E2E2E2E2E2E2E2E2E2E2E2E2E2E2E2E2E2E2E2E2E2E2E2E2E2E2E2E2E2E2E2E2E2E2E2E2E2E2E2E2E2E2E2E2E2E2E2E2E2E2E2E2E2E2E2E2E2E2E2E2E2E2
310
E2E2E2E2E2E2E2E2E2E2E2E2E2E2E2E2E2E2E2E2E2E2E2E2E2E2E2E2E2E2E2E2E2E2E2E2E2E2E2E2E2E2E2E2E2E2E2E2E2E2E2E2E2E2E2E2E2E2E2E2E2E2E2E2E2E2E2E2E2E2E2E2E2E2E2E2E2E2E2E2E2E2E2E2E2E2E2E2E2E2E2E2F5E2E2E2F5F5E2E2E2F5E2E2E2E2E2E2E2E2E2E2E2E2E2E2E2E2E2E2E2E2E2E2E2E2E2
310
E2E2E2E2E2E2E2E2E2E2E2E2E2E2E2E2E2E2E2E2E2E2E2E2E2E2E2E2E2E2E2E2E2E2E2E2E2E2E2E2E2E2E2E2E2E2E2E2E2E2E2E2E2E2E2E2E2E2E2E2E2E2E2E2E2E2E2E2E2E2E2E2E2E2E2E2E2E2E2E2E2E2E2E2E2E2E2E2E2E2E2E2E2E2E2E2E2E2E2E2E2E2E2E2E2E2E2E2E2E2E2E2E2E2E2E2E2E2E2E2E2E2E2E2E2E2E2
310
E2E2E2E2E2E2E2E2E2E2E2E2E2E2E2E2E2E2F5E2E2E2F5F5E2E2E2F5E2E2E2E2E2E2E2E2E2E2E2E2E2E2E2E2E2E2E2E2E2E2E2E2E2E2E2E2E2E2E2E2E2E2E2E2E2E2E2E2E2E2E2E2E2E2E2E2E2E2E2E2E2E2E2E2E2E2E2E2E2E2E2E2E2E2E2E2E2E2E2E2E2E2E2E2E2E2E2E2E2E2E2E2E2E2E2E2E2E2E2E2E2E2E2E2E2E2E2
310
E2E2E2E2E2E2E2E2E2E2E2E2E2E2E2E2E2E2E2E2E2E2E2E2E2E2E2E2E2E2E2E2E2E2E2E2E2E2E2E2E2E2E2E2E2E2E2E2E2E2E2E2E2E2E2E2E2E2E2E2E2E2E2E2E2E2E2E2E2E2E2F5E2E2E2F5F5E2E2E2F5E2E2E2E2E2E2E2E2E2E2E2E2E2E2E2E2E2E2E2E2E2E2E2E2E2E2E2E2E2E2E2E2E2E2E2E2E2E2E2E2E2E2E2E2E2E2
310
E2E2E2E2E2E2E2E2E2E2E2E2E2E2E2E2E2E2E2E2E2E2E2E2E2E2E2E2E2E2E2E2E2E2E2E2E2E2E2E2E2E2E2E2E2E2E2E2E2E2E2E2E2E2E2E2E2E2E2E2E2E2E2E2E2E2E2E2E2E2E2E2E2E2E2E2E2E2E2E2E2E2E2E2E2E2E2E2E2E2E2E2E2E2E2E2E2E2E2E2E2E2E2E2E2E2E2E2E2E2E2E2E2E2E2E2E2E2E2E2E2E2E2E2F5E2E2
310
E2F5F5E2E2E2F5E2E2E2E2E2E2E2E2E2E2E2E2E2E2E2E2E2E2E2E2E2E2E2E2E2E2E2E2E2E2E2E2E2E2E2E2E2E2E2E2E2E2E2E2E2E2E2E2E2E2E2E2E2E2E2E2E2E2E2E2E2E2E2E2E2E2E2E2E2E2E2E2E2E2E2E2E2E2E2E2E2E2E2E2E2E2E2E2E2E2E2E2E2E2E2E2E2E2E2E2E2E2E2E2E2E2E2E2E2E2E2E2E2E2E2E2E2E2E2E2
310
E2E2E2E2E2E2E2E2E2E2E2E2E2E2E2E2E2E2E2E2E2E2E2E2E2E2E2E2E2E2E2E2E2E2E2E2E2E2E2E2E2E2E2E2E2E2E2E2E2E2F5E2E2E2F5F5E2E2E2F5E2E2E2E2E2E2E2E2E2E2E2E2E2E2E2E2E2E2E2E2E2E2E2E2E2E2E2E2E2E2E2E2E2E2E2E2E2E2E2E2E2E2E2E2E2E2E2E2E2E2E2E2E2E2E2E2E2E2E2E2E2E2E2E2E2E2E2
310
E2E2E2E2E2E2E2E2E2E2E2E2E2E2E2E2E2E2E2E2E2E2E2E2E2E2E2E2E2E2E2E2E2E2E2E2E2E2E2E2E2E2E2E2E2E2E2E2E2E2E2E2E2E2E2E2E2E2E2E2E2E2E2E2E2E2E2E2E2E2E2E2E2E2E2E2E2E2E2E2E2E2E2E2E2E2E2E2E2E2E2E2E2E2E2E2E2E2E2E2E2E2E2F5E2E2E2F5F5E2E2E2F5E2E2E2E2E2E2E2E2E2E2E2E2E2E2
310
E2E2E2E2E2E2E2E2E2E2E2E2E2E2E2E2E2E2E2E2E2E2E2E2E2E2E2E2E2E2E2E2E2E2E2E2E2E2E2E2E2E2E2E2E2E2E2E2E2E2E2E2E2E2E2E2E2E2E2E2E2E2E2E2E2E2E2E2E2E2E2E2E2E2E2E2E2E2E2E2E2E2E2E2E2E2E2E2E2E2E2E2E2E2E2E2E2E2E2E2E2E2E2E2E2E2E2E2E2E2E2E2E2E2E2E2E2E2E2E2E2E2E2E2E2E2E2
310
E2E2E2E2E2E2E2E2E2E2E2E2E2E2E2E2E2E2E2E2E2E2E2E2E2E2E2E2E2F5E2E2E2F5F5E2E2E2F5E2E2E2E2E2E2E2E2E2E2E2E2E2E2E2E2E2E2E2E2E2E2E2E2E2E2E2E2E2E2E2E2E2E2E2E2E2E2E2E2E2E2E2E2E2E2E2E2E2E2E2E2E2E2E2E2E2E2E2E2E2E2E2E2E2E2E2E2E2E2E2E2E2E2E2E2E2E2E2E2E2E2E2E2E2E2E2E2
310
E2E2E2E2E2E2E2E2E2E2E2E2E2E2E2E2E2E2E2E2E2E2E2E2E2E2E2E2E2E2E2E2E2E2E2E2E2E2E2E2E2E2E2E2E2E2E2E2E2E2E2E2E2E2E2E2E2E2E2E2E2E2E2E2E2E2E2E2E2E2E2E2E2E2E2E2E2E2E2E2E2E2F5E2E2E2F5F5E2E2E2F5E2E2E2E2E2E2E2E2E2E2E2E2E2E2E2E2E2E2E2E2E2E2E2E2E2E2E2E2E2E2E2E2E2E2E2
310
E2E2E2E2E2E2E2E2E2E2E2E2E2E2E2E2E2E2E2E2E2E2E2E2E2E2E2E2E2E2E2E2E2E2E2E2E2E2E2E2E2E2E2E2E2E2E2E2E2E2E2E2E2E2E2E2E2E2E2E2E2E2E2E2E2E2E2E2E2E2E2E2E2E2E2E2E2E2E2E2E2E2E2E2E2E2E2E2E2E2E2E2E2E2E2E2E2E2E2E2E2E2E2E2E2E2E2E2E2E2E2E2E2E2E2E2E2E2E2E2E2E2E2E2E2E2E2
310
E2E2E2E2E2E2E2E2F5E2E2E2F5F5E2E2E2F5E2E2E2E2E2E2E2E2E2E2E2E2E2E2E2E2E2E2E2E2E2E2E2E2E2E2E2E2E2E2E2E2E2E2E2E2E2E2E2E2E2E2E2E2E2E2E2E2E2E2E2E2E2E2E2E2E2E2E2E2E2E2E2E2E2E2E2E2E2E2E2E2E2E2E2E2E2E2E2E2E2E2E2E2E2E2E2E2E2E2E2E2E2E2E2E2E2E2E2E2E2E2E2E2E2E2E2E2E2
310
E2E2E2E2E2E2E2E2E2E2E2E2E2E2E2E2E2E2E2E2E2E2E2E2E2E2E2E2E2E2E2E2E2E2E2E2E2E2E2E2E2E2E2E2E2E2E2E2E2E2E2E2E2E2E2E2E2E2E2E2E2F5E2E2E2F5F5E2E2E2F5E2E2E2E2E2E2E2E2E2E2E2E2E2E2E2E2E2E2E2E2E2E2E2E2E2E2E2E2E2E2E2E2E2E2E2E2E2E2E2E2E2E2E2E2E2E2E2E2E2E2E2E2E2E2E2E2
310
E2E2E2E2E2E2E2E2E2E2E2E2E2E2E2E2E2E2E2E2E2E2E2E2E2E2E2E2E2E2E2E2E2E2E2E2E2E2E2E2E2E2E2E2E2E2E2E2E2E2E2E2E2E2E2E2E2E2E2E2E2E2E2E2E2E2E2E2E2E2E2E2E2E2E2E2E2E2E2E2E2E2E2E2E2E2E2E2E2E2E2E2E2E2E2E2E2E2E2E2E2E2E2E2E2E2E2E2E2E2E2E2E2E2F5E2E2E2F5F5E2E2E2F5E2E2E2
310
E2E2E2E2E2E2E2E2E2E2E2E2E2E2E2E2E2E2E2E2E2E2E2E2E2E2E2E2E2E2E2E2E2E2E2E2E2E2E2E2E2E2E2E2E2E2E2E2E2E2E2E2E2E2E2E2E2E2E2E2E2E2E2E2E2E2E2E2E2E2E2E2E2E2E2E2E2E2E2E2E2E2E2E2E2E2E2E2E2E2E2E2E2E2E2E2E2E2E2E2E2E2E2E2E2E2E2E2E2E2E2E2E2E2E2E2E2E2E2E2E2E2E2E2E2E2E2
310
E2E2E2E2E2E2E2E2E2E2E2E2E2E2E2E2E2E2E2E2E2E2E2E2E2E2E2E2E2E2E2E2E2E2E2E2E2E2E2E2F5E2E2E2F5F5E2E2E2E2E2E2E2E2E2E2E2E2E2E2E2E2E2E2E2E2E2E2E2E2E2E2E2E2E2E2E2E2E2E2E2E2E2E2E2E2E2E2E2E2E2E2E2E2E2E2E2E2E2E2E2E2E2E2E2E2E2E2E2E2E2E2E2E2E2E2E2E2E2E2E2E2E2E2E2E2E2
310
E2E2E2E2E2E2E2E2E2E2E2E2E2E2E2E2E2E2E2E2E2E2E2E2E2E2E2E2E2E2E2E2E2E2E2E2E2E2E2E2E2E2E2E2E2E2E2E2E2E2E2E2E2E2E2E2E2E2E2E2E2E2E2E2E2E2E2E2E2E2E2E2E2E2E2E2E2E2E2E2E2E2E2E2E2E2E2E2E2E2E2E2E2E2E2E2E2F5F5E2E2E2E2E2E2E2E2E2E2E2E2E2E2E2E2E2E2E2E2E2E2E2E2E2E2E2E2
310
E2E2E2E2E2E2E2E2E2E2E2E2E2E2E2E2E2E2E2E2E2E2E2E2E2E2E2E2E2E2E2E2E2E2E2E2E2E2E2E2E2E2E2E2E2E2E2E2E2E2E2E2E2E2E2E2E2E2E2E2E2E2E2E2E2E2E2E2E2E2E2E2E2E2E2E2E2E2E2E2E2E2E2E2E2E2E2E2E2E2E2E2E2E2E2E2E2E2E2E2E2E2E2E2E2E2E2E2E2E2E2E2E2E2E2E2E2E2E2E2E2E2E2E2E2E2E2
310
E2E2E2E2E2E2E2E2E2E2E2E2E2E2E2E2E2E2E2E2E2E2E2F5F5E2E2E2E2E2E2E2E2E2E2E2E2E2E2E2E2E2E2E2E2E2E2E2E2E2E2E2E2E2E2E2E2E2E2E2E2E2E2E2E2E2E2E2E2E2E2E2E2E2E2E2E2E2E2E2E2E2E2E2E2E2E2E2E2E2E2E2E2E2E2E2E2E2E2E2E2E2E2E2E2E2E2E2E2E2E2E2E2E2E2E2E2E2E2E2E2E2E2E2E2E2E2
310
E2E2E2E2E2E2E2E2E2E2E2E2E2E2E2E2E2E2E2E2E2E2E2E2E2E2E2E2E2E2E2E2E2E2E2E2E2E2E2E2E2E2E2E2E2E2E2E2E2E2E2E2E2E2E2E2E2E2E2E2E2E2E2E2E2E2E2E2E2E2E2E2E2E2E2E2F5F5E2E2E2E2E2E2E2E2E2E2E2E2E2E2E2E2E2E2E2E2E2E2E2E2E2E2E2E2E2E2E2E2E2E2E2E2E2E2E2E2E2E2E2E2E2E2E2E2E2
310
E2E2E2E2E2E2E2E2E2E2E2E2E2E2E2E2E2E2E2E2E2E2E2E2E2E2E2E2E2E2E2E2E2E2E2E2E2E2E2E2E2E2E2E2E2E2E2E2E2E2E2E2E2E2E2E2E2E2E2E2E2E2E2E2E2E2E2E2E2E2E2E2E2E2E2E2E2E2E2E2E2E2E2E2E2E2E2E2E2E2E2E2E2E2E2E2E2E2E2E2E2E2E2E2E2E2E2E2E2E2E2E2E2E2E2E2E2E2E2E2E2E2E2E2E2E2E2
310
E2E2F5F5E2E2E2E2E2E2E2E2E2E2E2E2E2E2E2E2E2E2E2E2E2E2E2E2E2E2E2E2E2E2E2E2E2E2E2E2E2E2E2E2E2E2E2E2E2E2E2E2E2E2E2E2E2E2E2E2E2E2E2E2E2E2E2E2E2E2E2E2E2E2E2E2E2E2E2E2E2E2E2E2E2E2E2E2E2E2E2E2E2E2E2E2E2E2E2E2E2E2E2E2E2E2E2E2E2E2E2E2E2E2E2E2E2E2E2E2E2E2E2E2E2E2E2
310
E2E2E2E2E2E2E2E2E2E2E2E2E2E2E2E2E2E2E2E2E2E2E2E2E2E2E2E2E2E2E2E2E2E2E2E2E2E2E2E2E2E2E2E2E2E2E2E2E2E2E2E2E2E2E2F5F5E2E2E2E2E2E2E2E2E2E2E2E2E2E2E2E2E2E2E2E2E2E2E2E2E2E2E2E2E2E2E2E2E2E2E2E2E2E2E2E2E2E2E2E2E2E2E2E2E2E2E2E2E2E2E2E2E2E2E2E2E2E2E2E2E2E2E2E2E2E2
310
E2E2E2E2E2E2E2E2E2E2E2E2E2E2E2E2E2E2E2E2E2E2E2E2E2E2E2E2E2E2E2E2E2E2E2E2E2E2E2E2E2E2E2E2E2E2E2E2E2E2E2E2E2E2E2E2E2E2E2E2E2E2E2E2E2E2E2E2E2E2E2E2E2E2E2E2E2E2E2E2E2E2E2E2E2E2E2E2E2E2E2E2E2E2E2E2E2E2E2E2E2E2E2E2E2E2E2E2F5F5E2E2E2E2E2E2E2E2E2E2E2E2E2E2E2E2E2
310
E2E2E2E2E2E2E2E2E2E2E2E2E2E2E2E2E2E2E2E2E2E2E2E2E2E2E2E2E2E2E2E2E2E2E2E2E2E2E2E2E2E2E2E2E2E2E2E2E2E2E2E2E2E2E2E2E2E2E2E2E2E2E2E2E2E2E2E2E2E2E2E2E2E2E2E2E2E2E2E2E2E2E2E2E2E2E2E2E2E2E2E2E2E2E2E2E2E2E2E2E2E2E2E2E2E2E2E2E2E2E2E2E2E2E2E2E2E2E2E2E2E2E2E2E2E2E2
310
E2E2E2E2E2E2E2E2E2E2E2E2E2E2E2E2E2E2E2E2E2E2E2E2E2E2E2E2E2E2E2E2E2E2F5F5E2E2E2E2E2E2E2E2E2E2E2E2E2E2E2E2E2E2E2E2E2E2E2E2E2E2E2E2E2E2E2E2E2E2E2E2E2E2E2E2E2E2E2E2E2E2E2E2E2E2E2E2E2E2E2E2E2E2E2E2E2E2E2E2E2E2E2E2E2E2E2E2E2E2E2E2E2E2E2E2E2E2E2E2E2E2E2E2E2E2E2
310
E2E2E2E2E2E2E2E2E2E2E2E2E2E2E2E2E2E2E2E2E2E2E2E2E2E2E2E2E2E2E2E2E2E2E2E2E2E2E2E2E2E2E2E2E2E2E2E2E2E2E2E2E2E2E2E2E2E2E2E2E2E2E2E2E2E2E2E2E2E2E2E2E2E2E2E2E2E2E2E2E2E2E2E2E2E2E2F5F5E2E2E2E2E2E2E2E2E2E2E2E2E2E2E2E2E2E2E2E2E2E2E2E2E2E2E2E2E2E2E2E2E2E2E2E2E2E2
310
E2E2E2E2E2E2E2E2E2E2E2E2E2E2E2E2E2E2E2E2E2E2E2E2E2E2E2E2E2E2E2E2E2E2E2E2E2E2E2E2E2E2E2E2E2E2E2E2E2E2E2E2E2E2E2E2E2E2E2E2E2E2E2E2E2E2E2E2E2E2E2E2E2E2E2E2E2E2E2E2E2E2E2E2E2E2E2E2E2E2E2E2E2E2E2E2E2E2E2E2E2E2E2E2E2E2E2E2E2E2E2E2E2E2E2E2E2E2E2E2E2E2E2E2E2E2E2
310
E2E2E2E2E2E2E2E2E2E2E2E2E2F5F5E2E2E2F5E2E2E2E2E2E2E2E2E2E2E2E2E2E2E2E2E2E2E2E2E2E2E2E2E2E2E2E2E2E2E2E2E2E2E2E2E2E2E2E2E2E2E2E2E2E2E2E2E2E2E2E2E2E2E2E2E2E2E2E2E2E2E2E2E2E2E2E2E2E2E2E2E2E2E2E2E2E2E2E2E2E2E2E2E2E2E2E2E2E2E2E2E2E2E2E2E2E2E2E2E2E2E2E2E2E2E2E2
310
E2E2E2E2E2E2E2E2E2E2E2E2E2E2E2E2E2E2E2E2E2E2E2E2E2E2E2E2E2E2E2E2E2E2E2E2E2E2E2E2E2E2E2E2E2E2E2E2E2E2E2E2E2E2E2E2E2E2E2E2E2E2F5E2E2E2F5F5E2E2E2F5E2E2E2E2E2E2E2E2E2E2E2E2E2E2E2E2E2E2E2E2E2E2E2E2E2E2E2E2E2E2E2E2E2E2E2E2E2E2E2E2E2E2E2E2E2E2E2E2E2E2E2E2E2E2E2
310
E2E2E2E2E2E2E2E2E2E2E2E2E2E2E2E2E2E2E2E2E2E2E2E2E2E2E2E2E2E2E2E2E2E2E2E2E2E2E2E2E2E2E2E2E2E2E2E2E2E2E2E2E2E2E2E2E2E2E2E2E2E2E2E2E2E2E2E2E2E2E2E2E2E2E2E2E2E2E2E2E2E2E2E2E2E2E2E2E2E2E2E2E2E2E2E2E2E2E2E2E2E2E2E2E2E2E2E2E2E2E2E2E2E2E2F5E2E2E2F5F5E2E2E2F5E2E2
310
E2E2E2E2E2E2E2E2E2E2E2E2E2E2E2E2E2E2E2E2E2E2E2E2E2E2E2E2E2E2E2E2E2E2E2E2E2E2E2E2E2E2E2E2E2E2E2E2E2E2E2E2E2E2E2E2E2E2E2E2E2E2E2E2E2E2E2E2E2E2E2E2E2E2E2E2E2E2E2E2E2E2E2E2E2E2E2E2E2E2E2E2E2E2E2E2E2E2E2E2E2E2E2E2E2E2E2E2E2E2E2E2E2E2E2E2E2E2E2E2E2E2E2E2E2E2E2
310
E2E2E2E2E2E2E2E2E2E2E2E2E2E2E2E2E2E2E2E2E2E2E2E2E2E2E2E2E2E2E2E2E2E2E2E2E2E2E2E2E2F5E2E2E2F5F5E2E2E2F5E2E2E2E2E2E2E2E2E2E2E2E2E2E2E2E2E2E2E2E2E2E2E2E2E2E2E2E2E2E2E2E2E2E2E2E2E2E2E2E2E2E2E2E2E2E2E2E2E2E2E2E2E2E2E2E2E2E2E2E2E2E2E2E2E2E2E2E2E2E2E2E2E2E2E2E2
310
E2E2E2E2E2E2E2E2E2E2E2E2E2E2E2E2E2E2E2E2E2E2E2E2E2E2E2E2E2E2E2E2E2E2E2E2E2E2E2E2E2E2E2E2E2E2E2E2E2E2E2E2E2E2E2E2E2E2E2E2E2E2E2E2E2E2E2E2E2E2E2E2E2E2E2E2E2E2E2E2E2E2E2E2E2E2E2E2E2E2E2E2E2E2F5E2E2E2F5F5E2E2E2F5E2E2E2E2E2E2E2E2E2E2E2E2E2E2E2E2E2E2E2E2E2E2E2
310
E2E2E2E2E2E2E2E2E2E2E2E2E2E2E2E2E2E2E2E2E2E2E2E2E2E2E2E2E2E2E2E2E2E2E2E2E2E2E2E2E2E2E2E2E2E2E2E2E2E2E2E2E2E2E2E2E2E2E2E2E2E2E2E2E2E2E2E2E2E2E2E2E2E2E2E2E2E2E2E2E2E2E2E2E2E2E2E2E2E2E2E2E2E2E2E2E2E2E2E2E2E2E2E2E2E2E2E2E2E2E2E2E2E2E2E2E2E2E2E2E2E2E2E2E2E2E2
310
E2E2E2E2E2E2E2E2E2E2E2E2E2E2E2E2E2E2E2E2F5E2E2E2F5F5E2E2E2F5E2E2E2E2E2E2E2E2E2E2E2E2E2E2E2E2E2E2E2E2E2E2E2E2E2E2E2E2E2E2E2E2E2E2E2E2E2E2E2E2E2E2E2E2E2E2E2E2E2E2E2E2E2E2E2E2E2E2E2E2E2E2E2E2E2E2E2E2E2E2E2E2E2E2E2E2E2E2E2E2E2E2E2E2E2E2E2E2E2E2E2E2E2E2E2E2E2
310
E2E2E2E2E2E2E2E2E2E2E2E2E2E2E2E2E2E2E2E2E2E2E2E2E2E2E2E2E2E2E2E2E2E2E2E2E2E2E2E2E2E2E2E2E2E2E2E2E2E2E2E2E2E2E2E2E2E2E2E2E2E2E2E2E2E2E2E2E2E2E2E2E2F5E2E2E2F5F5E2E2E2F5E2E2E2E2E2E2E2E2E2E2E2E2E2E2E2E2E2E2E2E2E2E2E2E2E2E2E2E2E2E2E2E2E2E2E2E2E2E2E2E2E2E2E2E2
310
E2E2E2E2E2E2E2E2E2E2E2E2E2E2E2E2E2E2E2E2E2E2E2E2E2E2E2E2E2E2E2E2E2E2E2E2E2E2E2E2E2E2E2E2E2E2E2E2E2E2E2E2E2E2E2E2E2E2E2E2E2E2E2E2E2E2E2E2E2E2E2E2E2E2E2E2E2E2E2E2E2E2E2E2E2E2E2E2E2E2E2E2E2E2E2E2E2E2E2E2E2E2E2E2E2E2E2E2E2E2E2E2E2E2E2E2E2E2E2E2E2E2E2E2E2E2F5
310
E2E2E2F5F5E2E2E2F5E2E2E2E2E2E2E2E2E2E2E2E2E2E2E2E2E2E2E2E2E2E2E2E2E2E2E2E2E2E2E2E2E2E2E2E2E2E2E2E2E2E2E2E2E2E2E2E2E2E2E2E2E2E2E2E2E2E2E2E2E2E2E2E2E2E2E2E2E2E2E2E2E2E2E2E2E2E2E2E2E2E2E2E2E2E2E2E2E2E2E2E2E2E2E2E2E2E2E2E2E2E2E2E2E2E2E2E2E2E2E2E2E2E2E2E2E2E2
310
E2E2E2E2E2E2E2E2E2E2E2E2E2E2E2E2E2E2E2E2E2E2E2E2E2E2E2E2E2E2E2E2E2E2E2E2E2E2E2E2E2E2E2E2E2E2E2E2E2E2E2E2F5E2E2E2F5F5E2E2E2F5E2E2E2E2E2E2E2E2E2E2E2E2E2E2E2E2E2E2E2E2E2E2E2E2E2E2E2E2E2E2E2E2E2E2E2E2E2E2E2E2E2E2E2E2E2E2E2E2E2E2E2E2E2E2E2E2E2E2E2E2E2E2E2E2E2
310
E2E2E2E2E2E2E2E2E2E2E2E2E2E2E2E2E2E2E2E2E2E2E2E2E2E2E2E2E2E2E2E2E2E2E2E2E2E2E2E2E2E2E2E2E2E2E2E2E2E2E2E2E2E2E2E2E2E2E2E2E2E2E2E2E2E2E2E2E2E2E2E2E2E2E2E2E2E2E2E2E2E2E2E2E2E2E2E2E2E2E2E2E2E2E2E2E2E2E2E2E2E2E2E2E2F5E2E2E2F5F5E2E2E2F5E2E2E2E2E2E2E2E2E2E2E2E2
310
E2E2E2E2E2E2E2E2E2E2E2E2E2E2E2E2E2E2E2E2E2E2E2E2E2E2E2E2E2E2E2E2E2E2E2E2E2E2E2E2E2E2E2E2E2E2E2E2E2E2E2E2E2E2E2E2E2E2E2E2E2E2E2E2E2E2E2E2E2E2E2E2E2E2E2E2E2E2E2E2E2E2E2E2E2E2E2E2E2E2E2E2E2E2E2E2E2E2E2E2E2E2E2E2E2E2E2E2E2E2E2E2E2E2E2E2E2E2E2E2E2E2E2E2E2E2E2
310
E2E2E2E2E2E2E2E2E2E2E2E2E2E2E2E2E2E2E2E2E2E2E2E2E2E2E2E2E2E2E2F5E2E2E2F5F5E2E2E2F5E2E2E2E2E2E2E2E2E2E2E2E2E2E2E2E2E2E2E2E2E2E2E2E2E2E2E2E2E2E2E2E2E2E2E2E2E2E2E2E2E2E2E2E2E2E2E2E2E2E2E2E2E2E2E2E2E2E2E2E2E2E2E2E2E2E2E2E2E2E2E2E2E2E2E2E2E2E2E2E2E2E2E2E2E2E2
310
E2E2E2E2E2E2E2E2E2E2E2E2E2E2E2E2E2E2E2E2E2E2E2E2E2E2E2E2E2E2E2E2E2E2E2E2E2E2E2E2E2E2E2E2E2E2E2E2E2E2E2E2E2E2E2E2E2E2E2E2E2E2E2E2E2E2E2E2E2E2E2E2E2E2E2E2E2E2E2E2E2E2E2E2F5E2E2E2F5F5E2E2E2F5E2E2E2E2E2E2E2E2E2E2E2E2E2E2E2E2E2E2E2E2E2E2E2E2E2E2E2E2E2E2E2E2E2
310
E2E2E2E2E2E2E2E2E2E2E2E2E2E2E2E2E2E2E2E2E2E2E2E2E2E2E2E2E2E2E2E2E2E2E2E2E2E2E2E2E2E2E2E2E2E2E2E2E2E2E2E2E2E2E2E2E2E2E2E2E2E2E2E2E2E2E2E2E2E2E2E2E2E2E2E2E2E2E2E2E2E2E2E2E2E2E2E2E2E2E2E2E2E2E2E2E2E2E2E2E2E2E2E2E2E2E2E2E2E2E2E2E2E2E2E2E2E2E2E2E2E2E2E2E2E2E2
310
E2E2E2E2E2E2E2E2E2E2F5E2E2E2F5F5E2E2E2F5E2E2E2E2E2E2E2E2E2E2E2E2E2E2E2E2E2E2E2E2E2E2E2E2E2E2E2E2E2E2E2E2E2E2E2E2E2E2E2E2E2E2E2E2E2E2E2E2E2E2E2E2E2E2E2E2E2E2E2E2E2E2E2E2E2E2E2E2E2E2E2E2E2E2E2E2E2E2E2E2E2E2E2E2E2E2E2E2E2E2E2E2E2E2E2E2E2E2E2E2E2E2E2E2E2E2E2
310
E2E2E2E2E2E2E2E2E2E2E2E2E2E2E2E2E2E2E2E2E2E2E2E2E2E2E2E2E2E2E2E2E2E2E2E2E2E2E2E2E2E2E2E2E2E2E2E2E2E2E2E2E2E2E2E2E2E2E2E2E2E2E2F5E2E2E2F5F5E2E2E2F5E2E2E2E2E2E2E2E2E2E2E2E2E2E2E2E2E2E2E2E2E2E2E2E2E2E2E2E2E2E2E2E2E2E2E2E2E2E2E2E2E2E2E2E2E2E2E2E2E2E2E2E2E2E2
310
E2E2E2E2E2E2E2E2E2E2E2E2E2E2E2E2E2E2E2E2E2E2E2E2E2E2E2E2E2E2E2E2E2E2E2E2E2E2E2E2E2E2E2E2E2E2E2E2E2E2E2E2E2E2E2E2E2E2E2E2E2E2E2E2E2E2E2E2E2E2E2E2E2E2E2E2E2E2E2E2E2E2E2E2E2E2E2E2E2E2E2E2E2E2E2E2E2E2E2E2E2E2E2E2E2E2E2E2E2E2E2E2E2E2E2E2F5E2E2E2F5F5E2E2E2F5E2
310
E2E2E2E2E2E2E2E2E2E2E2E2E2E2E2E2E2E2E2E2E2E2E2E2E2E2E2E2E2E2E2E2E2E2E2E2E2E2E2E2E2E2E2E2E2E2E2E2E2E2E2E2E2E2E2E2E2E2E2E2E2E2E2E2E2E2E2E2E2E2E2E2E2E2E2E2E2E2E2E2E2E2E2E2E2E2E2E2E2E2E2E2E2E2E2E2E2E2E2E2E2E2E2E2E2E2E2E2E2E2E2E2E2E2E2E2E2E2E2E2E2E2E2E2E2E2E2
310
E2E2E2E2E2E2E2E2E2E2E2E2E2E2E2E2E2E2E2E2E2E2E2E2E2E2E2E2E2E2E2E2E2E2E2E2E2E2E2E2E2E2F5E2E2E2F5F5E2E2E2F5E2E2E2E2E2E2E2E2E2E2E2E2E2E2E2E2E2E2E2E2E2E2E2E2E2E2E2E2E2E2E2E2E2E2E2E2E2E2E2E2E2E2E2E2E2E2E2E2E2E2E2E2E2E2E2E2E2E2E2E2E2E2E2E2E2E2E2E2E2E2E2E2E2E2E2
310
E2E2E2E2E2E2E2E2E2E2E2E2E2E2E2E2E2E2E2E2E2E2E2E2E2E2E2E2E2E2E2E2E2E2E2E2E2E2E2E2E2E2E2E2E2E2E2E2E2E2E2E2E2E2E2E2E2E2E2E2E2E2E2E2E2E2E2E2E2E2E2E2E2E2E2E2E2E2E2E2E2E2E2E2E2E2E2E2E2E2E2E2E2E2E2F5E2E2E2F5F5E2E2E2F5E2E2E2E2E2E2E2E2E2E2E2E2E2E2E2E2E2E2E2E2E2E2
310
E2E2E2E2E2E2E2E2E2E2E2E2E2E2E2E2E2E2E2E2E2E2E2E2E2E2E2E2E2E2E2E2E2E2E2E2E2E2E2E2E2E2E2E2E2E2E2E2E2E2E2E2E2E2E2E2E2E2E2E2E2E2E2E2E2E2E2E2E2E2E2E2E2E2E2E2E2E2E2E2E2E2E2E2E2E2E2E2E2E2E2E2E2E2E2E2E2E2E2E2E2E2E2E2E2E2E2E2E2E2E2E2E2E2E2E2E2E2E2E2E2E2E2E2E2E2E2
310
E2E2E2E2E2E2E2E2E2E2E2E2E2E2E2E2E2E2E2E2E2F5E2E2E2F5F5E2E2E2E2E2E2E2E2E2E2E2E2E2E2E2E2E2E2E2E2E2E2E2E2E2E2E2E2E2E2E2E2E2E2E2E2E2E2E2E2E2E2E2E2E2E2E2E2E2E2E2E2E2E2E2E2E2E2E2E2E2E2E2E2E2E2E2E2E2E2E2E2E2E2E2E2E2E2E2E2E2E2E2E2E2E2E2E2E2E2E2E2E2E2E2E2E2E2E2E2
310
E2E2E2E2E2E2E2E2E2E2E2E2E2E2E2E2E2E2E2E2E2E2E2E2E2E2E2E2E2E2E2E2E2E2E2E2E2E2E2E2E2E2E2E2E2E2E2E2E2E2E2E2E2E2E2E2E2E2E2E2E2E2E2E2E2E2E2E2E2E2E2E2E2E2E2E2E2E2F5F5E2E2E2E2E2E2E2E2E2E2E2E2E2E2E2E2E2E2E2E2E2E2E2E2E2E2E2E2E2E2E2E2E2E2E2E2E2E2E2E2E2E2E2E2E2E2E2
310
E2E2E2E2E2E2E2E2E2E2E2E2E2E2E2E2E2E2E2E2E2E2E2E2E2E2E2E2E2E2E2E2E2E2E2E2E2E2E2E2E2E2E2E2E2E2E2E2E2E2E2E2E2E2E2E2E2E2E2E2E2E2E2E2E2E2E2E2E2E2E2E2E2E2E2E2E2E2E2E2E2E2E2E2E2E2E2E2E2E2E2E2E2E2E2E2E2E2E2E2E2E2E2E2E2E2E2E2E2E2E2E2E2E2E2E2E2E2E2E2E2E2E2E2E2E2E2
310
E2E2E2E2F5F5E2E2E2E2E2E2E2E2E2E2E2E2E2E2E2E2E2E2E2E2E2E2E2E2E2E2E2E2E2E2E2E2E2E2E2E2E2E2E2E2E2E2E2E2E2E2E2E2E2E2E2E2E2E2E2E2E2E2E2E2E2E2E2E2E2E2E2E2E2E2E2E2E2E2E2E2E2E2E2E2E2E2E2E2E2E2E2E2E2E2E2E2E2E2E2E2E2E2E2E2E2E2E2E2E2E2E2E2E2E2E2E2E2E2E2E2E2E2E2E2E2
310
E2E2E2E2E2E2E2E2E2E2E2E2E2E2E2E2E2E2E2E2E2E2E2E2E2E2E2E2E2E2E2E2E2E2E2E2E2E2E2E2E2E2E2E2E2E2E2E2E2E2E2E2E2E2E2E2E2F5F5E2E2E2E2E2E2E2E2E2E2E2E2E2E2E2E2E2E2E2E2E2E2E2E2E2E2E2E2E2E2E2E2E2E2E2E2E2E2E2E2E2E2E2E2E2E2E2E2E2E2E2E2E2E2E2E2E2E2E2E2E2E2E2E2E2E2E2E2
310
E2E2E2E2E2E2E2E2E2E2E2E2E2E2E2E2E2E2E2E2E2E2E2E2E2E2E2E2E2E2E2E2E2E2E2E2E2E2E2E2E2E2E2E2E2E2E2E2E2E2E2E2E2E2E2E2E2E2E2E2E2E2E2E2E2E2E2E2E2E2E2E2E2E2E2E2E2E2E2E2E2E2E2E2E2E2E2E2E2E2E2E2E2E2E2E2E2E2E2E2E2E2E2E2E2E2E2E2E2E2F5F5E2E2E2E2E2E2E2E2E2E2E2E2E2E2E2
310
E2E2E2E2E2E2E2E2E2E2E2E2E2E2E2E2E2E2E2E2E2E2E2E2E2E2E2E2E2E2E2E2E2E2E2E2E2E2E2E2E2E2E2E2E2E2E2E2E2E2E2E2E2E2E2E2E2E2E2E2E2E2E2E2E2E2E2E2E2E2E2E2E2E2E2E2E2E2E2E2E2E2E2E2E2E2E2E2E2E2E2E2E2E2E2E2E2E2E2E2E2E2E2E2E2E2E2E2E2E2E2E2E2E2E2E2E2E2E2E2E2E2E2E2E2E2E2
310
E2E2E2E2E2E2E2E2E2E2E2E2E2E2E2E2E2E2E2E2E2E2E2E2E2E2E2E2E2E2E2E2E2E2E2E2F5F5E2E2E2E2E2E2E2E2E2E2E2E2E2E2E2E2E2E2E2E2E2E2E2E2E2E2E2E2E2E2E2E2E2E2E2E2E2E2E2E2E2E2E2E2E2E2E2E2E2E2E2E2E2E2E2E2E2E2E2E2E2E2E2E2E2E2E2E2E2E2E2E2E2E2E2E2E2E2E2E2E2E2E2E2E2E2E2E2E2
310
E2E2E2E2E2E2E2E2E2E2E2E2E2E2E2E2E2E2E2E2E2E2E2E2E2E2E2E2E2E2E2E2E2E2E2E2E2E2E2E2E2E2E2E2E2E2E2E2E2E2E2E2E2E2E2E2E2E2E2E2E2E2E2E2E2E2E2E2E2E2E2E2E2E2E2E2E2E2E2E2E2E2E2E2E2E2E2E2E2F5F5E2E2E2E2E2E2E2E2E2E2E2E2E2E2E2E2E2E2E2E2E2E2E2E2E2E2E2E2E2E2E2E2E2E2E2E2
310
E2E2E2E2E2E2E2E2E2E2E2E2E2E2E2E2E2E2E2E2E2E2E2E2E2E2E2E2E2E2E2E2E2E2E2E2E2E2E2E2E2E2E2E2E2E2E2E2E2E2E2E2E2E2E2E2E2E2E2E2E2E2E2E2E2E2E2E2E2E2E2E2E2E2E2E2E2E2E2E2E2E2E2E2E2E2E2E2E2E2E2E2E2E2E2E2E2E2E2E2E2E2E2E2E2E2E2E2E2E2E2E2E2E2E2E2E2E2E2E2E2E2E2E2E2E2E2
310
E2E2E2E2E2E2E2E2E2E2E2E2E2E2E2F5F5E2E2E2E2E2E2E2E2E2E2E2E2E2E2E2E2E2E2E2E2E2E2E2E2E2E2E2E2E2E2E2E2E2E2E2E2E2E2E2E2E2E2E2E2E2E2E2E2E2E2E2E2E2E2E2E2E2E2E2E2E2E2E2E2E2E2E2E2E2E2E2E2E2E2E2E2E2E2E2E2E2E2E2E2E2E2E2E2E2E2E2E2E2E2E2E2E2E2E2E2E2E2E2E2E2E2E2E2E2E2
310
E2E2E2E2E2E2E2E2E2E2E2E2E2E2E2E2E2E2E2E2E2E2E2E2E2E2E2E2E2E2E2E2E2E2E2E2E2E2E2E2E2E2E2E2E2E2E2E2E2E2E2E2E2E2E2E2E2E2E2E2E2E2E2E2E2E2E2E2F5F5E2E2E2E2E2E2E2E2E2E2E2E2E2E2E2E2E2E2E2E2E2E2E2E2E2E2E2E2E2E2E2E2E2E2E2E2E2E2E2E2E2E2E2E2E2E2E2E2E2E2E2E2E2E2E2E2E2
310
E2E2E2E2E2E2E2E2E2E2E2E2E2E2E2E2E2E2E2E2E2E2E2E2E2E2E2E2E2E2E2E2E2E2E2E2E2E2E2E2E2E2E2E2E2E2E2E2E2E2E2E2E2E2E2E2E2E2E2E2E2E2E2E2E2E2E2E2E2E2E2E2E2E2E2E2E2E2E2E2E2E2E2E2E2E2E2E2E2E2E2E2E2E2E2E2E2E2E2E2E2E2E2E2E2E2E2E2E2E2E2E2E2E2E2E2E2E2E2E2E2F5F5E2E2E2F5
310
E2E2E2E2E2E2E2E2E2E2E2E2E2E2E2E2E2E2E2E2E2E2E2E2E2E2E2E2E2E2E2E2E2E2E2E2E2E2E2E2E2E2E2E2E2E2E2E2E2E2E2E2E2E2E2E2E2E2E2E2E2E2E2E2E2E2E2E2E2E2E2E2E2E2E2E2E2E2E2E2E2E2E2E2E2E2E2E2E2E2E2E2E2E2E2E2E2E2E2E2E2E2E2E2E2E2E2E2E2E2E2E2E2E2E2E2E2E2E2E2E2E2E2E2E2E2E2
310
E2E2E2E2E2E2E2E2E2E2E2E2E2E2E2E2E2E2E2E2E2E2E2E2E2E2E2E2E2E2E2E2E2E2E2E2E2E2E2E2E2E2E2F5E2E2E2F5F5E2E2E2F5E2E2E2E2E2E2E2E2E2E2E2E2E2E2E2E2E2E2E2E2E2E2E2E2E2E2E2E2E2E2E2E2E2E2E2E2E2E2E2E2E2E2E2E2E2E2E2E2E2E2E2E2E2E2E2E2E2E2E2E2E2E2E2E2E2E2E2E2E2E2E2E2E2E2
310
E2E2E2E2E2E2E2E2E2E2E2E2E2E2E2E2E2E2E2E2E2E2E2E2E2E2E2E2E2E2E2E2E2E2E2E2E2E2E2E2E2E2E2E2E2E2E2E2E2E2E2E2E2E2E2E2E2E2E2E2E2E2E2E2E2E2E2E2E2E2E2E2E2E2E2E2E2E2E2E2E2E2E2E2E2E2E2E2E2E2E2E2E2E2E2E2F5E2E2E2F5F5E2E2E2F5E2E2E2E2E2E2E2E2E2E2E2E2E2E2E2E2E2E2E2E2E2
310
E2E2E2E2E2E2E2E2E2E2E2E2E2E2E2E2E2E2E2E2E2E2E2E2E2E2E2E2E2E2E2E2E2E2E2E2E2E2E2E2E2E2E2E2E2E2E2E2E2E2E2E2E2E2E2E2E2E2E2E2E2E2E2E2E2E2E2E2E2E2E2E2E2E2E2E2E2E2E2E2E2E2E2E2E2E2E2E2E2E2E2E2E2E2E2E2E2E2E2E2E2E2E2E2E2E2E2E2E2E2E2E2E2E2E2E2E2E2E2E2E2E2E2E2E2E2E2
310
E2E2E2E2E2E2E2E2E2E2E2E2E2E2E2E2E2E2E2E2E2E2F5E2E2E2F5F5E2E2E2F5E2E2E2E2E2E2E2E2E2E2E2E2E2E2E2E2E2E2E2E2E2E2E2E2E2E2E2E2E2E2E2E2E2E2E2E2E2E2E2E2E2E2E2E2E2E2E2E2E2E2E2E2E2E2E2E2E2E2E2E2E2E2E2E2E2E2E2E2E2E2E2E2E2E2E2E2E2E2E2E2E2E2E2E2E2E2E2E2E2E2E2E2E2E2E2
310
E2E2E2E2E2E2E2E2E2E2E2E2E2E2E2E2E2E2E2E2E2E2E2E2E2E2E2E2E2E2E2E2E2E2E2E2E2E2E2E2E2E2E2E2E2E2E2E2E2E2E2E2E2E2E2E2E2E2E2E2E2E2E2E2E2E2E2E2E2E2E2E2E2E2E2F5E2E2E2F5F5E2E2E2F5E2E2E2E2E2E2E2E2E2E2E2E2E2E2E2E2E2E2E2E2E2E2E2E2E2E2E2E2E2E2E2E2E2E2E2E2E2E2E2E2E2E2
310
E2E2E2E2E2E2E2E2E2E2E2E2E2E2E2E2E2E2E2E2E2E2E2E2E2E2E2E2E2E2E2E2E2E2E2E2E2E2E2E2E2E2E2E2E2E2E2E2E2E2E2E2E2E2E2E2E2E2E2E2E2E2E2E2E2E2E2E2E2E2E2E2E2E2E2E2E2E2E2E2E2E2E2E2E2E2E2E2E2E2E2E2E2E2E2E2E2E2E2E2E2E2E2E2E2E2E2E2E2E2E2E2E2E2E2E2E2E2E2E2E2E2E2E2E2E2E2
310
E2F5E2E2E2F5F5E2E2E2F5E2E2E2E2E2E2E2E2E2E2E2E2E2E2E2E2E2E2E2E2E2E2E2E2E2E2E2E2E2E2E2E2E2E2E2E2E2E2E2E2E2E2E2E2E2E2E2E2E2E2E2E2E2E2E2E2E2E2E2E2E2E2E2E2E2E2E2E2E2E2E2E2E2E2E2E2E2E2E2E2E2E2E2E2E2E2E2E2E2E2E2E2E2E2E2E2E2E2E2E2E2E2E2E2E2E2E2E2E2E2E2E2E2E2E2E2
310
E2E2E2E2E2E2E2E2E2E2E2E2E2E2E2E2E2E2E2E2E2E2E2E2E2E2E2E2E2E2E2E2E2E2E2E2E2E2E2E2E2E2E2E2E2E2E2E2E2E2E2E2E2E2F5E2E2E2F5F5E2E2E2F5E2E2E2E2E2E2E2E2E2E2E2E2E2E2E2E2E2E2E2E2E2E2E2E2E2E2E2E2E2E2E2E2E2E2E2E2E2E2E2E2E2E2E2E2E2E2E2E2E2E2E2E2E2E2E2E2E2E2E2E2E2E2E2
310
E2E2E2E2E2E2E2E2E2E2E2E2E2E2E2E2E2E2E2E2E2E2E2E2E2E2E2E2E2E2E2E2E2E2E2E2E2E2E2E2E2E2E2E2E2E2E2E2E2E2E2E2E2E2E2E2E2E2E2E2E2E2E2E2E2E2E2E2E2E2E2E2E2E2E2E2E2E2E2E2E2E2E2E2E2E2E2E2E2E2E2E2E2E2E2E2E2E2E2E2E2E2E2E2E2E2E2F5E2E2E2F5F5E2E2E2F5E2E2E2E2E2E2E2E2E2E2
310
E2E2E2E2E2E2E2E2E2E2E2E2E2E2E2E2E2E2E2E2E2E2E2E2E2E2E2E2E2E2E2E2E2E2E2E2E2E2E2E2E2E2E2E2E2E2E2E2E2E2E2E2E2E2E2E2E2E2E2E2E2E2E2E2E2E2E2E2E2E2E2E2E2E2E2E2E2E2E2E2E2E2E2E2E2E2E2E2E2E2E2E2E2E2E2E2E2E2E2E2E2E2E2E2E2E2E2E2E2E2E2E2E2E2E2E2E2E2E2E2E2E2E2E2E2E2E2
310
E2E2E2E2E2E2E2E2E2E2E2E2E2E2E2E2E2E2E2E2E2E2E2E2E2E2E2E2E2E2E2E2E2F5E2E2E2F5F5E2E2E2F5F5F5F5F5F5F5F5E2E2E2E2E2E2E2E2E2F5F5F5F5F5F5F5F5F5F5F5F5F5F5F5F5E2E2E2E2E2E2E2E2E2F5F5F5F5F5F5F5F5F5F5F5F5F5F5F5E2E2E2E2E2E2E2E2E2F5F5F5F5F5F5F5F5F5F5F5F5F5F5F5F5E2E2E2
310
E2E2E2E2E2F5F5F5F5F5F5F5F5F5F5F5F5F5F5F5F5E2E2E2E2E2E2E2E2E2F5F5F5F5F5F5F5F5F5F5F5F5F5F5F5E2E2E2E2E2E2E2E2E2F5F5F5F5F5F5F5F5F5F5F5F5F5F5F5F5E2E2E2E2E2E2E2E2E2F5F5F5F5F5F5F5F5E2E2E2F5F5E2E2E2E2E2E2E2E2E2E2E2E2E2E2E2E2E2E2E2E2E2E2E2E2E2E2E2E2E2E2E2E2E2E2E2
310
E2E2E2E2E2E2E2E2E2E2E2E2E2E2E2E2E2E2E2E2E2E2E2E2E2E2E2E2E2E2E2E2E2E2E2E2E2E2E2E2E2E2E2E2E2E2E2E2E2E2E2E2E2E2E2E2E2E2E2E2E2E2E2E2E2E2E2E2E2E2E2E2E2E2E2E2E2E2E2E2E2E2E2E2E2E2E2E2E2E2E2E2E2E2E2E2E2E2E2E2E2E2E2E2E2E2E2E2E2E2E2E2E2E2E2E2E2E2E2E2E2E2E2E2E2E2E2
310
E2E2E2E2E2E2E2E2E2E2E2E2E2E2E2E2F5F5E2E2E2E2E2E2E2E2E2E2E2E2E2E2E2E2E2E2E2E2E2E2E2E2E2E2E2E2E2E2E2E2E2E2E2E2E2E2E2E2E2E2E2E2E2E2E2E2E2E2E2E2E2E2E2E2E2E2E2E2E2E2E2E2E2E2E2E2E2E2E2E2E2E2E2E2E2E2E2E2E2E2E2E2E2E2E2E2E2E2E2E2E2E2E2E2E2E2E2E2E2E2E2E2E2E2E2E2E2
310
E2E2E2E2E2E2E2E2E2E2E2E2E2E2E2E2E2E2E2E2E2E2E2E2E2E2E2E2E2E2E2E2E2E2E2E2E2E2E2E2E2E2E2E2E2E2E2E2E2E2E2E2E2E2E2E2E2E2E2E2E2E2E2E2E2E2E2E2E2F5F5E2E2E2E2E2E2E2E2E2E2E2E2E2E2E2E2E2E2E2E2E2E2E2E2E2E2E2E2E2E2E2E2E2E2E2E2E2E2E2E2E2E2E2E2E2E2E2E2E2E2E2E2E2E2E2E2
310
E2E2E2E2E2E2E2E2E2E2E2E2E2E2E2E2E2E2E2E2E2E2E2E2E2E2E2E2E2E2E2E2E2E2E2E2E2E2E2E2E2E2E2E2E2E2E2E2E2E2E2E2E2E2E2E2E2E2E2E2E2E2E2E2E2E2E2E2E2E2E2E2E2E2E2E2E2E2E2E2E2E2E2E2E2E2E2E2E2E2E2E2E2E2E2E2E2E2E2E2E2E2E2E2E2E2E2E2E2E2E2E2E2E2E2E2E2E2E2E2E2E2F5F5E2E2E2
310
E2E2E2E2E2E2E2E2E2E2E2E2E2E2E2E2E2E2E2E2E2E2E2E2E2E2E2E2E2E2E2E2E2E2E2E2E2E2E2E2E2E2E2E2E2E2E2E2E2E2E2E2E2E2E2E2E2E2E2E2E2E2E2E2E2E2E2E2E2E2E2E2E2E2E2E2E2E2E2E2E2E2E2E2E2E2E2E2E2E2E2E2E2E2E2E2E2E2E2E2E2E2E2E2E2E2E2E2E2E2E2E2E2E2E2E2E2E2E2E2E2E2E2E2E2E2E2
310
E2E2E2E2E2E2E2E2E2E2E2E2E2E2E2E2E2E2E2E2E2E2E2E2E2E2E2E2E2E2E2E2E2E2E2E2E2E2E2E2E2E2E2E2E2E2E2E2F5
  0
XRECORD
  5
4139
102
{ACAD_REACTORS
330
4138
102
}
330
4138
100
AcDbXrecord
280
     1
102
MATERIAL
148
0.0
149
0.0
149
0.0
 93
        0
 94
       63
282
     0
 72
     1
 77
     1
171
     1
175
     1
179
     1
273
     0
  0
XRECORD
  5
413B
102
{ACAD_REACTORS
330
413A
102
}
330
413A
100
AcDbXrecord
280
     1
102
MATERIAL
148
0.0
149
0.0
149
0.0
 93
        0
 94
       63
282
     0
 72
     1
 77
     1
171
     1
175
     1
179
     1
273
     0
  0
XRECORD
  5
413D
102
{ACAD_REACTORS
330
413C
102
}
330
413C
100
AcDbXrecord
280
     1
102
MATERIAL
148
0.0
149
0.0
149
0.0
 93
        0
 94
       63
282
     0
 72
     1
 77
     1
171
     1
175
     1
179
     1
273
     0
  0
CELLSTYLEMAP
  5
4137
102
{ACAD_REACTORS
330
4CB
102
}
330
4CB
100
AcDbCellStyleMap
 90
        3
300
CELLSTYLE
  1
TABLEFORMAT_BEGIN
 90
        5
170
     1
 91
        0
 92
    32768
 62
   257
 93
        1
300
CONTENTFORMAT
  1
CONTENTFORMAT_BEGIN
 90
        0
 91
        0
 92
      512
 93
        0
300

 40
0.0
140
1.0
 94
        5
 62
     0
340
12
144
0.25
309
CONTENTFORMAT_END
171
     0
 94
        0
309
TABLEFORMAT_END
  1
CELLSTYLE_BEGIN
 90
        1
 91
        1
300
_TITLE
309
CELLSTYLE_END
300
CELLSTYLE
  1
TABLEFORMAT_BEGIN
 90
        5
170
     1
 91
        0
 92
        0
 62
   257
 93
        1
300
CONTENTFORMAT
  1
CONTENTFORMAT_BEGIN
 90
        0
 91
        0
 92
      512
 93
        0
300

 40
0.0
140
1.0
 94
        5
 62
     0
340
12
144
0.18
309
CONTENTFORMAT_END
171
     0
 94
        0
309
TABLEFORMAT_END
  1
CELLSTYLE_BEGIN
 90
        2
 91
        1
300
_HEADER
309
CELLSTYLE_END
300
CELLSTYLE
  1
TABLEFORMAT_BEGIN
 90
        5
170
     1
 91
        0
 92
        0
 62
   257
 93
        1
300
CONTENTFORMAT
  1
CONTENTFORMAT_BEGIN
 90
        0
 91
        0
 92
      512
 93
        0
300

 40
0.0
140
1.0
 94
        2
 62
     0
340
12
144
0.18
309
CONTENTFORMAT_END
171
     0
 94
        0
309
TABLEFORMAT_END
  1
CELLSTYLE_BEGIN
 90
        3
 91
        2
300
_DATA
309
CELLSTYLE_END
  0
XRECORD
  5
413E
102
{ACAD_REACTORS
330
4CB
102
}
330
4CB
100
AcDbXrecord
280
     1
102
ACAD_ROUNDTRIP_PRE2007_TABLESTYLE
 90
      512
 91
        0
  1

 92
      512
 93
        0
  2

 94
      512
 95
        0
  3

  0
ENDSEC
  0
EOF
