  0
SECTION
  2
HEADER
  9
$ACADVER
  1
AC1027
  9
$ACADMAINTVER
 70
    55
  9
$DWGCODEPAGE
  3
ANSI_950
  9
$LASTSAVEDBY
  1
Administrator
  9
$REQUIREDVERSIONS
160
                 0
  9
$INSBASE
 10
0.0
 20
0.0
 30
0.0
  9
$EXTMIN
 10
839.7688987630521
 20
79.67769580026834
 30
-0.0015258207003583
  9
$EXTMAX
 10
1294.74887911094
 20
396.5633920776233
 30
0.0000000349246037
  9
$LIMMIN
 10
0.0
 20
0.0
  9
$LIMMAX
 10
558.8
 20
431.7999999999999
  9
$ORTHOMODE
 70
     0
  9
$REGENMODE
 70
     1
  9
$FILLMODE
 70
     1
  9
$QTEXTMODE
 70
     0
  9
$MIRRTEXT
 70
     1
  9
$LTSCALE
 40
2.0
  9
$ATTMODE
 70
     1
  9
$TEXTSIZE
 40
9.877777777777776
  9
$TRACEWID
 40
1.0
  9
$TEXTSTYLE
  7
STANDARD
  9
$CLAYER
  8
0
  9
$CELTYPE
  6
ByLayer
  9
$CECOLOR
 62
   256
  9
$CELTSCALE
 40
1.0
  9
$DISPSILH
 70
     0
  9
$DIMSCALE
 40
1.0
  9
$DIMASZ
 40
4.0
  9
$DIMEXO
 40
1.0
  9
$DIMDLI
 40
3.75
  9
$DIMRND
 40
0.0
  9
$DIMDLE
 40
0.0
  9
$DIMEXE
 40
2.0
  9
$DIMTP
 40
0.0
  9
$DIMTM
 40
0.0
  9
$DIMTXT
 40
7.055555555555555
  9
$DIMCEN
 40
2.5
  9
$DIMTSZ
 40
0.0
  9
$DIMTOL
 70
     0
  9
$DIMLIM
 70
     0
  9
$DIMTIH
 70
     1
  9
$DIMTOH
 70
     1
  9
$DIMSE1
 70
     0
  9
$DIMSE2
 70
     0
  9
$DIMTAD
 70
     0
  9
$DIMZIN
 70
     0
  9
$DIMBLK
  1

  9
$DIMASO
 70
     1
  9
$DIMSHO
 70
     1
  9
$DIMPOST
  1

  9
$DIMAPOST
  1

  9
$DIMALT
 70
     0
  9
$DIMALTD
 70
     3
  9
$DIMALTF
 40
0.0393700787401575
  9
$DIMLFAC
 40
1.0
  9
$DIMTOFL
 70
     1
  9
$DIMTVP
 40
0.0
  9
$DIMTIX
 70
     0
  9
$DIMSOXD
 70
     0
  9
$DIMSAH
 70
     0
  9
$DIMBLK1
  1

  9
$DIMBLK2
  1

  9
$DIMSTYLE
  2
ISO-25
  9
$DIMCLRD
 70
     0
  9
$DIMCLRE
 70
     0
  9
$DIMCLRT
 70
     0
  9
$DIMTFAC
 40
1.0
  9
$DIMGAP
 40
3.048
  9
$DIMJUST
 70
     0
  9
$DIMSD1
 70
     0
  9
$DIMSD2
 70
     0
  9
$DIMTOLJ
 70
     0
  9
$DIMTZIN
 70
     0
  9
$DIMALTZ
 70
     0
  9
$DIMALTTZ
 70
     0
  9
$DIMUPT
 70
     0
  9
$DIMDEC
 70
     1
  9
$DIMTDEC
 70
     1
  9
$DIMALTU
 70
     2
  9
$DIMALTTD
 70
     3
  9
$DIMTXSTY
  7
STANDARD
  9
$DIMAUNIT
 70
     0
  9
$DIMADEC
 70
     0
  9
$DIMALTRND
 40
0.0
  9
$DIMAZIN
 70
     0
  9
$DIMDSEP
 70
    44
  9
$DIMATFIT
 70
     3
  9
$DIMFRAC
 70
     0
  9
$DIMLDRBLK
  1

  9
$DIMLUNIT
 70
     2
  9
$DIMLWD
 70
    -2
  9
$DIMLWE
 70
    -2
  9
$DIMTMOVE
 70
     0
  9
$DIMFXL
 40
1.0
  9
$DIMFXLON
 70
     0
  9
$DIMJOGANG
 40
0.7853981633974483
  9
$DIMTFILL
 70
     0
  9
$DIMTFILLCLR
 70
     0
  9
$DIMARCSYM
 70
     0
  9
$DIMLTYPE
  6

  9
$DIMLTEX1
  6

  9
$DIMLTEX2
  6

  9
$DIMTXTDIRECTION
 70
     0
  9
$LUNITS
 70
     2
  9
$LUPREC
 70
     2
  9
$SKETCHINC
 40
1.0
  9
$FILLETRAD
 40
10.0
  9
$AUNITS
 70
     0
  9
$AUPREC
 70
     0
  9
$MENU
  1
.
  9
$ELEVATION
 40
0.0
  9
$PELEVATION
 40
0.0
  9
$THICKNESS
 40
0.0
  9
$LIMCHECK
 70
     0
  9
$CHAMFERA
 40
0.0
  9
$CHAMFERB
 40
0.0
  9
$CHAMFERC
 40
0.0
  9
$CHAMFERD
 40
0.0
  9
$SKPOLY
 70
     0
  9
$TDCREATE
 40
2458730.573109363
  9
$TDUCREATE
 40
2458730.239776030
  9
$TDUPDATE
 40
2458730.575500845
  9
$TDUUPDATE
 40
2458730.242167511
  9
$TDINDWG
 40
0.0022310185
  9
$TDUSRTIMER
 40
0.0022310185
  9
$USRTIMER
 70
     1
  9
$ANGBASE
 50
0.0
  9
$ANGDIR
 70
     0
  9
$PDMODE
 70
     0
  9
$PDSIZE
 40
-1.0
  9
$PLINEWID
 40
0.0
  9
$SPLFRAME
 70
     0
  9
$SPLINETYPE
 70
     6
  9
$SPLINESEGS
 70
     8
  9
$HANDSEED
  5
549
  9
$SURFTAB1
 70
     6
  9
$SURFTAB2
 70
     6
  9
$SURFTYPE
 70
     6
  9
$SURFU
 70
     6
  9
$SURFV
 70
     6
  9
$UCSBASE
  2

  9
$UCSNAME
  2

  9
$UCSORG
 10
0.0
 20
0.0
 30
0.0
  9
$UCSXDIR
 10
1.0
 20
0.0
 30
0.0
  9
$UCSYDIR
 10
0.0
 20
1.0
 30
0.0
  9
$UCSORTHOREF
  2

  9
$UCSORTHOVIEW
 70
     0
  9
$UCSORGTOP
 10
0.0
 20
0.0
 30
0.0
  9
$UCSORGBOTTOM
 10
0.0
 20
0.0
 30
0.0
  9
$UCSORGLEFT
 10
0.0
 20
0.0
 30
0.0
  9
$UCSORGRIGHT
 10
0.0
 20
0.0
 30
0.0
  9
$UCSORGFRONT
 10
0.0
 20
0.0
 30
0.0
  9
$UCSORGBACK
 10
0.0
 20
0.0
 30
0.0
  9
$PUCSBASE
  2

  9
$PUCSNAME
  2

  9
$PUCSORG
 10
0.0
 20
0.0
 30
0.0
  9
$PUCSXDIR
 10
1.0
 20
0.0
 30
0.0
  9
$PUCSYDIR
 10
0.0
 20
1.0
 30
0.0
  9
$PUCSORTHOREF
  2

  9
$PUCSORTHOVIEW
 70
     0
  9
$PUCSORGTOP
 10
0.0
 20
0.0
 30
0.0
  9
$PUCSORGBOTTOM
 10
0.0
 20
0.0
 30
0.0
  9
$PUCSORGLEFT
 10
0.0
 20
0.0
 30
0.0
  9
$PUCSORGRIGHT
 10
0.0
 20
0.0
 30
0.0
  9
$PUCSORGFRONT
 10
0.0
 20
0.0
 30
0.0
  9
$PUCSORGBACK
 10
0.0
 20
0.0
 30
0.0
  9
$USERI1
 70
     0
  9
$USERI2
 70
     0
  9
$USERI3
 70
     0
  9
$USERI4
 70
     0
  9
$USERI5
 70
     0
  9
$USERR1
 40
0.0
  9
$USERR2
 40
0.0
  9
$USERR3
 40
0.0
  9
$USERR4
 40
0.0
  9
$USERR5
 40
0.0
  9
$WORLDVIEW
 70
     1
  9
$SHADEDGE
 70
     3
  9
$SHADEDIF
 70
    70
  9
$TILEMODE
 70
     1
  9
$MAXACTVP
 70
    64
  9
$PINSBASE
 10
0.0
 20
0.0
 30
0.0
  9
$PLIMCHECK
 70
     0
  9
$PEXTMIN
 10
1.000000000000000E+20
 20
1.000000000000000E+20
 30
1.000000000000000E+20
  9
$PEXTMAX
 10
-1.000000000000000E+20
 20
-1.000000000000000E+20
 30
-1.000000000000000E+20
  9
$PLIMMIN
 10
0.0
 20
0.0
  9
$PLIMMAX
 10
420.0
 20
297.0
  9
$UNITMODE
 70
     0
  9
$VISRETAIN
 70
     1
  9
$PLINEGEN
 70
     0
  9
$PSLTSCALE
 70
     1
  9
$TREEDEPTH
 70
  3020
  9
$CMLSTYLE
  2
Standard
  9
$CMLJUST
 70
     0
  9
$CMLSCALE
 40
20.0
  9
$PROXYGRAPHICS
 70
     1
  9
$MEASUREMENT
 70
     1
  9
$CELWEIGHT
370
    -1
  9
$ENDCAPS
280
     0
  9
$JOINSTYLE
280
     0
  9
$LWDISPLAY
290
     1
  9
$INSUNITS
 70
     4
  9
$HYPERLINKBASE
  1

  9
$STYLESHEET
  1
monochrome.ctb
  9
$XEDIT
290
     1
  9
$CEPSNTYPE
380
     0
  9
$PSTYLEMODE
290
     1
  9
$FINGERPRINTGUID
  2
{3F376869-5723-46B9-AA00-0CE6311DFAF4}
  9
$VERSIONGUID
  2
{8E23B708-DF3E-400F-A06D-89821D5EDF5E}
  9
$EXTNAMES
290
     1
  9
$PSVPSCALE
 40
0.0
  9
$OLESTARTUP
290
     0
  9
$SORTENTS
280
   127
  9
$INDEXCTL
280
     0
  9
$HIDETEXT
280
     0
  9
$XCLIPFRAME
280
     2
  9
$HALOGAP
280
     0
  9
$OBSCOLOR
 70
   257
  9
$OBSLTYPE
280
     0
  9
$INTERSECTIONDISPLAY
280
     0
  9
$INTERSECTIONCOLOR
 70
   257
  9
$DIMASSOC
280
     1
  9
$PROJECTNAME
  1

  9
$CAMERADISPLAY
290
     0
  9
$LENSLENGTH
 40
50.0
  9
$CAMERAHEIGHT
 40
0.0
  9
$STEPSPERSEC
 40
2.0
  9
$STEPSIZE
 40
6.0
  9
$3DDWFPREC
 40
2.0
  9
$PSOLWIDTH
 40
0.25
  9
$PSOLHEIGHT
 40
4.0
  9
$LOFTANG1
 40
1.570796326794896
  9
$LOFTANG2
 40
1.570796326794896
  9
$LOFTMAG1
 40
0.0
  9
$LOFTMAG2
 40
0.0
  9
$LOFTPARAM
 70
     7
  9
$LOFTNORMALS
280
     1
  9
$LATITUDE
 40
37.795
  9
$LONGITUDE
 40
-122.394
  9
$NORTHDIRECTION
 40
0.0
  9
$TIMEZONE
 70
 -8000
  9
$LIGHTGLYPHDISPLAY
280
     1
  9
$TILEMODELIGHTSYNCH
280
     1
  9
$CMATERIAL
347
285
  9
$SOLIDHIST
280
     0
  9
$SHOWHIST
280
     1
  9
$DWFFRAME
280
     2
  9
$DGNFRAME
280
     0
  9
$REALWORLDSCALE
290
     1
  9
$INTERFERECOLOR
 62
     1
  9
$INTERFEREOBJVS
345
2A7
  9
$INTERFEREVPVS
346
2A4
  9
$CSHADOW
280
     0
  9
$SHADOWPLANELOCATION
 40
0.0
  0
ENDSEC
  0
SECTION
  2
CLASSES
  0
CLASS
  1
ACDBDICTIONARYWDFLT
  2
AcDbDictionaryWithDefault
  3
ObjectDBX Classes
 90
        0
 91
        1
280
     0
281
     0
  0
CLASS
  1
VISUALSTYLE
  2
AcDbVisualStyle
  3
ObjectDBX Classes
 90
     4095
 91
       24
280
     0
281
     0
  0
CLASS
  1
MATERIAL
  2
AcDbMaterial
  3
ObjectDBX Classes
 90
     1153
 91
        3
280
     0
281
     0
  0
CLASS
  1
SCALE
  2
AcDbScale
  3
ObjectDBX Classes
 90
     1153
 91
       33
280
     0
281
     0
  0
CLASS
  1
TABLESTYLE
  2
AcDbTableStyle
  3
ObjectDBX Classes
 90
     4095
 91
        1
280
     0
281
     0
  0
CLASS
  1
MLEADERSTYLE
  2
AcDbMLeaderStyle
  3
ACDB_MLEADERSTYLE_CLASS
 90
     4095
 91
        1
280
     0
281
     0
  0
CLASS
  1
SUN
  2
AcDbSun
  3
SCENEOE
 90
     1153
 91
        1
280
     0
281
     0
  0
CLASS
  1
ACDBSECTIONVIEWSTYLE
  2
AcDbSectionViewStyle
  3
ObjectDBX Classes
 90
     1025
 91
        1
280
     0
281
     0
  0
CLASS
  1
ACDBDETAILVIEWSTYLE
  2
AcDbDetailViewStyle
  3
ObjectDBX Classes
 90
     1025
 91
        1
280
     0
281
     0
  0
CLASS
  1
SORTENTSTABLE
  2
AcDbSortentsTable
  3
ObjectDBX Classes
 90
        0
 91
        1
280
     0
281
     0
  0
CLASS
  1
DICTIONARYVAR
  2
AcDbDictionaryVar
  3
ObjectDBX Classes
 90
        0
 91
       18
280
     0
281
     0
  0
CLASS
  1
CELLSTYLEMAP
  2
AcDbCellStyleMap
  3
ObjectDBX Classes
 90
     1152
 91
        1
280
     0
281
     0
  0
ENDSEC
  0
SECTION
  2
TABLES
  0
TABLE
  2
VPORT
  5
8
330
0
100
AcDbSymbolTable
 70
     1
  0
VPORT
  5
29
330
8
100
AcDbSymbolTableRecord
100
AcDbViewportTableRecord
  2
*Active
 70
     0
 10
0.0
 20
0.0
 11
1.0
 21
1.0
 12
1110.380494898583
 22
203.0212552963953
 13
0.0
 23
0.0
 14
10.0
 24
10.0
 15
10.0
 25
10.0
 16
0.0
 26
0.0
 36
1.0
 17
0.0
 27
0.0
 37
0.0
 40
419.538891639598
 41
2.527173913043478
 42
50.0
 43
0.0
 44
0.0
 50
0.0
 51
0.0
 71
     0
 72
  2000
 73
     1
 74
     3
 75
     0
 76
     0
 77
     0
 78
     0
281
     0
 65
     1
110
0.0
120
0.0
130
0.0
111
1.0
121
0.0
131
0.0
112
0.0
122
1.0
132
0.0
 79
     0
146
0.0
348
2A3
 60
     3
 61
     5
292
     1
282
     1
141
0.0
142
0.0
 63
   250
421
  3355443
1001
ACAD_NAV_VCDISPLAY
1070
     3
  0
ENDTAB
  0
TABLE
  2
LTYPE
  5
5
330
0
100
AcDbSymbolTable
 70
     9
  0
LTYPE
  5
14
330
5
100
AcDbSymbolTableRecord
100
AcDbLinetypeTableRecord
  2
ByBlock
 70
     0
  3

 72
    65
 73
     0
 40
0.0
  0
LTYPE
  5
15
330
5
100
AcDbSymbolTableRecord
100
AcDbLinetypeTableRecord
  2
ByLayer
 70
     0
  3

 72
    65
 73
     0
 40
0.0
  0
LTYPE
  5
16
330
5
100
AcDbSymbolTableRecord
100
AcDbLinetypeTableRecord
  2
Continuous
 70
     0
  3
Solid line
 72
    65
 73
     0
 40
0.0
  0
LTYPE
  5
6E
330
5
100
AcDbSymbolTableRecord
100
AcDbLinetypeTableRecord
  2
SLD-Solid
 70
     0
  3
SolidWorks Line Style
 72
    65
 73
     0
 40
0.0
  0
LTYPE
  5
6F
330
5
100
AcDbSymbolTableRecord
100
AcDbLinetypeTableRecord
  2
SLD-Dashed
 70
     0
  3
SolidWorks Line Style
 72
    65
 73
     2
 40
1.905
 49
1.27
 74
     0
 49
-0.635
 74
     0
  0
LTYPE
  5
70
330
5
100
AcDbSymbolTableRecord
100
AcDbLinetypeTableRecord
  2
SLD-Phantom
 70
     0
  3
SolidWorks Line Style
 72
    65
 73
     6
 40
12.7
 49
6.349999999999999
 74
     0
 49
-1.27
 74
     0
 49
1.27
 74
     0
 49
-1.27
 74
     0
 49
1.27
 74
     0
 49
-1.27
 74
     0
  0
LTYPE
  5
71
330
5
100
AcDbSymbolTableRecord
100
AcDbLinetypeTableRecord
  2
SLD-Chain
 70
     0
  3
SolidWorks Line Style
 72
    65
 73
     4
 40
10.16
 49
6.349999999999999
 74
     0
 49
-1.27
 74
     0
 49
1.27
 74
     0
 49
-1.27
 74
     0
  0
LTYPE
  5
72
330
5
100
AcDbSymbolTableRecord
100
AcDbLinetypeTableRecord
  2
SLD-Center
 70
     0
  3
SolidWorks Line Style
 72
    65
 73
     4
 40
19.05
 49
15.24
 74
     0
 49
-1.27
 74
     0
 49
1.27
 74
     0
 49
-1.27
 74
     0
  0
LTYPE
  5
73
330
5
100
AcDbSymbolTableRecord
100
AcDbLinetypeTableRecord
  2
SLD-Stitch
 70
     0
  3
SolidWorks Line Style
 72
    65
 73
     2
 40
0.635
 49
0.0
 74
     0
 49
-0.635
 74
     0
  0
LTYPE
  5
74
330
5
100
AcDbSymbolTableRecord
100
AcDbLinetypeTableRecord
  2
SLD-Thin-Thick-Chain
 70
     0
  3
SolidWorks Line Style
 72
    65
 73
     4
 40
10.16
 49
6.349999999999999
 74
     0
 49
-1.27
 74
     0
 49
1.27
 74
     0
 49
-1.27
 74
     0
  0
LTYPE
  5
302
330
5
100
AcDbSymbolTableRecord
100
AcDbLinetypeTableRecord
  2
CENTER2
 70
     0
  3
Center (.5x) ___ _ ___ _ ___ _ ___ _ ___ _ ___
 72
    65
 73
     4
 40
28.575
 49
19.05
 74
     4
 75
     0
340
0
 46
1.0
 50
0.0
 44
0.0
 45
0.0
 49
-3.174999999999999
 74
     4
 75
     0
340
0
 46
1.0
 50
0.0
 44
0.0
 45
0.0
 49
3.174999999999999
 74
     4
 75
     0
340
0
 46
1.0
 50
0.0
 44
0.0
 45
0.0
 49
-3.174999999999999
 74
     4
 75
     0
340
0
 46
1.0
 50
0.0
 44
0.0
 45
0.0
  0
ENDTAB
  0
TABLE
  2
LAYER
  5
2
102
{ACAD_XDICTIONARY
360
30C
102
}
330
0
100
AcDbSymbolTable
 70
     4
  0
LAYER
  5
10
102
{ACAD_XDICTIONARY
360
51B
102
}
330
2
100
AcDbSymbolTableRecord
100
AcDbLayerTableRecord
  2
0
 70
     0
 62
     7
  6
Continuous
370
    -3
390
F
347
295
348
0
  0
LAYER
  5
75
102
{ACAD_XDICTIONARY
360
51D
102
}
330
2
100
AcDbSymbolTableRecord
100
AcDbLayerTableRecord
  2
FORMAT
 70
     0
 62
     7
  6
SLD-Solid
370
    -3
390
F
347
295
348
0
  0
LAYER
  5
303
330
2
100
AcDbSymbolTableRecord
100
AcDbLayerTableRecord
  2
DEFPOINTS
 70
     0
 62
     7
  6
Continuous
290
     0
370
    -3
390
F
347
295
348
0
  0
LAYER
  5
304
102
{ACAD_XDICTIONARY
360
305
102
}
330
2
100
AcDbSymbolTableRecord
100
AcDbLayerTableRecord
  2
TB
 70
     0
 62
   254
  6
Continuous
370
    -3
390
F
347
295
348
0
  0
ENDTAB
  0
TABLE
  2
STYLE
  5
3
330
0
100
AcDbSymbolTable
 70
     7
  0
STYLE
  5
11
330
3
100
AcDbSymbolTableRecord
100
AcDbTextStyleTableRecord
  2
STANDARD
 70
     0
 40
0.0
 41
1.0
 50
0.0
 71
     0
 42
9.877777777777776
  3
Adobe 黑体 Std R
  4

1001
ACAD
1000
ADOBE 黑体 STD R
1071
      256
  0
STYLE
  5
76
330
3
100
AcDbSymbolTableRecord
100
AcDbTextStyleTableRecord
  2
SLDTEXTSTYLE0
 70
     0
 40
0.0
 41
1.0
 50
0.0
 71
     0
 42
2.5
  3
KAIU.TTF
  4

1001
ACAD
1000
標楷體
1071
      321
  0
STYLE
  5
B9
330
3
100
AcDbSymbolTableRecord
100
AcDbTextStyleTableRecord
  2
SLDTEXTSTYLE1
 70
     0
 40
0.0
 41
1.0
 50
0.0
 71
     0
 42
9.877777777777776
  3
KAIU.TTF
  4
bigfont
1001
ACAD
1000
標楷體
1071
      321
  0
STYLE
  5
BB
330
3
100
AcDbSymbolTableRecord
100
AcDbTextStyleTableRecord
  2
SLDTEXTSTYLE2
 70
     0
 40
0.0
 41
0.948
 50
0.0
 71
     0
 42
9.877777777777776
  3
ARIAL.TTF
  4

1001
ACAD
1000
Arial
1071
      290
  0
STYLE
  5
C0
330
3
100
AcDbSymbolTableRecord
100
AcDbTextStyleTableRecord
  2
SLDTEXTSTYLE3
 70
     0
 40
0.0
 41
1.0
 50
0.0
 71
     0
 42
9.877777777777776
  3
Adobe 黑体 Std R
  4

1001
ACAD
1000
Adobe 黑体 Std R
1071
      256
  0
STYLE
  5
ED
330
3
100
AcDbSymbolTableRecord
100
AcDbTextStyleTableRecord
  2
SLDTEXTSTYLE4
 70
     0
 40
0.0
 41
0.913
 50
0.0
 71
     0
 42
9.877777777777776
  3
GOTHIC.TTF
  4

1001
ACAD
1000
Century Gothic
1071
      290
  0
ENDTAB
  0
TABLE
  2
VIEW
  5
6
330
0
100
AcDbSymbolTable
 70
     0
  0
ENDTAB
  0
TABLE
  2
UCS
  5
7
330
0
100
AcDbSymbolTable
 70
     0
  0
ENDTAB
  0
TABLE
  2
APPID
  5
9
330
0
100
AcDbSymbolTable
 70
     6
  0
APPID
  5
12
330
9
100
AcDbSymbolTableRecord
100
AcDbRegAppTableRecord
  2
ACAD
 70
     0
  0
APPID
  5
307
330
9
100
AcDbSymbolTableRecord
100
AcDbRegAppTableRecord
  2
ACAD_PSEXT
 70
     0
  0
APPID
  5
308
330
9
100
AcDbSymbolTableRecord
100
AcDbRegAppTableRecord
  2
ACAD_DSTYLE_DIMJAG
 70
     0
  0
APPID
  5
309
330
9
100
AcDbSymbolTableRecord
100
AcDbRegAppTableRecord
  2
ACAD_DSTYLE_DIMTALN
 70
     0
  0
APPID
  5
30A
330
9
100
AcDbSymbolTableRecord
100
AcDbRegAppTableRecord
  2
AcadAnnotative
 70
     0
  0
APPID
  5
30B
330
9
100
AcDbSymbolTableRecord
100
AcDbRegAppTableRecord
  2
ACAD_NAV_VCDISPLAY
 70
     0
  0
ENDTAB
  0
TABLE
  2
DIMSTYLE
  5
A
330
0
100
AcDbSymbolTable
 70
     9
100
AcDbDimStyleTable
 71
     1
340
27
  0
DIMSTYLE
105
27
330
A
100
AcDbSymbolTableRecord
100
AcDbDimStyleTableRecord
  2
ISO-25
 70
     0
 41
2.5
 42
0.625
 43
3.75
 44
1.25
 73
     0
 74
     0
 77
     1
 78
     8
140
2.5
141
2.5
143
0.03937007874016
147
0.625
171
     3
172
     1
271
     2
272
     2
274
     3
278
    44
283
     0
284
     8
340
76
  0
DIMSTYLE
105
118
102
{ACAD_REACTORS
330
117
330
123
330
13A
330
16E
330
1B7
330
1FE
330
209
102
}
330
A
100
AcDbSymbolTableRecord
100
AcDbDimStyleTableRecord
  2
SLDDIMSTYLE0
 70
     0
 41
4.0
 44
0.0
 45
0.000000001
 73
     0
 74
     0
 78
    12
 79
     3
140
5.649956597222221
147
1.412489149305555
173
     1
271
     1
272
     1
276
     2
284
    12
340
76
  0
DIMSTYLE
105
12F
102
{ACAD_REACTORS
330
12E
102
}
330
A
100
AcDbSymbolTableRecord
100
AcDbDimStyleTableRecord
  2
SLDDIMSTYLE1
 70
     0
 41
4.0
 44
0.0
 45
0.000000001
 73
     0
 74
     0
 78
     8
 79
     2
140
5.649956597222221
147
1.412489149305555
172
     1
173
     1
271
     1
272
     1
276
     2
284
    12
289
     0
340
76
  0
DIMSTYLE
105
163
102
{ACAD_REACTORS
330
162
330
179
330
18D
330
1C2
330
1CD
330
214
330
21F
330
22A
330
235
330
240
330
257
330
262
102
}
330
A
100
AcDbSymbolTableRecord
100
AcDbDimStyleTableRecord
  2
SLDDIMSTYLE2
 70
     0
 41
4.0
 44
0.0
 45
0.000000001
 73
     0
 74
     0
 78
    12
 79
     3
140
5.649956597222221
147
1.412489149305555
172
     1
173
     1
271
     1
272
     1
276
     2
284
    12
289
     0
340
76
  0
DIMSTYLE
105
185
102
{ACAD_REACTORS
330
184
330
198
102
}
330
A
100
AcDbSymbolTableRecord
100
AcDbDimStyleTableRecord
  2
SLDDIMSTYLE3
 70
     0
 41
4.0
 44
0.0
 45
0.000000001
 78
    12
 79
     3
140
5.649956597222221
141
0.0
147
1.412489149305555
173
     1
271
     1
272
     1
276
     2
284
    12
340
76
  0
DIMSTYLE
105
24C
102
{ACAD_REACTORS
330
24B
330
26D
102
}
330
A
100
AcDbSymbolTableRecord
100
AcDbDimStyleTableRecord
  2
SLDDIMSTYLE4
 70
     0
 41
4.0
 44
0.0
 45
0.000000001
 73
     0
 74
     0
 78
    12
 79
     3
140
5.649956597222221
147
1.412489149305555
172
     1
173
     1
271
     2
272
     3
276
     2
284
    12
289
     0
340
76
  0
DIMSTYLE
105
279
102
{ACAD_REACTORS
330
278
102
}
330
A
100
AcDbSymbolTableRecord
100
AcDbDimStyleTableRecord
  2
SLDDIMSTYLE5
 70
     0
 41
4.0
 44
0.0
 45
0.000000001
 78
    12
 79
     3
140
5.649956597222221
141
0.0
147
1.412489149305555
173
     1
271
     1
272
     1
276
     2
284
    12
340
76
  0
DIMSTYLE
105
306
330
A
100
AcDbSymbolTableRecord
100
AcDbDimStyleTableRecord
  2
Annotative
 70
     0
 40
0.0
 41
2.5
 42
0.625
 43
3.75
 44
1.25
 73
     0
 74
     0
 77
     1
 78
     8
140
2.5
141
2.5
143
0.03937007874016
147
0.625
171
     3
172
     1
271
     2
272
     2
274
     3
278
    44
283
     0
284
     8
340
11
1001
AcadAnnotative
1000
AnnotativeData
1002
{
1070
     1
1070
     1
1002
}
1001
ACAD_DSTYLE_DIMJAG
1070
   388
1040
1.5
1001
ACAD_DSTYLE_DIMTALN
1070
   392
1070
     0
  0
ENDTAB
  0
TABLE
  2
BLOCK_RECORD
  5
1
330
0
100
AcDbSymbolTable
 70
    44
  0
BLOCK_RECORD
  5
1F
330
1
100
AcDbSymbolTableRecord
100
AcDbBlockTableRecord
  2
*Model_Space
340
22
 70
     0
280
     1
281
     0
  0
BLOCK_RECORD
  5
1B
330
1
100
AcDbSymbolTableRecord
100
AcDbBlockTableRecord
  2
*Paper_Space
340
1E
 70
     0
280
     1
281
     0
  0
BLOCK_RECORD
  5
23
330
1
100
AcDbSymbolTableRecord
100
AcDbBlockTableRecord
  2
*Paper_Space0
340
26
 70
     0
280
     1
281
     0
  0
BLOCK_RECORD
  5
C2
330
1
100
AcDbSymbolTableRecord
100
AcDbBlockTableRecord
  2
SW_NOTE_0
340
0
 70
     0
280
     1
281
     0
  0
BLOCK_RECORD
  5
CB
330
1
100
AcDbSymbolTableRecord
100
AcDbBlockTableRecord
  2
SW_NOTE_1
340
0
 70
     0
280
     1
281
     0
  0
BLOCK_RECORD
  5
D6
330
1
100
AcDbSymbolTableRecord
100
AcDbBlockTableRecord
  2
SW_NOTE_2
340
0
 70
     0
280
     1
281
     0
  0
BLOCK_RECORD
  5
DC
330
1
100
AcDbSymbolTableRecord
100
AcDbBlockTableRecord
  2
SW_NOTE_3
340
0
 70
     0
280
     1
281
     0
  0
BLOCK_RECORD
  5
E7
330
1
100
AcDbSymbolTableRecord
100
AcDbBlockTableRecord
  2
SW_NOTE_4
340
0
 70
     0
280
     1
281
     0
  0
BLOCK_RECORD
  5
F0
330
1
100
AcDbSymbolTableRecord
100
AcDbBlockTableRecord
  2
SW_NOTE_5
340
0
 70
     0
280
     1
281
     0
  0
BLOCK_RECORD
  5
119
330
1
100
AcDbSymbolTableRecord
100
AcDbBlockTableRecord
  2
_D
340
0
 70
     0
280
     1
281
     0
  0
BLOCK_RECORD
  5
124
330
1
100
AcDbSymbolTableRecord
100
AcDbBlockTableRecord
  2
_D_1
340
0
 70
     0
280
     1
281
     0
  0
BLOCK_RECORD
  5
130
330
1
100
AcDbSymbolTableRecord
100
AcDbBlockTableRecord
  2
_D_2
340
0
 70
     0
280
     1
281
     0
  0
BLOCK_RECORD
  5
13B
330
1
100
AcDbSymbolTableRecord
100
AcDbBlockTableRecord
  2
_D_3
340
0
 70
     0
280
     1
281
     0
  0
BLOCK_RECORD
  5
164
330
1
100
AcDbSymbolTableRecord
100
AcDbBlockTableRecord
  2
_D_4
340
0
 70
     0
280
     1
281
     0
  0
BLOCK_RECORD
  5
16F
330
1
100
AcDbSymbolTableRecord
100
AcDbBlockTableRecord
  2
_D_5
340
0
 70
     0
280
     1
281
     0
  0
BLOCK_RECORD
  5
17A
330
1
100
AcDbSymbolTableRecord
100
AcDbBlockTableRecord
  2
_D_6
340
0
 70
     0
280
     1
281
     0
  0
BLOCK_RECORD
  5
186
330
1
100
AcDbSymbolTableRecord
100
AcDbBlockTableRecord
  2
_D_7
340
0
 70
     0
280
     1
281
     0
  0
BLOCK_RECORD
  5
18E
330
1
100
AcDbSymbolTableRecord
100
AcDbBlockTableRecord
  2
_D_8
340
0
 70
     0
280
     1
281
     0
  0
BLOCK_RECORD
  5
199
330
1
100
AcDbSymbolTableRecord
100
AcDbBlockTableRecord
  2
_D_9
340
0
 70
     0
280
     1
281
     0
  0
BLOCK_RECORD
  5
1B8
330
1
100
AcDbSymbolTableRecord
100
AcDbBlockTableRecord
  2
_D_10
340
0
 70
     0
280
     1
281
     0
  0
BLOCK_RECORD
  5
1C3
330
1
100
AcDbSymbolTableRecord
100
AcDbBlockTableRecord
  2
_D_11
340
0
 70
     0
280
     1
281
     0
  0
BLOCK_RECORD
  5
1CE
330
1
100
AcDbSymbolTableRecord
100
AcDbBlockTableRecord
  2
_D_12
340
0
 70
     0
280
     1
281
     0
  0
BLOCK_RECORD
  5
1FF
330
1
100
AcDbSymbolTableRecord
100
AcDbBlockTableRecord
  2
_D_13
340
0
 70
     0
280
     1
281
     0
  0
BLOCK_RECORD
  5
20A
330
1
100
AcDbSymbolTableRecord
100
AcDbBlockTableRecord
  2
_D_14
340
0
 70
     0
280
     1
281
     0
  0
BLOCK_RECORD
  5
215
330
1
100
AcDbSymbolTableRecord
100
AcDbBlockTableRecord
  2
_D_15
340
0
 70
     0
280
     1
281
     0
  0
BLOCK_RECORD
  5
220
330
1
100
AcDbSymbolTableRecord
100
AcDbBlockTableRecord
  2
_D_16
340
0
 70
     0
280
     1
281
     0
  0
BLOCK_RECORD
  5
22B
330
1
100
AcDbSymbolTableRecord
100
AcDbBlockTableRecord
  2
_D_17
340
0
 70
     0
280
     1
281
     0
  0
BLOCK_RECORD
  5
236
330
1
100
AcDbSymbolTableRecord
100
AcDbBlockTableRecord
  2
_D_18
340
0
 70
     0
280
     1
281
     0
  0
BLOCK_RECORD
  5
241
330
1
100
AcDbSymbolTableRecord
100
AcDbBlockTableRecord
  2
_D_19
340
0
 70
     0
280
     1
281
     0
  0
BLOCK_RECORD
  5
24D
330
1
100
AcDbSymbolTableRecord
100
AcDbBlockTableRecord
  2
_D_20
340
0
 70
     0
280
     1
281
     0
  0
BLOCK_RECORD
  5
258
330
1
100
AcDbSymbolTableRecord
100
AcDbBlockTableRecord
  2
_D_21
340
0
 70
     0
280
     1
281
     0
  0
BLOCK_RECORD
  5
263
330
1
100
AcDbSymbolTableRecord
100
AcDbBlockTableRecord
  2
_D_22
340
0
 70
     0
280
     1
281
     0
  0
BLOCK_RECORD
  5
26E
330
1
100
AcDbSymbolTableRecord
100
AcDbBlockTableRecord
  2
_D_23
340
0
 70
     0
280
     1
281
     0
  0
BLOCK_RECORD
  5
27A
330
1
100
AcDbSymbolTableRecord
100
AcDbBlockTableRecord
  2
_D_24
340
0
 70
     0
280
     1
281
     0
  0
BLOCK_RECORD
  5
2C6
330
1
100
AcDbSymbolTableRecord
100
AcDbBlockTableRecord
  2
*D32
340
0
 70
     0
280
     1
281
     0
  0
BLOCK_RECORD
  5
2D2
330
1
100
AcDbSymbolTableRecord
100
AcDbBlockTableRecord
  2
*D33
340
0
 70
     0
280
     1
281
     0
  0
BLOCK_RECORD
  5
2DE
330
1
100
AcDbSymbolTableRecord
100
AcDbBlockTableRecord
  2
*D34
340
0
 70
     0
280
     1
281
     0
  0
BLOCK_RECORD
  5
2EA
330
1
100
AcDbSymbolTableRecord
100
AcDbBlockTableRecord
  2
*D35
340
0
 70
     0
280
     1
281
     0
  0
BLOCK_RECORD
  5
2F6
330
1
100
AcDbSymbolTableRecord
100
AcDbBlockTableRecord
  2
*D36
340
0
 70
     0
280
     1
281
     0
  0
BLOCK_RECORD
  5
3B2
330
1
100
AcDbSymbolTableRecord
100
AcDbBlockTableRecord
  2
*D38
340
0
 70
     0
280
     1
281
     0
  0
BLOCK_RECORD
  5
3BE
330
1
100
AcDbSymbolTableRecord
100
AcDbBlockTableRecord
  2
*D39
340
0
 70
     0
280
     1
281
     0
  0
BLOCK_RECORD
  5
3CA
330
1
100
AcDbSymbolTableRecord
100
AcDbBlockTableRecord
  2
*D40
340
0
 70
     0
280
     1
281
     0
  0
BLOCK_RECORD
  5
3D6
330
1
100
AcDbSymbolTableRecord
100
AcDbBlockTableRecord
  2
*D41
340
0
 70
     0
280
     1
281
     0
  0
BLOCK_RECORD
  5
3E2
330
1
100
AcDbSymbolTableRecord
100
AcDbBlockTableRecord
  2
*D42
340
0
 70
     0
280
     1
281
     0
  0
ENDTAB
  0
ENDSEC
  0
SECTION
  2
BLOCKS
  0
BLOCK
  5
20
330
1F
100
AcDbEntity
  8
0
100
AcDbBlockBegin
  2
*Model_Space
 70
     0
 10
0.0
 20
0.0
 30
0.0
  3
*Model_Space
  1

  0
ENDBLK
  5
21
330
1F
100
AcDbEntity
  8
0
100
AcDbBlockEnd
  0
BLOCK
  5
1C
330
1B
100
AcDbEntity
 67
     1
  8
0
100
AcDbBlockBegin
  2
*Paper_Space
 70
     0
 10
0.0
 20
0.0
 30
0.0
  3
*Paper_Space
  1

  0
ENDBLK
  5
1D
330
1B
100
AcDbEntity
 67
     1
  8
0
100
AcDbBlockEnd
  0
BLOCK
  5
24
330
23
100
AcDbEntity
 67
     1
  8
0
100
AcDbBlockBegin
  2
*Paper_Space0
 70
     0
 10
0.0
 20
0.0
 30
0.0
  3
*Paper_Space0
  1

  0
ENDBLK
  5
25
330
23
100
AcDbEntity
 67
     1
  8
0
100
AcDbBlockEnd
  0
BLOCK
  5
C3
330
C2
100
AcDbEntity
  8
0
100
AcDbBlockBegin
  2
SW_NOTE_0
 70
     0
 10
0.0
 20
0.0
 30
0.0
  3
SW_NOTE_0
  1

  0
MTEXT
  5
C5
330
C2
100
AcDbEntity
  8
0
  6
Continuous
 62
     0
370
     0
100
AcDbMText
 10
0.0
 20
10.5730081300813
 30
0.0
 40
8.466666666666665
 41
0.0
 46
0.0
 71
     1
 72
     1
  1
Notes:       
  7
SLDTEXTSTYLE0
 73
     1
 44
1.0
  0
MTEXT
  5
C6
330
C2
100
AcDbEntity
  8
0
  6
Continuous
 62
     0
370
     0
100
AcDbMText
 10
0.0
 20
-2.715880950204724
 30
0.0
 40
8.466666666666665
 41
0.0
 46
0.0
 71
     1
 72
     1
  1
1. 未註公差為
  7
SLDTEXTSTYLE1
 73
     1
 44
1.0
  0
MTEXT
  5
C7
330
C2
100
AcDbEntity
  8
0
  6
Continuous
 62
     0
370
     0
100
AcDbMText
 10
73.37777316570281
 20
-2.715880950204724
 30
0.0
 40
8.466666666666665
 41
0.0
 46
0.0
 71
     1
 72
     1
  1
%%p
  7
SLDTEXTSTYLE0
 73
     1
 44
1.0
  0
MTEXT
  5
C8
330
C2
100
AcDbEntity
  8
0
  6
Continuous
 62
     0
370
     0
100
AcDbMText
 10
80.15111088752746
 20
-2.715880950204724
 30
0.0
 40
8.466666666666665
 41
0.0
 46
0.0
 71
     1
 72
     1
  1
0.2mm       
  7
SLDTEXTSTYLE0
 73
     1
 44
1.0
  0
MTEXT
  5
C9
330
C2
100
AcDbEntity
  8
0
  6
Continuous
 62
     0
370
     0
100
AcDbMText
 10
0.0
 20
-16.00477003049075
 30
0.0
 40
8.466666666666665
 41
0.0
 46
0.0
 71
     1
 72
     1
  1
2. 2D圖為參考用，請以樣品為準.       
  7
SLDTEXTSTYLE1
 73
     1
 44
1.0
  0
ENDBLK
  5
C4
330
C2
100
AcDbEntity
  8
0
100
AcDbBlockEnd
  0
BLOCK
  5
CC
330
CB
100
AcDbEntity
  8
0
100
AcDbBlockBegin
  2
SW_NOTE_1
 70
     0
 10
0.0
 20
0.0
 30
0.0
  3
SW_NOTE_1
  1

  0
MTEXT
  5
CE
330
CB
100
AcDbEntity
  8
0
  6
Continuous
 62
     0
370
     0
100
AcDbMText
 10
0.0
 20
3.964878048780484
 30
0.0
 40
3.174999999999999
 41
0.0
 46
0.0
 71
     1
 72
     1
  1
畫
  7
SLDTEXTSTYLE1
 73
     1
 44
1.0
  0
MTEXT
  5
CF
330
CB
100
AcDbEntity
  8
0
  6
Continuous
 62
     0
370
     0
100
AcDbMText
 10
0.0
 20
-2.268455095556454
 30
0.0
 40
3.174999999999999
 41
0.0
 46
0.0
 71
     1
 72
     1
  1
法
  7
SLDTEXTSTYLE1
 73
     1
 44
1.0
  0
ENDBLK
  5
CD
330
CB
100
AcDbEntity
  8
0
100
AcDbBlockEnd
  0
BLOCK
  5
D7
330
D6
100
AcDbEntity
  8
0
100
AcDbBlockBegin
  2
SW_NOTE_2
 70
     0
 10
0.0
 20
0.0
 30
0.0
  3
SW_NOTE_2
  1

  0
MTEXT
  5
D9
330
D6
100
AcDbEntity
  8
0
  6
Continuous
 62
     0
370
     0
100
AcDbMText
 10
0.0
 20
3.964878048780484
 30
0.0
 40
3.174999999999999
 41
0.0
 46
0.0
 71
     1
 72
     1
  1
比
  7
SLDTEXTSTYLE1
 73
     1
 44
1.0
  0
MTEXT
  5
DA
330
D6
100
AcDbEntity
  8
0
  6
Continuous
 62
     0
370
     0
100
AcDbMText
 10
0.0
 20
-2.268455095556454
 30
0.0
 40
3.174999999999999
 41
0.0
 46
0.0
 71
     1
 72
     1
  1
例
  7
SLDTEXTSTYLE1
 73
     1
 44
1.0
  0
ENDBLK
  5
D8
330
D6
100
AcDbEntity
  8
0
100
AcDbBlockEnd
  0
BLOCK
  5
DD
330
DC
100
AcDbEntity
  8
0
100
AcDbBlockBegin
  2
SW_NOTE_3
 70
     0
 10
0.0
 20
0.0
 30
0.0
  3
SW_NOTE_3
  1

  0
MTEXT
  5
DF
330
DC
100
AcDbEntity
  8
0
  6
Continuous
 62
     0
370
     0
100
AcDbMText
 10
0.0
 20
3.964878048780484
 30
0.0
 40
3.174999999999999
 41
0.0
 46
0.0
 71
     1
 72
     1
  1
單
  7
SLDTEXTSTYLE1
 73
     1
 44
1.0
  0
MTEXT
  5
E0
330
DC
100
AcDbEntity
  8
0
  6
Continuous
 62
     0
370
     0
100
AcDbMText
 10
0.0
 20
-2.268455095556454
 30
0.0
 40
3.174999999999999
 41
0.0
 46
0.0
 71
     1
 72
     1
  1
位
  7
SLDTEXTSTYLE1
 73
     1
 44
1.0
  0
ENDBLK
  5
DE
330
DC
100
AcDbEntity
  8
0
100
AcDbBlockEnd
  0
BLOCK
  5
E8
330
E7
100
AcDbEntity
  8
0
100
AcDbBlockBegin
  2
SW_NOTE_4
 70
     0
 10
0.0
 20
0.0
 30
0.0
  3
SW_NOTE_4
  1

  0
MTEXT
  5
EA
330
E7
100
AcDbEntity
  8
0
  6
Continuous
 62
     0
370
     0
100
AcDbMText
 10
55.56249999999998
 20
9.251382113821135
 30
0.0
 40
7.408333333333332
 41
0.0
 46
0.0
 71
     2
 72
     1
  1
東莞泰皓電器制品有限公司
  7
SLDTEXTSTYLE1
 73
     1
 44
1.0
  0
MTEXT
  5
EB
330
E7
100
AcDbEntity
  8
0
  6
Continuous
 62
     0
370
     0
100
AcDbMText
 10
58.34062679111957
 20
-2.62639587240733
 30
0.0
 40
7.408333333333332
 41
0.0
 46
0.0
 71
     2
 72
     1
  1
研發部
  7
SLDTEXTSTYLE1
 73
     1
 44
1.0
  0
ENDBLK
  5
E9
330
E7
100
AcDbEntity
  8
0
100
AcDbBlockEnd
  0
BLOCK
  5
F1
330
F0
100
AcDbEntity
  8
0
100
AcDbBlockBegin
  2
SW_NOTE_5
 70
     0
 10
0.0
 20
0.0
 30
0.0
  3
SW_NOTE_5
  1

  0
MTEXT
  5
F3
330
F0
100
AcDbEntity
  8
0
  6
Continuous
 62
     0
370
     0
100
AcDbMText
 10
0.0
 20
7.929756097560969
 30
0.0
 40
6.349999999999999
 41
0.0
 46
0.0
 71
     1
 72
     1
  1
變
  7
SLDTEXTSTYLE1
 73
     1
 44
1.0
  0
MTEXT
  5
F4
330
F0
100
AcDbEntity
  8
0
  6
Continuous
 62
     0
370
     0
100
AcDbMText
 10
0.0
 20
-0.4202436878623026
 30
0.0
 40
6.349999999999999
 41
0.0
 46
0.0
 71
     1
 72
     1
  1
更
  7
SLDTEXTSTYLE1
 73
     1
 44
1.0
  0
MTEXT
  5
F5
330
F0
100
AcDbEntity
  8
0
  6
Continuous
 62
     0
370
     0
100
AcDbMText
 10
0.0
 20
-8.770243473285582
 30
0.0
 40
6.349999999999999
 41
0.0
 46
0.0
 71
     1
 72
     1
  1
紀
  7
SLDTEXTSTYLE1
 73
     1
 44
1.0
  0
MTEXT
  5
F6
330
F0
100
AcDbEntity
  8
0
  6
Continuous
 62
     0
370
     0
100
AcDbMText
 10
0.0
 20
-17.12024325870886
 30
0.0
 40
6.349999999999999
 41
0.0
 46
0.0
 71
     1
 72
     1
  1
錄
  7
SLDTEXTSTYLE1
 73
     1
 44
1.0
  0
ENDBLK
  5
F2
330
F0
100
AcDbEntity
  8
0
100
AcDbBlockEnd
  0
BLOCK
  5
11A
330
119
100
AcDbEntity
  8
0
100
AcDbBlockBegin
  2
_D
 70
     0
 10
0.0
 20
0.0
 30
0.0
  3
_D
  1

  0
LINE
  5
41F
330
119
100
AcDbEntity
  8
0
  6
SLD-Solid
 62
     0
440
 16777216
370
    -2
100
AcDbLine
 10
993.7452123540019
 20
205.5357505963792
 30
0.0
 11
993.7452123540019
 21
193.5982505963792
 31
0.0
  0
LINE
  5
420
330
119
100
AcDbEntity
  8
0
  6
SLD-Solid
 62
     0
440
 16777216
370
    -2
100
AcDbLine
 10
1076.545212354002
 20
205.5357505963792
 30
0.0
 11
1076.545212354002
 21
193.5982505963792
 31
0.0
  0
LINE
  5
421
330
119
100
AcDbEntity
  8
0
  6
SLD-Solid
 62
     0
440
 16777216
370
    -2
100
AcDbLine
 10
997.745212354002
 20
193.5982505963792
 30
0.0
 11
1025.197755287366
 21
193.5982505963792
 31
0.0
  0
LINE
  5
422
330
119
100
AcDbEntity
  8
0
  6
SLD-Solid
 62
     0
440
 16777216
370
    -2
100
AcDbLine
 10
1072.545212354002
 20
193.5982505963792
 30
0.0
 11
1043.162120048148
 21
193.5982505963792
 31
0.0
  0
SOLID
  5
423
330
119
100
AcDbEntity
  8
0
  6
SLD-Solid
 62
     0
440
 16777216
100
AcDbTrace
 10
997.745212354002
 20
194.2649172630458
 30
0.0
 11
997.745212354002
 21
192.9315839297125
 31
0.0
 12
993.7452123540019
 22
193.5982505963792
 32
0.0
 13
993.7452123540019
 23
193.5982505963792
 33
0.0
  0
SOLID
  5
424
330
119
100
AcDbEntity
  8
0
  6
SLD-Solid
 62
     0
440
 16777216
100
AcDbTrace
 10
1072.545212354002
 20
194.2649172630458
 30
0.0
 11
1072.545212354002
 21
192.9315839297125
 31
0.0
 12
1076.545212354002
 22
193.5982505963792
 32
0.0
 13
1076.545212354002
 23
193.5982505963792
 33
0.0
  0
MTEXT
  5
425
330
119
100
AcDbEntity
  8
0
  6
SLD-Solid
 62
     0
440
 16777216
370
     0
100
AcDbMText
 10
1034.179937667757
 20
196.6768526372689
 30
0.0
 40
5.649956597222221
 41
0.0
 46
0.0
 71
     2
 72
     1
  1
\A1;82.8
  7
SLDTEXTSTYLE0
 73
     1
 44
1.0
  0
POINT
  5
426
330
119
100
AcDbEntity
  8
DEFPOINTS
  6
SLD-Solid
 62
     0
440
 16777216
100
AcDbPoint
 10
993.7452123540019
 20
205.5982505963792
 30
0.0
  0
POINT
  5
427
330
119
100
AcDbEntity
  8
DEFPOINTS
  6
SLD-Solid
 62
     0
440
 16777216
100
AcDbPoint
 10
1076.545212354002
 20
205.5982505963792
 30
0.0
  0
POINT
  5
428
330
119
100
AcDbEntity
  8
DEFPOINTS
  6
SLD-Solid
 62
     0
440
 16777216
100
AcDbPoint
 10
1076.545212354002
 20
193.5982505963792
 30
0.0
  0
ENDBLK
  5
11B
330
119
100
AcDbEntity
  8
0
100
AcDbBlockEnd
  0
BLOCK
  5
125
330
124
100
AcDbEntity
  8
0
100
AcDbBlockBegin
  2
_D_1
 70
     0
 10
0.0
 20
0.0
 30
0.0
  3
_D_1
  1

  0
LINE
  5
429
330
124
100
AcDbEntity
  8
0
  6
SLD-Solid
 62
     0
440
 16777216
370
    -2
100
AcDbLine
 10
1065.707712354002
 20
256.5982505963792
 30
0.0
 11
1090.145212354002
 21
256.5982505963792
 31
0.0
  0
LINE
  5
42A
330
124
100
AcDbEntity
  8
0
  6
SLD-Solid
 62
     0
440
 16777216
370
    -2
100
AcDbLine
 10
1076.607712354002
 20
205.5982505963792
 30
0.0
 11
1090.145212354002
 21
205.5982505963791
 31
0.0
  0
LINE
  5
42B
330
124
100
AcDbEntity
  8
0
  6
SLD-Solid
 62
     0
440
 16777216
370
    -2
100
AcDbLine
 10
1090.145212354002
 20
252.5982505963791
 30
0.0
 11
1090.145212354002
 21
237.3032305571229
 31
0.0
  0
LINE
  5
42C
330
124
100
AcDbEntity
  8
0
  6
SLD-Solid
 62
     0
440
 16777216
370
    -2
100
AcDbLine
 10
1090.145212354002
 20
209.5982505963791
 30
0.0
 11
1090.145212354002
 21
228.0869339530905
 31
0.0
  0
SOLID
  5
42D
330
124
100
AcDbEntity
  8
0
  6
SLD-Solid
 62
     0
440
 16777216
100
AcDbTrace
 10
1089.478545687335
 20
252.5982505963791
 30
0.0
 11
1090.811879020669
 21
252.5982505963791
 31
0.0
 12
1090.145212354002
 22
256.5982505963792
 32
0.0
 13
1090.145212354002
 23
256.5982505963792
 33
0.0
  0
SOLID
  5
42E
330
124
100
AcDbEntity
  8
0
  6
SLD-Solid
 62
     0
440
 16777216
100
AcDbTrace
 10
1089.478545687335
 20
209.5982505963791
 30
0.0
 11
1090.811879020669
 21
209.5982505963791
 31
0.0
 12
1090.145212354002
 22
205.5982505963791
 32
0.0
 13
1090.145212354002
 23
205.5982505963791
 33
0.0
  0
MTEXT
  5
42F
330
124
100
AcDbEntity
  8
0
  6
SLD-Solid
 62
     0
440
 16777216
370
     0
100
AcDbMText
 10
1087.132942676477
 20
232.6950822551069
 30
0.0
 40
5.649956597222221
 41
0.0
 46
0.0
 71
     2
 72
     1
  1
\A1;51
  7
SLDTEXTSTYLE0
 11
0.0000000000000001
 21
1.0
 31
0.0
 73
     1
 44
1.0
  0
POINT
  5
430
330
124
100
AcDbEntity
  8
DEFPOINTS
  6
SLD-Solid
 62
     0
440
 16777216
100
AcDbPoint
 10
1065.645212354002
 20
256.5982505963792
 30
0.0
  0
POINT
  5
431
330
124
100
AcDbEntity
  8
DEFPOINTS
  6
SLD-Solid
 62
     0
440
 16777216
100
AcDbPoint
 10
1076.545212354002
 20
205.5982505963792
 30
0.0
  0
POINT
  5
432
330
124
100
AcDbEntity
  8
DEFPOINTS
  6
SLD-Solid
 62
     0
440
 16777216
100
AcDbPoint
 10
1090.145212354002
 20
205.5982505963791
 30
0.0
  0
ENDBLK
  5
126
330
124
100
AcDbEntity
  8
0
100
AcDbBlockEnd
  0
BLOCK
  5
131
330
130
100
AcDbEntity
  8
0
100
AcDbBlockBegin
  2
_D_2
 70
     0
 10
0.0
 20
0.0
 30
0.0
  3
_D_2
  1

  0
LINE
  5
433
330
130
100
AcDbEntity
  8
0
  6
SLD-Solid
 62
     0
440
 16777216
370
    -2
100
AcDbLine
 10
993.682712354002
 20
205.5982505963792
 30
0.0
 11
980.145212354002
 21
205.5982505963792
 31
0.0
  0
LINE
  5
434
330
130
100
AcDbEntity
  8
0
  6
SLD-Solid
 62
     0
440
 16777216
370
    -2
100
AcDbLine
 10
993.682712354002
 20
206.4982505963792
 30
0.0
 11
980.145212354002
 21
206.4982505963792
 31
0.0
  0
LINE
  5
435
330
130
100
AcDbEntity
  8
0
  6
SLD-Solid
 62
     0
440
 16777216
370
    -2
100
AcDbLine
 10
980.145212354002
 20
201.5982505963792
 30
0.0
 11
980.145212354002
 21
197.5982505963792
 31
0.0
  0
LINE
  5
436
330
130
100
AcDbEntity
  8
0
  6
SLD-Solid
 62
     0
440
 16777216
370
    -2
100
AcDbLine
 10
980.145212354002
 20
210.4982505963792
 30
0.0
 11
980.145212354002
 21
222.1439375405328
 31
0.0
  0
LINE
  5
437
330
130
100
AcDbEntity
  8
0
  6
SLD-Solid
 62
     0
440
 16777216
370
    -2
100
AcDbLine
 10
980.145212354002
 20
205.5982505963792
 30
0.0
 11
980.145212354002
 21
206.4982505963792
 31
0.0
  0
SOLID
  5
438
330
130
100
AcDbEntity
  8
0
  6
SLD-Solid
 62
     0
440
 16777216
100
AcDbTrace
 10
979.4785456873354
 20
201.5982505963792
 30
0.0
 11
980.8118790206687
 21
201.5982505963792
 31
0.0
 12
980.145212354002
 22
205.5982505963792
 32
0.0
 13
980.145212354002
 23
205.5982505963792
 33
0.0
  0
SOLID
  5
439
330
130
100
AcDbEntity
  8
0
  6
SLD-Solid
 62
     0
440
 16777216
100
AcDbTrace
 10
979.4785456873354
 20
210.4982505963792
 30
0.0
 11
980.8118790206687
 21
210.4982505963792
 31
0.0
 12
980.145212354002
 22
206.4982505963792
 32
0.0
 13
980.145212354002
 23
206.4982505963792
 33
0.0
  0
MTEXT
  5
43A
330
130
100
AcDbEntity
  8
0
  6
SLD-Solid
 62
     0
440
 16777216
370
     0
100
AcDbMText
 10
977.0666103131123
 20
229.0386014267841
 30
0.0
 40
5.649956597222221
 41
0.0
 46
0.0
 71
     2
 72
     1
  1
\A1;0.9
  7
SLDTEXTSTYLE0
 11
0.0000000000000001
 21
1.0
 31
0.0
 73
     1
 44
1.0
  0
POINT
  5
43B
330
130
100
AcDbEntity
  8
DEFPOINTS
  6
SLD-Solid
 62
     0
440
 16777216
100
AcDbPoint
 10
993.7452123540019
 20
205.5982505963792
 30
0.0
  0
POINT
  5
43C
330
130
100
AcDbEntity
  8
DEFPOINTS
  6
SLD-Solid
 62
     0
440
 16777216
100
AcDbPoint
 10
993.7452123540019
 20
206.4982505963792
 30
0.0
  0
POINT
  5
43D
330
130
100
AcDbEntity
  8
DEFPOINTS
  6
SLD-Solid
 62
     0
440
 16777216
100
AcDbPoint
 10
980.145212354002
 20
206.4982505963792
 30
0.0
  0
ENDBLK
  5
132
330
130
100
AcDbEntity
  8
0
100
AcDbBlockEnd
  0
BLOCK
  5
13C
330
13B
100
AcDbEntity
  8
0
100
AcDbBlockBegin
  2
_D_3
 70
     0
 10
0.0
 20
0.0
 30
0.0
  3
_D_3
  1

  0
LINE
  5
43E
330
13B
100
AcDbEntity
  8
0
  6
SLD-Solid
 62
     0
440
 16777216
370
    -2
100
AcDbLine
 10
1004.645212354002
 20
256.6607505963792
 30
0.0
 11
1004.645212354002
 21
263.6301586489009
 31
0.0
  0
LINE
  5
43F
330
13B
100
AcDbEntity
  8
0
  6
SLD-Solid
 62
     0
440
 16777216
370
    -2
100
AcDbLine
 10
1065.645212354002
 20
256.6607505963792
 30
0.0
 11
1065.645212354002
 21
263.6301586489009
 31
0.0
  0
LINE
  5
440
330
13B
100
AcDbEntity
  8
0
  6
SLD-Solid
 62
     0
440
 16777216
370
    -2
100
AcDbLine
 10
1008.645212354002
 20
263.6301586489009
 30
0.0
 11
1029.583495076923
 21
263.6301586489009
 31
0.0
  0
LINE
  5
441
330
13B
100
AcDbEntity
  8
0
  6
SLD-Solid
 62
     0
440
 16777216
370
    -2
100
AcDbLine
 10
1061.645212354002
 20
263.6301586489009
 30
0.0
 11
1038.776380258591
 21
263.6301586489009
 31
0.0
  0
SOLID
  5
442
330
13B
100
AcDbEntity
  8
0
  6
SLD-Solid
 62
     0
440
 16777216
100
AcDbTrace
 10
1008.645212354002
 20
264.2968253155676
 30
0.0
 11
1008.645212354002
 21
262.9634919822342
 31
0.0
 12
1004.645212354002
 22
263.6301586489009
 32
0.0
 13
1004.645212354002
 23
263.6301586489009
 33
0.0
  0
SOLID
  5
443
330
13B
100
AcDbEntity
  8
0
  6
SLD-Solid
 62
     0
440
 16777216
100
AcDbTrace
 10
1061.645212354002
 20
264.2968253155676
 30
0.0
 11
1061.645212354002
 21
262.9634919822342
 31
0.0
 12
1065.645212354002
 22
263.6301586489009
 32
0.0
 13
1065.645212354002
 23
263.6301586489009
 33
0.0
  0
MTEXT
  5
444
330
13B
100
AcDbEntity
  8
0
  6
SLD-Solid
 62
     0
440
 16777216
370
     0
100
AcDbMText
 10
1034.179937667757
 20
266.6424283264254
 30
0.0
 40
5.649956597222221
 41
0.0
 46
0.0
 71
     2
 72
     1
  1
\A1;61
  7
SLDTEXTSTYLE0
 73
     1
 44
1.0
  0
POINT
  5
445
330
13B
100
AcDbEntity
  8
DEFPOINTS
  6
SLD-Solid
 62
     0
440
 16777216
100
AcDbPoint
 10
1004.645212354002
 20
256.5982505963792
 30
0.0
  0
POINT
  5
446
330
13B
100
AcDbEntity
  8
DEFPOINTS
  6
SLD-Solid
 62
     0
440
 16777216
100
AcDbPoint
 10
1065.645212354002
 20
256.5982505963792
 30
0.0
  0
POINT
  5
447
330
13B
100
AcDbEntity
  8
DEFPOINTS
  6
SLD-Solid
 62
     0
440
 16777216
100
AcDbPoint
 10
1065.645212354002
 20
263.6301586489009
 30
0.0
  0
ENDBLK
  5
13D
330
13B
100
AcDbEntity
  8
0
100
AcDbBlockEnd
  0
BLOCK
  5
165
330
164
100
AcDbEntity
  8
0
100
AcDbBlockBegin
  2
_D_4
 70
     0
 10
0.0
 20
0.0
 30
0.0
  3
_D_4
  1

  0
LINE
  5
448
330
164
100
AcDbEntity
  8
0
  6
SLD-Solid
 62
     0
440
 16777216
370
    -2
100
AcDbLine
 10
1066.345212354002
 20
119.3139040858734
 30
0.0
 11
1066.345212354002
 21
154.1221184825091
 31
0.0
  0
LINE
  5
449
330
164
100
AcDbEntity
  8
0
  6
SLD-Solid
 62
     0
440
 16777216
370
    -2
100
AcDbLine
 10
1074.145212354002
 20
119.3139040858734
 30
0.0
 11
1074.145212354002
 21
154.1221184825091
 31
0.0
  0
LINE
  5
44A
330
164
100
AcDbEntity
  8
0
  6
SLD-Solid
 62
     0
440
 16777216
370
    -2
100
AcDbLine
 10
1062.345212354002
 20
154.1221184825091
 30
0.0
 11
1058.345212354002
 21
154.1221184825091
 31
0.0
  0
LINE
  5
44B
330
164
100
AcDbEntity
  8
0
  6
SLD-Solid
 62
     0
440
 16777216
370
    -2
100
AcDbLine
 10
1078.145212354002
 20
154.1221184825091
 30
0.0
 11
1090.083858529468
 21
154.1221184825091
 31
0.0
  0
LINE
  5
44C
330
164
100
AcDbEntity
  8
0
  6
SLD-Solid
 62
     0
440
 16777216
370
    -2
100
AcDbLine
 10
1066.345212354002
 20
154.1221184825091
 30
0.0
 11
1074.145212354002
 21
154.1221184825091
 31
0.0
  0
SOLID
  5
44D
330
164
100
AcDbEntity
  8
0
  6
SLD-Solid
 62
     0
440
 16777216
100
AcDbTrace
 10
1062.345212354002
 20
154.7887851491758
 30
0.0
 11
1062.345212354002
 21
153.4554518158424
 31
0.0
 12
1066.345212354002
 22
154.1221184825091
 32
0.0
 13
1066.345212354002
 23
154.1221184825091
 33
0.0
  0
SOLID
  5
44E
330
164
100
AcDbEntity
  8
0
  6
SLD-Solid
 62
     0
440
 16777216
100
AcDbTrace
 10
1078.145212354002
 20
154.7887851491758
 30
0.0
 11
1078.145212354002
 21
153.4554518158424
 31
0.0
 12
1074.145212354002
 22
154.1221184825091
 32
0.0
 13
1074.145212354002
 23
154.1221184825091
 33
0.0
  0
MTEXT
  5
44F
330
164
100
AcDbEntity
  8
0
  6
SLD-Solid
 62
     0
440
 16777216
370
     0
100
AcDbMText
 10
1097.005835741811
 20
157.2007205233988
 30
0.0
 40
5.649956597222221
 41
0.0
 46
0.0
 71
     2
 72
     1
  1
\A1;7.8
  7
SLDTEXTSTYLE0
 73
     1
 44
1.0
  0
POINT
  5
450
330
164
100
AcDbEntity
  8
DEFPOINTS
  6
SLD-Solid
 62
     0
440
 16777216
100
AcDbPoint
 10
1066.345212354002
 20
119.2514040858734
 30
0.0
  0
POINT
  5
451
330
164
100
AcDbEntity
  8
DEFPOINTS
  6
SLD-Solid
 62
     0
440
 16777216
100
AcDbPoint
 10
1074.145212354002
 20
119.2514040858734
 30
0.0
  0
POINT
  5
452
330
164
100
AcDbEntity
  8
DEFPOINTS
  6
SLD-Solid
 62
     0
440
 16777216
100
AcDbPoint
 10
1074.145212354002
 20
154.1221184825091
 30
0.0
  0
ENDBLK
  5
166
330
164
100
AcDbEntity
  8
0
100
AcDbBlockEnd
  0
BLOCK
  5
170
330
16F
100
AcDbEntity
  8
0
100
AcDbBlockBegin
  2
_D_5
 70
     0
 10
0.0
 20
0.0
 30
0.0
  3
_D_5
  1

  0
LINE
  5
453
330
16F
100
AcDbEntity
  8
0
  6
SLD-Solid
 62
     0
440
 16777216
370
    -2
100
AcDbLine
 10
1003.245212354002
 20
119.3139040858734
 30
0.0
 11
1003.245212354002
 21
166.2514040858735
 31
0.0
  0
LINE
  5
454
330
16F
100
AcDbEntity
  8
0
  6
SLD-Solid
 62
     0
440
 16777216
370
    -2
100
AcDbLine
 10
1066.345212354002
 20
119.3139040858734
 30
0.0
 11
1066.345212354002
 21
166.2514040858735
 31
0.0
  0
LINE
  5
455
330
16F
100
AcDbEntity
  8
0
  6
SLD-Solid
 62
     0
440
 16777216
370
    -2
100
AcDbLine
 10
1007.245212354002
 20
166.2514040858735
 30
0.0
 11
1028.144811484769
 21
166.2514040858735
 31
0.0
  0
LINE
  5
456
330
16F
100
AcDbEntity
  8
0
  6
SLD-Solid
 62
     0
440
 16777216
370
    -2
100
AcDbLine
 10
1062.345212354002
 20
166.2514040858735
 30
0.0
 11
1045.328795500078
 21
166.2514040858735
 31
0.0
  0
SOLID
  5
457
330
16F
100
AcDbEntity
  8
0
  6
SLD-Solid
 62
     0
440
 16777216
100
AcDbTrace
 10
1007.245212354002
 20
166.9180707525402
 30
0.0
 11
1007.245212354002
 21
165.5847374192069
 31
0.0
 12
1003.245212354002
 22
166.2514040858735
 32
0.0
 13
1003.245212354002
 23
166.2514040858735
 33
0.0
  0
SOLID
  5
458
330
16F
100
AcDbEntity
  8
0
  6
SLD-Solid
 62
     0
440
 16777216
100
AcDbTrace
 10
1062.345212354002
 20
166.9180707525402
 30
0.0
 11
1062.345212354002
 21
165.5847374192069
 31
0.0
 12
1066.345212354002
 22
166.2514040858735
 32
0.0
 13
1066.345212354002
 23
166.2514040858735
 33
0.0
  0
MTEXT
  5
459
330
16F
100
AcDbEntity
  8
0
  6
SLD-Solid
 62
     0
440
 16777216
370
     0
100
AcDbMText
 10
1036.736803492424
 20
169.3300061267633
 30
0.0
 40
5.649956597222221
 41
0.0
 46
0.0
 71
     2
 72
     1
  1
\A1;63.1
  7
SLDTEXTSTYLE0
 73
     1
 44
1.0
  0
POINT
  5
45A
330
16F
100
AcDbEntity
  8
DEFPOINTS
  6
SLD-Solid
 62
     0
440
 16777216
100
AcDbPoint
 10
1003.245212354002
 20
119.2514040858734
 30
0.0
  0
POINT
  5
45B
330
16F
100
AcDbEntity
  8
DEFPOINTS
  6
SLD-Solid
 62
     0
440
 16777216
100
AcDbPoint
 10
1066.345212354002
 20
119.2514040858734
 30
0.0
  0
POINT
  5
45C
330
16F
100
AcDbEntity
  8
DEFPOINTS
  6
SLD-Solid
 62
     0
440
 16777216
100
AcDbPoint
 10
1066.345212354002
 20
166.2514040858735
 30
0.0
  0
ENDBLK
  5
171
330
16F
100
AcDbEntity
  8
0
100
AcDbBlockEnd
  0
BLOCK
  5
17B
330
17A
100
AcDbEntity
  8
0
100
AcDbBlockBegin
  2
_D_6
 70
     0
 10
0.0
 20
0.0
 30
0.0
  3
_D_6
  1

  0
LINE
  5
45D
330
17A
100
AcDbEntity
  8
0
  6
SLD-Solid
 62
     0
440
 16777216
370
    -2
100
AcDbLine
 10
1072.182712354002
 20
121.2764040858734
 30
0.0
 11
1090.145212354002
 21
121.2764040858734
 31
0.0
  0
LINE
  5
45E
330
17A
100
AcDbEntity
  8
0
  6
SLD-Solid
 62
     0
440
 16777216
370
    -2
100
AcDbLine
 10
1072.182712354002
 20
117.2264040858734
 30
0.0
 11
1090.145212354002
 21
117.2264040858734
 31
0.0
  0
LINE
  5
45F
330
17A
100
AcDbEntity
  8
0
  6
SLD-Solid
 62
     0
440
 16777216
370
    -2
100
AcDbLine
 10
1090.145212354002
 20
113.2264040858734
 30
0.0
 11
1090.145212354002
 21
109.2264040858734
 31
0.0
  0
LINE
  5
460
330
17A
100
AcDbEntity
  8
0
  6
SLD-Solid
 62
     0
440
 16777216
370
    -2
100
AcDbLine
 10
1090.145212354002
 20
125.2764040858734
 30
0.0
 11
1090.145212354002
 21
131.1359027417086
 31
0.0
  0
LINE
  5
461
330
17A
100
AcDbEntity
  8
0
  6
SLD-Solid
 62
     0
440
 16777216
370
    -2
100
AcDbLine
 10
1090.145212354002
 20
117.2264040858734
 30
0.0
 11
1090.145212354002
 21
121.2764040858734
 31
0.0
  0
SOLID
  5
462
330
17A
100
AcDbEntity
  8
0
  6
SLD-Solid
 62
     0
440
 16777216
100
AcDbTrace
 10
1089.478545687335
 20
113.2264040858734
 30
0.0
 11
1090.811879020669
 21
113.2264040858734
 31
0.0
 12
1090.145212354002
 22
117.2264040858734
 32
0.0
 13
1090.145212354002
 23
117.2264040858734
 33
0.0
  0
SOLID
  5
463
330
17A
100
AcDbEntity
  8
0
  6
SLD-Solid
 62
     0
440
 16777216
100
AcDbTrace
 10
1089.478545687335
 20
125.2764040858734
 30
0.0
 11
1090.811879020669
 21
125.2764040858734
 31
0.0
 12
1090.145212354002
 22
121.2764040858734
 32
0.0
 13
1090.145212354002
 23
121.2764040858734
 33
0.0
  0
MTEXT
  5
464
330
17A
100
AcDbEntity
  8
0
  6
SLD-Solid
 62
     0
440
 16777216
370
     0
100
AcDbMText
 10
1087.066610313112
 20
137.8393733453191
 30
0.0
 40
5.649956597222221
 41
0.0
 46
0.0
 71
     2
 72
     1
  1
\A1;4.1
  7
SLDTEXTSTYLE0
 11
0.0000000000000001
 21
1.0
 31
0.0
 73
     1
 44
1.0
  0
POINT
  5
465
330
17A
100
AcDbEntity
  8
DEFPOINTS
  6
SLD-Solid
 62
     0
440
 16777216
100
AcDbPoint
 10
1072.120212354002
 20
121.2764040858734
 30
0.0
  0
POINT
  5
466
330
17A
100
AcDbEntity
  8
DEFPOINTS
  6
SLD-Solid
 62
     0
440
 16777216
100
AcDbPoint
 10
1072.120212354002
 20
117.2264040858734
 30
0.0
  0
POINT
  5
467
330
17A
100
AcDbEntity
  8
DEFPOINTS
  6
SLD-Solid
 62
     0
440
 16777216
100
AcDbPoint
 10
1090.145212354002
 20
117.2264040858734
 30
0.0
  0
ENDBLK
  5
17C
330
17A
100
AcDbEntity
  8
0
100
AcDbBlockEnd
  0
BLOCK
  5
187
330
186
100
AcDbEntity
  8
0
100
AcDbBlockBegin
  2
_D_7
 70
     0
 10
0.0
 20
0.0
 30
0.0
  3
_D_7
  1

  0
LINE
  5
468
330
186
100
AcDbEntity
  8
0
  6
SLD-Solid
 62
     0
440
 16777216
370
    -2
100
AcDbLine
 10
1100.195563970141
 20
102.7261286266665
 30
0.0
 11
1095.720751561933
 21
102.7261286266665
 31
0.0
  0
LINE
  5
469
330
186
100
AcDbEntity
  8
0
  6
SLD-Solid
 62
     0
440
 16777216
370
    -2
100
AcDbLine
 10
1095.720751561933
 20
102.7261286266665
 30
0.0
 11
1077.055603420843
 21
115.7956060568584
 31
0.0
  0
MTEXT
  5
46A
330
186
100
AcDbEntity
  8
0
  6
SLD-Solid
 62
     0
440
 16777216
370
     0
100
AcDbMText
 10
1101.608053119446
 20
105.7071830743722
 30
0.0
 40
5.649956597222221
 41
0.0
 46
0.0
 71
     1
 72
     1
  1
\A1;R2
  7
SLDTEXTSTYLE0
 73
     1
 44
1.0
  0
SOLID
  5
46B
330
186
100
AcDbEntity
  8
0
  6
SLD-Solid
 62
     0
440
 16777216
100
AcDbTrace
 10
1077.437987711744
 20
116.3417074197177
 30
0.0
 11
1076.673219129942
 21
115.2495046939991
 31
0.0
 12
1073.778995243687
 22
118.0899118022626
 32
0.0
 13
1073.778995243687
 23
118.0899118022626
 33
0.0
  0
POINT
  5
46C
330
186
100
AcDbEntity
  8
DEFPOINTS
  6
SLD-Solid
 62
     0
440
 16777216
100
AcDbPoint
 10
1073.778995243687
 20
118.0899118022626
 30
0.0
  0
POINT
  5
46D
330
186
100
AcDbEntity
  8
DEFPOINTS
  6
SLD-Solid
 62
     0
440
 16777216
100
AcDbPoint
 10
1072.120212354002
 20
119.2514040858734
 30
0.0
  0
ENDBLK
  5
188
330
186
100
AcDbEntity
  8
0
100
AcDbBlockEnd
  0
BLOCK
  5
18F
330
18E
100
AcDbEntity
  8
0
100
AcDbBlockBegin
  2
_D_8
 70
     0
 10
0.0
 20
0.0
 30
0.0
  3
_D_8
  1

  0
LINE
  5
46E
330
18E
100
AcDbEntity
  8
0
  6
SLD-Solid
 62
     0
440
 16777216
370
    -2
100
AcDbLine
 10
1004.582712354002
 20
128.7514040858734
 30
0.0
 11
974.0111738468973
 21
128.7514040858734
 31
0.0
  0
LINE
  5
46F
330
18E
100
AcDbEntity
  8
0
  6
SLD-Solid
 62
     0
440
 16777216
370
    -2
100
AcDbLine
 10
1004.582712354002
 20
109.7514040858734
 30
0.0
 11
974.0111738468973
 21
109.7514040858734
 31
0.0
  0
LINE
  5
470
330
18E
100
AcDbEntity
  8
0
  6
SLD-Solid
 62
     0
440
 16777216
370
    -2
100
AcDbLine
 10
974.0111738468973
 20
132.7514040858734
 30
0.0
 11
974.0111738468973
 21
136.7514040858734
 31
0.0
  0
LINE
  5
471
330
18E
100
AcDbEntity
  8
0
  6
SLD-Solid
 62
     0
440
 16777216
370
    -2
100
AcDbLine
 10
974.0111738468973
 20
105.7514040858734
 30
0.0
 11
974.0111738468973
 21
101.7514040858734
 31
0.0
  0
LINE
  5
472
330
18E
100
AcDbEntity
  8
0
  6
SLD-Solid
 62
     0
440
 16777216
370
    -2
100
AcDbLine
 10
974.0111738468973
 20
128.7514040858734
 30
0.0
 11
974.0111738468973
 21
125.1403911902221
 31
0.0
  0
LINE
  5
473
330
18E
100
AcDbEntity
  8
0
  6
SLD-Solid
 62
     0
440
 16777216
370
    -2
100
AcDbLine
 10
974.0111738468973
 20
109.7514040858734
 30
0.0
 11
974.0111738468973
 21
115.6275499029101
 31
0.0
  0
SOLID
  5
474
330
18E
100
AcDbEntity
  8
0
  6
SLD-Solid
 62
     0
440
 16777216
100
AcDbTrace
 10
973.3445071802307
 20
132.7514040858734
 30
0.0
 11
974.6778405135639
 21
132.7514040858734
 31
0.0
 12
974.0111738468973
 22
128.7514040858734
 32
0.0
 13
974.0111738468973
 23
128.7514040858734
 33
0.0
  0
SOLID
  5
475
330
18E
100
AcDbEntity
  8
0
  6
SLD-Solid
 62
     0
440
 16777216
100
AcDbTrace
 10
973.3445071802307
 20
105.7514040858734
 30
0.0
 11
974.6778405135639
 21
105.7514040858734
 31
0.0
 12
974.0111738468973
 22
109.7514040858734
 32
0.0
 13
974.0111738468973
 23
109.7514040858734
 33
0.0
  0
MTEXT
  5
476
330
18E
100
AcDbEntity
  8
0
  6
SLD-Solid
 62
     0
440
 16777216
370
     0
100
AcDbMText
 10
970.9989041693729
 20
120.3839705465662
 30
0.0
 40
5.649956597222221
 41
0.0
 46
0.0
 71
     2
 72
     1
  1
\A1;19
  7
SLDTEXTSTYLE0
 11
0.0000000000000001
 21
1.0
 31
0.0
 73
     1
 44
1.0
  0
POINT
  5
477
330
18E
100
AcDbEntity
  8
DEFPOINTS
  6
SLD-Solid
 62
     0
440
 16777216
100
AcDbPoint
 10
1004.645212354002
 20
128.7514040858734
 30
0.0
  0
POINT
  5
478
330
18E
100
AcDbEntity
  8
DEFPOINTS
  6
SLD-Solid
 62
     0
440
 16777216
100
AcDbPoint
 10
1004.645212354002
 20
109.7514040858734
 30
0.0
  0
POINT
  5
479
330
18E
100
AcDbEntity
  8
DEFPOINTS
  6
SLD-Solid
 62
     0
440
 16777216
100
AcDbPoint
 10
974.0111738468973
 20
109.7514040858734
 30
0.0
  0
ENDBLK
  5
190
330
18E
100
AcDbEntity
  8
0
100
AcDbBlockEnd
  0
BLOCK
  5
19A
330
199
100
AcDbEntity
  8
0
100
AcDbBlockBegin
  2
_D_9
 70
     0
 10
0.0
 20
0.0
 30
0.0
  3
_D_9
  1

  0
LINE
  5
47A
330
199
100
AcDbEntity
  8
0
  6
SLD-Solid
 62
     0
440
 16777216
370
    -2
100
AcDbLine
 10
974.206899627854
 20
149.0825124186186
 30
0.0
 11
978.2139403543865
 21
149.0825124186186
 31
0.0
  0
LINE
  5
47B
330
199
100
AcDbEntity
  8
0
  6
SLD-Solid
 62
     0
440
 16777216
370
    -2
100
AcDbLine
 10
978.2139403543865
 20
149.0825124186186
 30
0.0
 11
994.5675796232338
 21
129.5930040679797
 31
0.0
  0
MTEXT
  5
47C
330
199
100
AcDbEntity
  8
0
  6
SLD-Solid
 62
     0
440
 16777216
370
     0
100
AcDbMText
 10
957.5223592896481
 20
152.1611144595083
 30
0.0
 40
5.649956597222221
 41
0.0
 46
0.0
 71
     1
 72
     1
  1
\A1;R9.5
  7
SLDTEXTSTYLE0
 73
     1
 44
1.0
  0
SOLID
  5
47D
330
199
100
AcDbEntity
  8
0
  6
SLD-Solid
 62
     0
440
 16777216
100
AcDbTrace
 10
995.0782759186463
 20
130.021529141104
 30
0.0
 11
994.0568833278211
 21
129.1644789948554
 31
0.0
 12
997.1387300619799
 22
126.5288262955038
 32
0.0
 13
997.1387300619799
 23
126.5288262955038
 33
0.0
  0
POINT
  5
47E
330
199
100
AcDbEntity
  8
DEFPOINTS
  6
SLD-Solid
 62
     0
440
 16777216
100
AcDbPoint
 10
997.1387300619799
 20
126.5288262955038
 30
0.0
  0
POINT
  5
47F
330
199
100
AcDbEntity
  8
DEFPOINTS
  6
SLD-Solid
 62
     0
440
 16777216
100
AcDbPoint
 10
1003.245212354002
 20
119.2514040858734
 30
0.0
  0
ENDBLK
  5
19B
330
199
100
AcDbEntity
  8
0
100
AcDbBlockEnd
  0
BLOCK
  5
1B9
330
1B8
100
AcDbEntity
  8
0
100
AcDbBlockBegin
  2
_D_10
 70
     0
 10
0.0
 20
0.0
 30
0.0
  3
_D_10
  1

  0
LINE
  5
480
330
1B8
100
AcDbEntity
  8
0
  6
SLD-Solid
 62
     0
440
 16777216
370
    -2
100
AcDbLine
 10
1156.486304999949
 20
217.0982505963792
 30
0.0
 11
1148.96602036555
 21
217.0982505963792
 31
0.0
  0
LINE
  5
481
330
1B8
100
AcDbEntity
  8
0
  6
SLD-Solid
 62
     0
440
 16777216
370
    -2
100
AcDbLine
 10
1166.236304999949
 20
205.5982505963792
 30
0.0
 11
1148.96602036555
 21
205.5982505963792
 31
0.0
  0
LINE
  5
482
330
1B8
100
AcDbEntity
  8
0
  6
SLD-Solid
 62
     0
440
 16777216
370
    -2
100
AcDbLine
 10
1148.96602036555
 20
213.0982505963792
 30
0.0
 11
1148.96602036555
 21
209.5982505963792
 31
0.0
  0
LINE
  5
483
330
1B8
100
AcDbEntity
  8
0
  6
SLD-Solid
 62
     0
440
 16777216
370
    -2
100
AcDbLine
 10
1148.96602036555
 20
205.5982505963792
 30
0.0
 11
1148.96602036555
 21
193.2593075499094
 31
0.0
  0
SOLID
  5
484
330
1B8
100
AcDbEntity
  8
0
  6
SLD-Solid
 62
     0
440
 16777216
100
AcDbTrace
 10
1148.299353698884
 20
213.0982505963792
 30
0.0
 11
1149.632687032217
 21
213.0982505963792
 31
0.0
 12
1148.96602036555
 22
217.0982505963792
 32
0.0
 13
1148.96602036555
 23
217.0982505963792
 33
0.0
  0
SOLID
  5
485
330
1B8
100
AcDbEntity
  8
0
  6
SLD-Solid
 62
     0
440
 16777216
100
AcDbTrace
 10
1148.299353698884
 20
209.5982505963792
 30
0.0
 11
1149.632687032217
 21
209.5982505963792
 31
0.0
 12
1148.96602036555
 22
205.5982505963792
 32
0.0
 13
1148.96602036555
 23
205.5982505963792
 33
0.0
  0
MTEXT
  5
486
330
1B8
100
AcDbEntity
  8
0
  6
SLD-Solid
 62
     0
440
 16777216
370
     0
100
AcDbMText
 10
1145.887418324661
 20
184.5073374894334
 30
0.0
 40
5.649956597222221
 41
0.0
 46
0.0
 71
     2
 72
     1
  1
\A1;11.5
  7
SLDTEXTSTYLE0
 11
0.0000000000000001
 21
1.0
 31
0.0
 73
     1
 44
1.0
  0
POINT
  5
487
330
1B8
100
AcDbEntity
  8
DEFPOINTS
  6
SLD-Solid
 62
     0
440
 16777216
100
AcDbPoint
 10
1156.548804999949
 20
217.0982505963792
 30
0.0
  0
POINT
  5
488
330
1B8
100
AcDbEntity
  8
DEFPOINTS
  6
SLD-Solid
 62
     0
440
 16777216
100
AcDbPoint
 10
1166.298804999949
 20
205.5982505963792
 30
0.0
  0
POINT
  5
489
330
1B8
100
AcDbEntity
  8
DEFPOINTS
  6
SLD-Solid
 62
     0
440
 16777216
100
AcDbPoint
 10
1148.96602036555
 20
205.5982505963792
 30
0.0
  0
ENDBLK
  5
1BA
330
1B8
100
AcDbEntity
  8
0
100
AcDbBlockEnd
  0
BLOCK
  5
1C4
330
1C3
100
AcDbEntity
  8
0
100
AcDbBlockBegin
  2
_D_11
 70
     0
 10
0.0
 20
0.0
 30
0.0
  3
_D_11
  1

  0
LINE
  5
48A
330
1C3
100
AcDbEntity
  8
0
  6
SLD-Solid
 62
     0
440
 16777216
370
    -2
100
AcDbLine
 10
1156.486304999949
 20
246.5982505963792
 30
0.0
 11
1132.548804999949
 21
246.5982505963792
 31
0.0
  0
LINE
  5
48B
330
1C3
100
AcDbEntity
  8
0
  6
SLD-Solid
 62
     0
440
 16777216
370
    -2
100
AcDbLine
 10
1156.486304999949
 20
217.0982505963792
 30
0.0
 11
1132.548804999949
 21
217.0982505963792
 31
0.0
  0
LINE
  5
48C
330
1C3
100
AcDbEntity
  8
0
  6
SLD-Solid
 62
     0
440
 16777216
370
    -2
100
AcDbLine
 10
1132.548804999949
 20
250.5982505963792
 30
0.0
 11
1132.548804999949
 21
254.5982505963792
 31
0.0
  0
LINE
  5
48D
330
1C3
100
AcDbEntity
  8
0
  6
SLD-Solid
 62
     0
440
 16777216
370
    -2
100
AcDbLine
 10
1132.548804999949
 20
213.0982505963792
 30
0.0
 11
1132.548804999949
 21
209.0982505963792
 31
0.0
  0
LINE
  5
48E
330
1C3
100
AcDbEntity
  8
0
  6
SLD-Solid
 62
     0
440
 16777216
370
    -2
100
AcDbLine
 10
1132.548804999949
 20
246.5982505963792
 30
0.0
 11
1132.548804999949
 21
242.738947771794
 31
0.0
  0
LINE
  5
48F
330
1C3
100
AcDbEntity
  8
0
  6
SLD-Solid
 62
     0
440
 16777216
370
    -2
100
AcDbLine
 10
1132.548804999949
 20
217.0982505963792
 30
0.0
 11
1132.548804999949
 21
224.8916401228338
 31
0.0
  0
SOLID
  5
490
330
1C3
100
AcDbEntity
  8
0
  6
SLD-Solid
 62
     0
440
 16777216
100
AcDbTrace
 10
1131.882138333282
 20
250.5982505963792
 30
0.0
 11
1133.215471666616
 21
250.5982505963792
 31
0.0
 12
1132.548804999949
 22
246.5982505963792
 32
0.0
 13
1132.548804999949
 23
246.5982505963792
 33
0.0
  0
SOLID
  5
491
330
1C3
100
AcDbEntity
  8
0
  6
SLD-Solid
 62
     0
440
 16777216
100
AcDbTrace
 10
1131.882138333282
 20
213.0982505963792
 30
0.0
 11
1133.215471666616
 21
213.0982505963792
 31
0.0
 12
1132.548804999949
 22
217.0982505963792
 32
0.0
 13
1132.548804999949
 23
217.0982505963792
 33
0.0
  0
MTEXT
  5
492
330
1C3
100
AcDbEntity
  8
0
  6
SLD-Solid
 62
     0
440
 16777216
370
     0
100
AcDbMText
 10
1129.470202959059
 20
233.8152939473141
 30
0.0
 40
5.649956597222221
 41
0.0
 46
0.0
 71
     2
 72
     1
  1
\A1;29.5
  7
SLDTEXTSTYLE0
 11
0.0000000000000001
 21
1.0
 31
0.0
 73
     1
 44
1.0
  0
POINT
  5
493
330
1C3
100
AcDbEntity
  8
DEFPOINTS
  6
SLD-Solid
 62
     0
440
 16777216
100
AcDbPoint
 10
1156.548804999949
 20
246.5982505963792
 30
0.0
  0
POINT
  5
494
330
1C3
100
AcDbEntity
  8
DEFPOINTS
  6
SLD-Solid
 62
     0
440
 16777216
100
AcDbPoint
 10
1156.548804999949
 20
217.0982505963792
 30
0.0
  0
POINT
  5
495
330
1C3
100
AcDbEntity
  8
DEFPOINTS
  6
SLD-Solid
 62
     0
440
 16777216
100
AcDbPoint
 10
1132.548804999949
 20
217.0982505963792
 30
0.0
  0
ENDBLK
  5
1C5
330
1C3
100
AcDbEntity
  8
0
100
AcDbBlockEnd
  0
BLOCK
  5
1CF
330
1CE
100
AcDbEntity
  8
0
100
AcDbBlockBegin
  2
_D_12
 70
     0
 10
0.0
 20
0.0
 30
0.0
  3
_D_12
  1

  0
LINE
  5
496
330
1CE
100
AcDbEntity
  8
0
  6
SLD-Solid
 62
     0
440
 16777216
370
    -2
100
AcDbLine
 10
1166.298804999949
 20
256.6607505963792
 30
0.0
 11
1166.298804999949
 21
268.5982505963791
 31
0.0
  0
LINE
  5
497
330
1CE
100
AcDbEntity
  8
0
  6
SLD-Solid
 62
     0
440
 16777216
370
    -2
100
AcDbLine
 10
1193.798804999949
 20
256.6607505963792
 30
0.0
 11
1193.798804999949
 21
268.5982505963791
 31
0.0
  0
LINE
  5
498
330
1CE
100
AcDbEntity
  8
0
  6
SLD-Solid
 62
     0
440
 16777216
370
    -2
100
AcDbLine
 10
1170.298804999949
 20
268.5982505963791
 30
0.0
 11
1171.057900403041
 21
268.5982505963791
 31
0.0
  0
LINE
  5
499
330
1CE
100
AcDbEntity
  8
0
  6
SLD-Solid
 62
     0
440
 16777216
370
    -2
100
AcDbLine
 10
1189.798804999949
 20
268.5982505963791
 30
0.0
 11
1188.905208052001
 21
268.5982505963791
 31
0.0
  0
SOLID
  5
49A
330
1CE
100
AcDbEntity
  8
0
  6
SLD-Solid
 62
     0
440
 16777216
100
AcDbTrace
 10
1170.298804999949
 20
269.2649172630458
 30
0.0
 11
1170.298804999949
 21
267.9315839297124
 31
0.0
 12
1166.298804999949
 22
268.5982505963791
 32
0.0
 13
1166.298804999949
 23
268.5982505963791
 33
0.0
  0
SOLID
  5
49B
330
1CE
100
AcDbEntity
  8
0
  6
SLD-Solid
 62
     0
440
 16777216
100
AcDbTrace
 10
1189.798804999949
 20
269.2649172630458
 30
0.0
 11
1189.798804999949
 21
267.9315839297124
 31
0.0
 12
1193.798804999949
 22
268.5982505963791
 32
0.0
 13
1193.798804999949
 23
268.5982505963791
 33
0.0
  0
MTEXT
  5
49C
330
1CE
100
AcDbEntity
  8
0
  6
SLD-Solid
 62
     0
440
 16777216
370
     0
100
AcDbMText
 10
1179.981554227521
 20
271.6768526372689
 30
0.0
 40
5.649956597222221
 41
0.0
 46
0.0
 71
     2
 72
     1
  1
\A1;27.5
  7
SLDTEXTSTYLE0
 73
     1
 44
1.0
  0
POINT
  5
49D
330
1CE
100
AcDbEntity
  8
DEFPOINTS
  6
SLD-Solid
 62
     0
440
 16777216
100
AcDbPoint
 10
1166.298804999949
 20
256.5982505963792
 30
0.0
  0
POINT
  5
49E
330
1CE
100
AcDbEntity
  8
DEFPOINTS
  6
SLD-Solid
 62
     0
440
 16777216
100
AcDbPoint
 10
1193.798804999949
 20
256.5982505963792
 30
0.0
  0
POINT
  5
49F
330
1CE
100
AcDbEntity
  8
DEFPOINTS
  6
SLD-Solid
 62
     0
440
 16777216
100
AcDbPoint
 10
1193.798804999949
 20
268.5982505963791
 30
0.0
  0
ENDBLK
  5
1D0
330
1CE
100
AcDbEntity
  8
0
100
AcDbBlockEnd
  0
BLOCK
  5
200
330
1FF
100
AcDbEntity
  8
0
100
AcDbBlockBegin
  2
_D_13
 70
     0
 10
0.0
 20
0.0
 30
0.0
  3
_D_13
  1

  0
LINE
  5
4A0
330
1FF
100
AcDbEntity
  8
0
  6
SLD-Solid
 62
     0
440
 16777216
370
    -2
100
AcDbLine
 10
1053.957712354002
 20
353.3735603889316
 30
0.0
 11
1102.145212354002
 21
353.3735603889316
 31
0.0
  0
LINE
  5
4A1
330
1FF
100
AcDbEntity
  8
0
  6
SLD-Solid
 62
     0
440
 16777216
370
    -2
100
AcDbLine
 10
1053.957712354002
 20
306.3735603889317
 30
0.0
 11
1102.145212354002
 21
306.3735603889317
 31
0.0
  0
LINE
  5
4A2
330
1FF
100
AcDbEntity
  8
0
  6
SLD-Solid
 62
     0
440
 16777216
370
    -2
100
AcDbLine
 10
1102.145212354002
 20
349.3735603889316
 30
0.0
 11
1102.145212354002
 21
335.0506352545317
 31
0.0
  0
LINE
  5
4A3
330
1FF
100
AcDbEntity
  8
0
  6
SLD-Solid
 62
     0
440
 16777216
370
    -2
100
AcDbLine
 10
1102.145212354002
 20
310.3735603889317
 30
0.0
 11
1102.145212354002
 21
324.9212931782963
 31
0.0
  0
SOLID
  5
4A4
330
1FF
100
AcDbEntity
  8
0
  6
SLD-Solid
 62
     0
440
 16777216
100
AcDbTrace
 10
1101.478545687335
 20
349.3735603889316
 30
0.0
 11
1102.811879020669
 21
349.3735603889316
 31
0.0
 12
1102.145212354002
 22
353.3735603889316
 32
0.0
 13
1102.145212354002
 23
353.3735603889316
 33
0.0
  0
SOLID
  5
4A5
330
1FF
100
AcDbEntity
  8
0
  6
SLD-Solid
 62
     0
440
 16777216
100
AcDbTrace
 10
1101.478545687335
 20
310.3735603889317
 30
0.0
 11
1102.811879020669
 21
310.3735603889317
 31
0.0
 12
1102.145212354002
 22
306.3735603889317
 32
0.0
 13
1102.145212354002
 23
306.3735603889317
 33
0.0
  0
MTEXT
  5
4A6
330
1FF
100
AcDbEntity
  8
0
  6
SLD-Solid
 62
     0
440
 16777216
370
     0
100
AcDbMText
 10
1099.132942676477
 20
329.9859642164141
 30
0.0
 40
5.649956597222221
 41
0.0
 46
0.0
 71
     2
 72
     1
  1
\A1;47
  7
SLDTEXTSTYLE0
 11
0.0000000000000001
 21
1.0
 31
0.0
 73
     1
 44
1.0
  0
POINT
  5
4A7
330
1FF
100
AcDbEntity
  8
DEFPOINTS
  6
SLD-Solid
 62
     0
440
 16777216
100
AcDbPoint
 10
1053.895212354002
 20
353.3735603889316
 30
0.0
  0
POINT
  5
4A8
330
1FF
100
AcDbEntity
  8
DEFPOINTS
  6
SLD-Solid
 62
     0
440
 16777216
100
AcDbPoint
 10
1053.895212354002
 20
306.3735603889317
 30
0.0
  0
POINT
  5
4A9
330
1FF
100
AcDbEntity
  8
DEFPOINTS
  6
SLD-Solid
 62
     0
440
 16777216
100
AcDbPoint
 10
1102.145212354002
 20
306.3735603889317
 30
0.0
  0
ENDBLK
  5
201
330
1FF
100
AcDbEntity
  8
0
100
AcDbBlockEnd
  0
BLOCK
  5
20B
330
20A
100
AcDbEntity
  8
0
100
AcDbBlockBegin
  2
_D_14
 70
     0
 10
0.0
 20
0.0
 30
0.0
  3
_D_14
  1

  0
LINE
  5
4AA
330
20A
100
AcDbEntity
  8
0
  6
SLD-Solid
 62
     0
440
 16777216
370
    -2
100
AcDbLine
 10
1016.395212354002
 20
306.3110603889317
 30
0.0
 11
1016.395212354002
 21
283.9633700395301
 31
0.0
  0
LINE
  5
4AB
330
20A
100
AcDbEntity
  8
0
  6
SLD-Solid
 62
     0
440
 16777216
370
    -2
100
AcDbLine
 10
1053.895212354002
 20
306.3110603889317
 30
0.0
 11
1053.895212354002
 21
283.9633700395301
 31
0.0
  0
LINE
  5
4AC
330
20A
100
AcDbEntity
  8
0
  6
SLD-Solid
 62
     0
440
 16777216
370
    -2
100
AcDbLine
 10
1020.395212354002
 20
283.9633700395301
 30
0.0
 11
1023.549667787347
 21
283.9633700395301
 31
0.0
  0
LINE
  5
4AD
330
20A
100
AcDbEntity
  8
0
  6
SLD-Solid
 62
     0
440
 16777216
370
    -2
100
AcDbLine
 10
1049.895212354002
 20
283.9633700395301
 30
0.0
 11
1041.396975436307
 21
283.9633700395301
 31
0.0
  0
SOLID
  5
4AE
330
20A
100
AcDbEntity
  8
0
  6
SLD-Solid
 62
     0
440
 16777216
100
AcDbTrace
 10
1020.395212354002
 20
284.6300367061968
 30
0.0
 11
1020.395212354002
 21
283.2967033728634
 31
0.0
 12
1016.395212354002
 22
283.9633700395301
 32
0.0
 13
1016.395212354002
 23
283.9633700395301
 33
0.0
  0
SOLID
  5
4AF
330
20A
100
AcDbEntity
  8
0
  6
SLD-Solid
 62
     0
440
 16777216
100
AcDbTrace
 10
1049.895212354002
 20
284.6300367061968
 30
0.0
 11
1049.895212354002
 21
283.2967033728634
 31
0.0
 12
1053.895212354002
 22
283.9633700395301
 32
0.0
 13
1053.895212354002
 23
283.9633700395301
 33
0.0
  0
MTEXT
  5
4B0
330
20A
100
AcDbEntity
  8
0
  6
SLD-Solid
 62
     0
440
 16777216
370
     0
100
AcDbMText
 10
1032.473321611827
 20
287.0419720804198
 30
0.0
 40
5.649956597222221
 41
0.0
 46
0.0
 71
     2
 72
     1
  1
\A1;37.5
  7
SLDTEXTSTYLE0
 73
     1
 44
1.0
  0
POINT
  5
4B1
330
20A
100
AcDbEntity
  8
DEFPOINTS
  6
SLD-Solid
 62
     0
440
 16777216
100
AcDbPoint
 10
1016.395212354002
 20
306.3735603889317
 30
0.0
  0
POINT
  5
4B2
330
20A
100
AcDbEntity
  8
DEFPOINTS
  6
SLD-Solid
 62
     0
440
 16777216
100
AcDbPoint
 10
1053.895212354002
 20
306.3735603889317
 30
0.0
  0
POINT
  5
4B3
330
20A
100
AcDbEntity
  8
DEFPOINTS
  6
SLD-Solid
 62
     0
440
 16777216
100
AcDbPoint
 10
1053.895212354002
 20
283.9633700395301
 30
0.0
  0
ENDBLK
  5
20C
330
20A
100
AcDbEntity
  8
0
100
AcDbBlockEnd
  0
BLOCK
  5
216
330
215
100
AcDbEntity
  8
0
100
AcDbBlockBegin
  2
_D_15
 70
     0
 10
0.0
 20
0.0
 30
0.0
  3
_D_15
  1

  0
LINE
  5
4B4
330
215
100
AcDbEntity
  8
0
  6
SLD-Solid
 62
     0
440
 16777216
370
    -2
100
AcDbLine
 10
1025.145212354002
 20
352.1860603889316
 30
0.0
 11
1025.145212354002
 21
358.8849108725585
 31
0.0
  0
LINE
  5
4B5
330
215
100
AcDbEntity
  8
0
  6
SLD-Solid
 62
     0
440
 16777216
370
    -2
100
AcDbLine
 10
1030.145212354002
 20
352.1860603889316
 30
0.0
 11
1030.145212354002
 21
358.8849108725585
 31
0.0
  0
LINE
  5
4B6
330
215
100
AcDbEntity
  8
0
  6
SLD-Solid
 62
     0
440
 16777216
370
    -2
100
AcDbLine
 10
1034.145212354002
 20
358.8849108725585
 30
0.0
 11
1038.145212354002
 21
358.8849108725585
 31
0.0
  0
LINE
  5
4B7
330
215
100
AcDbEntity
  8
0
  6
SLD-Solid
 62
     0
440
 16777216
370
    -2
100
AcDbLine
 10
1021.145212354002
 20
358.8849108725585
 30
0.0
 11
1017.145212354002
 21
358.8849108725585
 31
0.0
  0
LINE
  5
4B8
330
215
100
AcDbEntity
  8
0
  6
SLD-Solid
 62
     0
440
 16777216
370
    -2
100
AcDbLine
 10
1030.145212354002
 20
358.8849108725585
 30
0.0
 11
1025.145212354002
 21
358.8849108725585
 31
0.0
  0
SOLID
  5
4B9
330
215
100
AcDbEntity
  8
0
  6
SLD-Solid
 62
     0
440
 16777216
100
AcDbTrace
 10
1034.145212354002
 20
359.5515775392252
 30
0.0
 11
1034.145212354002
 21
358.2182442058918
 31
0.0
 12
1030.145212354002
 22
358.8849108725585
 32
0.0
 13
1030.145212354002
 23
358.8849108725585
 33
0.0
  0
SOLID
  5
4BA
330
215
100
AcDbEntity
  8
0
  6
SLD-Solid
 62
     0
440
 16777216
100
AcDbTrace
 10
1021.145212354002
 20
359.5515775392252
 30
0.0
 11
1021.145212354002
 21
358.2182442058918
 31
0.0
 12
1025.145212354002
 22
358.8849108725585
 32
0.0
 13
1025.145212354002
 23
358.8849108725585
 33
0.0
  0
MTEXT
  5
4BB
330
215
100
AcDbEntity
  8
0
  6
SLD-Solid
 62
     0
440
 16777216
370
     0
100
AcDbMText
 10
1014.234392173389
 20
361.8971805500831
 30
0.0
 40
5.649956597222221
 41
0.0
 46
0.0
 71
     2
 72
     1
  1
\A1;5
  7
SLDTEXTSTYLE0
 73
     1
 44
1.0
  0
POINT
  5
4BC
330
215
100
AcDbEntity
  8
DEFPOINTS
  6
SLD-Solid
 62
     0
440
 16777216
100
AcDbPoint
 10
1025.145212354002
 20
352.1235603889317
 30
0.0
  0
POINT
  5
4BD
330
215
100
AcDbEntity
  8
DEFPOINTS
  6
SLD-Solid
 62
     0
440
 16777216
100
AcDbPoint
 10
1030.145212354002
 20
352.1235603889317
 30
0.0
  0
POINT
  5
4BE
330
215
100
AcDbEntity
  8
DEFPOINTS
  6
SLD-Solid
 62
     0
440
 16777216
100
AcDbPoint
 10
1030.145212354002
 20
358.8849108725585
 30
0.0
  0
ENDBLK
  5
217
330
215
100
AcDbEntity
  8
0
100
AcDbBlockEnd
  0
BLOCK
  5
221
330
220
100
AcDbEntity
  8
0
100
AcDbBlockBegin
  2
_D_16
 70
     0
 10
0.0
 20
0.0
 30
0.0
  3
_D_16
  1

  0
LINE
  5
4BF
330
220
100
AcDbEntity
  8
0
  6
SLD-Solid
 62
     0
440
 16777216
370
    -2
100
AcDbLine
 10
1030.145212354002
 20
352.1860603889316
 30
0.0
 11
1030.145212354002
 21
369.1535622932521
 31
0.0
  0
LINE
  5
4C0
330
220
100
AcDbEntity
  8
0
  6
SLD-Solid
 62
     0
440
 16777216
370
    -2
100
AcDbLine
 10
1035.145212354002
 20
352.1860603889316
 30
0.0
 11
1035.145212354002
 21
369.1535622932521
 31
0.0
  0
LINE
  5
4C1
330
220
100
AcDbEntity
  8
0
  6
SLD-Solid
 62
     0
440
 16777216
370
    -2
100
AcDbLine
 10
1039.145212354002
 20
369.1535622932521
 30
0.0
 11
1043.145212354002
 21
369.1535622932521
 31
0.0
  0
LINE
  5
4C2
330
220
100
AcDbEntity
  8
0
  6
SLD-Solid
 62
     0
440
 16777216
370
    -2
100
AcDbLine
 10
1026.145212354002
 20
369.1535622932521
 30
0.0
 11
1019.889348276975
 21
369.1535622932521
 31
0.0
  0
LINE
  5
4C3
330
220
100
AcDbEntity
  8
0
  6
SLD-Solid
 62
     0
440
 16777216
370
    -2
100
AcDbLine
 10
1035.145212354002
 20
369.1535622932521
 30
0.0
 11
1030.145212354002
 21
369.1535622932521
 31
0.0
  0
SOLID
  5
4C4
330
220
100
AcDbEntity
  8
0
  6
SLD-Solid
 62
     0
440
 16777216
100
AcDbTrace
 10
1039.145212354002
 20
369.8202289599188
 30
0.0
 11
1039.145212354002
 21
368.4868956265854
 31
0.0
 12
1035.145212354002
 22
369.1535622932521
 32
0.0
 13
1035.145212354002
 23
369.1535622932521
 33
0.0
  0
SOLID
  5
4C5
330
220
100
AcDbEntity
  8
0
  6
SLD-Solid
 62
     0
440
 16777216
100
AcDbTrace
 10
1026.145212354002
 20
369.8202289599188
 30
0.0
 11
1026.145212354002
 21
368.4868956265854
 31
0.0
 12
1030.145212354002
 22
369.1535622932521
 32
0.0
 13
1030.145212354002
 23
369.1535622932521
 33
0.0
  0
MTEXT
  5
4C6
330
220
100
AcDbEntity
  8
0
  6
SLD-Solid
 62
     0
440
 16777216
370
     0
100
AcDbMText
 10
1016.978528096362
 20
372.1658319707767
 30
0.0
 40
5.649956597222221
 41
0.0
 46
0.0
 71
     2
 72
     1
  1
\A1;5
  7
SLDTEXTSTYLE0
 73
     1
 44
1.0
  0
POINT
  5
4C7
330
220
100
AcDbEntity
  8
DEFPOINTS
  6
SLD-Solid
 62
     0
440
 16777216
100
AcDbPoint
 10
1030.145212354002
 20
352.1235603889317
 30
0.0
  0
POINT
  5
4C8
330
220
100
AcDbEntity
  8
DEFPOINTS
  6
SLD-Solid
 62
     0
440
 16777216
100
AcDbPoint
 10
1035.145212354002
 20
352.1235603889317
 30
0.0
  0
POINT
  5
4C9
330
220
100
AcDbEntity
  8
DEFPOINTS
  6
SLD-Solid
 62
     0
440
 16777216
100
AcDbPoint
 10
1035.145212354002
 20
369.1535622932521
 30
0.0
  0
ENDBLK
  5
222
330
220
100
AcDbEntity
  8
0
100
AcDbBlockEnd
  0
BLOCK
  5
22C
330
22B
100
AcDbEntity
  8
0
100
AcDbBlockBegin
  2
_D_17
 70
     0
 10
0.0
 20
0.0
 30
0.0
  3
_D_17
  1

  0
LINE
  5
4CA
330
22B
100
AcDbEntity
  8
0
  6
SLD-Solid
 62
     0
440
 16777216
370
    -2
100
AcDbLine
 10
1040.145212354002
 20
352.1860603889318
 30
0.0
 11
1040.145212354002
 21
377.3735603889319
 31
0.0
  0
LINE
  5
4CB
330
22B
100
AcDbEntity
  8
0
  6
SLD-Solid
 62
     0
440
 16777216
370
    -2
100
AcDbLine
 10
1035.145212354002
 20
352.1860603889316
 30
0.0
 11
1035.145212354002
 21
377.3735603889319
 31
0.0
  0
LINE
  5
4CC
330
22B
100
AcDbEntity
  8
0
  6
SLD-Solid
 62
     0
440
 16777216
370
    -2
100
AcDbLine
 10
1044.145212354002
 20
377.3735603889319
 30
0.0
 11
1048.145212354002
 21
377.3735603889319
 31
0.0
  0
LINE
  5
4CD
330
22B
100
AcDbEntity
  8
0
  6
SLD-Solid
 62
     0
440
 16777216
370
    -2
100
AcDbLine
 10
1031.145212354002
 20
377.3735603889319
 30
0.0
 11
1022.091387116064
 21
377.3735603889319
 31
0.0
  0
LINE
  5
4CE
330
22B
100
AcDbEntity
  8
0
  6
SLD-Solid
 62
     0
440
 16777216
370
    -2
100
AcDbLine
 10
1040.145212354002
 20
377.3735603889319
 30
0.0
 11
1035.145212354002
 21
377.3735603889319
 31
0.0
  0
SOLID
  5
4CF
330
22B
100
AcDbEntity
  8
0
  6
SLD-Solid
 62
     0
440
 16777216
100
AcDbTrace
 10
1044.145212354002
 20
378.0402270555986
 30
0.0
 11
1044.145212354002
 21
376.7068937222652
 31
0.0
 12
1040.145212354002
 22
377.3735603889319
 32
0.0
 13
1040.145212354002
 23
377.3735603889319
 33
0.0
  0
SOLID
  5
4D0
330
22B
100
AcDbEntity
  8
0
  6
SLD-Solid
 62
     0
440
 16777216
100
AcDbTrace
 10
1031.145212354002
 20
378.0402270555986
 30
0.0
 11
1031.145212354002
 21
376.7068937222652
 31
0.0
 12
1035.145212354002
 22
377.3735603889319
 32
0.0
 13
1035.145212354002
 23
377.3735603889319
 33
0.0
  0
MTEXT
  5
4D1
330
22B
100
AcDbEntity
  8
0
  6
SLD-Solid
 62
     0
440
 16777216
370
     0
100
AcDbMText
 10
1019.180566935451
 20
380.3858300664565
 30
0.0
 40
5.649956597222221
 41
0.0
 46
0.0
 71
     2
 72
     1
  1
\A1;5
  7
SLDTEXTSTYLE0
 73
     1
 44
1.0
  0
POINT
  5
4D2
330
22B
100
AcDbEntity
  8
DEFPOINTS
  6
SLD-Solid
 62
     0
440
 16777216
100
AcDbPoint
 10
1040.145212354002
 20
352.1235603889317
 30
0.0
  0
POINT
  5
4D3
330
22B
100
AcDbEntity
  8
DEFPOINTS
  6
SLD-Solid
 62
     0
440
 16777216
100
AcDbPoint
 10
1035.145212354002
 20
352.1235603889317
 30
0.0
  0
POINT
  5
4D4
330
22B
100
AcDbEntity
  8
DEFPOINTS
  6
SLD-Solid
 62
     0
440
 16777216
100
AcDbPoint
 10
1035.145212354002
 20
377.3735603889319
 30
0.0
  0
ENDBLK
  5
22D
330
22B
100
AcDbEntity
  8
0
100
AcDbBlockEnd
  0
BLOCK
  5
237
330
236
100
AcDbEntity
  8
0
100
AcDbBlockBegin
  2
_D_18
 70
     0
 10
0.0
 20
0.0
 30
0.0
  3
_D_18
  1

  0
LINE
  5
4D5
330
236
100
AcDbEntity
  8
0
  6
SLD-Solid
 62
     0
440
 16777216
370
    -2
100
AcDbLine
 10
1040.145212354002
 20
352.1860603889318
 30
0.0
 11
1040.145212354002
 21
365.373560388932
 31
0.0
  0
LINE
  5
4D6
330
236
100
AcDbEntity
  8
0
  6
SLD-Solid
 62
     0
440
 16777216
370
    -2
100
AcDbLine
 10
1045.145212354002
 20
352.1860603889318
 30
0.0
 11
1045.145212354002
 21
365.373560388932
 31
0.0
  0
LINE
  5
4D7
330
236
100
AcDbEntity
  8
0
  6
SLD-Solid
 62
     0
440
 16777216
370
    -2
100
AcDbLine
 10
1036.145212354002
 20
365.373560388932
 30
0.0
 11
1032.145212354002
 21
365.373560388932
 31
0.0
  0
LINE
  5
4D8
330
236
100
AcDbEntity
  8
0
  6
SLD-Solid
 62
     0
440
 16777216
370
    -2
100
AcDbLine
 10
1049.145212354002
 20
365.373560388932
 30
0.0
 11
1053.606660071083
 21
365.373560388932
 31
0.0
  0
LINE
  5
4D9
330
236
100
AcDbEntity
  8
0
  6
SLD-Solid
 62
     0
440
 16777216
370
    -2
100
AcDbLine
 10
1040.145212354002
 20
365.373560388932
 30
0.0
 11
1045.145212354002
 21
365.373560388932
 31
0.0
  0
SOLID
  5
4DA
330
236
100
AcDbEntity
  8
0
  6
SLD-Solid
 62
     0
440
 16777216
100
AcDbTrace
 10
1036.145212354002
 20
366.0402270555986
 30
0.0
 11
1036.145212354002
 21
364.7068937222652
 31
0.0
 12
1040.145212354002
 22
365.373560388932
 32
0.0
 13
1040.145212354002
 23
365.373560388932
 33
0.0
  0
SOLID
  5
4DB
330
236
100
AcDbEntity
  8
0
  6
SLD-Solid
 62
     0
440
 16777216
100
AcDbTrace
 10
1049.145212354002
 20
366.0402270555986
 30
0.0
 11
1049.145212354002
 21
364.7068937222652
 31
0.0
 12
1045.145212354002
 22
365.373560388932
 32
0.0
 13
1045.145212354002
 23
365.373560388932
 33
0.0
  0
MTEXT
  5
4DC
330
236
100
AcDbEntity
  8
0
  6
SLD-Solid
 62
     0
440
 16777216
370
     0
100
AcDbMText
 10
1056.517480251697
 20
368.3858300664565
 30
0.0
 40
5.649956597222221
 41
0.0
 46
0.0
 71
     2
 72
     1
  1
\A1;5
  7
SLDTEXTSTYLE0
 73
     1
 44
1.0
  0
POINT
  5
4DD
330
236
100
AcDbEntity
  8
DEFPOINTS
  6
SLD-Solid
 62
     0
440
 16777216
100
AcDbPoint
 10
1040.145212354002
 20
352.1235603889317
 30
0.0
  0
POINT
  5
4DE
330
236
100
AcDbEntity
  8
DEFPOINTS
  6
SLD-Solid
 62
     0
440
 16777216
100
AcDbPoint
 10
1045.145212354002
 20
352.1235603889317
 30
0.0
  0
POINT
  5
4DF
330
236
100
AcDbEntity
  8
DEFPOINTS
  6
SLD-Solid
 62
     0
440
 16777216
100
AcDbPoint
 10
1045.145212354002
 20
365.373560388932
 30
0.0
  0
ENDBLK
  5
238
330
236
100
AcDbEntity
  8
0
100
AcDbBlockEnd
  0
BLOCK
  5
242
330
241
100
AcDbEntity
  8
0
100
AcDbBlockBegin
  2
_D_19
 70
     0
 10
0.0
 20
0.0
 30
0.0
  3
_D_19
  1

  0
LINE
  5
4E0
330
241
100
AcDbEntity
  8
0
  6
SLD-Solid
 62
     0
440
 16777216
370
    -2
100
AcDbLine
 10
1045.145212354002
 20
352.1860603889318
 30
0.0
 11
1045.145212354002
 21
358.8849108725585
 31
0.0
  0
LINE
  5
4E1
330
241
100
AcDbEntity
  8
0
  6
SLD-Solid
 62
     0
440
 16777216
370
    -2
100
AcDbLine
 10
1053.895212354002
 20
353.4360603889317
 30
0.0
 11
1053.895212354002
 21
358.8849108725585
 31
0.0
  0
LINE
  5
4E2
330
241
100
AcDbEntity
  8
0
  6
SLD-Solid
 62
     0
440
 16777216
370
    -2
100
AcDbLine
 10
1041.145212354002
 20
358.8849108725585
 30
0.0
 11
1037.145212354002
 21
358.8849108725585
 31
0.0
  0
LINE
  5
4E3
330
241
100
AcDbEntity
  8
0
  6
SLD-Solid
 62
     0
440
 16777216
370
    -2
100
AcDbLine
 10
1057.895212354002
 20
358.8849108725585
 30
0.0
 11
1061.895212354002
 21
358.8849108725585
 31
0.0
  0
LINE
  5
4E4
330
241
100
AcDbEntity
  8
0
  6
SLD-Solid
 62
     0
440
 16777216
370
    -2
100
AcDbLine
 10
1045.145212354002
 20
358.8849108725585
 30
0.0
 11
1053.895212354002
 21
358.8849108725585
 31
0.0
  0
SOLID
  5
4E5
330
241
100
AcDbEntity
  8
0
  6
SLD-Solid
 62
     0
440
 16777216
100
AcDbTrace
 10
1041.145212354002
 20
359.5515775392252
 30
0.0
 11
1041.145212354002
 21
358.2182442058918
 31
0.0
 12
1045.145212354002
 22
358.8849108725585
 32
0.0
 13
1045.145212354002
 23
358.8849108725585
 33
0.0
  0
SOLID
  5
4E6
330
241
100
AcDbEntity
  8
0
  6
SLD-Solid
 62
     0
440
 16777216
100
AcDbTrace
 10
1057.895212354002
 20
359.5515775392252
 30
0.0
 11
1057.895212354002
 21
358.2182442058918
 31
0.0
 12
1053.895212354002
 22
358.8849108725585
 32
0.0
 13
1053.895212354002
 23
358.8849108725585
 33
0.0
  0
MTEXT
  5
4E7
330
241
100
AcDbEntity
  8
0
  6
SLD-Solid
 62
     0
440
 16777216
370
     0
100
AcDbMText
 10
1068.879620025982
 20
361.9635129134483
 30
0.0
 40
5.649956597222221
 41
0.0
 46
0.0
 71
     2
 72
     1
  1
\A1;8.8
  7
SLDTEXTSTYLE0
 73
     1
 44
1.0
  0
POINT
  5
4E8
330
241
100
AcDbEntity
  8
DEFPOINTS
  6
SLD-Solid
 62
     0
440
 16777216
100
AcDbPoint
 10
1045.145212354002
 20
352.1235603889317
 30
0.0
  0
POINT
  5
4E9
330
241
100
AcDbEntity
  8
DEFPOINTS
  6
SLD-Solid
 62
     0
440
 16777216
100
AcDbPoint
 10
1053.895212354002
 20
353.3735603889316
 30
0.0
  0
POINT
  5
4EA
330
241
100
AcDbEntity
  8
DEFPOINTS
  6
SLD-Solid
 62
     0
440
 16777216
100
AcDbPoint
 10
1053.895212354002
 20
358.8849108725585
 30
0.0
  0
ENDBLK
  5
243
330
241
100
AcDbEntity
  8
0
100
AcDbBlockEnd
  0
BLOCK
  5
24E
330
24D
100
AcDbEntity
  8
0
100
AcDbBlockBegin
  2
_D_20
 70
     0
 10
0.0
 20
0.0
 30
0.0
  3
_D_20
  1

  0
LINE
  5
4EB
330
24D
100
AcDbEntity
  8
0
  6
SLD-Solid
 62
     0
440
 16777216
370
    -2
100
AcDbLine
 10
1025.082712354002
 20
352.1235603889317
 30
0.0
 11
981.745212354002
 21
352.1235603889317
 31
0.0
  0
LINE
  5
4EC
330
24D
100
AcDbEntity
  8
0
  6
SLD-Solid
 62
     0
440
 16777216
370
    -2
100
AcDbLine
 10
1016.332712354002
 20
353.3735603889316
 30
0.0
 11
981.745212354002
 21
353.3735603889316
 31
0.0
  0
LINE
  5
4ED
330
24D
100
AcDbEntity
  8
0
  6
SLD-Solid
 62
     0
440
 16777216
370
    -2
100
AcDbLine
 10
981.745212354002
 20
357.3735603889316
 30
0.0
 11
981.745212354002
 21
361.3735603889316
 31
0.0
  0
LINE
  5
4EE
330
24D
100
AcDbEntity
  8
0
  6
SLD-Solid
 62
     0
440
 16777216
370
    -2
100
AcDbLine
 10
981.745212354002
 20
348.1235603889317
 30
0.0
 11
981.745212354002
 21
344.1235603889317
 31
0.0
  0
LINE
  5
4EF
330
24D
100
AcDbEntity
  8
0
  6
SLD-Solid
 62
     0
440
 16777216
370
    -2
100
AcDbLine
 10
981.745212354002
 20
353.3735603889316
 30
0.0
 11
981.745212354002
 21
352.1235603889317
 31
0.0
  0
SOLID
  5
4F0
330
24D
100
AcDbEntity
  8
0
  6
SLD-Solid
 62
     0
440
 16777216
100
AcDbTrace
 10
981.0785456873354
 20
357.3735603889316
 30
0.0
 11
982.4118790206687
 21
357.3735603889316
 31
0.0
 12
981.745212354002
 22
353.3735603889316
 32
0.0
 13
981.745212354002
 23
353.3735603889316
 33
0.0
  0
SOLID
  5
4F1
330
24D
100
AcDbEntity
  8
0
  6
SLD-Solid
 62
     0
440
 16777216
100
AcDbTrace
 10
981.0785456873354
 20
348.1235603889317
 30
0.0
 11
982.4118790206687
 21
348.1235603889317
 31
0.0
 12
981.745212354002
 22
352.1235603889317
 32
0.0
 13
981.745212354002
 23
352.1235603889317
 33
0.0
  0
MTEXT
  5
4F2
330
24D
100
AcDbEntity
  8
0
  6
SLD-Solid
 62
     0
440
 16777216
370
     0
100
AcDbMText
 10
978.6666103131123
 20
335.3715903284557
 30
0.0
 40
5.649956597222221
 41
0.0
 46
0.0
 71
     2
 72
     1
  1
\A1;1.25
  7
SLDTEXTSTYLE0
 11
0.0000000000000001
 21
1.0
 31
0.0
 73
     1
 44
1.0
  0
POINT
  5
4F3
330
24D
100
AcDbEntity
  8
DEFPOINTS
  6
SLD-Solid
 62
     0
440
 16777216
100
AcDbPoint
 10
1025.145212354002
 20
352.1235603889317
 30
0.0
  0
POINT
  5
4F4
330
24D
100
AcDbEntity
  8
DEFPOINTS
  6
SLD-Solid
 62
     0
440
 16777216
100
AcDbPoint
 10
1016.395212354002
 20
353.3735603889316
 30
0.0
  0
POINT
  5
4F5
330
24D
100
AcDbEntity
  8
DEFPOINTS
  6
SLD-Solid
 62
     0
440
 16777216
100
AcDbPoint
 10
981.745212354002
 20
353.3735603889316
 30
0.0
  0
ENDBLK
  5
24F
330
24D
100
AcDbEntity
  8
0
100
AcDbBlockEnd
  0
BLOCK
  5
259
330
258
100
AcDbEntity
  8
0
100
AcDbBlockBegin
  2
_D_21
 70
     0
 10
0.0
 20
0.0
 30
0.0
  3
_D_21
  1

  0
LINE
  5
4F6
330
258
100
AcDbEntity
  8
0
  6
SLD-Solid
 62
     0
440
 16777216
370
    -2
100
AcDbLine
 10
1025.145212354002
 20
307.5610603889316
 30
0.0
 11
1025.145212354002
 21
299.1748570009899
 31
0.0
  0
LINE
  5
4F7
330
258
100
AcDbEntity
  8
0
  6
SLD-Solid
 62
     0
440
 16777216
370
    -2
100
AcDbLine
 10
1045.145212354002
 20
307.5610603889316
 30
0.0
 11
1045.145212354002
 21
299.1748570009899
 31
0.0
  0
LINE
  5
4F8
330
258
100
AcDbEntity
  8
0
  6
SLD-Solid
 62
     0
440
 16777216
370
    -2
100
AcDbLine
 10
1029.145212354002
 20
299.1748570009899
 30
0.0
 11
1030.199254040197
 21
299.1748570009899
 31
0.0
  0
LINE
  5
4F9
330
258
100
AcDbEntity
  8
0
  6
SLD-Solid
 62
     0
440
 16777216
370
    -2
100
AcDbLine
 10
1041.145212354002
 20
299.1748570009899
 30
0.0
 11
1039.954013358605
 21
299.1748570009899
 31
0.0
  0
SOLID
  5
4FA
330
258
100
AcDbEntity
  8
0
  6
SLD-Solid
 62
     0
440
 16777216
100
AcDbTrace
 10
1029.145212354002
 20
299.8415236676566
 30
0.0
 11
1029.145212354002
 21
298.5081903343232
 31
0.0
 12
1025.145212354002
 22
299.1748570009899
 32
0.0
 13
1025.145212354002
 23
299.1748570009899
 33
0.0
  0
SOLID
  5
4FB
330
258
100
AcDbEntity
  8
0
  6
SLD-Solid
 62
     0
440
 16777216
100
AcDbTrace
 10
1041.145212354002
 20
299.8415236676566
 30
0.0
 11
1041.145212354002
 21
298.5081903343232
 31
0.0
 12
1045.145212354002
 22
299.1748570009899
 32
0.0
 13
1045.145212354002
 23
299.1748570009899
 33
0.0
  0
MTEXT
  5
4FC
330
258
100
AcDbEntity
  8
0
  6
SLD-Solid
 62
     0
440
 16777216
370
     0
100
AcDbMText
 10
1035.076633699401
 20
302.1871266785145
 30
0.0
 40
5.649956597222221
 41
0.0
 46
0.0
 71
     2
 72
     1
  1
\A1;20
  7
SLDTEXTSTYLE0
 73
     1
 44
1.0
  0
POINT
  5
4FD
330
258
100
AcDbEntity
  8
DEFPOINTS
  6
SLD-Solid
 62
     0
440
 16777216
100
AcDbPoint
 10
1025.145212354002
 20
307.6235603889316
 30
0.0
  0
POINT
  5
4FE
330
258
100
AcDbEntity
  8
DEFPOINTS
  6
SLD-Solid
 62
     0
440
 16777216
100
AcDbPoint
 10
1045.145212354002
 20
307.6235603889315
 30
0.0
  0
POINT
  5
4FF
330
258
100
AcDbEntity
  8
DEFPOINTS
  6
SLD-Solid
 62
     0
440
 16777216
100
AcDbPoint
 10
1045.145212354002
 20
299.1748570009899
 30
0.0
  0
ENDBLK
  5
25A
330
258
100
AcDbEntity
  8
0
100
AcDbBlockEnd
  0
BLOCK
  5
264
330
263
100
AcDbEntity
  8
0
100
AcDbBlockBegin
  2
_D_22
 70
     0
 10
0.0
 20
0.0
 30
0.0
  3
_D_22
  1

  0
LINE
  5
500
330
263
100
AcDbEntity
  8
0
  6
SLD-Solid
 62
     0
440
 16777216
370
    -2
100
AcDbLine
 10
1025.145212354002
 20
307.5610603889316
 30
0.0
 11
1025.145212354002
 21
294.3735603889314
 31
0.0
  0
LINE
  5
501
330
263
100
AcDbEntity
  8
0
  6
SLD-Solid
 62
     0
440
 16777216
370
    -2
100
AcDbLine
 10
1016.395212354002
 20
306.3110603889317
 30
0.0
 11
1016.395212354002
 21
294.3735603889314
 31
0.0
  0
LINE
  5
502
330
263
100
AcDbEntity
  8
0
  6
SLD-Solid
 62
     0
440
 16777216
370
    -2
100
AcDbLine
 10
1029.145212354002
 20
294.3735603889314
 30
0.0
 11
1033.145212354002
 21
294.3735603889314
 31
0.0
  0
LINE
  5
503
330
263
100
AcDbEntity
  8
0
  6
SLD-Solid
 62
     0
440
 16777216
370
    -2
100
AcDbLine
 10
1012.395212354002
 20
294.3735603889314
 30
0.0
 11
1004.72352583691
 21
294.3735603889314
 31
0.0
  0
LINE
  5
504
330
263
100
AcDbEntity
  8
0
  6
SLD-Solid
 62
     0
440
 16777216
370
    -2
100
AcDbLine
 10
1025.145212354002
 20
294.3735603889314
 30
0.0
 11
1016.395212354002
 21
294.3735603889314
 31
0.0
  0
SOLID
  5
505
330
263
100
AcDbEntity
  8
0
  6
SLD-Solid
 62
     0
440
 16777216
100
AcDbTrace
 10
1029.145212354002
 20
295.0402270555981
 30
0.0
 11
1029.145212354002
 21
293.7068937222647
 31
0.0
 12
1025.145212354002
 22
294.3735603889314
 32
0.0
 13
1025.145212354002
 23
294.3735603889314
 33
0.0
  0
SOLID
  5
506
330
263
100
AcDbEntity
  8
0
  6
SLD-Solid
 62
     0
440
 16777216
100
AcDbTrace
 10
1012.395212354002
 20
295.0402270555981
 30
0.0
 11
1012.395212354002
 21
293.7068937222647
 31
0.0
 12
1016.395212354002
 22
294.3735603889314
 32
0.0
 13
1016.395212354002
 23
294.3735603889314
 33
0.0
  0
MTEXT
  5
507
330
263
100
AcDbEntity
  8
0
  6
SLD-Solid
 62
     0
440
 16777216
370
     0
100
AcDbMText
 10
997.7391181649299
 20
297.4521624298211
 30
0.0
 40
5.649956597222221
 41
0.0
 46
0.0
 71
     2
 72
     1
  1
\A1;8.8
  7
SLDTEXTSTYLE0
 73
     1
 44
1.0
  0
POINT
  5
508
330
263
100
AcDbEntity
  8
DEFPOINTS
  6
SLD-Solid
 62
     0
440
 16777216
100
AcDbPoint
 10
1025.145212354002
 20
307.6235603889316
 30
0.0
  0
POINT
  5
509
330
263
100
AcDbEntity
  8
DEFPOINTS
  6
SLD-Solid
 62
     0
440
 16777216
100
AcDbPoint
 10
1016.395212354002
 20
306.3735603889317
 30
0.0
  0
POINT
  5
50A
330
263
100
AcDbEntity
  8
DEFPOINTS
  6
SLD-Solid
 62
     0
440
 16777216
100
AcDbPoint
 10
1016.395212354002
 20
294.3735603889314
 30
0.0
  0
ENDBLK
  5
265
330
263
100
AcDbEntity
  8
0
100
AcDbBlockEnd
  0
BLOCK
  5
26F
330
26E
100
AcDbEntity
  8
0
100
AcDbBlockBegin
  2
_D_23
 70
     0
 10
0.0
 20
0.0
 30
0.0
  3
_D_23
  1

  0
LINE
  5
50B
330
26E
100
AcDbEntity
  8
0
  6
SLD-Solid
 62
     0
440
 16777216
370
    -2
100
AcDbLine
 10
1045.207712354002
 20
307.6235603889315
 30
0.0
 11
1072.077775220048
 21
307.6235603889315
 31
0.0
  0
LINE
  5
50C
330
26E
100
AcDbEntity
  8
0
  6
SLD-Solid
 62
     0
440
 16777216
370
    -2
100
AcDbLine
 10
1053.957712354002
 20
306.3735603889317
 30
0.0
 11
1072.077775220048
 21
306.3735603889317
 31
0.0
  0
LINE
  5
50D
330
26E
100
AcDbEntity
  8
0
  6
SLD-Solid
 62
     0
440
 16777216
370
    -2
100
AcDbLine
 10
1072.077775220048
 20
311.6235603889315
 30
0.0
 11
1072.077775220048
 21
315.6235603889316
 31
0.0
  0
LINE
  5
50E
330
26E
100
AcDbEntity
  8
0
  6
SLD-Solid
 62
     0
440
 16777216
370
    -2
100
AcDbLine
 10
1072.077775220048
 20
302.3735603889317
 30
0.0
 11
1072.077775220048
 21
296.1537365776237
 31
0.0
  0
LINE
  5
50F
330
26E
100
AcDbEntity
  8
0
  6
SLD-Solid
 62
     0
440
 16777216
370
    -2
100
AcDbLine
 10
1072.077775220048
 20
307.6235603889315
 30
0.0
 11
1072.077775220048
 21
306.3735603889317
 31
0.0
  0
SOLID
  5
510
330
26E
100
AcDbEntity
  8
0
  6
SLD-Solid
 62
     0
440
 16777216
100
AcDbTrace
 10
1071.411108553381
 20
311.6235603889315
 30
0.0
 11
1072.744441886714
 21
311.6235603889315
 31
0.0
 12
1072.077775220048
 22
307.6235603889315
 32
0.0
 13
1072.077775220048
 23
307.6235603889315
 33
0.0
  0
SOLID
  5
511
330
26E
100
AcDbEntity
  8
0
  6
SLD-Solid
 62
     0
440
 16777216
100
AcDbTrace
 10
1071.411108553381
 20
302.3735603889317
 30
0.0
 11
1072.744441886714
 21
302.3735603889317
 31
0.0
 12
1072.077775220048
 22
306.3735603889317
 32
0.0
 13
1072.077775220048
 23
306.3735603889317
 33
0.0
  0
MTEXT
  5
512
330
26E
100
AcDbEntity
  8
0
  6
SLD-Solid
 62
     0
440
 16777216
370
     0
100
AcDbMText
 10
1068.999173179158
 20
287.4017665171477
 30
0.0
 40
5.649956597222221
 41
0.0
 46
0.0
 71
     2
 72
     1
  1
\A1;1.25
  7
SLDTEXTSTYLE0
 11
0.0000000000000001
 21
1.0
 31
0.0
 73
     1
 44
1.0
  0
POINT
  5
513
330
26E
100
AcDbEntity
  8
DEFPOINTS
  6
SLD-Solid
 62
     0
440
 16777216
100
AcDbPoint
 10
1045.145212354002
 20
307.6235603889315
 30
0.0
  0
POINT
  5
514
330
26E
100
AcDbEntity
  8
DEFPOINTS
  6
SLD-Solid
 62
     0
440
 16777216
100
AcDbPoint
 10
1053.895212354002
 20
306.3735603889317
 30
0.0
  0
POINT
  5
515
330
26E
100
AcDbEntity
  8
DEFPOINTS
  6
SLD-Solid
 62
     0
440
 16777216
100
AcDbPoint
 10
1072.077775220048
 20
306.3735603889317
 30
0.0
  0
ENDBLK
  5
270
330
26E
100
AcDbEntity
  8
0
100
AcDbBlockEnd
  0
BLOCK
  5
27B
330
27A
100
AcDbEntity
  8
0
100
AcDbBlockBegin
  2
_D_24
 70
     0
 10
0.0
 20
0.0
 30
0.0
  3
_D_24
  1

  0
LINE
  5
516
330
27A
100
AcDbEntity
  8
0
  6
SLD-Solid
 62
     0
440
 16777216
370
    -2
100
AcDbLine
 10
973.1537242413864
 20
318.2254988957832
 30
0.0
 11
1020.001074995669
 21
308.6725364795122
 31
0.0
  0
MTEXT
  5
517
330
27A
100
AcDbEntity
  8
0
  6
SLD-Solid
 62
     0
440
 16777216
370
     0
100
AcDbMText
 10
948.6767274411151
 20
321.3041009366729
 30
0.0
 40
5.649956597222221
 41
0.0
 46
0.0
 71
     1
 72
     1
  1
\A1;7-∅2.5
  7
SLDTEXTSTYLE0
 73
     1
 44
1.0
  0
SOLID
  5
518
330
27A
100
AcDbEntity
  8
0
  6
SLD-Solid
 62
     0
440
 16777216
100
AcDbTrace
 10
1020.134278308759
 20
309.3257602710465
 30
0.0
 11
1019.86787168258
 21
308.0193126879779
 31
0.0
 12
1023.920417744875
 22
307.8733166009747
 32
0.0
 13
1023.920417744875
 23
307.8733166009747
 33
0.0
  0
POINT
  5
519
330
27A
100
AcDbEntity
  8
DEFPOINTS
  6
SLD-Solid
 62
     0
440
 16777216
100
AcDbPoint
 10
1023.920417744875
 20
307.8733166009747
 30
0.0
  0
POINT
  5
51A
330
27A
100
AcDbEntity
  8
DEFPOINTS
  6
SLD-Solid
 62
     0
440
 16777216
100
AcDbPoint
 10
1026.370006963129
 20
307.3738041768886
 30
0.0
  0
ENDBLK
  5
27C
330
27A
100
AcDbEntity
  8
0
100
AcDbBlockEnd
  0
BLOCK
  5
2C7
330
2C6
100
AcDbEntity
  8
0
100
AcDbBlockBegin
  2
*D32
 70
     1
 10
0.0
 20
0.0
 30
0.0
  3
*D32
  1

  0
LINE
  5
2C8
330
2C6
100
AcDbEntity
  8
0
 62
     3
440
 16777216
370
    -2
100
AcDbLine
 10
69092.82257984033
 20
-968.9850977466843
 30
0.0
 11
69092.82257984033
 21
-948.0300135227837
 31
0.0
  0
LINE
  5
2C9
330
2C6
100
AcDbEntity
  8
0
 62
     3
440
 16777216
370
    -2
100
AcDbLine
 10
69215.82257984033
 20
-968.9850977466843
 30
0.0
 11
69215.82257984033
 21
-948.0300135227837
 31
0.0
  0
LINE
  5
2CA
330
2C6
100
AcDbEntity
  8
0
 62
     3
440
 16777216
370
    -2
100
AcDbLine
 10
69097.82257984033
 20
-949.2800135227836
 30
0.0
 11
69210.82257984033
 21
-949.2800135227836
 31
0.0
  0
SOLID
  5
2CB
330
2C6
100
AcDbEntity
  8
0
 62
     3
440
 16777216
100
AcDbTrace
 10
69097.82257984033
 20
-948.4466801894503
 30
0.0
 11
69097.82257984033
 21
-950.1133468561171
 31
0.0
 12
69092.82257984033
 22
-949.2800135227836
 32
0.0
 13
69092.82257984033
 23
-949.2800135227836
 33
0.0
  0
SOLID
  5
2CC
330
2C6
100
AcDbEntity
  8
0
 62
     3
440
 16777216
100
AcDbTrace
 10
69210.82257984033
 20
-948.4466801894503
 30
0.0
 11
69210.82257984033
 21
-950.1133468561171
 31
0.0
 12
69215.82257984033
 22
-949.2800135227836
 32
0.0
 13
69215.82257984033
 23
-949.2800135227836
 33
0.0
  0
MTEXT
  5
2CD
330
2C6
100
AcDbEntity
  8
0
 62
     1
440
 16777216
100
AcDbMText
 10
69154.32257984033
 20
-943.5458730043663
 30
0.0
 40
10.0
 41
0.0
 46
0.0
 71
     5
 72
     1
  1
123
 73
     1
 44
1.0
  0
POINT
  5
2CE
330
2C6
100
AcDbEntity
  8
DEFPOINTS
 62
     0
440
 16777216
100
AcDbPoint
 10
69092.82257984033
 20
-969.6100977466842
 30
0.0
  0
POINT
  5
2CF
330
2C6
100
AcDbEntity
  8
DEFPOINTS
 62
     0
440
 16777216
100
AcDbPoint
 10
69215.82257984033
 20
-969.6100977466842
 30
0.0
  0
POINT
  5
2D0
330
2C6
100
AcDbEntity
  8
DEFPOINTS
 62
     0
440
 16777216
100
AcDbPoint
 10
69215.82257984033
 20
-949.2800135227836
 30
0.0
  0
ENDBLK
  5
2D1
330
2C6
100
AcDbEntity
  8
0
100
AcDbBlockEnd
  0
BLOCK
  5
2D3
330
2D2
100
AcDbEntity
  8
0
100
AcDbBlockBegin
  2
*D33
 70
     1
 10
0.0
 20
0.0
 30
0.0
  3
*D33
  1

  0
LINE
  5
2D4
330
2D2
100
AcDbEntity
  8
0
 62
     3
440
 16777216
370
    -2
100
AcDbLine
 10
69215.82257984033
 20
-968.9850977466843
 30
0.0
 11
69215.82257984033
 21
-948.0300135227837
 31
0.0
  0
LINE
  5
2D5
330
2D2
100
AcDbEntity
  8
0
 62
     3
440
 16777216
370
    -2
100
AcDbLine
 10
69321.82257984033
 20
-968.9850977466843
 30
0.0
 11
69321.82257984033
 21
-948.0300135227837
 31
0.0
  0
LINE
  5
2D6
330
2D2
100
AcDbEntity
  8
0
 62
     3
440
 16777216
370
    -2
100
AcDbLine
 10
69220.82257984032
 20
-949.2800135227836
 30
0.0
 11
69316.82257984033
 21
-949.2800135227836
 31
0.0
  0
SOLID
  5
2D7
330
2D2
100
AcDbEntity
  8
0
 62
     3
440
 16777216
100
AcDbTrace
 10
69220.82257984032
 20
-948.4466801894503
 30
0.0
 11
69220.82257984032
 21
-950.1133468561171
 31
0.0
 12
69215.82257984033
 22
-949.2800135227836
 32
0.0
 13
69215.82257984033
 23
-949.2800135227836
 33
0.0
  0
SOLID
  5
2D8
330
2D2
100
AcDbEntity
  8
0
 62
     3
440
 16777216
100
AcDbTrace
 10
69316.82257984033
 20
-948.4466801894503
 30
0.0
 11
69316.82257984033
 21
-950.1133468561171
 31
0.0
 12
69321.82257984033
 22
-949.2800135227836
 32
0.0
 13
69321.82257984033
 23
-949.2800135227836
 33
0.0
  0
MTEXT
  5
2D9
330
2D2
100
AcDbEntity
  8
0
 62
     1
440
 16777216
100
AcDbMText
 10
69268.82257984033
 20
-943.5492836455667
 30
0.0
 40
10.0
 41
0.0
 46
0.0
 71
     5
 72
     1
  1
106
 73
     1
 44
1.0
  0
POINT
  5
2DA
330
2D2
100
AcDbEntity
  8
DEFPOINTS
 62
     0
440
 16777216
100
AcDbPoint
 10
69215.82257984033
 20
-969.6100977466842
 30
0.0
  0
POINT
  5
2DB
330
2D2
100
AcDbEntity
  8
DEFPOINTS
 62
     0
440
 16777216
100
AcDbPoint
 10
69321.82257984033
 20
-969.6100977466842
 30
0.0
  0
POINT
  5
2DC
330
2D2
100
AcDbEntity
  8
DEFPOINTS
 62
     0
440
 16777216
100
AcDbPoint
 10
69321.82257984033
 20
-949.2800135227836
 30
0.0
  0
ENDBLK
  5
2DD
330
2D2
100
AcDbEntity
  8
0
100
AcDbBlockEnd
  0
BLOCK
  5
2DF
330
2DE
100
AcDbEntity
  8
0
100
AcDbBlockBegin
  2
*D34
 70
     1
 10
0.0
 20
0.0
 30
0.0
  3
*D34
  1

  0
LINE
  5
2E0
330
2DE
100
AcDbEntity
  8
0
 62
     3
440
 16777216
370
    -2
100
AcDbLine
 10
69321.82257984033
 20
-968.3600977466841
 30
0.0
 11
69321.82257984033
 21
-948.0300135227837
 31
0.0
  0
LINE
  5
2E1
330
2DE
100
AcDbEntity
  8
0
 62
     3
440
 16777216
370
    -2
100
AcDbLine
 10
69444.82257984033
 20
-968.3600977466841
 30
0.0
 11
69444.82257984033
 21
-948.0300135227837
 31
0.0
  0
LINE
  5
2E2
330
2DE
100
AcDbEntity
  8
0
 62
     3
440
 16777216
370
    -2
100
AcDbLine
 10
69326.82257984033
 20
-949.2800135227836
 30
0.0
 11
69439.82257984033
 21
-949.2800135227836
 31
0.0
  0
SOLID
  5
2E3
330
2DE
100
AcDbEntity
  8
0
 62
     3
440
 16777216
100
AcDbTrace
 10
69326.82257984033
 20
-948.4466801894503
 30
0.0
 11
69326.82257984033
 21
-950.1133468561171
 31
0.0
 12
69321.82257984033
 22
-949.2800135227836
 32
0.0
 13
69321.82257984033
 23
-949.2800135227836
 33
0.0
  0
SOLID
  5
2E4
330
2DE
100
AcDbEntity
  8
0
 62
     3
440
 16777216
100
AcDbTrace
 10
69439.82257984033
 20
-948.4466801894503
 30
0.0
 11
69439.82257984033
 21
-950.1133468561171
 31
0.0
 12
69444.82257984033
 22
-949.2800135227836
 32
0.0
 13
69444.82257984033
 23
-949.2800135227836
 33
0.0
  0
MTEXT
  5
2E5
330
2DE
100
AcDbEntity
  8
0
 62
     1
440
 16777216
100
AcDbMText
 10
69383.32257984033
 20
-943.5458730043663
 30
0.0
 40
10.0
 41
0.0
 46
0.0
 71
     5
 72
     1
  1
123
 73
     1
 44
1.0
  0
POINT
  5
2E6
330
2DE
100
AcDbEntity
  8
DEFPOINTS
 62
     0
440
 16777216
100
AcDbPoint
 10
69321.82257984033
 20
-968.9850977466843
 30
0.0
  0
POINT
  5
2E7
330
2DE
100
AcDbEntity
  8
DEFPOINTS
 62
     0
440
 16777216
100
AcDbPoint
 10
69444.82257984033
 20
-968.9850977466843
 30
0.0
  0
POINT
  5
2E8
330
2DE
100
AcDbEntity
  8
DEFPOINTS
 62
     0
440
 16777216
100
AcDbPoint
 10
69444.82257984033
 20
-949.2800135227836
 30
0.0
  0
ENDBLK
  5
2E9
330
2DE
100
AcDbEntity
  8
0
100
AcDbBlockEnd
  0
BLOCK
  5
2EB
330
2EA
100
AcDbEntity
  8
0
100
AcDbBlockBegin
  2
*D35
 70
     1
 10
0.0
 20
0.0
 30
0.0
  3
*D35
  1

  0
LINE
  5
2EC
330
2EA
100
AcDbEntity
  8
0
 62
     3
440
 16777216
370
    -2
100
AcDbLine
 10
69550.82257984033
 20
-1021.985097746684
 30
0.0
 11
69550.82257984033
 21
-948.0300135227837
 31
0.0
  0
LINE
  5
2ED
330
2EA
100
AcDbEntity
  8
0
 62
     3
440
 16777216
370
    -2
100
AcDbLine
 10
69444.82257984033
 20
-968.9850977466843
 30
0.0
 11
69444.82257984033
 21
-948.0300135227837
 31
0.0
  0
LINE
  5
2EE
330
2EA
100
AcDbEntity
  8
0
 62
     3
440
 16777216
370
    -2
100
AcDbLine
 10
69545.82257984033
 20
-949.2800135227836
 30
0.0
 11
69449.82257984033
 21
-949.2800135227836
 31
0.0
  0
SOLID
  5
2EF
330
2EA
100
AcDbEntity
  8
0
 62
     3
440
 16777216
100
AcDbTrace
 10
69545.82257984033
 20
-948.4466801894503
 30
0.0
 11
69545.82257984033
 21
-950.1133468561171
 31
0.0
 12
69550.82257984033
 22
-949.2800135227836
 32
0.0
 13
69550.82257984033
 23
-949.2800135227836
 33
0.0
  0
SOLID
  5
2F0
330
2EA
100
AcDbEntity
  8
0
 62
     3
440
 16777216
100
AcDbTrace
 10
69449.82257984033
 20
-948.4466801894503
 30
0.0
 11
69449.82257984033
 21
-950.1133468561171
 31
0.0
 12
69444.82257984033
 22
-949.2800135227836
 32
0.0
 13
69444.82257984033
 23
-949.2800135227836
 33
0.0
  0
MTEXT
  5
2F1
330
2EA
100
AcDbEntity
  8
0
 62
     1
440
 16777216
100
AcDbMText
 10
69497.82257984033
 20
-943.5492836455667
 30
0.0
 40
10.0
 41
0.0
 46
0.0
 71
     5
 72
     1
  1
106
 73
     1
 44
1.0
  0
POINT
  5
2F2
330
2EA
100
AcDbEntity
  8
DEFPOINTS
 62
     0
440
 16777216
100
AcDbPoint
 10
69550.82257984033
 20
-1022.610097746684
 30
0.0
  0
POINT
  5
2F3
330
2EA
100
AcDbEntity
  8
DEFPOINTS
 62
     0
440
 16777216
100
AcDbPoint
 10
69444.82257984033
 20
-969.6100977466842
 30
0.0
  0
POINT
  5
2F4
330
2EA
100
AcDbEntity
  8
DEFPOINTS
 62
     0
440
 16777216
100
AcDbPoint
 10
69444.82257984033
 20
-949.2800135227836
 30
0.0
  0
ENDBLK
  5
2F5
330
2EA
100
AcDbEntity
  8
0
100
AcDbBlockEnd
  0
BLOCK
  5
2F7
330
2F6
100
AcDbEntity
  8
0
100
AcDbBlockBegin
  2
*D36
 70
     1
 10
0.0
 20
0.0
 30
0.0
  3
*D36
  1

  0
LINE
  5
2F8
330
2F6
100
AcDbEntity
  8
0
 62
     3
440
 16777216
370
    -2
100
AcDbLine
 10
69092.19757984033
 20
-1022.610097746684
 30
0.0
 11
69074.89673301109
 21
-1022.610097746684
 31
0.0
  0
LINE
  5
2F9
330
2F6
100
AcDbEntity
  8
0
 62
     3
440
 16777216
370
    -2
100
AcDbLine
 10
69092.19757984033
 20
-1098.610097746684
 30
0.0
 11
69074.89673301109
 21
-1098.610097746684
 31
0.0
  0
LINE
  5
2FA
330
2F6
100
AcDbEntity
  8
0
 62
     3
440
 16777216
370
    -2
100
AcDbLine
 10
69076.14673301109
 20
-1027.610097746684
 30
0.0
 11
69076.14673301109
 21
-1093.610097746684
 31
0.0
  0
SOLID
  5
2FB
330
2F6
100
AcDbEntity
  8
0
 62
     3
440
 16777216
100
AcDbTrace
 10
69075.31339967776
 20
-1027.610097746684
 30
0.0
 11
69076.98006634442
 21
-1027.610097746684
 31
0.0
 12
69076.14673301109
 22
-1022.610097746684
 32
0.0
 13
69076.14673301109
 23
-1022.610097746684
 33
0.0
  0
SOLID
  5
2FC
330
2F6
100
AcDbEntity
  8
0
 62
     3
440
 16777216
100
AcDbTrace
 10
69075.31339967776
 20
-1093.610097746684
 30
0.0
 11
69076.98006634442
 21
-1093.610097746684
 31
0.0
 12
69076.14673301109
 22
-1098.610097746684
 32
0.0
 13
69076.14673301109
 23
-1098.610097746684
 33
0.0
  0
MTEXT
  5
2FD
330
2F6
100
AcDbEntity
  8
0
 62
     1
440
 16777216
100
AcDbMText
 10
69070.41600313386
 20
-1060.610097746673
 30
0.0
 40
10.0
 41
0.0
 46
0.0
 71
     5
 72
     1
  1
76
 11
0.0000000000000001
 21
1.0
 31
0.0
 73
     1
 44
1.0
  0
POINT
  5
2FE
330
2F6
100
AcDbEntity
  8
DEFPOINTS
 62
     0
440
 16777216
100
AcDbPoint
 10
69092.82257984033
 20
-1022.610097746684
 30
0.0
  0
POINT
  5
2FF
330
2F6
100
AcDbEntity
  8
DEFPOINTS
 62
     0
440
 16777216
100
AcDbPoint
 10
69092.82257984033
 20
-1098.610097746684
 30
0.0
  0
POINT
  5
300
330
2F6
100
AcDbEntity
  8
DEFPOINTS
 62
     0
440
 16777216
100
AcDbPoint
 10
69076.14673301109
 20
-1098.610097746684
 30
0.0
  0
ENDBLK
  5
301
330
2F6
100
AcDbEntity
  8
0
100
AcDbBlockEnd
  0
BLOCK
  5
3B3
330
3B2
100
AcDbEntity
  8
0
100
AcDbBlockBegin
  2
*D38
 70
     1
 10
0.0
 20
0.0
 30
0.0
  3
*D38
  1

  0
LINE
  5
3EE
330
3B2
100
AcDbEntity
  8
0
 62
     0
440
 16777216
370
    -2
100
AcDbLine
 10
803.4733656088745
 20
323.6386495355631
 30
0.0
 11
803.4733656088745
 21
344.5937337594636
 31
0.0
  0
LINE
  5
3EF
330
3B2
100
AcDbEntity
  8
0
 62
     0
440
 16777216
370
    -2
100
AcDbLine
 10
926.4733656088745
 20
323.6386495355631
 30
0.0
 11
926.4733656088745
 21
344.5937337594636
 31
0.0
  0
LINE
  5
3F0
330
3B2
100
AcDbEntity
  8
0
 62
     0
440
 16777216
370
    -2
100
AcDbLine
 10
805.9733656088745
 20
343.3437337594636
 30
0.0
 11
923.9733656088745
 21
343.3437337594636
 31
0.0
  0
SOLID
  5
3F1
330
3B2
100
AcDbEntity
  8
0
 62
     0
440
 16777216
100
AcDbTrace
 10
805.9733656088745
 20
343.7604004261303
 30
0.0
 11
805.9733656088745
 21
342.9270670927969
 31
0.0
 12
803.4733656088745
 22
343.3437337594636
 32
0.0
 13
803.4733656088745
 23
343.3437337594636
 33
0.0
  0
SOLID
  5
3F2
330
3B2
100
AcDbEntity
  8
0
 62
     0
440
 16777216
100
AcDbTrace
 10
923.9733656088745
 20
343.7604004261303
 30
0.0
 11
923.9733656088745
 21
342.9270670927969
 31
0.0
 12
926.4733656088745
 22
343.3437337594636
 32
0.0
 13
926.4733656088745
 23
343.3437337594636
 33
0.0
  0
MTEXT
  5
3F3
330
3B2
100
AcDbEntity
  8
0
 62
     0
440
 16777216
100
AcDbMText
 10
864.9733656088745
 20
345.3016066876404
 30
0.0
 40
2.5
 41
0.0
 46
0.0
 71
     5
 72
     1
  1
123
  7
SLDTEXTSTYLE0
 73
     1
 44
1.0
  0
POINT
  5
3F4
330
3B2
100
AcDbEntity
  8
DEFPOINTS
 62
     0
440
 16777216
100
AcDbPoint
 10
803.4733656088745
 20
323.0136495355631
 30
0.0
  0
POINT
  5
3F5
330
3B2
100
AcDbEntity
  8
DEFPOINTS
 62
     0
440
 16777216
100
AcDbPoint
 10
926.4733656088745
 20
323.0136495355631
 30
0.0
  0
POINT
  5
3F6
330
3B2
100
AcDbEntity
  8
DEFPOINTS
 62
     0
440
 16777216
100
AcDbPoint
 10
926.4733656088745
 20
343.3437337594636
 30
0.0
  0
ENDBLK
  5
3B4
330
3B2
100
AcDbEntity
  8
0
100
AcDbBlockEnd
  0
BLOCK
  5
3BF
330
3BE
100
AcDbEntity
  8
0
100
AcDbBlockBegin
  2
*D39
 70
     1
 10
0.0
 20
0.0
 30
0.0
  3
*D39
  1

  0
LINE
  5
3F7
330
3BE
100
AcDbEntity
  8
0
 62
     0
440
 16777216
370
    -2
100
AcDbLine
 10
926.4733656088745
 20
323.6386495355631
 30
0.0
 11
926.4733656088745
 21
344.5937337594636
 31
0.0
  0
LINE
  5
3F8
330
3BE
100
AcDbEntity
  8
0
 62
     0
440
 16777216
370
    -2
100
AcDbLine
 10
1032.473365608874
 20
323.6386495355631
 30
0.0
 11
1032.473365608874
 21
344.5937337594636
 31
0.0
  0
LINE
  5
3F9
330
3BE
100
AcDbEntity
  8
0
 62
     0
440
 16777216
370
    -2
100
AcDbLine
 10
928.9733656088744
 20
343.3437337594636
 30
0.0
 11
1029.973365608874
 21
343.3437337594636
 31
0.0
  0
SOLID
  5
3FA
330
3BE
100
AcDbEntity
  8
0
 62
     0
440
 16777216
100
AcDbTrace
 10
928.9733656088744
 20
343.7604004261303
 30
0.0
 11
928.9733656088744
 21
342.9270670927969
 31
0.0
 12
926.4733656088745
 22
343.3437337594636
 32
0.0
 13
926.4733656088745
 23
343.3437337594636
 33
0.0
  0
SOLID
  5
3FB
330
3BE
100
AcDbEntity
  8
0
 62
     0
440
 16777216
100
AcDbTrace
 10
1029.973365608874
 20
343.7604004261303
 30
0.0
 11
1029.973365608874
 21
342.9270670927969
 31
0.0
 12
1032.473365608874
 22
343.3437337594636
 32
0.0
 13
1032.473365608874
 23
343.3437337594636
 33
0.0
  0
MTEXT
  5
3FC
330
3BE
100
AcDbEntity
  8
0
 62
     0
440
 16777216
100
AcDbMText
 10
979.4733656088745
 20
345.3016066876404
 30
0.0
 40
2.5
 41
0.0
 46
0.0
 71
     5
 72
     1
  1
106
  7
SLDTEXTSTYLE0
 73
     1
 44
1.0
  0
POINT
  5
3FD
330
3BE
100
AcDbEntity
  8
DEFPOINTS
 62
     0
440
 16777216
100
AcDbPoint
 10
926.4733656088745
 20
323.0136495355631
 30
0.0
  0
POINT
  5
3FE
330
3BE
100
AcDbEntity
  8
DEFPOINTS
 62
     0
440
 16777216
100
AcDbPoint
 10
1032.473365608874
 20
323.0136495355631
 30
0.0
  0
POINT
  5
3FF
330
3BE
100
AcDbEntity
  8
DEFPOINTS
 62
     0
440
 16777216
100
AcDbPoint
 10
1032.473365608874
 20
343.3437337594636
 30
0.0
  0
ENDBLK
  5
3C0
330
3BE
100
AcDbEntity
  8
0
100
AcDbBlockEnd
  0
BLOCK
  5
3CB
330
3CA
100
AcDbEntity
  8
0
100
AcDbBlockBegin
  2
*D40
 70
     1
 10
0.0
 20
0.0
 30
0.0
  3
*D40
  1

  0
LINE
  5
400
330
3CA
100
AcDbEntity
  8
0
 62
     0
440
 16777216
370
    -2
100
AcDbLine
 10
1032.473365608874
 20
324.2636495355631
 30
0.0
 11
1032.473365608874
 21
344.5937337594636
 31
0.0
  0
LINE
  5
401
330
3CA
100
AcDbEntity
  8
0
 62
     0
440
 16777216
370
    -2
100
AcDbLine
 10
1155.473365608874
 20
324.2636495355631
 30
0.0
 11
1155.473365608874
 21
344.5937337594636
 31
0.0
  0
LINE
  5
402
330
3CA
100
AcDbEntity
  8
0
 62
     0
440
 16777216
370
    -2
100
AcDbLine
 10
1034.973365608874
 20
343.3437337594636
 30
0.0
 11
1152.973365608874
 21
343.3437337594636
 31
0.0
  0
SOLID
  5
403
330
3CA
100
AcDbEntity
  8
0
 62
     0
440
 16777216
100
AcDbTrace
 10
1034.973365608874
 20
343.7604004261303
 30
0.0
 11
1034.973365608874
 21
342.9270670927969
 31
0.0
 12
1032.473365608874
 22
343.3437337594636
 32
0.0
 13
1032.473365608874
 23
343.3437337594636
 33
0.0
  0
SOLID
  5
404
330
3CA
100
AcDbEntity
  8
0
 62
     0
440
 16777216
100
AcDbTrace
 10
1152.973365608874
 20
343.7604004261303
 30
0.0
 11
1152.973365608874
 21
342.9270670927969
 31
0.0
 12
1155.473365608874
 22
343.3437337594636
 32
0.0
 13
1155.473365608874
 23
343.3437337594636
 33
0.0
  0
MTEXT
  5
405
330
3CA
100
AcDbEntity
  8
0
 62
     0
440
 16777216
100
AcDbMText
 10
1093.973365608874
 20
345.3016066876404
 30
0.0
 40
2.5
 41
0.0
 46
0.0
 71
     5
 72
     1
  1
123
  7
SLDTEXTSTYLE0
 73
     1
 44
1.0
  0
POINT
  5
406
330
3CA
100
AcDbEntity
  8
DEFPOINTS
 62
     0
440
 16777216
100
AcDbPoint
 10
1032.473365608874
 20
323.6386495355631
 30
0.0
  0
POINT
  5
407
330
3CA
100
AcDbEntity
  8
DEFPOINTS
 62
     0
440
 16777216
100
AcDbPoint
 10
1155.473365608874
 20
323.6386495355631
 30
0.0
  0
POINT
  5
408
330
3CA
100
AcDbEntity
  8
DEFPOINTS
 62
     0
440
 16777216
100
AcDbPoint
 10
1155.473365608874
 20
343.3437337594636
 30
0.0
  0
ENDBLK
  5
3CC
330
3CA
100
AcDbEntity
  8
0
100
AcDbBlockEnd
  0
BLOCK
  5
3D7
330
3D6
100
AcDbEntity
  8
0
100
AcDbBlockBegin
  2
*D41
 70
     1
 10
0.0
 20
0.0
 30
0.0
  3
*D41
  1

  0
LINE
  5
409
330
3D6
100
AcDbEntity
  8
0
 62
     0
440
 16777216
370
    -2
100
AcDbLine
 10
1261.473365608874
 20
270.6386495355631
 30
0.0
 11
1261.473365608874
 21
344.5937337594636
 31
0.0
  0
LINE
  5
40A
330
3D6
100
AcDbEntity
  8
0
 62
     0
440
 16777216
370
    -2
100
AcDbLine
 10
1155.473365608874
 20
323.6386495355631
 30
0.0
 11
1155.473365608874
 21
344.5937337594636
 31
0.0
  0
LINE
  5
40B
330
3D6
100
AcDbEntity
  8
0
 62
     0
440
 16777216
370
    -2
100
AcDbLine
 10
1258.973365608874
 20
343.3437337594636
 30
0.0
 11
1157.973365608874
 21
343.3437337594636
 31
0.0
  0
SOLID
  5
40C
330
3D6
100
AcDbEntity
  8
0
 62
     0
440
 16777216
100
AcDbTrace
 10
1258.973365608874
 20
343.7604004261303
 30
0.0
 11
1258.973365608874
 21
342.9270670927969
 31
0.0
 12
1261.473365608874
 22
343.3437337594636
 32
0.0
 13
1261.473365608874
 23
343.3437337594636
 33
0.0
  0
SOLID
  5
40D
330
3D6
100
AcDbEntity
  8
0
 62
     0
440
 16777216
100
AcDbTrace
 10
1157.973365608874
 20
343.7604004261303
 30
0.0
 11
1157.973365608874
 21
342.9270670927969
 31
0.0
 12
1155.473365608874
 22
343.3437337594636
 32
0.0
 13
1155.473365608874
 23
343.3437337594636
 33
0.0
  0
MTEXT
  5
40E
330
3D6
100
AcDbEntity
  8
0
 62
     0
440
 16777216
100
AcDbMText
 10
1208.473365608874
 20
345.3016066876404
 30
0.0
 40
2.5
 41
0.0
 46
0.0
 71
     5
 72
     1
  1
106
  7
SLDTEXTSTYLE0
 73
     1
 44
1.0
  0
POINT
  5
40F
330
3D6
100
AcDbEntity
  8
DEFPOINTS
 62
     0
440
 16777216
100
AcDbPoint
 10
1261.473365608874
 20
270.0136495355631
 30
0.0
  0
POINT
  5
410
330
3D6
100
AcDbEntity
  8
DEFPOINTS
 62
     0
440
 16777216
100
AcDbPoint
 10
1155.473365608874
 20
323.0136495355631
 30
0.0
  0
POINT
  5
411
330
3D6
100
AcDbEntity
  8
DEFPOINTS
 62
     0
440
 16777216
100
AcDbPoint
 10
1155.473365608874
 20
343.3437337594636
 30
0.0
  0
ENDBLK
  5
3D8
330
3D6
100
AcDbEntity
  8
0
100
AcDbBlockEnd
  0
BLOCK
  5
3E3
330
3E2
100
AcDbEntity
  8
0
100
AcDbBlockBegin
  2
*D42
 70
     1
 10
0.0
 20
0.0
 30
0.0
  3
*D42
  1

  0
LINE
  5
412
330
3E2
100
AcDbEntity
  8
0
 62
     0
440
 16777216
370
    -2
100
AcDbLine
 10
802.8483656088745
 20
270.0136495355631
 30
0.0
 11
785.5475187796354
 21
270.0136495355631
 31
0.0
  0
LINE
  5
413
330
3E2
100
AcDbEntity
  8
0
 62
     0
440
 16777216
370
    -2
100
AcDbLine
 10
802.8483656088745
 20
194.0136495355631
 30
0.0
 11
785.5475187796352
 21
194.0136495355631
 31
0.0
  0
LINE
  5
414
330
3E2
100
AcDbEntity
  8
0
 62
     0
440
 16777216
370
    -2
100
AcDbLine
 10
786.7975187796354
 20
267.5136495355631
 30
0.0
 11
786.7975187796353
 21
196.5136495355631
 31
0.0
  0
SOLID
  5
415
330
3E2
100
AcDbEntity
  8
0
 62
     0
440
 16777216
100
AcDbTrace
 10
786.3808521129688
 20
267.5136495355631
 30
0.0
 11
787.214185446302
 21
267.5136495355631
 31
0.0
 12
786.7975187796354
 22
270.0136495355631
 32
0.0
 13
786.7975187796354
 23
270.0136495355631
 33
0.0
  0
SOLID
  5
416
330
3E2
100
AcDbEntity
  8
0
 62
     0
440
 16777216
100
AcDbTrace
 10
786.3808521129686
 20
196.5136495355631
 30
0.0
 11
787.2141854463019
 21
196.5136495355631
 31
0.0
 12
786.7975187796353
 22
194.0136495355631
 32
0.0
 13
786.7975187796353
 23
194.0136495355631
 33
0.0
  0
MTEXT
  5
417
330
3E2
100
AcDbEntity
  8
0
 62
     0
440
 16777216
100
AcDbMText
 10
784.8396458514585
 20
232.0136495355632
 30
0.0
 40
2.5
 41
0.0
 46
0.0
 71
     5
 72
     1
  1
76
  7
SLDTEXTSTYLE0
 11
0.0000000000000001
 21
1.0
 31
0.0
 73
     1
 44
1.0
  0
POINT
  5
418
330
3E2
100
AcDbEntity
  8
DEFPOINTS
 62
     0
440
 16777216
100
AcDbPoint
 10
803.4733656088745
 20
270.0136495355631
 30
0.0
  0
POINT
  5
419
330
3E2
100
AcDbEntity
  8
DEFPOINTS
 62
     0
440
 16777216
100
AcDbPoint
 10
803.4733656088745
 20
194.0136495355631
 30
0.0
  0
POINT
  5
41A
330
3E2
100
AcDbEntity
  8
DEFPOINTS
 62
     0
440
 16777216
100
AcDbPoint
 10
786.7975187796353
 20
194.0136495355631
 30
0.0
  0
ENDBLK
  5
3E4
330
3E2
100
AcDbEntity
  8
0
100
AcDbBlockEnd
  0
ENDSEC
  0
SECTION
  2
ENTITIES
  0
LINE
  5
F9
330
1F
100
AcDbEntity
  8
0
  6
SLD-Solid
 62
     7
370
    15
100
AcDbLine
 10
1046.395212354002
 20
246.5982505963792
 30
0.0
 11
1046.395212354002
 21
256.5982505963792
 31
0.0
  0
LINE
  5
FA
330
1F
100
AcDbEntity
  8
0
  6
SLD-Solid
 62
     7
370
    15
100
AcDbLine
 10
1043.895212354002
 20
256.5982505963792
 30
0.0
 11
1043.895212354002
 21
246.5982505963792
 31
0.0
  0
LINE
  5
FB
330
1F
100
AcDbEntity
  8
0
  6
SLD-Solid
 62
     7
370
    15
100
AcDbLine
 10
1026.395212354002
 20
246.5982505963792
 30
0.0
 11
1026.395212354002
 21
256.5982505963792
 31
0.0
  0
LINE
  5
FC
330
1F
100
AcDbEntity
  8
0
  6
SLD-Solid
 62
     7
370
    15
100
AcDbLine
 10
1023.895212354002
 20
256.5982505963792
 30
0.0
 11
1023.895212354002
 21
246.5982505963792
 31
0.0
  0
LINE
  5
FD
330
1F
100
AcDbEntity
  8
0
  6
SLD-Solid
 62
     7
370
    15
100
AcDbLine
 10
1076.545212354002
 20
205.5982505963792
 30
0.0
 11
1076.545212354002
 21
206.4982505963792
 31
0.0
  0
LINE
  5
FE
330
1F
100
AcDbEntity
  8
0
  6
SLD-Solid
 62
     7
370
    15
100
AcDbLine
 10
993.7452123540019
 20
206.4982505963792
 30
0.0
 11
993.7452123540019
 21
205.5982505963792
 31
0.0
  0
LINE
  5
FF
330
1F
100
AcDbEntity
  8
0
  6
SLD-Solid
 62
     7
370
    15
100
AcDbLine
 10
1046.395212354002
 20
256.5982505963792
 30
0.0
 11
1043.895212354002
 21
256.5982505963792
 31
0.0
  0
LINE
  5
100
330
1F
100
AcDbEntity
  8
0
  6
SLD-Solid
 62
     7
370
    15
100
AcDbLine
 10
1025.145212354002
 20
246.5982505963792
 30
0.0
 11
1016.395212354002
 21
246.5982505963792
 31
0.0
  0
LINE
  5
101
330
1F
100
AcDbEntity
  8
0
  6
SLD-Solid
 62
     7
370
    15
100
AcDbLine
 10
1045.145212354002
 20
246.5982505963792
 30
0.0
 11
1025.145212354002
 21
246.5982505963792
 31
0.0
  0
LINE
  5
102
330
1F
100
AcDbEntity
  8
0
  6
SLD-Solid
 62
     7
370
    15
100
AcDbLine
 10
1053.895212354002
 20
246.5982505963792
 30
0.0
 11
1045.145212354002
 21
246.5982505963792
 31
0.0
  0
LINE
  5
103
330
1F
100
AcDbEntity
  8
0
  6
SLD-Solid
 62
     7
370
    15
100
AcDbLine
 10
1053.895212354002
 20
246.5982505963792
 30
0.0
 11
1053.895212354002
 21
217.0982505963792
 31
0.0
  0
LINE
  5
104
330
1F
100
AcDbEntity
  8
0
  6
SLD-Solid
 62
     7
370
    15
100
AcDbLine
 10
1053.895212354002
 20
217.0982505963792
 30
0.0
 11
1016.395212354002
 21
217.0982505963792
 31
0.0
  0
LINE
  5
105
330
1F
100
AcDbEntity
  8
0
  6
SLD-Solid
 62
     7
370
    15
100
AcDbLine
 10
1016.395212354002
 20
246.5982505963792
 30
0.0
 11
1016.395212354002
 21
217.0982505963792
 31
0.0
  0
LINE
  5
106
330
1F
100
AcDbEntity
  8
0
  6
SLD-Solid
 62
     7
370
    15
100
AcDbLine
 10
1026.395212354002
 20
256.5982505963792
 30
0.0
 11
1023.895212354002
 21
256.5982505963792
 31
0.0
  0
LINE
  5
107
330
1F
100
AcDbEntity
  8
0
  6
SLD-Solid
 62
     7
370
    15
100
AcDbLine
 10
1004.645212354002
 20
256.5982505963792
 30
0.0
 11
1004.645212354002
 21
205.5982505963792
 31
0.0
  0
LINE
  5
108
330
1F
100
AcDbEntity
  8
0
  6
SLD-Solid
 62
     7
370
    15
100
AcDbLine
 10
1004.645212354002
 20
256.5982505963792
 30
0.0
 11
1023.895212354002
 21
256.5982505963792
 31
0.0
  0
LINE
  5
109
330
1F
100
AcDbEntity
  8
0
  6
SLD-Solid
 62
     7
370
    15
100
AcDbLine
 10
1026.395212354002
 20
256.5982505963792
 30
0.0
 11
1043.895212354002
 21
256.5982505963792
 31
0.0
  0
LINE
  5
10A
330
1F
100
AcDbEntity
  8
0
  6
SLD-Solid
 62
     7
370
    15
100
AcDbLine
 10
1046.395212354002
 20
256.5982505963792
 30
0.0
 11
1065.645212354002
 21
256.5982505963792
 31
0.0
  0
LINE
  5
10B
330
1F
100
AcDbEntity
  8
0
  6
SLD-Solid
 62
     7
370
    15
100
AcDbLine
 10
1004.645212354002
 20
205.5982505963792
 30
0.0
 11
1065.645212354002
 21
205.5982505963792
 31
0.0
  0
LINE
  5
10C
330
1F
100
AcDbEntity
  8
0
  6
SLD-Solid
 62
     7
370
    15
100
AcDbLine
 10
1065.645212354002
 20
256.5982505963792
 30
0.0
 11
1065.645212354002
 21
205.5982505963792
 31
0.0
  0
LINE
  5
10D
330
1F
100
AcDbEntity
  8
0
  6
SLD-Solid
 62
     7
370
    15
100
AcDbLine
 10
1003.245212354002
 20
206.4982505963792
 30
0.0
 11
1003.245212354002
 21
205.5982505963792
 31
0.0
  0
LINE
  5
10E
330
1F
100
AcDbEntity
  8
0
  6
SLD-Solid
 62
     7
370
    15
100
AcDbLine
 10
1004.645212354002
 20
206.4982505963792
 30
0.0
 11
1003.245212354002
 21
206.4982505963792
 31
0.0
  0
LINE
  5
10F
330
1F
100
AcDbEntity
  8
0
  6
SLD-Solid
 62
     7
370
    15
100
AcDbLine
 10
1004.645212354002
 20
205.5982505963792
 30
0.0
 11
1003.245212354002
 21
205.5982505963792
 31
0.0
  0
LINE
  5
110
330
1F
100
AcDbEntity
  8
0
  6
SLD-Solid
 62
     7
370
    15
100
AcDbLine
 10
1067.045212354002
 20
206.4982505963792
 30
0.0
 11
1065.645212354002
 21
206.4982505963792
 31
0.0
  0
LINE
  5
111
330
1F
100
AcDbEntity
  8
0
  6
SLD-Solid
 62
     7
370
    15
100
AcDbLine
 10
1067.045212354002
 20
206.4982505963792
 30
0.0
 11
1067.045212354002
 21
205.5982505963792
 31
0.0
  0
LINE
  5
112
330
1F
100
AcDbEntity
  8
0
  6
SLD-Solid
 62
     7
370
    15
100
AcDbLine
 10
1067.045212354002
 20
205.5982505963792
 30
0.0
 11
1065.645212354002
 21
205.5982505963792
 31
0.0
  0
LINE
  5
113
330
1F
100
AcDbEntity
  8
0
  6
SLD-Solid
 62
     7
370
    15
100
AcDbLine
 10
1076.545212354002
 20
206.4982505963792
 30
0.0
 11
1067.045212354002
 21
206.4982505963792
 31
0.0
  0
LINE
  5
114
330
1F
100
AcDbEntity
  8
0
  6
SLD-Solid
 62
     7
370
    15
100
AcDbLine
 10
1076.545212354002
 20
205.5982505963792
 30
0.0
 11
1067.045212354002
 21
205.5982505963792
 31
0.0
  0
LINE
  5
115
330
1F
100
AcDbEntity
  8
0
  6
SLD-Solid
 62
     7
370
    15
100
AcDbLine
 10
1003.245212354002
 20
206.4982505963792
 30
0.0
 11
993.7452123540019
 21
206.4982505963792
 31
0.0
  0
LINE
  5
116
330
1F
100
AcDbEntity
  8
0
  6
SLD-Solid
 62
     7
370
    15
100
AcDbLine
 10
1003.245212354002
 20
205.5982505963792
 30
0.0
 11
993.7452123540019
 21
205.5982505963792
 31
0.0
  0
DIMENSION
  5
117
330
1F
100
AcDbEntity
  8
0
  6
SLD-Solid
 62
     7
370
     0
100
AcDbDimension
280
     0
  2
_D
 10
1076.545212354002
 20
193.5982505963792
 30
0.0
 11
1034.179937667757
 21
193.5982505963792
 31
0.0
 70
   160
  1
<>
 71
     2
 42
82.79999999999995
 73
     0
 74
     0
 75
     0
  3
SLDDIMSTYLE0
100
AcDbAlignedDimension
 13
993.7452123540019
 23
205.5982505963792
 33
0.0
 14
1076.545212354002
 24
205.5982505963792
 34
0.0
100
AcDbRotatedDimension
  0
DIMENSION
  5
123
330
1F
100
AcDbEntity
  8
0
  6
SLD-Solid
 62
     7
370
     0
100
AcDbDimension
280
     0
  2
_D_1
 10
1090.145212354002
 20
205.5982505963791
 30
0.0
 11
1090.145212354002
 21
232.6950822551069
 31
0.0
 70
   160
  1
<>
 71
     2
 42
50.99999999999997
 73
     0
 74
     0
 75
     0
  3
SLDDIMSTYLE0
100
AcDbAlignedDimension
 13
1065.645212354002
 23
256.5982505963792
 33
0.0
 14
1076.545212354002
 24
205.5982505963792
 34
0.0
 50
90.0
100
AcDbRotatedDimension
  0
DIMENSION
  5
12E
330
1F
100
AcDbEntity
  8
0
  6
SLD-Solid
 62
     7
370
     0
100
AcDbDimension
280
     0
  2
_D_2
 10
980.145212354002
 20
206.4982505963792
 30
0.0
 11
980.145212354002
 21
229.0386014267841
 31
0.0
 70
   160
  1
<>
 71
     2
 42
0.9000000000000056
 73
     0
 74
     0
 75
     0
  3
SLDDIMSTYLE1
100
AcDbAlignedDimension
 13
993.7452123540019
 23
205.5982505963792
 33
0.0
 14
993.7452123540019
 24
206.4982505963792
 34
0.0
 50
90.0
100
AcDbRotatedDimension
  0
DIMENSION
  5
13A
330
1F
100
AcDbEntity
  8
0
  6
SLD-Solid
 62
     7
370
     0
100
AcDbDimension
280
     0
  2
_D_3
 10
1065.645212354002
 20
263.6301586489009
 30
0.0
 11
1034.179937667757
 21
263.6301586489009
 31
0.0
 70
   160
  1
<>
 71
     2
 42
61.0
 73
     0
 74
     0
 75
     0
  3
SLDDIMSTYLE0
100
AcDbAlignedDimension
 13
1004.645212354002
 23
256.5982505963792
 33
0.0
 14
1065.645212354002
 24
256.5982505963792
 34
0.0
100
AcDbRotatedDimension
  0
LINE
  5
145
330
1F
100
AcDbEntity
  8
0
  6
SLD-Solid
 62
     7
370
    15
100
AcDbLine
 10
1001.920212354002
 20
121.2764040858734
 30
0.0
 11
998.1702123540021
 21
121.2764040858734
 31
0.0
  0
ARC
  5
146
330
1F
100
AcDbEntity
  8
0
  6
SLD-Solid
 62
     7
370
    15
100
AcDbCircle
 10
998.1702123540021
 20
119.2514040858734
 30
0.0
 40
2.025000000000005
100
AcDbArc
 50
90.0
 51
270.0
  0
LINE
  5
147
330
1F
100
AcDbEntity
  8
0
  6
SLD-Solid
 62
     7
370
    15
100
AcDbLine
 10
998.1702123540021
 20
117.2264040858734
 30
0.0
 11
1001.920212354002
 21
117.2264040858734
 31
0.0
  0
ARC
  5
148
330
1F
100
AcDbEntity
  8
0
  6
SLD-Solid
 62
     7
370
    15
100
AcDbCircle
 10
1001.920212354002
 20
119.2514040858734
 30
0.0
 40
2.025000000000005
100
AcDbArc
 50
270.0
 51
90.0
  0
ARC
  5
149
330
1F
100
AcDbEntity
  8
0
  6
SLD-Solid
 62
     7
370
    15
100
AcDbCircle
 10
1072.120212354002
 20
119.2514040858734
 30
0.0
 40
2.025000000000005
100
AcDbArc
 50
270.0
 51
90.0
  0
LINE
  5
14A
330
1F
100
AcDbEntity
  8
0
  6
SLD-Solid
 62
     7
370
    15
100
AcDbLine
 10
1072.120212354002
 20
121.2764040858734
 30
0.0
 11
1068.370212354002
 21
121.2764040858734
 31
0.0
  0
ARC
  5
14B
330
1F
100
AcDbEntity
  8
0
  6
SLD-Solid
 62
     7
370
    15
100
AcDbCircle
 10
1068.370212354002
 20
119.2514040858734
 30
0.0
 40
2.025000000000005
100
AcDbArc
 50
90.0
 51
270.0
  0
LINE
  5
14C
330
1F
100
AcDbEntity
  8
0
  6
SLD-Solid
 62
     7
370
    15
100
AcDbLine
 10
1068.370212354002
 20
117.2264040858734
 30
0.0
 11
1072.120212354002
 21
117.2264040858734
 31
0.0
  0
LINE
  5
14D
330
1F
100
AcDbEntity
  8
0
  6
SLD-Solid
 62
     7
370
    15
100
AcDbLine
 10
1003.245212354002
 20
109.7514040858734
 30
0.0
 11
1004.645212354002
 21
109.7514040858734
 31
0.0
  0
ARC
  5
14E
330
1F
100
AcDbEntity
  8
0
  6
SLD-Solid
 62
     7
370
    15
100
AcDbCircle
 10
1003.245212354002
 20
119.2514040858734
 30
0.0
 40
9.500000000000014
100
AcDbArc
 50
90.0
 51
270.0
  0
LINE
  5
14F
330
1F
100
AcDbEntity
  8
0
  6
SLD-Solid
 62
     7
370
    15
100
AcDbLine
 10
1004.645212354002
 20
128.7514040858734
 30
0.0
 11
1003.245212354002
 21
128.7514040858734
 31
0.0
  0
LINE
  5
150
330
1F
100
AcDbEntity
  8
0
  6
SLD-Solid
 62
     7
370
    15
100
AcDbLine
 10
1004.645212354002
 20
133.0014040858734
 30
0.0
 11
1065.645212354002
 21
133.0014040858734
 31
0.0
  0
LINE
  5
151
330
1F
100
AcDbEntity
  8
0
  6
SLD-Solid
 62
     7
370
    15
100
AcDbLine
 10
1067.045212354002
 20
128.7514040858734
 30
0.0
 11
1065.645212354002
 21
128.7514040858734
 31
0.0
  0
ARC
  5
152
330
1F
100
AcDbEntity
  8
0
  6
SLD-Solid
 62
     7
370
    15
100
AcDbCircle
 10
1067.045212354002
 20
119.2514040858734
 30
0.0
 40
9.500000000000014
100
AcDbArc
 50
270.0
 51
90.0
  0
LINE
  5
153
330
1F
100
AcDbEntity
  8
0
  6
SLD-Solid
 62
     7
370
    15
100
AcDbLine
 10
1065.645212354002
 20
109.7514040858734
 30
0.0
 11
1067.045212354002
 21
109.7514040858734
 31
0.0
  0
LINE
  5
154
330
1F
100
AcDbEntity
  8
0
  6
SLD-Solid
 62
     7
370
    15
100
AcDbLine
 10
1065.645212354002
 20
105.5014040858734
 30
0.0
 11
1004.645212354002
 21
105.5014040858734
 31
0.0
  0
LINE
  5
155
330
1F
100
AcDbEntity
  8
0
  6
SLD-Solid
 62
     7
370
    15
100
AcDbLine
 10
1065.645212354002
 20
133.0014040858734
 30
0.0
 11
1065.645212354002
 21
128.7514040858734
 31
0.0
  0
LINE
  5
156
330
1F
100
AcDbEntity
  8
0
  6
SLD-Solid
 62
     7
370
    15
100
AcDbLine
 10
1065.645212354002
 20
109.7514040858734
 30
0.0
 11
1065.645212354002
 21
105.5014040858734
 31
0.0
  0
LINE
  5
157
330
1F
100
AcDbEntity
  8
0
  6
SLD-Solid
 62
     7
370
    15
100
AcDbLine
 10
1004.645212354002
 20
105.5014040858734
 30
0.0
 11
1004.645212354002
 21
109.7514040858734
 31
0.0
  0
LINE
  5
158
330
1F
100
AcDbEntity
  8
0
  6
SLD-Solid
 62
     7
370
    15
100
AcDbLine
 10
1004.645212354002
 20
128.7514040858734
 30
0.0
 11
1004.645212354002
 21
133.0014040858734
 31
0.0
  0
LINE
  5
159
330
1F
100
AcDbEntity
  8
0
  6
SLD-Solid
 62
     7
370
    15
100
AcDbLine
 10
1053.895212354002
 20
95.75140408587342
 30
0.0
 11
1016.395212354002
 21
95.75140408587342
 31
0.0
  0
LINE
  5
15A
330
1F
100
AcDbEntity
  8
0
  6
SLD-Solid
 62
     7
370
    15
100
AcDbLine
 10
1053.895212354002
 20
105.5014040858734
 30
0.0
 11
1053.895212354002
 21
95.75140408587342
 31
0.0
  0
LINE
  5
15B
330
1F
100
AcDbEntity
  8
0
  6
SLD-Solid
 62
     7
370
    15
100
AcDbLine
 10
1016.395212354002
 20
105.5014040858734
 30
0.0
 11
1016.395212354002
 21
95.75140408587342
 31
0.0
  0
LINE
  5
15C
330
1F
100
AcDbEntity
  8
0
  6
SLD-Solid
 62
     7
370
    15
100
AcDbLine
 10
1053.895212354002
 20
142.7514040858734
 30
0.0
 11
1016.395212354002
 21
142.7514040858734
 31
0.0
  0
LINE
  5
15D
330
1F
100
AcDbEntity
  8
0
  6
SLD-Solid
 62
     7
370
    15
100
AcDbLine
 10
1016.395212354002
 20
142.7514040858734
 30
0.0
 11
1016.395212354002
 21
133.0014040858734
 31
0.0
  0
LINE
  5
15E
330
1F
100
AcDbEntity
  8
0
  6
SLD-Solid
 62
     7
370
    15
100
AcDbLine
 10
1053.895212354002
 20
142.7514040858734
 30
0.0
 11
1053.895212354002
 21
133.0014040858734
 31
0.0
  0
POINT
  5
15F
330
1F
100
AcDbEntity
  8
0
  6
Continuous
 62
     7
370
     0
100
AcDbPoint
 10
1066.345212354002
 20
119.2514040858734
 30
0.0
  0
POINT
  5
160
330
1F
100
AcDbEntity
  8
0
  6
Continuous
 62
     7
370
     0
100
AcDbPoint
 10
1074.145212354002
 20
119.2514040858734
 30
0.0
  0
POINT
  5
161
330
1F
100
AcDbEntity
  8
0
  6
Continuous
 62
     7
370
     0
100
AcDbPoint
 10
1003.245212354002
 20
119.2514040858734
 30
0.0
  0
DIMENSION
  5
162
330
1F
100
AcDbEntity
  8
0
  6
SLD-Solid
 62
     7
370
     0
100
AcDbDimension
280
     0
  2
_D_4
 10
1074.145212354002
 20
154.1221184825091
 30
0.0
 11
1097.005835741811
 21
154.1221184825091
 31
0.0
 70
   160
  1
<>
 71
     2
 42
7.800000000000181
 73
     0
 74
     0
 75
     0
  3
SLDDIMSTYLE2
100
AcDbAlignedDimension
 13
1066.345212354002
 23
119.2514040858734
 33
0.0
 14
1074.145212354002
 24
119.2514040858734
 34
0.0
100
AcDbRotatedDimension
  0
DIMENSION
  5
16E
330
1F
100
AcDbEntity
  8
0
  6
SLD-Solid
 62
     7
370
     0
100
AcDbDimension
280
     0
  2
_D_5
 10
1066.345212354002
 20
166.2514040858735
 30
0.0
 11
1036.736803492424
 21
166.2514040858735
 31
0.0
 70
   160
  1
<>
 71
     2
 42
63.09999999999991
 73
     0
 74
     0
 75
     0
  3
SLDDIMSTYLE0
100
AcDbAlignedDimension
 13
1003.245212354002
 23
119.2514040858734
 33
0.0
 14
1066.345212354002
 24
119.2514040858734
 34
0.0
100
AcDbRotatedDimension
  0
DIMENSION
  5
179
330
1F
100
AcDbEntity
  8
0
  6
SLD-Solid
 62
     7
370
     0
100
AcDbDimension
280
     0
  2
_D_6
 10
1090.145212354002
 20
117.2264040858734
 30
0.0
 11
1090.145212354002
 21
137.8393733453191
 31
0.0
 70
   160
  1
<>
 71
     2
 42
4.050000000000011
 73
     0
 74
     0
 75
     0
  3
SLDDIMSTYLE2
100
AcDbAlignedDimension
 13
1072.120212354002
 23
121.2764040858734
 33
0.0
 14
1072.120212354002
 24
117.2264040858734
 34
0.0
 50
90.0
100
AcDbRotatedDimension
  0
DIMENSION
  5
184
330
1F
100
AcDbEntity
  8
0
  6
SLD-Solid
 62
     7
370
     0
100
AcDbDimension
280
     0
  2
_D_7
 10
1072.120212354002
 20
119.2514040858734
 30
0.0
 11
1105.248529297076
 21
102.7261286266666
 31
0.0
 70
   164
  1
<>
 42
2.024999999999977
 73
     0
 74
     0
 75
     0
  3
SLDDIMSTYLE3
100
AcDbRadialDimension
 15
1073.778995243687
 25
118.0899118022626
 35
0.0
 40
0.0
  0
DIMENSION
  5
18D
330
1F
100
AcDbEntity
  8
0
  6
SLD-Solid
 62
     7
370
     0
100
AcDbDimension
280
     0
  2
_D_8
 10
974.0111738468973
 20
109.7514040858734
 30
0.0
 11
974.0111738468973
 21
120.3839705465662
 31
0.0
 70
   160
  1
<>
 71
     2
 42
19.00000000000003
 73
     0
 74
     0
 75
     0
  3
SLDDIMSTYLE2
100
AcDbAlignedDimension
 13
1004.645212354002
 23
128.7514040858734
 33
0.0
 14
1004.645212354002
 24
109.7514040858734
 34
0.0
 50
90.0
100
AcDbRotatedDimension
  0
DIMENSION
  5
198
330
1F
100
AcDbEntity
  8
0
  6
SLD-Solid
 62
     7
370
     0
100
AcDbDimension
280
     0
  2
_D_9
 10
1003.245212354002
 20
119.2514040858734
 30
0.0
 11
965.1583848840983
 21
149.0825124186186
 31
0.0
 70
   164
  1
<>
 42
9.5
 73
     0
 74
     0
 75
     0
  3
SLDDIMSTYLE3
100
AcDbRadialDimension
 15
997.1387300619799
 25
126.5288262955038
 35
0.0
 40
0.0
  0
LINE
  5
1A0
330
1F
100
AcDbEntity
  8
0
  6
SLD-Solid
 62
     7
370
    15
100
AcDbLine
 10
1203.548804999949
 20
246.5982505963792
 30
0.0
 11
1203.548804999949
 21
256.5982505963792
 31
0.0
  0
LINE
  5
1A1
330
1F
100
AcDbEntity
  8
0
  6
SLD-Solid
 62
     7
370
    15
100
AcDbLine
 10
1201.048804999949
 20
256.5982505963792
 30
0.0
 11
1201.048804999949
 21
246.5982505963792
 31
0.0
  0
LINE
  5
1A2
330
1F
100
AcDbEntity
  8
0
  6
SLD-Solid
 62
     7
370
    15
100
AcDbLine
 10
1159.048804999949
 20
246.5982505963792
 30
0.0
 11
1159.048804999949
 21
256.5982505963792
 31
0.0
  0
LINE
  5
1A3
330
1F
100
AcDbEntity
  8
0
  6
SLD-Solid
 62
     7
370
    15
100
AcDbLine
 10
1156.548804999949
 20
256.5982505963792
 30
0.0
 11
1156.548804999949
 21
246.5982505963792
 31
0.0
  0
LINE
  5
1A4
330
1F
100
AcDbEntity
  8
0
  6
SLD-Solid
 62
     7
370
    15
100
AcDbLine
 10
1170.548804999949
 20
206.4982505963792
 30
0.0
 11
1170.548804999949
 21
205.5982505963792
 31
0.0
  0
LINE
  5
1A5
330
1F
100
AcDbEntity
  8
0
  6
SLD-Solid
 62
     7
370
    15
100
AcDbLine
 10
1189.548804999949
 20
206.4982505963792
 30
0.0
 11
1170.548804999949
 21
206.4982505963792
 31
0.0
  0
LINE
  5
1A6
330
1F
100
AcDbEntity
  8
0
  6
SLD-Solid
 62
     7
370
    15
100
AcDbLine
 10
1189.548804999949
 20
206.4982505963792
 30
0.0
 11
1189.548804999949
 21
205.5982505963792
 31
0.0
  0
LINE
  5
1A7
330
1F
100
AcDbEntity
  8
0
  6
SLD-Solid
 62
     7
370
    15
100
AcDbLine
 10
1189.548804999949
 20
205.5982505963792
 30
0.0
 11
1170.548804999949
 21
205.5982505963792
 31
0.0
  0
LINE
  5
1A8
330
1F
100
AcDbEntity
  8
0
  6
SLD-Solid
 62
     7
370
    15
100
AcDbLine
 10
1166.298804999949
 20
256.5982505963792
 30
0.0
 11
1193.798804999949
 21
256.5982505963792
 31
0.0
  0
LINE
  5
1A9
330
1F
100
AcDbEntity
  8
0
  6
SLD-Solid
 62
     7
370
    15
100
AcDbLine
 10
1166.298804999949
 20
256.5982505963792
 30
0.0
 11
1166.298804999949
 21
205.5982505963792
 31
0.0
  0
LINE
  5
1AA
330
1F
100
AcDbEntity
  8
0
  6
SLD-Solid
 62
     7
370
    15
100
AcDbLine
 10
1193.798804999949
 20
256.5982505963792
 30
0.0
 11
1193.798804999949
 21
205.5982505963792
 31
0.0
  0
LINE
  5
1AB
330
1F
100
AcDbEntity
  8
0
  6
SLD-Solid
 62
     7
370
    15
100
AcDbLine
 10
1166.298804999949
 20
205.5982505963792
 30
0.0
 11
1170.548804999949
 21
205.5982505963792
 31
0.0
  0
LINE
  5
1AC
330
1F
100
AcDbEntity
  8
0
  6
SLD-Solid
 62
     7
370
    15
100
AcDbLine
 10
1189.548804999949
 20
205.5982505963792
 30
0.0
 11
1193.798804999949
 21
205.5982505963792
 31
0.0
  0
LINE
  5
1AD
330
1F
100
AcDbEntity
  8
0
  6
SLD-Solid
 62
     7
370
    15
100
AcDbLine
 10
1203.548804999949
 20
217.0982505963792
 30
0.0
 11
1203.548804999949
 21
246.5982505963792
 31
0.0
  0
LINE
  5
1AE
330
1F
100
AcDbEntity
  8
0
  6
SLD-Solid
 62
     7
370
    15
100
AcDbLine
 10
1193.798804999949
 20
217.0982505963792
 30
0.0
 11
1203.548804999949
 21
217.0982505963792
 31
0.0
  0
LINE
  5
1AF
330
1F
100
AcDbEntity
  8
0
  6
SLD-Solid
 62
     7
370
    15
100
AcDbLine
 10
1203.548804999949
 20
246.5982505963792
 30
0.0
 11
1193.798804999949
 21
246.5982505963792
 31
0.0
  0
LINE
  5
1B0
330
1F
100
AcDbEntity
  8
0
  6
SLD-Solid
 62
     7
370
    15
100
AcDbLine
 10
1156.548804999949
 20
246.5982505963792
 30
0.0
 11
1156.548804999949
 21
217.0982505963792
 31
0.0
  0
LINE
  5
1B1
330
1F
100
AcDbEntity
  8
0
  6
SLD-Solid
 62
     7
370
    15
100
AcDbLine
 10
1166.298804999949
 20
246.5982505963792
 30
0.0
 11
1156.548804999949
 21
246.5982505963792
 31
0.0
  0
LINE
  5
1B2
330
1F
100
AcDbEntity
  8
0
  6
SLD-Solid
 62
     7
370
    15
100
AcDbLine
 10
1156.548804999949
 20
217.0982505963792
 30
0.0
 11
1166.298804999949
 21
217.0982505963792
 31
0.0
  0
LINE
  5
1B3
330
1F
100
AcDbEntity
  8
0
  6
SLD-Solid
 62
     7
370
    15
100
AcDbLine
 10
1202.298804999949
 20
256.5982505963792
 30
0.0
 11
1203.548804999949
 21
256.5982505963792
 31
0.0
  0
LINE
  5
1B4
330
1F
100
AcDbEntity
  8
0
  6
SLD-Solid
 62
     7
370
    15
100
AcDbLine
 10
1201.048804999949
 20
256.5982505963792
 30
0.0
 11
1202.298804999949
 21
256.5982505963792
 31
0.0
  0
LINE
  5
1B5
330
1F
100
AcDbEntity
  8
0
  6
SLD-Solid
 62
     7
370
    15
100
AcDbLine
 10
1157.798804999949
 20
256.5982505963792
 30
0.0
 11
1156.548804999949
 21
256.5982505963792
 31
0.0
  0
LINE
  5
1B6
330
1F
100
AcDbEntity
  8
0
  6
SLD-Solid
 62
     7
370
    15
100
AcDbLine
 10
1159.048804999949
 20
256.5982505963792
 30
0.0
 11
1157.798804999949
 21
256.5982505963792
 31
0.0
  0
DIMENSION
  5
1B7
330
1F
100
AcDbEntity
  8
0
  6
SLD-Solid
 62
     7
370
     0
100
AcDbDimension
280
     0
  2
_D_10
 10
1148.96602036555
 20
205.5982505963792
 30
0.0
 11
1148.96602036555
 21
184.5073374894334
 31
0.0
 70
   160
  1
<>
 71
     2
 42
11.5
 73
     0
 74
     0
 75
     0
  3
SLDDIMSTYLE0
100
AcDbAlignedDimension
 13
1156.548804999949
 23
217.0982505963792
 33
0.0
 14
1166.298804999949
 24
205.5982505963792
 34
0.0
 50
90.0
100
AcDbRotatedDimension
  0
DIMENSION
  5
1C2
330
1F
100
AcDbEntity
  8
0
  6
SLD-Solid
 62
     7
370
     0
100
AcDbDimension
280
     0
  2
_D_11
 10
1132.548804999949
 20
217.0982505963792
 30
0.0
 11
1132.548804999949
 21
233.8152939473141
 31
0.0
 70
   160
  1
<>
 71
     2
 42
29.49999999999997
 73
     0
 74
     0
 75
     0
  3
SLDDIMSTYLE2
100
AcDbAlignedDimension
 13
1156.548804999949
 23
246.5982505963792
 33
0.0
 14
1156.548804999949
 24
217.0982505963792
 34
0.0
 50
90.0
100
AcDbRotatedDimension
  0
DIMENSION
  5
1CD
330
1F
100
AcDbEntity
  8
0
  6
SLD-Solid
 62
     7
370
     0
100
AcDbDimension
280
     0
  2
_D_12
 10
1193.798804999949
 20
268.5982505963791
 30
0.0
 11
1179.981554227521
 21
268.5982505963791
 31
0.0
 70
   160
  1
<>
 71
     2
 42
27.5
 73
     0
 74
     0
 75
     0
  3
SLDDIMSTYLE2
100
AcDbAlignedDimension
 13
1166.298804999949
 23
256.5982505963792
 33
0.0
 14
1193.798804999949
 24
256.5982505963792
 34
0.0
100
AcDbRotatedDimension
  0
CIRCLE
  5
1D8
330
1F
100
AcDbEntity
  8
0
  6
SLD-Solid
 62
     7
370
    15
100
AcDbCircle
 10
1030.145212354002
 20
352.1235603889318
 30
0.0
 40
1.25
  0
CIRCLE
  5
1D9
330
1F
100
AcDbEntity
  8
0
  6
SLD-Solid
 62
     7
370
    15
100
AcDbCircle
 10
1035.145212354002
 20
352.1235603889318
 30
0.0
 40
1.25
  0
CIRCLE
  5
1DA
330
1F
100
AcDbEntity
  8
0
  6
SLD-Solid
 62
     7
370
    15
100
AcDbCircle
 10
1040.145212354002
 20
352.1235603889319
 30
0.0
 40
1.25
  0
CIRCLE
  5
1DB
330
1F
100
AcDbEntity
  8
0
  6
SLD-Solid
 62
     7
370
    15
100
AcDbCircle
 10
1045.145212354002
 20
352.1235603889319
 30
0.0
 40
1.249999999999971
  0
CIRCLE
  5
1DC
330
1F
100
AcDbEntity
  8
0
  6
SLD-Solid
 62
     7
370
    15
100
AcDbCircle
 10
1025.145212354002
 20
352.1235603889318
 30
0.0
 40
1.25
  0
LINE
  5
1DD
330
1F
100
AcDbEntity
  8
0
  6
SLD-Solid
 62
     7
370
    15
100
AcDbLine
 10
1004.645212354002
 20
316.1235603889318
 30
0.0
 11
1065.645212354002
 21
316.1235603889318
 31
0.0
  0
LINE
  5
1DE
330
1F
100
AcDbEntity
  8
0
  6
SLD-Solid
 62
     7
370
    15
100
AcDbLine
 10
1065.645212354002
 20
316.1235603889318
 30
0.0
 11
1065.645212354002
 21
343.6235603889318
 31
0.0
  0
LINE
  5
1DF
330
1F
100
AcDbEntity
  8
0
  6
SLD-Solid
 62
     7
370
    15
100
AcDbLine
 10
1004.645212354002
 20
343.6235603889318
 30
0.0
 11
1004.645212354002
 21
316.1235603889318
 31
0.0
  0
LINE
  5
1E0
330
1F
100
AcDbEntity
  8
0
  6
SLD-Solid
 62
     7
370
    15
100
AcDbLine
 10
1065.645212354002
 20
343.6235603889318
 30
0.0
 11
1004.645212354002
 21
343.6235603889318
 31
0.0
  0
CIRCLE
  5
1E1
330
1F
100
AcDbEntity
  8
0
  6
SLD-Solid
 62
     7
370
    15
100
AcDbCircle
 10
1045.145212354002
 20
307.6235603889317
 30
0.0
 40
1.249999999999971
  0
CIRCLE
  5
1E2
330
1F
100
AcDbEntity
  8
0
  6
SLD-Solid
 62
     7
370
    15
100
AcDbCircle
 10
1025.145212354002
 20
307.6235603889318
 30
0.0
 40
1.25
  0
LINE
  5
1E3
330
1F
100
AcDbEntity
  8
0
  6
SLD-Solid
 62
     7
370
    15
100
AcDbLine
 10
1053.895212354002
 20
353.3735603889318
 30
0.0
 11
1053.895212354002
 21
343.6235603889318
 31
0.0
  0
LINE
  5
1E4
330
1F
100
AcDbEntity
  8
0
  6
SLD-Solid
 62
     7
370
    15
100
AcDbLine
 10
1016.395212354002
 20
353.3735603889318
 30
0.0
 11
1016.395212354002
 21
343.6235603889318
 31
0.0
  0
LINE
  5
1E5
330
1F
100
AcDbEntity
  8
0
  6
SLD-Solid
 62
     7
370
    15
100
AcDbLine
 10
1025.145212354002
 20
353.3735603889318
 30
0.0
 11
1016.395212354002
 21
353.3735603889318
 31
0.0
  0
LINE
  5
1E6
330
1F
100
AcDbEntity
  8
0
  6
SLD-Solid
 62
     7
370
    15
100
AcDbLine
 10
1030.145212354002
 20
353.3735603889318
 30
0.0
 11
1025.145212354002
 21
353.3735603889318
 31
0.0
  0
LINE
  5
1E7
330
1F
100
AcDbEntity
  8
0
  6
SLD-Solid
 62
     7
370
    15
100
AcDbLine
 10
1035.145212354002
 20
353.3735603889318
 30
0.0
 11
1030.145212354002
 21
353.3735603889318
 31
0.0
  0
LINE
  5
1E8
330
1F
100
AcDbEntity
  8
0
  6
SLD-Solid
 62
     7
370
    15
100
AcDbLine
 10
1040.145212354002
 20
353.3735603889318
 30
0.0
 11
1035.145212354002
 21
353.3735603889318
 31
0.0
  0
LINE
  5
1E9
330
1F
100
AcDbEntity
  8
0
  6
SLD-Solid
 62
     7
370
    15
100
AcDbLine
 10
1045.145212354002
 20
353.3735603889318
 30
0.0
 11
1040.145212354002
 21
353.3735603889318
 31
0.0
  0
LINE
  5
1EA
330
1F
100
AcDbEntity
  8
0
  6
SLD-Solid
 62
     7
370
    15
100
AcDbLine
 10
1053.895212354002
 20
353.3735603889318
 30
0.0
 11
1045.145212354002
 21
353.3735603889318
 31
0.0
  0
LINE
  5
1EB
330
1F
100
AcDbEntity
  8
0
  6
SLD-Solid
 62
     7
370
    15
100
AcDbLine
 10
1025.145212354002
 20
306.3735603889318
 30
0.0
 11
1016.395212354002
 21
306.3735603889318
 31
0.0
  0
LINE
  5
1EC
330
1F
100
AcDbEntity
  8
0
  6
SLD-Solid
 62
     7
370
    15
100
AcDbLine
 10
1053.895212354002
 20
316.1235603889318
 30
0.0
 11
1053.895212354002
 21
306.3735603889318
 31
0.0
  0
LINE
  5
1ED
330
1F
100
AcDbEntity
  8
0
  6
SLD-Solid
 62
     7
370
    15
100
AcDbLine
 10
1053.895212354002
 20
306.3735603889318
 30
0.0
 11
1045.145212354002
 21
306.3735603889318
 31
0.0
  0
LINE
  5
1EE
330
1F
100
AcDbEntity
  8
0
  6
SLD-Solid
 62
     7
370
    15
100
AcDbLine
 10
1045.145212354002
 20
306.3735603889318
 30
0.0
 11
1025.145212354002
 21
306.3735603889318
 31
0.0
  0
LINE
  5
1EF
330
1F
100
AcDbEntity
  8
0
  6
SLD-Solid
 62
     7
370
    15
100
AcDbLine
 10
1016.395212354002
 20
316.1235603889318
 30
0.0
 11
1016.395212354002
 21
306.3735603889318
 31
0.0
  0
ARC
  5
1F0
330
1F
100
AcDbEntity
  8
0
  6
SLD-Solid
 62
     7
370
    15
100
AcDbCircle
 10
1003.245212354002
 20
329.8735603889318
 30
0.0
 40
9.5
100
AcDbArc
 50
90.0
 51
270.0
  0
LINE
  5
1F1
330
1F
100
AcDbEntity
  8
0
  6
SLD-Solid
 62
     7
370
    15
100
AcDbLine
 10
1003.245212354002
 20
339.3735603889318
 30
0.0
 11
1004.645212354002
 21
339.3735603889318
 31
0.0
  0
LINE
  5
1F2
330
1F
100
AcDbEntity
  8
0
  6
SLD-Solid
 62
     7
370
    15
100
AcDbLine
 10
1004.645212354002
 20
320.3735603889318
 30
0.0
 11
1003.245212354002
 21
320.3735603889318
 31
0.0
  0
ARC
  5
1F3
330
1F
100
AcDbEntity
  8
0
  6
SLD-Solid
 62
     7
370
    15
100
AcDbCircle
 10
998.1702123540021
 20
329.8735603889318
 30
0.0
 40
2.024999999999977
100
AcDbArc
 50
90.0
 51
270.0
  0
LINE
  5
1F4
330
1F
100
AcDbEntity
  8
0
  6
SLD-Solid
 62
     7
370
    15
100
AcDbLine
 10
1001.920212354002
 20
327.8485603889318
 30
0.0
 11
998.1702123540021
 21
327.8485603889318
 31
0.0
  0
ARC
  5
1F5
330
1F
100
AcDbEntity
  8
0
  6
SLD-Solid
 62
     7
370
    15
100
AcDbCircle
 10
1001.920212354002
 20
329.8735603889318
 30
0.0
 40
2.024999999999977
100
AcDbArc
 50
270.0
 51
90.0
  0
LINE
  5
1F6
330
1F
100
AcDbEntity
  8
0
  6
SLD-Solid
 62
     7
370
    15
100
AcDbLine
 10
998.1702123540021
 20
331.8985603889318
 30
0.0
 11
1001.920212354002
 21
331.8985603889318
 31
0.0
  0
LINE
  5
1F7
330
1F
100
AcDbEntity
  8
0
  6
SLD-Solid
 62
     7
370
    15
100
AcDbLine
 10
1067.045212354002
 20
320.3735603889318
 30
0.0
 11
1065.645212354002
 21
320.3735603889318
 31
0.0
  0
ARC
  5
1F8
330
1F
100
AcDbEntity
  8
0
  6
SLD-Solid
 62
     7
370
    15
100
AcDbCircle
 10
1067.045212354002
 20
329.8735603889318
 30
0.0
 40
9.5
100
AcDbArc
 50
270.0
 51
90.0
  0
LINE
  5
1F9
330
1F
100
AcDbEntity
  8
0
  6
SLD-Solid
 62
     7
370
    15
100
AcDbLine
 10
1072.120212354002
 20
327.8485603889318
 30
0.0
 11
1068.370212354002
 21
327.8485603889318
 31
0.0
  0
ARC
  5
1FA
330
1F
100
AcDbEntity
  8
0
  6
SLD-Solid
 62
     7
370
    15
100
AcDbCircle
 10
1072.120212354002
 20
329.8735603889318
 30
0.0
 40
2.024999999999977
100
AcDbArc
 50
270.0
 51
90.0
  0
LINE
  5
1FB
330
1F
100
AcDbEntity
  8
0
  6
SLD-Solid
 62
     7
370
    15
100
AcDbLine
 10
1068.370212354002
 20
331.8985603889318
 30
0.0
 11
1072.120212354002
 21
331.8985603889318
 31
0.0
  0
ARC
  5
1FC
330
1F
100
AcDbEntity
  8
0
  6
SLD-Solid
 62
     7
370
    15
100
AcDbCircle
 10
1068.370212354002
 20
329.8735603889318
 30
0.0
 40
2.024999999999977
100
AcDbArc
 50
90.0
 51
270.0
  0
LINE
  5
1FD
330
1F
100
AcDbEntity
  8
0
  6
SLD-Solid
 62
     7
370
    15
100
AcDbLine
 10
1065.645212354002
 20
339.3735603889318
 30
0.0
 11
1067.045212354002
 21
339.3735603889318
 31
0.0
  0
DIMENSION
  5
1FE
330
1F
100
AcDbEntity
  8
0
  6
SLD-Solid
 62
     7
370
     0
100
AcDbDimension
280
     0
  2
_D_13
 10
1102.145212354002
 20
306.3735603889317
 30
0.0
 11
1102.145212354002
 21
329.9859642164141
 31
0.0
 70
   160
  1
<>
 71
     2
 42
46.99999999999994
 73
     0
 74
     0
 75
     0
  3
SLDDIMSTYLE0
100
AcDbAlignedDimension
 13
1053.895212354002
 23
353.3735603889316
 33
0.0
 14
1053.895212354002
 24
306.3735603889317
 34
0.0
 50
90.0
100
AcDbRotatedDimension
  0
DIMENSION
  5
209
330
1F
100
AcDbEntity
  8
0
  6
SLD-Solid
 62
     7
370
     0
100
AcDbDimension
280
     0
  2
_D_14
 10
1053.895212354002
 20
283.9633700395301
 30
0.0
 11
1032.473321611827
 21
283.9633700395301
 31
0.0
 70
   160
  1
<>
 71
     2
 42
37.5
 73
     0
 74
     0
 75
     0
  3
SLDDIMSTYLE0
100
AcDbAlignedDimension
 13
1016.395212354002
 23
306.3735603889317
 33
0.0
 14
1053.895212354002
 24
306.3735603889317
 34
0.0
100
AcDbRotatedDimension
  0
DIMENSION
  5
214
330
1F
100
AcDbEntity
  8
0
  6
SLD-Solid
 62
     7
370
     0
100
AcDbDimension
280
     0
  2
_D_15
 10
1030.145212354002
 20
358.8849108725585
 30
0.0
 11
1014.234392173389
 21
358.8849108725585
 31
0.0
 70
   160
  1
<>
 71
     2
 42
5.0
 73
     0
 74
     0
 75
     0
  3
SLDDIMSTYLE2
100
AcDbAlignedDimension
 13
1025.145212354002
 23
352.1235603889317
 33
0.0
 14
1030.145212354002
 24
352.1235603889317
 34
0.0
100
AcDbRotatedDimension
  0
DIMENSION
  5
21F
330
1F
100
AcDbEntity
  8
0
  6
SLD-Solid
 62
     7
370
     0
100
AcDbDimension
280
     0
  2
_D_16
 10
1035.145212354002
 20
369.1535622932521
 30
0.0
 11
1016.978528096362
 21
369.1535622932521
 31
0.0
 70
   160
  1
<>
 71
     2
 42
5.0
 73
     0
 74
     0
 75
     0
  3
SLDDIMSTYLE2
100
AcDbAlignedDimension
 13
1030.145212354002
 23
352.1235603889317
 33
0.0
 14
1035.145212354002
 24
352.1235603889317
 34
0.0
100
AcDbRotatedDimension
  0
DIMENSION
  5
22A
330
1F
100
AcDbEntity
  8
0
  6
SLD-Solid
 62
     7
370
     0
100
AcDbDimension
280
     0
  2
_D_17
 10
1035.145212354002
 20
377.3735603889319
 30
0.0
 11
1019.180566935451
 21
377.3735603889319
 31
0.0
 70
   160
  1
<>
 71
     2
 42
5.0
 73
     0
 74
     0
 75
     0
  3
SLDDIMSTYLE2
100
AcDbAlignedDimension
 13
1040.145212354002
 23
352.1235603889317
 33
0.0
 14
1035.145212354002
 24
352.1235603889317
 34
0.0
 50
0.0000000000012977
100
AcDbRotatedDimension
  0
DIMENSION
  5
235
330
1F
100
AcDbEntity
  8
0
  6
SLD-Solid
 62
     7
370
     0
100
AcDbDimension
280
     0
  2
_D_18
 10
1045.145212354002
 20
365.373560388932
 30
0.0
 11
1056.517480251697
 21
365.373560388932
 31
0.0
 70
   160
  1
<>
 71
     2
 42
5.0
 73
     0
 74
     0
 75
     0
  3
SLDDIMSTYLE2
100
AcDbAlignedDimension
 13
1040.145212354002
 23
352.1235603889317
 33
0.0
 14
1045.145212354002
 24
352.1235603889317
 34
0.0
100
AcDbRotatedDimension
  0
DIMENSION
  5
240
330
1F
100
AcDbEntity
  8
0
  6
SLD-Solid
 62
     7
370
     0
100
AcDbDimension
280
     0
  2
_D_19
 10
1053.895212354002
 20
358.8849108725585
 30
0.0
 11
1068.879620025982
 21
358.8849108725585
 31
0.0
 70
   160
  1
<>
 71
     2
 42
8.75
 73
     0
 74
     0
 75
     0
  3
SLDDIMSTYLE2
100
AcDbAlignedDimension
 13
1045.145212354002
 23
352.1235603889317
 33
0.0
 14
1053.895212354002
 24
353.3735603889316
 34
0.0
100
AcDbRotatedDimension
  0
DIMENSION
  5
24B
330
1F
100
AcDbEntity
  8
0
  6
SLD-Solid
 62
     7
370
     0
100
AcDbDimension
280
     0
  2
_D_20
 10
981.745212354002
 20
353.3735603889316
 30
0.0
 11
981.745212354002
 21
335.3715903284557
 31
0.0
 70
   160
  1
<>
 71
     2
 42
1.25
 73
     0
 74
     0
 75
     0
  3
SLDDIMSTYLE4
100
AcDbAlignedDimension
 13
1025.145212354002
 23
352.1235603889317
 33
0.0
 14
1016.395212354002
 24
353.3735603889316
 34
0.0
 50
90.0
100
AcDbRotatedDimension
  0
DIMENSION
  5
257
330
1F
100
AcDbEntity
  8
0
  6
SLD-Solid
 62
     7
370
     0
100
AcDbDimension
280
     0
  2
_D_21
 10
1045.145212354002
 20
299.1748570009899
 30
0.0
 11
1035.076633699401
 21
299.1748570009899
 31
0.0
 70
   160
  1
<>
 71
     2
 42
20.0
 73
     0
 74
     0
 75
     0
  3
SLDDIMSTYLE2
100
AcDbAlignedDimension
 13
1025.145212354002
 23
307.6235603889316
 33
0.0
 14
1045.145212354002
 24
307.6235603889315
 34
0.0
 50
359.9999999999997
100
AcDbRotatedDimension
  0
DIMENSION
  5
262
330
1F
100
AcDbEntity
  8
0
  6
SLD-Solid
 62
     7
370
     0
100
AcDbDimension
280
     0
  2
_D_22
 10
1016.395212354002
 20
294.3735603889314
 30
0.0
 11
997.7391181649299
 21
294.3735603889314
 31
0.0
 70
   160
  1
<>
 71
     2
 42
8.75
 73
     0
 74
     0
 75
     0
  3
SLDDIMSTYLE2
100
AcDbAlignedDimension
 13
1025.145212354002
 23
307.6235603889316
 33
0.0
 14
1016.395212354002
 24
306.3735603889317
 34
0.0
100
AcDbRotatedDimension
  0
DIMENSION
  5
26D
330
1F
100
AcDbEntity
  8
0
  6
SLD-Solid
 62
     7
370
     0
100
AcDbDimension
280
     0
  2
_D_23
 10
1072.077775220048
 20
306.3735603889317
 30
0.0
 11
1072.077775220048
 21
287.4017665171477
 31
0.0
 70
   160
  1
<>
 71
     2
 42
1.249999999999829
 73
     0
 74
     0
 75
     0
  3
SLDDIMSTYLE4
100
AcDbAlignedDimension
 13
1045.145212354002
 23
307.6235603889315
 33
0.0
 14
1053.895212354002
 24
306.3735603889317
 34
0.0
 50
90.0
100
AcDbRotatedDimension
  0
DIMENSION
  5
278
330
1F
100
AcDbEntity
  8
0
  6
SLD-Solid
 62
     7
370
     0
100
AcDbDimension
280
     0
  2
_D_24
 10
1026.370006963129
 20
307.3738041768886
 30
0.0
 11
973.1537242413864
 21
318.2254988957832
 31
0.0
 70
   163
  1
7-<>
 42
2.5
 73
     0
 74
     0
 75
     0
  3
SLDDIMSTYLE5
100
AcDbDiametricDimension
 15
1023.920417744875
 25
307.8733166009747
 35
0.0
 40
0.0
  0
ARC
  5
390
330
1F
100
AcDbEntity
  8
TB
100
AcDbCircle
 10
1280.83196845634
 20
93.08506753107412
 30
0.0
 40
13.37459566826167
100
AcDbArc
 50
270.0
 51
0.0
  0
ARC
  5
391
330
1F
100
AcDbEntity
  8
TB
100
AcDbCircle
 10
1280.83196845634
 20
382.8906218628118
 30
0.0
 40
13.65
100
AcDbArc
 50
0.0
 51
90.0
  0
ARC
  5
392
330
1F
100
AcDbEntity
  8
TB
100
AcDbCircle
 10
1280.83196845634
 20
93.36047186281275
 30
0.0
 40
13.65
100
AcDbArc
 50
270.0
 51
0.0
  0
LINE
  5
393
330
1F
100
AcDbEntity
  8
TB
100
AcDbLine
 10
1261.729354666673
 20
238.7466218628138
 30
0.0
 11
1294.712353949847
 21
238.7466218628138
 31
0.0
  0
TEXT
  5
394
330
1F
100
AcDbEntity
  8
TB
 62
     3
100
AcDbText
 10
1282.339328016293
 20
378.301137959128
 30
0.0
 40
1.911
  1
REV.
 50
90.0
 72
     1
 11
1282.339328016293
 21
381.1221379591281
 31
0.0
100
AcDbText
  0
TEXT
  5
395
330
1F
100
AcDbEntity
  8
TB
 62
     3
100
AcDbText
 10
1282.339328016293
 20
328.229063963198
 30
0.0
 40
1.911
  1
DRWN - PART NUMBER
 50
90.0
 72
     1
 11
1282.339328016293
 21
345.291563963198
 31
0.0
100
AcDbText
  0
LINE
  5
396
330
1F
100
AcDbEntity
  8
TB
 62
     3
100
AcDbLine
 10
1279.466968456433
 20
371.1516218628123
 30
0.0
 11
1294.48196845634
 21
371.1516218628123
 31
0.0
  0
TEXT
  5
397
330
1F
100
AcDbEntity
  8
TB
 62
     3
100
AcDbText
 10
1284.278369030283
 20
240.4026232933426
 30
0.0
 40
1.911
  1
SCALE:
 50
90.0
100
AcDbText
  0
LINE
  5
398
330
1F
100
AcDbEntity
  8
TB
 62
     3
100
AcDbLine
 10
1287.110968456361
 20
238.7466218628138
 30
0.0
 11
1287.110968456361
 21
280.3791218628138
 31
0.0
  0
TEXT
  5
399
330
1F
100
AcDbEntity
  8
TB
 62
     3
100
AcDbText
 10
1291.711359583885
 20
240.4026232933426
 30
0.0
 40
1.911
  1
SHEET:      OF
 50
90.0
100
AcDbText
  0
LINE
  5
39A
330
1F
100
AcDbEntity
  8
TB
 62
     3
100
AcDbLine
 10
1279.466968456433
 20
322.0116218628121
 30
0.0
 11
1294.48196845634
 21
322.0116218628121
 31
0.0
  0
LINE
  5
39B
330
1F
100
AcDbEntity
  8
TB
100
AcDbLine
 10
1261.729354666673
 20
396.5406218628119
 30
0.0
 11
1261.729354666673
 21
79.71047186281277
 31
0.0
  0
LINE
  5
39C
330
1F
100
AcDbEntity
  8
TB
100
AcDbLine
 10
1279.466968456433
 20
238.7466218628138
 30
0.0
 11
1279.466968456433
 21
396.5406218628119
 31
0.0
  0
LINE
  5
39D
330
1F
100
AcDbEntity
  8
TB
100
AcDbLine
 10
1294.48196845634
 20
93.36047186281275
 30
0.0
 11
1294.48196845634
 21
348.7656218628118
 31
0.0
  0
LWPOLYLINE
  5
39E
330
1F
100
AcDbEntity
  8
TB
100
AcDbPolyline
 90
        2
 70
     0
 43
0.0
 10
1294.48196845634
 20
93.36047186281275
 10
1294.48196845634
 20
382.8906218628118
  0
LWPOLYLINE
  5
39F
330
1F
100
AcDbEntity
  8
TB
100
AcDbPolyline
 90
        2
 70
     0
 43
0.0
 10
1265.141854666673
 20
79.71047186281277
 10
1280.83196845634
 20
79.71047186281277
  0
LINE
  5
3A0
330
1F
100
AcDbEntity
  8
TB
100
AcDbLine
 10
1254.631354666724
 20
79.71047186281277
 30
0.0
 11
853.1750641245238
 21
79.71047186281277
 31
0.0
  0
LWPOLYLINE
  5
3A1
330
1F
100
AcDbEntity
  8
TB
100
AcDbPolyline
 90
        2
 70
     0
 43
0.0
 10
1280.83196845634
 20
396.5406218628119
 10
1265.141854666673
 20
396.5406218628119
  0
LINE
  5
3A2
330
1F
100
AcDbEntity
  8
TB
100
AcDbLine
 10
1265.141854666673
 20
396.5406218628119
 30
0.0
 11
1265.141854666673
 21
79.71047186281277
 31
0.0
  0
LWPOLYLINE
  5
3A3
330
1F
100
AcDbEntity
  8
TB
100
AcDbPolyline
 90
        6
 70
     0
 43
0.0
 10
1261.729354666673
 20
396.5406218628119
 10
853.4504684563104
 20
396.5406218628119
 42
0.4142135623730951
 10
839.8004684563105
 20
382.8906218628118
 10
839.8004684563105
 20
93.36047186281275
 42
0.4142135623730951
 10
853.4504684563104
 20
79.71047186281277
 10
1261.729354666673
 20
79.71047186281277
  0
LINE
  5
3A4
330
1F
100
AcDbEntity
  8
TB
 62
     3
100
AcDbLine
 10
1279.466968456433
 20
280.3791218628138
 30
0.0
 11
1294.48196845634
 21
280.3791218628138
 31
0.0
  0
LWPOLYLINE
  5
3A5
330
1F
100
AcDbEntity
  8
0
100
AcDbPolyline
 90
        4
 70
     1
 43
0.0
 10
1279.159437813143
 20
111.5117085874616
 10
1267.105053401222
 20
111.5117085874616
 10
1267.105053401222
 20
99.45732417567572
 10
1279.159437813143
 20
99.45732417567572
  0
LWPOLYLINE
  5
3A6
330
1F
100
AcDbEntity
  8
0
100
AcDbPolyline
 90
        4
 70
     1
 43
0.0
 10
1279.159437813143
 20
99.45732417567572
 10
1279.159437813143
 20
91.42106790115276
 10
1287.195694087689
 20
91.42106790115276
 10
1287.195694087689
 20
99.45732417567572
  0
LWPOLYLINE
  5
3A7
330
1F
100
AcDbEntity
  8
0
100
AcDbPolyline
 90
        4
 70
     1
 43
0.0
 10
1287.195694087689
 20
91.42106790115276
 10
1287.195694087689
 20
87.40293976388977
 10
1291.21382222486
 20
87.40293976388977
 10
1291.21382222486
 20
91.42106790115276
  0
HATCH
  5
3A8
330
1F
100
AcDbEntity
  8
0
100
AcDbHatch
 10
0.0
 20
0.0
 30
0.0
210
0.0
220
0.0
230
1.0
  2
SOLID
 70
     1
 71
     0
 91
        3
 92
        7
 72
     0
 73
     1
 93
        4
 10
1267.105053401222
 20
111.5117085874616
 10
1267.105053401222
 20
99.45732417567572
 10
1279.159437813143
 20
99.45732417567572
 10
1279.159437813143
 20
111.5117085874616
 97
        0
 92
        7
 72
     0
 73
     1
 93
        4
 10
1279.159437813143
 20
99.45732417567572
 10
1279.159437813143
 20
91.42106790115276
 10
1287.195694087689
 20
91.42106790115276
 10
1287.195694087689
 20
99.45732417567572
 97
        0
 92
        7
 72
     0
 73
     1
 93
        4
 10
1287.195694087689
 20
91.42106790115276
 10
1287.195694087689
 20
87.40293976388977
 10
1291.21382222486
 20
87.40293976388977
 10
1291.21382222486
 20
91.42106790115276
 97
        0
 75
     0
 76
     1
 47
0.0190738167194834
 98
        3
 10
1271.725256996737
 20
106.9877376809452
 10
1282.378361585592
 20
96.86631154703656
 10
1289.199414213161
 20
89.58195173630548
450
        0
451
        0
460
0.0
461
0.0
452
        1
462
1.0
453
        2
463
0.0
 63
     5
421
      255
463
1.0
 63
     7
421
 16777215
470
LINEAR
  0
TEXT
  5
3A9
330
1F
100
AcDbEntity
  8
TB
 62
     3
100
AcDbText
 10
1280.051412876004
 20
114.5854284449817
 30
0.0
 40
2.73648375
  1
991 CALLE AMANECER SAN CLEMENTE, CA 92673
 50
90.0
100
AcDbText
  0
TEXT
  5
3AA
330
1F
100
AcDbEntity
  8
TB
 62
     3
100
AcDbText
 10
1285.545389257236
 20
114.5854284449817
 30
0.0
 40
2.73648375
  1
800 582-7777 949 492-7777  FAX 949 361-5579
 50
90.0
100
AcDbText
  0
TEXT
  5
3AB
330
1F
100
AcDbEntity
  8
TB
 62
     3
100
AcDbText
 10
1274.574053731717
 20
114.5854284449817
 30
0.0
 40
4.104725625
  1
SONANCE
 50
90.0
100
AcDbText
  0
TEXT
  5
3AC
330
1F
100
AcDbEntity
  8
TB
 62
     3
100
AcDbText
 10
1290.097354043667
 20
114.5854284449817
 30
0.0
 40
2.73648375
  1
www.sonance.com
 50
90.0
100
AcDbText
  0
TEXT
  5
3AD
330
1F
100
AcDbEntity
  8
TB
 62
     3
100
AcDbText
 10
1284.278369030283
 20
282.0351232933443
 30
0.0
 40
1.911
  1
DRAWN BY:
 50
90.0
100
AcDbText
  0
LINE
  5
3AE
330
1F
100
AcDbEntity
  8
TB
 62
     3
100
AcDbLine
 10
1287.110968456361
 20
280.3791218628138
 30
0.0
 11
1287.110968456361
 21
322.0116218628121
 31
0.0
  0
TEXT
  5
3AF
330
1F
100
AcDbEntity
  8
TB
 62
     3
100
AcDbText
 10
1291.711359583885
 20
282.0351232933443
 30
0.0
 40
1.911
  1
RELEASED ON:
 50
90.0
100
AcDbText
  0
TEXT
  5
3B0
330
1F
100
AcDbEntity
  8
TB
 62
     3
100
AcDbText
 10
1284.278369030283
 20
252.7186379480987
 30
0.0
 40
1.911
  1
1:1
 50
90.0
100
AcDbText
  0
TEXT
  5
3B1
330
1F
100
AcDbEntity
  8
TB
 62
     3
100
AcDbText
 10
1274.087228792253
 20
256.0855245949051
 30
0.0
 40
3.822
  1
G41-TRANSFORMER-1
 50
90.0
 72
     1
 11
1274.087228792253
 21
287.2075245949051
 31
0.0
100
AcDbText
  0
ENDSEC
  0
SECTION
  2
OBJECTS
  0
DICTIONARY
  5
C
330
0
100
AcDbDictionary
281
     1
  3
ACAD_CIP_PREVIOUS_PRODUCT_INFO
350
2C4
  3
ACAD_COLOR
350
2B6
  3
ACAD_DETAILVIEWSTYLE
350
2BD
  3
ACAD_GROUP
350
D
  3
ACAD_LAYOUT
350
1A
  3
ACAD_MATERIAL
350
284
  3
ACAD_MLEADERSTYLE
350
2B9
  3
ACAD_MLINESTYLE
350
17
  3
ACAD_PLOTSETTINGS
350
19
  3
ACAD_PLOTSTYLENAME
350
E
  3
ACAD_SCALELIST
350
47
  3
ACAD_SECTIONVIEWSTYLE
350
2BB
  3
ACAD_TABLESTYLE
350
2B7
  3
ACAD_VISUALSTYLE
350
29D
  3
ACDB_RECOMPOSE_DATA
350
548
  3
AcDbVariableDictionary
350
538
  0
DICTIONARY
  5
30C
330
2
100
AcDbDictionary
280
     1
281
     1
  3
ACAD_LAYERSTATES
360
30D
  0
DICTIONARY
  5
51B
330
10
100
AcDbDictionary
280
     1
281
     1
  3
ADSK_XREC_LAYER_RECONCILED
360
51C
  0
DICTIONARY
  5
51D
330
75
100
AcDbDictionary
280
     1
281
     1
  3
ADSK_XREC_LAYER_RECONCILED
360
51E
  0
DICTIONARY
  5
305
330
304
100
AcDbDictionary
280
     1
281
     1
  3
ADSK_XREC_LAYER_RECONCILED
360
51F
  0
XRECORD
  5
2C4
102
{ACAD_REACTORS
330
C
102
}
330
C
100
AcDbXrecord
280
     1
300
ACD
300
2014
300
ACD_F_S
  0
DICTIONARY
  5
2B6
102
{ACAD_REACTORS
330
C
102
}
330
C
100
AcDbDictionary
281
     1
  0
DICTIONARY
  5
2BD
102
{ACAD_REACTORS
330
C
102
}
330
C
100
AcDbDictionary
281
     1
  3
Metric50
350
2BE
  0
DICTIONARY
  5
D
102
{ACAD_REACTORS
330
C
102
}
330
C
100
AcDbDictionary
281
     1
  0
DICTIONARY
  5
1A
102
{ACAD_REACTORS
330
C
102
}
330
C
100
AcDbDictionary
281
     1
  3
Layout1
350
1E
  3
Layout2
350
26
  3
Model
350
22
  0
DICTIONARY
  5
284
102
{ACAD_REACTORS
330
C
102
}
330
C
100
AcDbDictionary
281
     1
  3
ByBlock
350
28D
  3
ByLayer
350
285
  3
Global
350
295
  0
DICTIONARY
  5
2B9
102
{ACAD_REACTORS
330
C
102
}
330
C
100
AcDbDictionary
281
     1
  3
Standard
350
2BA
  0
DICTIONARY
  5
17
102
{ACAD_REACTORS
330
C
102
}
330
C
100
AcDbDictionary
281
     1
  3
Standard
350
18
  0
DICTIONARY
  5
19
102
{ACAD_REACTORS
330
C
102
}
330
C
100
AcDbDictionary
281
     1
  0
ACDBDICTIONARYWDFLT
  5
E
102
{ACAD_REACTORS
330
C
102
}
330
C
100
AcDbDictionary
281
     1
  3
Normal
350
F
100
AcDbDictionaryWithDefault
340
F
  0
DICTIONARY
  5
47
102
{ACAD_REACTORS
330
C
102
}
330
C
100
AcDbDictionary
281
     1
  3
A0
350
48
  3
A1
350
49
  3
A2
350
4A
  3
A3
350
4B
  3
A4
350
4C
  3
A5
350
4D
  3
A6
350
4E
  3
A7
350
4F
  3
A8
350
50
  3
A9
350
51
  3
B0
350
52
  3
B1
350
53
  3
B2
350
54
  3
B3
350
55
  3
B4
350
56
  3
B5
350
57
  3
B6
350
58
  3
B7
350
59
  3
B8
350
5A
  3
B9
350
5B
  3
C0
350
5C
  3
C1
350
5D
  3
C2
350
5E
  3
C3
350
5F
  3
C4
350
60
  3
C5
350
61
  3
C6
350
62
  3
C7
350
63
  3
C8
350
64
  3
C9
350
65
  3
D0
350
66
  3
D1
350
67
  3
D2
350
68
  0
DICTIONARY
  5
2BB
102
{ACAD_REACTORS
330
C
102
}
330
C
100
AcDbDictionary
281
     1
  3
Metric50
350
2BC
  0
DICTIONARY
  5
2B7
102
{ACAD_REACTORS
330
C
102
}
330
C
100
AcDbDictionary
281
     1
  3
Standard
350
2B8
  0
DICTIONARY
  5
29D
102
{ACAD_REACTORS
330
C
102
}
330
C
100
AcDbDictionary
281
     1
  3
2dWireframe
350
2A3
  3
Basic
350
2A2
  3
Brighten
350
2A9
  3
ColorChange
350
2AD
  3
Conceptual
350
2A6
  3
Dim
350
2A8
  3
EdgeColorOff
350
2B5
  3
Facepattern
350
2AC
  3
Flat
350
29E
  3
FlatWithEdges
350
29F
  3
Gouraud
350
2A0
  3
GouraudWithEdges
350
2A1
  3
Hidden
350
2A5
  3
JitterOff
350
2B3
  3
Linepattern
350
2AB
  3
OverhangOff
350
2B4
  3
Realistic
350
2A7
  3
Shaded
350
2B2
  3
Shaded with edges
350
2B1
  3
Shades of Gray
350
2AE
  3
Sketchy
350
2AF
  3
Thicken
350
2AA
  3
Wireframe
350
2A4
  3
X-Ray
350
2B0
  0
XRECORD
  5
548
102
{ACAD_REACTORS
330
C
102
}
330
C
100
AcDbXrecord
280
     1
 90
        1
330
2B8
330
2BC
330
2BE
  0
DICTIONARY
  5
538
102
{ACAD_REACTORS
330
C
102
}
330
C
100
AcDbDictionary
281
     1
  3
CANNOSCALE
350
53E
  3
CMLEADERSTYLE
350
53A
  3
CTABLESTYLE
350
539
  3
CVIEWDETAILSTYLE
350
53B
  3
CVIEWSECTIONSTYLE
350
53C
  3
LAYEREVAL
350
540
  3
LAYERNOTIFY
350
541
  3
LIGHTINGUNITS
350
53F
  3
MSLTSCALE
350
53D
  0
DICTIONARY
  5
30D
102
{ACAD_REACTORS
330
30C
102
}
330
30C
100
AcDbDictionary
281
     1
  0
XRECORD
  5
51C
102
{ACAD_REACTORS
330
51B
102
}
330
51B
100
AcDbXrecord
280
     1
290
     1
  0
XRECORD
  5
51E
102
{ACAD_REACTORS
330
51D
102
}
330
51D
100
AcDbXrecord
280
     1
290
     1
  0
XRECORD
  5
51F
102
{ACAD_REACTORS
330
305
102
}
330
305
100
AcDbXrecord
280
     1
290
     1
  0
ACDBDETAILVIEWSTYLE
  5
2BE
102
{ACAD_XDICTIONARY
360
546
102
}
102
{ACAD_REACTORS
330
2BD
102
}
330
2BD
100
AcDbModelDocViewStyle
 70
     0
  3
Metric50
290
     0
100
AcDbDetailViewStyle
 70
     0
 71
     0
 90
        3
 71
     1
340
11
 62
   256
 40
5.0
340
0
 62
   256
 40
5.0
300

 40
0.0
280
     1
 71
     2
340
16
 90
       25
 62
   256
 71
     3
340
11
 62
   256
 40
5.0
 90
        0
 40
15.0
 90
        1
300
%<\AcVar ViewDetailId>% (%<\AcVar ViewScale \f "%sn">%)
 71
     4
340
16
 90
       25
 62
   256
340
16
 90
       25
 62
   256
280
     0
  0
LAYOUT
  5
1E
102
{ACAD_REACTORS
330
1A
102
}
330
1A
100
AcDbPlotSettings
  1

  2
none_device
  4

  6

 40
0.0
 41
0.0
 42
0.0
 43
0.0
 44
0.0
 45
0.0
 46
0.0
 47
0.0
 48
0.0
 49
0.0
140
0.0
141
0.0
142
1.0
143
1.0
 70
   688
 72
     1
 73
     0
 74
     5
  7

 75
    16
147
1.0
 76
     0
 77
     2
 78
   300
148
0.0
149
0.0
100
AcDbLayout
  1
Layout1
 70
     1
 71
     1
 10
0.0
 20
0.0
 11
420.0
 21
297.0
 12
0.0
 22
0.0
 32
0.0
 14
1.000000000000000E+20
 24
1.000000000000000E+20
 34
1.000000000000000E+20
 15
-1.000000000000000E+20
 25
-1.000000000000000E+20
 35
-1.000000000000000E+20
146
0.0
 13
0.0
 23
0.0
 33
0.0
 16
1.0
 26
0.0
 36
0.0
 17
0.0
 27
1.0
 37
0.0
 76
     0
330
1B
  0
LAYOUT
  5
26
102
{ACAD_REACTORS
330
1A
102
}
330
1A
100
AcDbPlotSettings
  1

  2
none_device
  4

  6

 40
0.0
 41
0.0
 42
0.0
 43
0.0
 44
0.0
 45
0.0
 46
0.0
 47
0.0
 48
0.0
 49
0.0
140
0.0
141
0.0
142
1.0
143
1.0
 70
   688
 72
     1
 73
     0
 74
     5
  7

 75
    16
147
1.0
 76
     0
 77
     2
 78
   300
148
0.0
149
0.0
100
AcDbLayout
  1
Layout2
 70
     1
 71
     2
 10
0.0
 20
0.0
 11
0.0
 21
0.0
 12
0.0
 22
0.0
 32
0.0
 14
0.0
 24
0.0
 34
0.0
 15
0.0
 25
0.0
 35
0.0
146
0.0
 13
0.0
 23
0.0
 33
0.0
 16
1.0
 26
0.0
 36
0.0
 17
0.0
 27
1.0
 37
0.0
 76
     0
330
23
  0
LAYOUT
  5
22
102
{ACAD_REACTORS
330
1A
102
}
330
1A
100
AcDbPlotSettings
  1

  2
none_device
  4
Letter_(8.50_x_11.00_Inches)
  6

 40
6.349999999999999
 41
6.349999999999999
 42
6.350005079999999
 43
6.350005079999999
 44
215.9
 45
279.4
 46
0.0
 47
0.0
 48
0.0
 49
0.0
140
0.0
141
0.0
142
1.0
143
1.0
 70
  1712
 72
     1
 73
     0
 74
     0
  7

 75
     0
147
1.0
 76
     0
 77
     2
 78
   300
148
0.0
149
0.0
100
AcDbLayout
  1
Model
 70
     1
 71
     0
 10
0.0
 20
0.0
 11
558.8
 21
431.7999999999999
 12
0.0
 22
0.0
 32
0.0
 14
0.0
 24
0.0
 34
0.0
 15
558.8
 25
431.7999999999999
 35
0.0
146
0.0
 13
0.0
 23
0.0
 33
0.0
 16
1.0
 26
0.0
 36
0.0
 17
0.0
 27
1.0
 37
0.0
 76
     0
330
1F
331
29
  0
MATERIAL
  5
28D
102
{ACAD_XDICTIONARY
360
28E
102
}
102
{ACAD_REACTORS
330
284
102
}
330
284
100
AcDbMaterial
  1
ByBlock
 72
     0
 43
0.0008202099737533
 43
0.0
 43
0.0
 43
0.0
 43
0.0
 43
0.0008202099737533
 43
0.0
 43
0.0
 43
0.0
 43
0.0
 43
1.0
 43
0.0
 43
0.0
 43
0.0
 43
0.0
 43
1.0
 77
     0
 47
0.0008202099737533
 47
0.0
 47
0.0
 47
0.0
 47
0.0
 47
0.0008202099737533
 47
0.0
 47
0.0
 47
0.0
 47
0.0
 47
1.0
 47
0.0
 47
0.0
 47
0.0
 47
0.0
 47
1.0
171
     0
 49
0.0008202099737533
 49
0.0
 49
0.0
 49
0.0
 49
0.0
 49
0.0008202099737533
 49
0.0
 49
0.0
 49
0.0
 49
0.0
 49
1.0
 49
0.0
 49
0.0
 49
0.0
 49
0.0
 49
1.0
175
     0
142
0.0008202099737533
142
0.0
142
0.0
142
0.0
142
0.0
142
0.0008202099737533
142
0.0
142
0.0
142
0.0
142
0.0
142
1.0
142
0.0
142
0.0
142
0.0
142
0.0
142
1.0
179
     0
144
0.0008202099737533
144
0.0
144
0.0
144
0.0
144
0.0
144
0.0008202099737533
144
0.0
144
0.0
144
0.0
144
0.0
144
1.0
144
0.0
144
0.0
144
0.0
144
0.0
144
1.0
147
0.0008202099737533
147
0.0
147
0.0
147
0.0
147
0.0
147
0.0008202099737533
147
0.0
147
0.0
147
0.0
147
0.0
147
1.0
147
0.0
147
0.0
147
0.0
147
0.0
147
1.0
  0
MATERIAL
  5
285
102
{ACAD_XDICTIONARY
360
286
102
}
102
{ACAD_REACTORS
330
284
102
}
330
284
100
AcDbMaterial
  1
ByLayer
 72
     0
 43
0.0008202099737533
 43
0.0
 43
0.0
 43
0.0
 43
0.0
 43
0.0008202099737533
 43
0.0
 43
0.0
 43
0.0
 43
0.0
 43
1.0
 43
0.0
 43
0.0
 43
0.0
 43
0.0
 43
1.0
 77
     0
 47
0.0008202099737533
 47
0.0
 47
0.0
 47
0.0
 47
0.0
 47
0.0008202099737533
 47
0.0
 47
0.0
 47
0.0
 47
0.0
 47
1.0
 47
0.0
 47
0.0
 47
0.0
 47
0.0
 47
1.0
171
     0
 49
0.0008202099737533
 49
0.0
 49
0.0
 49
0.0
 49
0.0
 49
0.0008202099737533
 49
0.0
 49
0.0
 49
0.0
 49
0.0
 49
1.0
 49
0.0
 49
0.0
 49
0.0
 49
0.0
 49
1.0
175
     0
142
0.0008202099737533
142
0.0
142
0.0
142
0.0
142
0.0
142
0.0008202099737533
142
0.0
142
0.0
142
0.0
142
0.0
142
1.0
142
0.0
142
0.0
142
0.0
142
0.0
142
1.0
179
     0
144
0.0008202099737533
144
0.0
144
0.0
144
0.0
144
0.0
144
0.0008202099737533
144
0.0
144
0.0
144
0.0
144
0.0
144
1.0
144
0.0
144
0.0
144
0.0
144
0.0
144
1.0
147
0.0008202099737533
147
0.0
147
0.0
147
0.0
147
0.0
147
0.0008202099737533
147
0.0
147
0.0
147
0.0
147
0.0
147
1.0
147
0.0
147
0.0
147
0.0
147
0.0
147
1.0
  0
MATERIAL
  5
295
102
{ACAD_XDICTIONARY
360
296
102
}
102
{ACAD_REACTORS
330
284
102
}
330
284
100
AcDbMaterial
  1
Global
 72
     0
 43
0.0008202099737533
 43
0.0
 43
0.0
 43
0.0
 43
0.0
 43
0.0008202099737533
 43
0.0
 43
0.0
 43
0.0
 43
0.0
 43
1.0
 43
0.0
 43
0.0
 43
0.0
 43
0.0
 43
1.0
 77
     0
 47
0.0008202099737533
 47
0.0
 47
0.0
 47
0.0
 47
0.0
 47
0.0008202099737533
 47
0.0
 47
0.0
 47
0.0
 47
0.0
 47
1.0
 47
0.0
 47
0.0
 47
0.0
 47
0.0
 47
1.0
171
     0
 49
0.0008202099737533
 49
0.0
 49
0.0
 49
0.0
 49
0.0
 49
0.0008202099737533
 49
0.0
 49
0.0
 49
0.0
 49
0.0
 49
1.0
 49
0.0
 49
0.0
 49
0.0
 49
0.0
 49
1.0
175
     0
142
0.0008202099737533
142
0.0
142
0.0
142
0.0
142
0.0
142
0.0008202099737533
142
0.0
142
0.0
142
0.0
142
0.0
142
1.0
142
0.0
142
0.0
142
0.0
142
0.0
142
1.0
179
     0
144
0.0008202099737533
144
0.0
144
0.0
144
0.0
144
0.0
144
0.0008202099737533
144
0.0
144
0.0
144
0.0
144
0.0
144
1.0
144
0.0
144
0.0
144
0.0
144
0.0
144
1.0
147
0.0008202099737533
147
0.0
147
0.0
147
0.0
147
0.0
147
0.0008202099737533
147
0.0
147
0.0
147
0.0
147
0.0
147
1.0
147
0.0
147
0.0
147
0.0
147
0.0
147
1.0
  0
MLEADERSTYLE
  5
2BA
102
{ACAD_REACTORS
330
2B9
102
}
330
2B9
100
AcDbMLeaderStyle
179
     2
170
     2
171
     1
172
     0
 90
        2
 40
0.0
 41
0.0
173
     1
 91
-1056964608
340
14
 92
       -2
290
     1
 42
2.0
291
     1
 43
0.36
  3
Standard
 44
4.0
300

342
11
174
     1
178
     6
175
     1
176
     0
 93
-1056964608
 45
4.0
292
     0
297
     0
 46
4.0
 94
-1056964608
 47
1.0
 49
1.0
140
1.0
293
     1
141
0.0
294
     1
177
     0
142
1.0
295
     1
296
     0
143
0.125
271
     0
272
     9
273
     9
298
     1
  0
MLINESTYLE
  5
18
102
{ACAD_REACTORS
330
17
102
}
330
17
100
AcDbMlineStyle
  2
STANDARD
 70
     0
  3

 62
   256
 51
90.0
 52
90.0
 71
     2
 49
0.5
 62
   256
  6
BYLAYER
 49
-0.5
 62
   256
  6
BYLAYER
  0
ACDBPLACEHOLDER
  5
F
102
{ACAD_REACTORS
330
E
102
}
330
E
  0
SCALE
  5
48
102
{ACAD_REACTORS
330
47
102
}
330
47
100
AcDbScale
 70
     0
300
1:1
140
1.0
141
1.0
290
     1
  0
SCALE
  5
49
102
{ACAD_REACTORS
330
47
102
}
330
47
100
AcDbScale
 70
     0
300
1:2
140
1.0
141
2.0
290
     0
  0
SCALE
  5
4A
102
{ACAD_REACTORS
330
47
102
}
330
47
100
AcDbScale
 70
     0
300
1:4
140
1.0
141
4.0
290
     0
  0
SCALE
  5
4B
102
{ACAD_REACTORS
330
47
102
}
330
47
100
AcDbScale
 70
     0
300
1:5
140
1.0
141
5.0
290
     0
  0
SCALE
  5
4C
102
{ACAD_REACTORS
330
47
102
}
330
47
100
AcDbScale
 70
     0
300
1:8
140
1.0
141
8.0
290
     0
  0
SCALE
  5
4D
102
{ACAD_REACTORS
330
47
102
}
330
47
100
AcDbScale
 70
     0
300
1:10
140
1.0
141
10.0
290
     0
  0
SCALE
  5
4E
102
{ACAD_REACTORS
330
47
102
}
330
47
100
AcDbScale
 70
     0
300
1:16
140
1.0
141
16.0
290
     0
  0
SCALE
  5
4F
102
{ACAD_REACTORS
330
47
102
}
330
47
100
AcDbScale
 70
     0
300
1:20
140
1.0
141
20.0
290
     0
  0
SCALE
  5
50
102
{ACAD_REACTORS
330
47
102
}
330
47
100
AcDbScale
 70
     0
300
1:30
140
1.0
141
30.0
290
     0
  0
SCALE
  5
51
102
{ACAD_REACTORS
330
47
102
}
330
47
100
AcDbScale
 70
     0
300
1:40
140
1.0
141
40.0
290
     0
  0
SCALE
  5
52
102
{ACAD_REACTORS
330
47
102
}
330
47
100
AcDbScale
 70
     0
300
1:50
140
1.0
141
50.0
290
     0
  0
SCALE
  5
53
102
{ACAD_REACTORS
330
47
102
}
330
47
100
AcDbScale
 70
     0
300
1:100
140
1.0
141
100.0
290
     0
  0
SCALE
  5
54
102
{ACAD_REACTORS
330
47
102
}
330
47
100
AcDbScale
 70
     0
300
2:1
140
2.0
141
1.0
290
     0
  0
SCALE
  5
55
102
{ACAD_REACTORS
330
47
102
}
330
47
100
AcDbScale
 70
     0
300
4:1
140
4.0
141
1.0
290
     0
  0
SCALE
  5
56
102
{ACAD_REACTORS
330
47
102
}
330
47
100
AcDbScale
 70
     0
300
8:1
140
8.0
141
1.0
290
     0
  0
SCALE
  5
57
102
{ACAD_REACTORS
330
47
102
}
330
47
100
AcDbScale
 70
     0
300
10:1
140
10.0
141
1.0
290
     0
  0
SCALE
  5
58
102
{ACAD_REACTORS
330
47
102
}
330
47
100
AcDbScale
 70
     0
300
100:1
140
100.0
141
1.0
290
     0
  0
SCALE
  5
59
102
{ACAD_REACTORS
330
47
102
}
330
47
100
AcDbScale
 70
     0
300
1/128" = 1'-0"
140
0.0078125
141
12.0
290
     0
  0
SCALE
  5
5A
102
{ACAD_REACTORS
330
47
102
}
330
47
100
AcDbScale
 70
     0
300
1/64" = 1'-0"
140
0.015625
141
12.0
290
     0
  0
SCALE
  5
5B
102
{ACAD_REACTORS
330
47
102
}
330
47
100
AcDbScale
 70
     0
300
1/32" = 1'-0"
140
0.03125
141
12.0
290
     0
  0
SCALE
  5
5C
102
{ACAD_REACTORS
330
47
102
}
330
47
100
AcDbScale
 70
     0
300
1/16" = 1'-0"
140
0.0625
141
12.0
290
     0
  0
SCALE
  5
5D
102
{ACAD_REACTORS
330
47
102
}
330
47
100
AcDbScale
 70
     0
300
3/32" = 1'-0"
140
0.09375
141
12.0
290
     0
  0
SCALE
  5
5E
102
{ACAD_REACTORS
330
47
102
}
330
47
100
AcDbScale
 70
     0
300
1/8" = 1'-0"
140
0.125
141
12.0
290
     0
  0
SCALE
  5
5F
102
{ACAD_REACTORS
330
47
102
}
330
47
100
AcDbScale
 70
     0
300
3/16" = 1'-0"
140
0.1875
141
12.0
290
     0
  0
SCALE
  5
60
102
{ACAD_REACTORS
330
47
102
}
330
47
100
AcDbScale
 70
     0
300
1/4" = 1'-0"
140
0.25
141
12.0
290
     0
  0
SCALE
  5
61
102
{ACAD_REACTORS
330
47
102
}
330
47
100
AcDbScale
 70
     0
300
3/8" = 1'-0"
140
0.375
141
12.0
290
     0
  0
SCALE
  5
62
102
{ACAD_REACTORS
330
47
102
}
330
47
100
AcDbScale
 70
     0
300
1/2" = 1'-0"
140
0.5
141
12.0
290
     0
  0
SCALE
  5
63
102
{ACAD_REACTORS
330
47
102
}
330
47
100
AcDbScale
 70
     0
300
3/4" = 1'-0"
140
0.75
141
12.0
290
     0
  0
SCALE
  5
64
102
{ACAD_REACTORS
330
47
102
}
330
47
100
AcDbScale
 70
     0
300
1" = 1'-0"
140
1.0
141
12.0
290
     0
  0
SCALE
  5
65
102
{ACAD_REACTORS
330
47
102
}
330
47
100
AcDbScale
 70
     0
300
1-1/2" = 1'-0"
140
1.5
141
12.0
290
     0
  0
SCALE
  5
66
102
{ACAD_REACTORS
330
47
102
}
330
47
100
AcDbScale
 70
     0
300
3" = 1'-0"
140
3.0
141
12.0
290
     0
  0
SCALE
  5
67
102
{ACAD_REACTORS
330
47
102
}
330
47
100
AcDbScale
 70
     0
300
6" = 1'-0"
140
6.0
141
12.0
290
     0
  0
SCALE
  5
68
102
{ACAD_REACTORS
330
47
102
}
330
47
100
AcDbScale
 70
     0
300
1'-0" = 1'-0"
140
12.0
141
12.0
290
     0
  0
ACDBSECTIONVIEWSTYLE
  5
2BC
102
{ACAD_XDICTIONARY
360
544
102
}
102
{ACAD_REACTORS
330
2BB
102
}
330
2BB
100
AcDbModelDocViewStyle
 70
     0
  3
Metric50
290
     0
100
AcDbSectionViewStyle
 70
     0
 71
     0
 90
      102
 71
     1
340
11
 62
   256
 40
5.0
340
0
340
0
 62
   256
 40
5.0
300
I, O, Q, S, X, Z
 40
10.0
 90
        0
 40
2.5
 90
        0
 71
     2
340
16
 90
       25
 62
   256
340
16
 90
       50
 62
   256
 40
5.0
 40
2.5
 40
5.0
 71
     3
340
11
 62
   256
 40
5.0
 90
        0
 40
15.0
 90
        1
300
%<\AcVar ViewSectionStartId>%-%<\AcVar ViewSectionEndId>% (%<\AcVar ViewScale \f "%sn">%)
 71
     4
 62
   256
 62
   257
300
ANSI31
 40
1.0
 90
        0
290
     0
290
     0
 90
        6
 40
0.0
 40
1.570796326794896
 40
0.2617993877991494
 40
1.308996938995747
 40
-0.2617993877991494
 40
1.832595714594046
  0
TABLESTYLE
  5
2B8
102
{ACAD_XDICTIONARY
360
542
102
}
102
{ACAD_REACTORS
330
2B7
102
}
330
2B7
100
AcDbTableStyle
280
     0
  3
Standard
 70
     0
 71
     0
 40
1.5
 41
1.5
280
     0
281
     0
  7
STANDARD
140
4.5
170
     2
 62
     0
 63
     7
283
     0
 90
      512
 91
        0
  1

274
    -2
284
     1
 64
     0
275
    -2
285
     1
 65
     0
276
    -2
286
     1
 66
     0
277
    -2
287
     1
 67
     0
278
    -2
288
     1
 68
     0
279
    -2
289
     1
 69
     0
  7
STANDARD
140
6.0
170
     5
 62
     0
 63
     7
283
     0
 90
      512
 91
        0
  1

274
    -2
284
     1
 64
     0
275
    -2
285
     1
 65
     0
276
    -2
286
     1
 66
     0
277
    -2
287
     1
 67
     0
278
    -2
288
     1
 68
     0
279
    -2
289
     1
 69
     0
  7
STANDARD
140
4.5
170
     5
 62
     0
 63
     7
283
     0
 90
      512
 91
        0
  1

274
    -2
284
     1
 64
     0
275
    -2
285
     1
 65
     0
276
    -2
286
     1
 66
     0
277
    -2
287
     1
 67
     0
278
    -2
288
     1
 68
     0
279
    -2
289
     1
 69
     0
  0
VISUALSTYLE
  5
2A3
102
{ACAD_REACTORS
330
29D
102
}
330
29D
100
AcDbVisualStyle
  2
2dWireframe
 70
     4
177
     3
291
     0
 70
    58
 90
        0
176
     1
 90
        2
176
     1
 90
        0
176
     1
 90
        0
176
     1
 40
0.6
176
     1
 40
30.0
176
     1
 62
     7
420
 16777215
176
     1
 90
        1
176
     1
 90
        4
176
     1
 62
     7
176
     1
 62
   257
176
     1
 90
        1
176
     1
 90
        1
176
     1
 40
1.0
176
     1
 90
        0
176
     1
 62
   257
176
     1
 40
1.0
176
     1
 90
        1
176
     1
 90
        6
176
     1
 90
        2
176
     1
 62
     7
176
     1
 90
        5
176
     1
 90
        0
176
     1
 90
        0
176
     1
290
     0
176
     1
 90
        1
176
     1
 40
0.0
176
     1
 90
        0
176
     1
290
     1
176
     1
290
     1
176
     1
290
     0
176
     1
290
     0
176
     1
290
     0
176
     1
290
     0
176
     1
290
     0
176
     1
290
     0
176
     1
290
     0
176
     1
 90
       50
176
     1
 40
0.0
176
     1
 40
1.0
176
     1
 90
        0
176
     1
 62
    18
420
        0
176
     1
 90
       50
176
     1
 90
        3
176
     1
 62
     5
420
      255
176
     1
290
     0
176
     1
 90
       50
176
     1
 90
       50
176
     1
 90
       50
176
     1
290
     0
176
     1
 90
       50
176
     1
 62
   256
176
     0
 40
1.0
176
     0
 90
        2
176
     1
  1
strokes_ogs.tif
176
     1
290
     0
176
     1
 40
1.0
176
     1
 40
1.0
176
     1
  0
VISUALSTYLE
  5
2A2
102
{ACAD_REACTORS
330
29D
102
}
330
29D
100
AcDbVisualStyle
  2
Basic
 70
     7
177
     3
291
     1
 70
    58
 90
        1
176
     1
 90
        0
176
     1
 90
        1
176
     1
 90
        0
176
     1
 40
0.6
176
     1
 40
30.0
176
     1
 62
     7
420
 16777215
176
     1
 90
        0
176
     1
 90
        4
176
     1
 62
     7
176
     1
 62
   257
176
     1
 90
        1
176
     1
 90
        1
176
     1
 40
1.0
176
     1
 90
        8
176
     1
 62
     7
176
     1
 40
1.0
176
     1
 90
        1
176
     1
 90
        6
176
     1
 90
        2
176
     1
 62
     7
176
     1
 90
        5
176
     1
 90
        0
176
     1
 90
        0
176
     1
290
     0
176
     1
 90
        1
176
     1
 40
0.0
176
     1
 90
        0
176
     1
290
     0
176
     1
290
     1
176
     1
290
     1
176
     1
290
     0
176
     1
290
     0
176
     1
290
     0
176
     1
290
     0
176
     1
290
     0
176
     1
290
     0
176
     1
 90
       50
176
     1
 40
0.0
176
     1
 40
1.0
176
     1
 90
        0
176
     1
 62
    18
420
        0
176
     1
 90
       50
176
     1
 90
        3
176
     1
 62
     5
420
      255
176
     1
290
     0
176
     1
 90
       50
176
     1
 90
       50
176
     1
 90
       50
176
     1
290
     0
176
     1
 90
       50
176
     1
 62
   256
176
     0
 40
1.0
176
     0
 90
        2
176
     1
  1
strokes_ogs.tif
176
     1
290
     0
176
     1
 40
1.0
176
     1
 40
1.0
176
     1
  0
VISUALSTYLE
  5
2A9
102
{ACAD_REACTORS
330
29D
102
}
330
29D
100
AcDbVisualStyle
  2
Brighten
 70
    12
177
     3
291
     1
 70
    58
 90
        2
176
     1
 90
        2
176
     1
 90
        0
176
     1
 90
        0
176
     1
 40
0.6
176
     1
 40
30.0
176
     1
 62
     7
420
 16777215
176
     1
 90
        1
176
     1
 90
        4
176
     1
 62
     7
176
     1
 62
   257
176
     1
 90
        1
176
     1
 90
        1
176
     1
 40
1.0
176
     1
 90
        8
176
     1
 62
     7
176
     1
 40
1.0
176
     1
 90
        1
176
     1
 90
        6
176
     1
 90
        2
176
     1
 62
     7
176
     1
 90
        5
176
     1
 90
        0
176
     1
 90
        0
176
     1
290
     0
176
     1
 90
        1
176
     1
 40
50.0
176
     1
 90
        0
176
     1
290
     0
176
     1
290
     1
176
     1
290
     1
176
     1
290
     0
176
     1
290
     0
176
     1
290
     0
176
     1
290
     0
176
     1
290
     0
176
     1
290
     0
176
     1
 90
       50
176
     1
 40
0.0
176
     1
 40
1.0
176
     1
 90
        0
176
     1
 62
    18
420
        0
176
     1
 90
       50
176
     1
 90
        3
176
     1
 62
     5
420
      255
176
     1
290
     0
176
     1
 90
       50
176
     1
 90
       50
176
     1
 90
       50
176
     1
290
     0
176
     1
 90
       50
176
     1
 62
   256
176
     0
 40
1.0
176
     0
 90
        2
176
     1
  1
strokes_ogs.tif
176
     1
290
     0
176
     1
 40
1.0
176
     1
 40
1.0
176
     1
  0
VISUALSTYLE
  5
2AD
102
{ACAD_REACTORS
330
29D
102
}
330
29D
100
AcDbVisualStyle
  2
ColorChange
 70
    16
177
     3
291
     1
 70
    58
 90
        2
176
     1
 90
        2
176
     1
 90
        3
176
     1
 90
        0
176
     1
 40
0.6
176
     1
 40
30.0
176
     1
 62
     8
420
  8421504
176
     1
 90
        1
176
     1
 90
        4
176
     1
 62
     7
176
     1
 62
   257
176
     1
 90
        1
176
     1
 90
        1
176
     1
 40
1.0
176
     1
 90
        8
176
     1
 62
     8
420
  8421504
176
     1
 40
1.0
176
     1
 90
        1
176
     1
 90
        6
176
     1
 90
        2
176
     1
 62
     7
176
     1
 90
        5
176
     1
 90
        0
176
     1
 90
        0
176
     1
290
     0
176
     1
 90
        1
176
     1
 40
0.0
176
     1
 90
        0
176
     1
290
     0
176
     1
290
     1
176
     1
290
     1
176
     1
290
     0
176
     1
290
     0
176
     1
290
     0
176
     1
290
     0
176
     1
290
     0
176
     1
290
     0
176
     1
 90
       50
176
     1
 40
0.0
176
     1
 40
1.0
176
     1
 90
        0
176
     1
 62
    18
420
        0
176
     1
 90
       50
176
     1
 90
        3
176
     1
 62
     5
420
      255
176
     1
290
     0
176
     1
 90
       50
176
     1
 90
       50
176
     1
 90
       50
176
     1
290
     0
176
     1
 90
       50
176
     1
 62
   256
176
     0
 40
1.0
176
     0
 90
        2
176
     1
  1
strokes_ogs.tif
176
     1
290
     0
176
     1
 40
1.0
176
     1
 40
1.0
176
     1
  0
VISUALSTYLE
  5
2A6
102
{ACAD_REACTORS
330
29D
102
}
330
29D
100
AcDbVisualStyle
  2
Conceptual
 70
     9
177
     3
291
     0
 70
    58
 90
        3
176
     1
 90
        2
176
     1
 90
        0
176
     1
 90
        0
176
     1
 40
0.6
176
     1
 40
30.0
176
     1
 62
     7
420
 16777215
176
     1
 90
        2
176
     1
 90
        2
176
     1
 62
     7
176
     1
 62
   257
176
     1
 90
        1
176
     1
 90
        1
176
     1
 40
179.0
176
     1
 90
        8
176
     1
 62
     7
176
     1
 40
1.0
176
     1
 90
        1
176
     1
 90
        6
176
     1
 90
        2
176
     1
 62
     7
176
     1
 90
        3
176
     1
 90
        0
176
     1
 90
        0
176
     1
290
     0
176
     1
 90
        1
176
     1
 40
0.0
176
     1
 90
        0
176
     1
290
     0
176
     1
290
     1
176
     1
290
     1
176
     1
290
     0
176
     1
290
     0
176
     1
290
     0
176
     1
290
     0
176
     1
290
     0
176
     1
290
     0
176
     1
 90
       50
176
     1
 40
0.0
176
     1
 40
1.0
176
     1
 90
        0
176
     1
 62
    18
420
        0
176
     1
 90
       50
176
     1
 90
        3
176
     1
 62
     5
420
      255
176
     1
290
     0
176
     1
 90
       50
176
     1
 90
       50
176
     1
 90
       50
176
     1
290
     0
176
     1
 90
       50
176
     1
 62
   256
176
     0
 40
1.0
176
     0
 90
        2
176
     1
  1
strokes_ogs.tif
176
     1
290
     0
176
     1
 40
1.0
176
     1
 40
1.0
176
     1
  0
VISUALSTYLE
  5
2A8
102
{ACAD_REACTORS
330
29D
102
}
330
29D
100
AcDbVisualStyle
  2
Dim
 70
    11
177
     3
291
     1
 70
    58
 90
        2
176
     1
 90
        2
176
     1
 90
        0
176
     1
 90
        0
176
     1
 40
0.6
176
     1
 40
30.0
176
     1
 62
     7
420
 16777215
176
     1
 90
        1
176
     1
 90
        4
176
     1
 62
     7
176
     1
 62
   257
176
     1
 90
        1
176
     1
 90
        1
176
     1
 40
1.0
176
     1
 90
        8
176
     1
 62
     7
176
     1
 40
1.0
176
     1
 90
        1
176
     1
 90
        6
176
     1
 90
        2
176
     1
 62
     7
176
     1
 90
        5
176
     1
 90
        0
176
     1
 90
        0
176
     1
290
     0
176
     1
 90
        1
176
     1
 40
-50.0
176
     1
 90
        0
176
     1
290
     0
176
     1
290
     1
176
     1
290
     1
176
     1
290
     0
176
     1
290
     0
176
     1
290
     0
176
     1
290
     0
176
     1
290
     0
176
     1
290
     0
176
     1
 90
       50
176
     1
 40
0.0
176
     1
 40
1.0
176
     1
 90
        0
176
     1
 62
    18
420
        0
176
     1
 90
       50
176
     1
 90
        3
176
     1
 62
     5
420
      255
176
     1
290
     0
176
     1
 90
       50
176
     1
 90
       50
176
     1
 90
       50
176
     1
290
     0
176
     1
 90
       50
176
     1
 62
   256
176
     0
 40
1.0
176
     0
 90
        2
176
     1
  1
strokes_ogs.tif
176
     1
290
     0
176
     1
 40
1.0
176
     1
 40
1.0
176
     1
  0
VISUALSTYLE
  5
2B5
102
{ACAD_REACTORS
330
29D
102
}
330
29D
100
AcDbVisualStyle
  2
EdgeColorOff
 70
    22
177
     3
291
     1
 70
    58
 90
        2
176
     0
 90
        2
176
     0
 90
        0
176
     0
 90
        0
176
     0
 40
0.6
176
     0
 40
30.0
176
     0
 62
     7
420
 16777215
176
     0
 90
        1
176
     0
 90
        4
176
     0
 62
     7
176
     0
 62
   257
176
     0
 90
        1
176
     0
 90
        1
176
     0
 40
1.0
176
     0
 90
        8
176
     2
 62
     7
176
     0
 40
1.0
176
     0
 90
        1
176
     0
 90
        6
176
     0
 90
        2
176
     0
 62
     7
176
     0
 90
        5
176
     0
 90
        0
176
     0
 90
        0
176
     0
290
     0
176
     0
 90
        1
176
     0
 40
0.0
176
     0
 90
        0
176
     0
290
     0
176
     0
290
     1
176
     0
290
     1
176
     0
290
     0
176
     0
290
     0
176
     0
290
     0
176
     0
290
     0
176
     0
290
     0
176
     0
290
     0
176
     0
 90
       50
176
     0
 40
0.0
176
     0
 40
1.0
176
     0
 90
        0
176
     0
 62
    18
420
        0
176
     0
 90
       50
176
     0
 90
        3
176
     0
 62
     5
420
      255
176
     0
290
     0
176
     0
 90
       50
176
     0
 90
       50
176
     0
 90
       50
176
     0
290
     0
176
     0
 90
       50
176
     0
 62
   256
176
     0
 40
1.0
176
     0
 90
        2
176
     0
  1
strokes_ogs.tif
176
     0
290
     0
176
     0
 40
1.0
176
     0
 40
1.0
176
     0
  0
VISUALSTYLE
  5
2AC
102
{ACAD_REACTORS
330
29D
102
}
330
29D
100
AcDbVisualStyle
  2
Facepattern
 70
    15
177
     3
291
     1
 70
    58
 90
        2
176
     1
 90
        2
176
     1
 90
        0
176
     1
 90
        0
176
     1
 40
0.6
176
     1
 40
30.0
176
     1
 62
     7
420
 16777215
176
     1
 90
        1
176
     1
 90
        4
176
     1
 62
     7
176
     1
 62
   257
176
     1
 90
        1
176
     1
 90
        1
176
     1
 40
1.0
176
     1
 90
        8
176
     1
 62
     7
176
     1
 40
1.0
176
     1
 90
        1
176
     1
 90
        6
176
     1
 90
        2
176
     1
 62
     7
176
     1
 90
        5
176
     1
 90
        0
176
     1
 90
        0
176
     1
290
     0
176
     1
 90
        1
176
     1
 40
0.0
176
     1
 90
        0
176
     1
290
     0
176
     1
290
     1
176
     1
290
     1
176
     1
290
     0
176
     1
290
     0
176
     1
290
     0
176
     1
290
     0
176
     1
290
     0
176
     1
290
     0
176
     1
 90
       50
176
     1
 40
0.0
176
     1
 40
1.0
176
     1
 90
        0
176
     1
 62
    18
420
        0
176
     1
 90
       50
176
     1
 90
        3
176
     1
 62
     5
420
      255
176
     1
290
     0
176
     1
 90
       50
176
     1
 90
       50
176
     1
 90
       50
176
     1
290
     0
176
     1
 90
       50
176
     1
 62
   256
176
     0
 40
1.0
176
     0
 90
        2
176
     1
  1
strokes_ogs.tif
176
     1
290
     0
176
     1
 40
1.0
176
     1
 40
1.0
176
     1
  0
VISUALSTYLE
  5
29E
102
{ACAD_REACTORS
330
29D
102
}
330
29D
100
AcDbVisualStyle
  2
Flat
 70
     0
177
     3
291
     1
 70
    58
 90
        2
176
     1
 90
        1
176
     1
 90
        1
176
     1
 90
        2
176
     1
 40
0.6
176
     1
 40
30.0
176
     1
 62
     7
420
 16777215
176
     1
 90
        0
176
     1
 90
        0
176
     1
 62
     7
176
     1
 62
   257
176
     1
 90
        1
176
     1
 90
        1
176
     1
 40
1.0
176
     1
 90
        8
176
     1
 62
     7
176
     1
 40
1.0
176
     1
 90
        1
176
     1
 90
        6
176
     1
 90
        2
176
     1
 62
     7
176
     1
 90
        5
176
     1
 90
        0
176
     1
 90
        0
176
     1
290
     0
176
     1
 90
       13
176
     1
 40
0.0
176
     1
 90
        0
176
     1
290
     0
176
     1
290
     1
176
     1
290
     1
176
     1
290
     0
176
     1
290
     0
176
     1
290
     0
176
     1
290
     0
176
     1
290
     0
176
     1
290
     0
176
     1
 90
       50
176
     1
 40
0.0
176
     1
 40
1.0
176
     1
 90
        0
176
     1
 62
    18
420
        0
176
     1
 90
       50
176
     1
 90
        3
176
     1
 62
     5
420
      255
176
     1
290
     0
176
     1
 90
       50
176
     1
 90
       50
176
     1
 90
       50
176
     1
290
     0
176
     1
 90
       50
176
     1
 62
   256
176
     0
 40
1.0
176
     0
 90
        2
176
     1
  1
strokes_ogs.tif
176
     1
290
     0
176
     1
 40
1.0
176
     1
 40
1.0
176
     1
  0
VISUALSTYLE
  5
29F
102
{ACAD_REACTORS
330
29D
102
}
330
29D
100
AcDbVisualStyle
  2
FlatWithEdges
 70
     1
177
     3
291
     1
 70
    58
 90
        2
176
     1
 90
        1
176
     1
 90
        1
176
     1
 90
        2
176
     1
 40
0.6
176
     1
 40
30.0
176
     1
 62
     7
420
 16777215
176
     1
 90
        1
176
     1
 90
        0
176
     1
 62
     7
176
     1
 62
   257
176
     1
 90
        1
176
     1
 90
        1
176
     1
 40
1.0
176
     1
 90
        0
176
     1
 62
   257
176
     1
 40
1.0
176
     1
 90
        1
176
     1
 90
        6
176
     1
 90
        2
176
     1
 62
     7
176
     1
 90
        5
176
     1
 90
        0
176
     1
 90
        0
176
     1
290
     0
176
     1
 90
       13
176
     1
 40
0.0
176
     1
 90
        0
176
     1
290
     0
176
     1
290
     1
176
     1
290
     1
176
     1
290
     0
176
     1
290
     0
176
     1
290
     0
176
     1
290
     0
176
     1
290
     0
176
     1
290
     0
176
     1
 90
       50
176
     1
 40
0.0
176
     1
 40
1.0
176
     1
 90
        0
176
     1
 62
    18
420
        0
176
     1
 90
       50
176
     1
 90
        3
176
     1
 62
     5
420
      255
176
     1
290
     0
176
     1
 90
       50
176
     1
 90
       50
176
     1
 90
       50
176
     1
290
     0
176
     1
 90
       50
176
     1
 62
   256
176
     0
 40
1.0
176
     0
 90
        2
176
     1
  1
strokes_ogs.tif
176
     1
290
     0
176
     1
 40
1.0
176
     1
 40
1.0
176
     1
  0
VISUALSTYLE
  5
2A0
102
{ACAD_REACTORS
330
29D
102
}
330
29D
100
AcDbVisualStyle
  2
Gouraud
 70
     2
177
     3
291
     1
 70
    58
 90
        2
176
     1
 90
        2
176
     1
 90
        1
176
     1
 90
        2
176
     1
 40
0.6
176
     1
 40
30.0
176
     1
 62
     7
420
 16777215
176
     1
 90
        0
176
     1
 90
        0
176
     1
 62
     7
176
     1
 62
   257
176
     1
 90
        1
176
     1
 90
        1
176
     1
 40
1.0
176
     1
 90
        0
176
     1
 62
     7
176
     1
 40
1.0
176
     1
 90
        1
176
     1
 90
        6
176
     1
 90
        2
176
     1
 62
     7
176
     1
 90
        5
176
     1
 90
        0
176
     1
 90
        0
176
     1
290
     0
176
     1
 90
       13
176
     1
 40
0.0
176
     1
 90
        0
176
     1
290
     0
176
     1
290
     1
176
     1
290
     1
176
     1
290
     0
176
     1
290
     0
176
     1
290
     0
176
     1
290
     0
176
     1
290
     0
176
     1
290
     0
176
     1
 90
       50
176
     1
 40
0.0
176
     1
 40
1.0
176
     1
 90
        0
176
     1
 62
    18
420
        0
176
     1
 90
       50
176
     1
 90
        3
176
     1
 62
     5
420
      255
176
     1
290
     0
176
     1
 90
       50
176
     1
 90
       50
176
     1
 90
       50
176
     1
290
     0
176
     1
 90
       50
176
     1
 62
   256
176
     0
 40
1.0
176
     0
 90
        2
176
     1
  1
strokes_ogs.tif
176
     1
290
     0
176
     1
 40
1.0
176
     1
 40
1.0
176
     1
  0
VISUALSTYLE
  5
2A1
102
{ACAD_REACTORS
330
29D
102
}
330
29D
100
AcDbVisualStyle
  2
GouraudWithEdges
 70
     3
177
     3
291
     1
 70
    58
 90
        2
176
     1
 90
        2
176
     1
 90
        1
176
     1
 90
        2
176
     1
 40
0.6
176
     1
 40
30.0
176
     1
 62
     7
420
 16777215
176
     1
 90
        1
176
     1
 90
        0
176
     1
 62
     7
176
     1
 62
   257
176
     1
 90
        1
176
     1
 90
        1
176
     1
 40
1.0
176
     1
 90
        0
176
     1
 62
   257
176
     1
 40
1.0
176
     1
 90
        1
176
     1
 90
        6
176
     1
 90
        2
176
     1
 62
     7
176
     1
 90
        5
176
     1
 90
        0
176
     1
 90
        0
176
     1
290
     0
176
     1
 90
       13
176
     1
 40
0.0
176
     1
 90
        0
176
     1
290
     0
176
     1
290
     1
176
     1
290
     1
176
     1
290
     0
176
     1
290
     0
176
     1
290
     0
176
     1
290
     0
176
     1
290
     0
176
     1
290
     0
176
     1
 90
       50
176
     1
 40
0.0
176
     1
 40
1.0
176
     1
 90
        0
176
     1
 62
    18
420
        0
176
     1
 90
       50
176
     1
 90
        3
176
     1
 62
     5
420
      255
176
     1
290
     0
176
     1
 90
       50
176
     1
 90
       50
176
     1
 90
       50
176
     1
290
     0
176
     1
 90
       50
176
     1
 62
   256
176
     0
 40
1.0
176
     0
 90
        2
176
     1
  1
strokes_ogs.tif
176
     1
290
     0
176
     1
 40
1.0
176
     1
 40
1.0
176
     1
  0
VISUALSTYLE
  5
2A5
102
{ACAD_REACTORS
330
29D
102
}
330
29D
100
AcDbVisualStyle
  2
Hidden
 70
     6
177
     3
291
     0
 70
    58
 90
        1
176
     1
 90
        2
176
     1
 90
        2
176
     1
 90
        0
176
     1
 40
0.6
176
     1
 40
30.0
176
     1
 62
     7
420
 16777215
176
     1
 90
        2
176
     1
 90
        2
176
     1
 62
     7
176
     1
 62
   257
176
     1
 90
        2
176
     1
 90
        1
176
     1
 40
40.0
176
     1
 90
        0
176
     1
 62
   257
176
     1
 40
1.0
176
     1
 90
        1
176
     1
 90
        6
176
     1
 90
        2
176
     1
 62
     7
176
     1
 90
        3
176
     1
 90
        0
176
     1
 90
        0
176
     1
290
     0
176
     1
 90
        1
176
     1
 40
0.0
176
     1
 90
        0
176
     1
290
     0
176
     1
290
     1
176
     1
290
     1
176
     1
290
     0
176
     1
290
     0
176
     1
290
     0
176
     1
290
     0
176
     1
290
     0
176
     1
290
     0
176
     1
 90
       50
176
     1
 40
0.0
176
     1
 40
1.0
176
     1
 90
        0
176
     1
 62
    18
420
        0
176
     1
 90
       50
176
     1
 90
        3
176
     1
 62
     5
420
      255
176
     1
290
     0
176
     1
 90
       50
176
     1
 90
       50
176
     1
 90
       50
176
     1
290
     0
176
     1
 90
       50
176
     1
 62
   256
176
     0
 40
1.0
176
     0
 90
        2
176
     1
  1
strokes_ogs.tif
176
     1
290
     0
176
     1
 40
1.0
176
     1
 40
1.0
176
     1
  0
VISUALSTYLE
  5
2B3
102
{ACAD_REACTORS
330
29D
102
}
330
29D
100
AcDbVisualStyle
  2
JitterOff
 70
    20
177
     3
291
     1
 70
    58
 90
        2
176
     0
 90
        2
176
     0
 90
        0
176
     0
 90
        0
176
     0
 40
0.6
176
     0
 40
30.0
176
     0
 62
     7
420
 16777215
176
     0
 90
        1
176
     0
 90
        4
176
     0
 62
     7
176
     0
 62
   257
176
     0
 90
        1
176
     0
 90
        1
176
     0
 40
1.0
176
     0
 90
       10
176
     2
 62
     7
176
     0
 40
1.0
176
     0
 90
        1
176
     0
 90
        6
176
     0
 90
        2
176
     0
 62
     7
176
     0
 90
        5
176
     0
 90
        0
176
     0
 90
        0
176
     0
290
     0
176
     0
 90
        1
176
     0
 40
0.0
176
     0
 90
        0
176
     0
290
     0
176
     0
290
     1
176
     0
290
     1
176
     0
290
     0
176
     0
290
     0
176
     0
290
     0
176
     0
290
     0
176
     0
290
     0
176
     0
290
     0
176
     0
 90
       50
176
     0
 40
0.0
176
     0
 40
1.0
176
     0
 90
        0
176
     0
 62
    18
420
        0
176
     0
 90
       50
176
     0
 90
        3
176
     0
 62
     5
420
      255
176
     0
290
     0
176
     0
 90
       50
176
     0
 90
       50
176
     0
 90
       50
176
     0
290
     0
176
     0
 90
       50
176
     0
 62
   256
176
     0
 40
1.0
176
     0
 90
        2
176
     0
  1
strokes_ogs.tif
176
     0
290
     0
176
     0
 40
1.0
176
     0
 40
1.0
176
     0
  0
VISUALSTYLE
  5
2AB
102
{ACAD_REACTORS
330
29D
102
}
330
29D
100
AcDbVisualStyle
  2
Linepattern
 70
    14
177
     3
291
     1
 70
    58
 90
        2
176
     1
 90
        2
176
     1
 90
        0
176
     1
 90
        0
176
     1
 40
0.6
176
     1
 40
30.0
176
     1
 62
     7
420
 16777215
176
     1
 90
        1
176
     1
 90
        4
176
     1
 62
     7
176
     1
 62
   257
176
     1
 90
        7
176
     1
 90
        7
176
     1
 40
1.0
176
     1
 90
        8
176
     1
 62
     7
176
     1
 40
1.0
176
     1
 90
        1
176
     1
 90
        6
176
     1
 90
        2
176
     1
 62
     7
176
     1
 90
        5
176
     1
 90
        0
176
     1
 90
        0
176
     1
290
     0
176
     1
 90
        1
176
     1
 40
0.0
176
     1
 90
        0
176
     1
290
     0
176
     1
290
     1
176
     1
290
     1
176
     1
290
     0
176
     1
290
     0
176
     1
290
     0
176
     1
290
     0
176
     1
290
     0
176
     1
290
     0
176
     1
 90
       50
176
     1
 40
0.0
176
     1
 40
1.0
176
     1
 90
        0
176
     1
 62
    18
420
        0
176
     1
 90
       50
176
     1
 90
        3
176
     1
 62
     5
420
      255
176
     1
290
     0
176
     1
 90
       50
176
     1
 90
       50
176
     1
 90
       50
176
     1
290
     0
176
     1
 90
       50
176
     1
 62
   256
176
     0
 40
1.0
176
     0
 90
        2
176
     1
  1
strokes_ogs.tif
176
     1
290
     0
176
     1
 40
1.0
176
     1
 40
1.0
176
     1
  0
VISUALSTYLE
  5
2B4
102
{ACAD_REACTORS
330
29D
102
}
330
29D
100
AcDbVisualStyle
  2
OverhangOff
 70
    21
177
     3
291
     1
 70
    58
 90
        2
176
     0
 90
        2
176
     0
 90
        0
176
     0
 90
        0
176
     0
 40
0.6
176
     0
 40
30.0
176
     0
 62
     7
420
 16777215
176
     0
 90
        1
176
     0
 90
        4
176
     0
 62
     7
176
     0
 62
   257
176
     0
 90
        1
176
     0
 90
        1
176
     0
 40
1.0
176
     0
 90
        9
176
     2
 62
     7
176
     0
 40
1.0
176
     0
 90
        1
176
     0
 90
        6
176
     0
 90
        2
176
     0
 62
     7
176
     0
 90
        5
176
     0
 90
        0
176
     0
 90
        0
176
     0
290
     0
176
     0
 90
        1
176
     0
 40
0.0
176
     0
 90
        0
176
     0
290
     0
176
     0
290
     1
176
     0
290
     1
176
     0
290
     0
176
     0
290
     0
176
     0
290
     0
176
     0
290
     0
176
     0
290
     0
176
     0
290
     0
176
     0
 90
       50
176
     0
 40
0.0
176
     0
 40
1.0
176
     0
 90
        0
176
     0
 62
    18
420
        0
176
     0
 90
       50
176
     0
 90
        3
176
     0
 62
     5
420
      255
176
     0
290
     0
176
     0
 90
       50
176
     0
 90
       50
176
     0
 90
       50
176
     0
290
     0
176
     0
 90
       50
176
     0
 62
   256
176
     0
 40
1.0
176
     0
 90
        2
176
     0
  1
strokes_ogs.tif
176
     0
290
     0
176
     0
 40
1.0
176
     0
 40
1.0
176
     0
  0
VISUALSTYLE
  5
2A7
102
{ACAD_REACTORS
330
29D
102
}
330
29D
100
AcDbVisualStyle
  2
Realistic
 70
     8
177
     3
291
     0
 70
    58
 90
        2
176
     1
 90
        3
176
     1
 90
        0
176
     1
 90
        2
176
     1
 40
0.6
176
     1
 40
30.0
176
     1
 62
     7
420
 16777215
176
     1
 90
        0
176
     1
 90
        0
176
     1
 62
     7
176
     1
 62
   257
176
     1
 90
        1
176
     1
 90
        1
176
     1
 40
1.0
176
     1
 90
        8
176
     1
 62
   257
176
     1
 40
1.0
176
     1
 90
        1
176
     1
 90
        6
176
     1
 90
        2
176
     1
 62
     7
176
     1
 90
        3
176
     1
 90
        0
176
     1
 90
        0
176
     1
290
     0
176
     1
 90
       13
176
     1
 40
0.0
176
     1
 90
        0
176
     1
290
     0
176
     1
290
     1
176
     1
290
     1
176
     1
290
     0
176
     1
290
     0
176
     1
290
     0
176
     1
290
     0
176
     1
290
     0
176
     1
290
     0
176
     1
 90
       50
176
     1
 40
0.0
176
     1
 40
1.0
176
     1
 90
        0
176
     1
 62
    18
420
        0
176
     1
 90
       50
176
     1
 90
        3
176
     1
 62
     5
420
      255
176
     1
290
     0
176
     1
 90
       50
176
     1
 90
       50
176
     1
 90
       50
176
     1
290
     0
176
     1
 90
       50
176
     1
 62
   256
176
     0
 40
1.0
176
     0
 90
        2
176
     1
  1
strokes_ogs.tif
176
     1
290
     0
176
     1
 40
1.0
176
     1
 40
1.0
176
     1
  0
VISUALSTYLE
  5
2B2
102
{ACAD_REACTORS
330
29D
102
}
330
29D
100
AcDbVisualStyle
  2
Shaded
 70
    27
177
     3
291
     0
 70
    58
 90
        2
176
     1
 90
        2
176
     1
 90
        1
176
     1
 90
        2
176
     1
 40
0.6
176
     1
 40
30.0
176
     1
 62
     7
420
 16777215
176
     1
 90
        0
176
     1
 90
        4
176
     1
 62
     7
176
     1
 62
   257
176
     1
 90
        1
176
     1
 90
        1
176
     1
 40
1.0
176
     1
 90
        8
176
     1
 62
   257
176
     1
 40
1.0
176
     1
 90
        1
176
     1
 90
        6
176
     1
 90
        2
176
     1
 62
     8
420
  7895160
176
     1
 90
        3
176
     1
 90
        0
176
     1
 90
        0
176
     1
290
     0
176
     1
 90
        5
176
     1
 40
0.0
176
     1
 90
        0
176
     1
290
     0
176
     1
290
     1
176
     1
290
     1
176
     1
290
     0
176
     1
290
     0
176
     1
290
     0
176
     1
290
     0
176
     1
290
     0
176
     1
290
     0
176
     1
 90
       50
176
     1
 40
0.0
176
     1
 40
1.0
176
     1
 90
        0
176
     1
 62
    18
420
        0
176
     1
 90
       50
176
     1
 90
        3
176
     1
 62
     5
420
      255
176
     1
290
     0
176
     1
 90
       50
176
     1
 90
       50
176
     1
 90
       50
176
     1
290
     0
176
     1
 90
       50
176
     1
 62
   256
176
     0
 40
1.0
176
     0
 90
        2
176
     1
  1
strokes_ogs.tif
176
     1
290
     0
176
     1
 40
1.0
176
     1
 40
1.0
176
     1
  0
VISUALSTYLE
  5
2B1
102
{ACAD_REACTORS
330
29D
102
}
330
29D
100
AcDbVisualStyle
  2
Shaded with edges
 70
    26
177
     3
291
     0
 70
    58
 90
        2
176
     1
 90
        2
176
     1
 90
        1
176
     1
 90
        2
176
     1
 40
0.6
176
     1
 40
30.0
176
     1
 62
     7
420
 16777215
176
     1
 90
        1
176
     1
 90
       10
176
     1
 62
     7
176
     1
 62
   257
176
     1
 90
        2
176
     1
 90
        1
176
     1
 40
1.0
176
     1
 90
        8
176
     1
 62
   257
176
     1
 40
1.0
176
     1
 90
        1
176
     1
 90
        6
176
     1
 90
        2
176
     1
 62
     7
176
     1
 90
        3
176
     1
 90
        0
176
     1
 90
        0
176
     1
290
     0
176
     1
 90
        5
176
     1
 40
0.0
176
     1
 90
        0
176
     1
290
     0
176
     1
290
     1
176
     1
290
     1
176
     1
290
     0
176
     1
290
     0
176
     1
290
     0
176
     1
290
     0
176
     1
290
     0
176
     1
290
     0
176
     1
 90
       50
176
     1
 40
0.0
176
     1
 40
1.0
176
     1
 90
        0
176
     1
 62
    18
420
        0
176
     1
 90
       50
176
     1
 90
        3
176
     1
 62
     5
420
      255
176
     1
290
     0
176
     1
 90
       50
176
     1
 90
       50
176
     1
 90
       50
176
     1
290
     0
176
     1
 90
       50
176
     1
 62
   256
176
     0
 40
1.0
176
     0
 90
        2
176
     1
  1
strokes_ogs.tif
176
     1
290
     0
176
     1
 40
1.0
176
     1
 40
1.0
176
     1
  0
VISUALSTYLE
  5
2AE
102
{ACAD_REACTORS
330
29D
102
}
330
29D
100
AcDbVisualStyle
  2
Shades of Gray
 70
    23
177
     3
291
     0
 70
    58
 90
        2
176
     1
 90
        2
176
     1
 90
        3
176
     1
 90
        0
176
     1
 40
0.6
176
     1
 40
30.0
176
     1
 62
     7
420
 16777215
176
     1
 90
        2
176
     1
 90
        2
176
     1
 62
     7
176
     1
 62
     7
176
     1
 90
        1
176
     1
 90
        1
176
     1
 40
40.0
176
     1
 90
        8
176
     1
 62
     7
176
     1
 40
1.0
176
     1
 90
        1
176
     1
 90
        6
176
     1
 90
        2
176
     1
 62
     7
176
     1
 90
        3
176
     1
 90
        0
176
     1
 90
        0
176
     1
290
     0
176
     1
 90
        1
176
     1
 40
0.0
176
     1
 90
        0
176
     1
290
     0
176
     1
290
     1
176
     1
290
     1
176
     1
290
     0
176
     1
290
     0
176
     1
290
     0
176
     1
290
     0
176
     1
290
     0
176
     1
290
     0
176
     1
 90
       50
176
     1
 40
0.0
176
     1
 40
1.0
176
     1
 90
        0
176
     1
 62
    18
420
        0
176
     1
 90
       50
176
     1
 90
        3
176
     1
 62
     5
420
      255
176
     1
290
     0
176
     1
 90
       50
176
     1
 90
       50
176
     1
 90
       50
176
     1
290
     0
176
     1
 90
       50
176
     1
 62
   256
176
     0
 40
1.0
176
     0
 90
        2
176
     1
  1
strokes_ogs.tif
176
     1
290
     0
176
     1
 40
1.0
176
     1
 40
1.0
176
     1
  0
VISUALSTYLE
  5
2AF
102
{ACAD_REACTORS
330
29D
102
}
330
29D
100
AcDbVisualStyle
  2
Sketchy
 70
    24
177
     3
291
     0
 70
    58
 90
        1
176
     1
 90
        2
176
     1
 90
        2
176
     1
 90
        0
176
     1
 40
0.6
176
     1
 40
30.0
176
     1
 62
     7
420
 16777215
176
     1
 90
        2
176
     1
 90
        2
176
     1
 62
     7
176
     1
 62
     7
176
     1
 90
        1
176
     1
 90
        1
176
     1
 40
40.0
176
     1
 90
       11
176
     1
 62
     7
176
     1
 40
1.0
176
     1
 90
        1
176
     1
 90
        6
176
     1
 90
        2
176
     1
 62
     7
176
     1
 90
        6
176
     1
 90
        0
176
     1
 90
        0
176
     1
290
     0
176
     1
 90
        1
176
     1
 40
0.0
176
     1
 90
        0
176
     1
290
     0
176
     1
290
     1
176
     1
290
     1
176
     1
290
     0
176
     1
290
     0
176
     1
290
     0
176
     1
290
     0
176
     1
290
     0
176
     1
290
     0
176
     1
 90
       50
176
     1
 40
0.0
176
     1
 40
1.0
176
     1
 90
        0
176
     1
 62
    18
420
        0
176
     1
 90
       50
176
     1
 90
        3
176
     1
 62
     5
420
      255
176
     1
290
     0
176
     1
 90
       50
176
     1
 90
       50
176
     1
 90
       50
176
     1
290
     0
176
     1
 90
       50
176
     1
 62
   256
176
     0
 40
1.0
176
     0
 90
        2
176
     1
  1
strokes_ogs.tif
176
     1
290
     0
176
     1
 40
1.0
176
     1
 40
1.0
176
     1
  0
VISUALSTYLE
  5
2AA
102
{ACAD_REACTORS
330
29D
102
}
330
29D
100
AcDbVisualStyle
  2
Thicken
 70
    13
177
     3
291
     1
 70
    58
 90
        2
176
     1
 90
        2
176
     1
 90
        0
176
     1
 90
        0
176
     1
 40
0.6
176
     1
 40
30.0
176
     1
 62
     7
420
 16777215
176
     1
 90
        1
176
     1
 90
        4
176
     1
 62
     7
176
     1
 62
   257
176
     1
 90
        1
176
     1
 90
        1
176
     1
 40
1.0
176
     1
 90
       12
176
     1
 62
     7
176
     1
 40
1.0
176
     1
 90
        1
176
     1
 90
        6
176
     1
 90
        2
176
     1
 62
     7
176
     1
 90
        5
176
     1
 90
        0
176
     1
 90
        0
176
     1
290
     0
176
     1
 90
        1
176
     1
 40
0.0
176
     1
 90
        0
176
     1
290
     0
176
     1
290
     1
176
     1
290
     1
176
     1
290
     0
176
     1
290
     0
176
     1
290
     0
176
     1
290
     0
176
     1
290
     0
176
     1
290
     0
176
     1
 90
       50
176
     1
 40
0.0
176
     1
 40
1.0
176
     1
 90
        0
176
     1
 62
    18
420
        0
176
     1
 90
       50
176
     1
 90
        3
176
     1
 62
     5
420
      255
176
     1
290
     0
176
     1
 90
       50
176
     1
 90
       50
176
     1
 90
       50
176
     1
290
     0
176
     1
 90
       50
176
     1
 62
   256
176
     0
 40
1.0
176
     0
 90
        2
176
     1
  1
strokes_ogs.tif
176
     1
290
     0
176
     1
 40
1.0
176
     1
 40
1.0
176
     1
  0
VISUALSTYLE
  5
2A4
102
{ACAD_REACTORS
330
29D
102
}
330
29D
100
AcDbVisualStyle
  2
Wireframe
 70
     5
177
     3
291
     0
 70
    58
 90
        0
176
     1
 90
        2
176
     1
 90
        0
176
     1
 90
        0
176
     1
 40
0.6
176
     1
 40
30.0
176
     1
 62
     7
420
 16777215
176
     1
 90
        1
176
     1
 90
        4
176
     1
 62
     7
176
     1
 62
   257
176
     1
 90
        1
176
     1
 90
        1
176
     1
 40
1.0
176
     1
 90
        0
176
     1
 62
   257
176
     1
 40
1.0
176
     1
 90
        1
176
     1
 90
        6
176
     1
 90
        2
176
     1
 62
     7
176
     1
 90
        3
176
     1
 90
        0
176
     1
 90
        0
176
     1
290
     0
176
     1
 90
        1
176
     1
 40
0.0
176
     1
 90
        0
176
     1
290
     0
176
     1
290
     1
176
     1
290
     1
176
     1
290
     0
176
     1
290
     0
176
     1
290
     0
176
     1
290
     0
176
     1
290
     0
176
     1
290
     0
176
     1
 90
       50
176
     1
 40
0.0
176
     1
 40
1.0
176
     1
 90
        0
176
     1
 62
    18
420
        0
176
     1
 90
       50
176
     1
 90
        3
176
     1
 62
     5
420
      255
176
     1
290
     0
176
     1
 90
       50
176
     1
 90
       50
176
     1
 90
       50
176
     1
290
     0
176
     1
 90
       50
176
     1
 62
   256
176
     0
 40
1.0
176
     0
 90
        2
176
     1
  1
strokes_ogs.tif
176
     1
290
     0
176
     1
 40
1.0
176
     1
 40
1.0
176
     1
  0
VISUALSTYLE
  5
2B0
102
{ACAD_REACTORS
330
29D
102
}
330
29D
100
AcDbVisualStyle
  2
X-Ray
 70
    25
177
     3
291
     0
 70
    58
 90
        2
176
     1
 90
        2
176
     1
 90
        1
176
     1
 90
        1
176
     1
 40
0.5
176
     1
 40
30.0
176
     1
 62
     7
420
 16777215
176
     1
 90
        1
176
     1
 90
        0
176
     1
 62
     7
176
     1
 62
   257
176
     1
 90
        1
176
     1
 90
        1
176
     1
 40
1.0
176
     1
 90
        8
176
     1
 62
     7
176
     1
 40
1.0
176
     1
 90
        1
176
     1
 90
        6
176
     1
 90
        2
176
     1
 62
     7
176
     1
 90
        3
176
     1
 90
        0
176
     1
 90
        0
176
     1
290
     0
176
     1
 90
       13
176
     1
 40
0.0
176
     1
 90
        0
176
     1
290
     0
176
     1
290
     1
176
     1
290
     1
176
     1
290
     0
176
     1
290
     0
176
     1
290
     0
176
     1
290
     0
176
     1
290
     0
176
     1
290
     0
176
     1
 90
       50
176
     1
 40
0.0
176
     1
 40
1.0
176
     1
 90
        0
176
     1
 62
    18
420
        0
176
     1
 90
       50
176
     1
 90
        3
176
     1
 62
     5
420
      255
176
     1
290
     0
176
     1
 90
       50
176
     1
 90
       50
176
     1
 90
       50
176
     1
290
     0
176
     1
 90
       50
176
     1
 62
   256
176
     0
 40
1.0
176
     0
 90
        2
176
     1
  1
strokes_ogs.tif
176
     1
290
     0
176
     1
 40
1.0
176
     1
 40
1.0
176
     1
  0
DICTIONARYVAR
  5
53E
102
{ACAD_REACTORS
330
538
102
}
330
538
100
DictionaryVariables
280
     0
  1
1:1
  0
DICTIONARYVAR
  5
53A
102
{ACAD_REACTORS
330
538
102
}
330
538
100
DictionaryVariables
280
     0
  1
STANDARD
  0
DICTIONARYVAR
  5
539
102
{ACAD_REACTORS
330
538
102
}
330
538
100
DictionaryVariables
280
     0
  1
STANDARD
  0
DICTIONARYVAR
  5
53B
102
{ACAD_REACTORS
330
538
102
}
330
538
100
DictionaryVariables
280
     0
  1
Metric50
  0
DICTIONARYVAR
  5
53C
102
{ACAD_REACTORS
330
538
102
}
330
538
100
DictionaryVariables
280
     0
  1
Metric50
  0
DICTIONARYVAR
  5
540
102
{ACAD_REACTORS
330
538
102
}
330
538
100
DictionaryVariables
280
     0
  1
1
  0
DICTIONARYVAR
  5
541
102
{ACAD_REACTORS
330
538
102
}
330
538
100
DictionaryVariables
280
     0
  1
15
  0
DICTIONARYVAR
  5
53F
102
{ACAD_REACTORS
330
538
102
}
330
538
100
DictionaryVariables
280
     0
  1
0
  0
DICTIONARYVAR
  5
53D
102
{ACAD_REACTORS
330
538
102
}
330
538
100
DictionaryVariables
280
     0
  1
0
  0
DICTIONARY
  5
546
330
2BE
100
AcDbDictionary
280
     1
281
     1
  3
ACAD_XREC_ROUNDTRIP
360
547
  0
DICTIONARY
  5
28E
330
28D
100
AcDbDictionary
280
     1
281
     1
  3
BUMPTILE
360
290
  3
DIFFUSETILE
360
28F
  3
OPACITYTILE
360
293
  3
REFLECTIONTILE
360
292
  3
REFRACTIONTILE
360
294
  3
SPECULARTILE
360
291
  0
DICTIONARY
  5
286
330
285
100
AcDbDictionary
280
     1
281
     1
  3
BUMPTILE
360
288
  3
DIFFUSETILE
360
287
  3
OPACITYTILE
360
28B
  3
REFLECTIONTILE
360
28A
  3
REFRACTIONTILE
360
28C
  3
SPECULARTILE
360
289
  0
DICTIONARY
  5
296
330
295
100
AcDbDictionary
280
     1
281
     1
  3
BUMPTILE
360
298
  3
DIFFUSETILE
360
297
  3
OPACITYTILE
360
29B
  3
REFLECTIONTILE
360
29A
  3
REFRACTIONTILE
360
29C
  3
SPECULARTILE
360
299
  0
DICTIONARY
  5
544
330
2BC
100
AcDbDictionary
280
     1
281
     1
  3
ACAD_XREC_ROUNDTRIP
360
545
  0
DICTIONARY
  5
542
330
2B8
100
AcDbDictionary
280
     1
281
     1
  3
ACAD_ROUNDTRIP_2008_TABLESTYLE_CELLSTYLEMAP
360
543
  0
XRECORD
  5
547
102
{ACAD_REACTORS
330
546
102
}
330
546
100
AcDbXrecord
280
     1
102
DISPLAYNAME
  1
Metric50
102
FLAGS
 90
        0
  0
XRECORD
  5
290
102
{ACAD_REACTORS
330
28E
102
}
330
28E
100
AcDbXrecord
280
     1
270
     1
271
     1
  0
XRECORD
  5
28F
102
{ACAD_REACTORS
330
28E
102
}
330
28E
100
AcDbXrecord
280
     1
270
     1
271
     1
  0
XRECORD
  5
293
102
{ACAD_REACTORS
330
28E
102
}
330
28E
100
AcDbXrecord
280
     1
270
     1
271
     1
  0
XRECORD
  5
292
102
{ACAD_REACTORS
330
28E
102
}
330
28E
100
AcDbXrecord
280
     1
270
     1
271
     1
  0
XRECORD
  5
294
102
{ACAD_REACTORS
330
28E
102
}
330
28E
100
AcDbXrecord
280
     1
270
     1
271
     1
  0
XRECORD
  5
291
102
{ACAD_REACTORS
330
28E
102
}
330
28E
100
AcDbXrecord
280
     1
270
     1
271
     1
  0
XRECORD
  5
288
102
{ACAD_REACTORS
330
286
102
}
330
286
100
AcDbXrecord
280
     1
270
     1
271
     1
  0
XRECORD
  5
287
102
{ACAD_REACTORS
330
286
102
}
330
286
100
AcDbXrecord
280
     1
270
     1
271
     1
  0
XRECORD
  5
28B
102
{ACAD_REACTORS
330
286
102
}
330
286
100
AcDbXrecord
280
     1
270
     1
271
     1
  0
XRECORD
  5
28A
102
{ACAD_REACTORS
330
286
102
}
330
286
100
AcDbXrecord
280
     1
270
     1
271
     1
  0
XRECORD
  5
28C
102
{ACAD_REACTORS
330
286
102
}
330
286
100
AcDbXrecord
280
     1
270
     1
271
     1
  0
XRECORD
  5
289
102
{ACAD_REACTORS
330
286
102
}
330
286
100
AcDbXrecord
280
     1
270
     1
271
     1
  0
XRECORD
  5
298
102
{ACAD_REACTORS
330
296
102
}
330
296
100
AcDbXrecord
280
     1
270
     1
271
     1
  0
XRECORD
  5
297
102
{ACAD_REACTORS
330
296
102
}
330
296
100
AcDbXrecord
280
     1
270
     1
271
     1
  0
XRECORD
  5
29B
102
{ACAD_REACTORS
330
296
102
}
330
296
100
AcDbXrecord
280
     1
270
     1
271
     1
  0
XRECORD
  5
29A
102
{ACAD_REACTORS
330
296
102
}
330
296
100
AcDbXrecord
280
     1
270
     1
271
     1
  0
XRECORD
  5
29C
102
{ACAD_REACTORS
330
296
102
}
330
296
100
AcDbXrecord
280
     1
270
     1
271
     1
  0
XRECORD
  5
299
102
{ACAD_REACTORS
330
296
102
}
330
296
100
AcDbXrecord
280
     1
270
     1
271
     1
  0
XRECORD
  5
545
102
{ACAD_REACTORS
330
544
102
}
330
544
100
AcDbXrecord
280
     1
102
DISPLAYNAME
  1
Metric50
102
FLAGS
 90
        0
  0
CELLSTYLEMAP
  5
543
102
{ACAD_REACTORS
330
542
102
}
330
542
100
AcDbCellStyleMap
 90
        3
300
CELLSTYLE
  1
TABLEFORMAT_BEGIN
 90
        5
170
     1
 91
        0
 92
    32768
 62
   257
 93
        1
300
CONTENTFORMAT
  1
CONTENTFORMAT_BEGIN
 90
        0
 91
        0
 92
      512
 93
        0
300

 40
0.0
140
1.0
 94
        5
 62
     0
340
11
144
6.0
309
CONTENTFORMAT_END
171
     1
301
MARGIN
  1
CELLMARGIN_BEGIN
 40
1.5
 40
1.5
 40
1.5
 40
1.5
 40
4.5
 40
4.5
309
CELLMARGIN_END
 94
        6
 95
        1
302
GRIDFORMAT
  1
GRIDFORMAT_BEGIN
 90
        0
 91
        1
 62
     0
 92
       -2
340
0
 93
        0
 40
1.125
309
GRIDFORMAT_END
 95
        2
302
GRIDFORMAT
  1
GRIDFORMAT_BEGIN
 90
        0
 91
        1
 62
     0
 92
       -2
340
0
 93
        0
 40
1.125
309
GRIDFORMAT_END
 95
        4
302
GRIDFORMAT
  1
GRIDFORMAT_BEGIN
 90
        0
 91
        1
 62
     0
 92
       -2
340
0
 93
        0
 40
1.125
309
GRIDFORMAT_END
 95
        8
302
GRIDFORMAT
  1
GRIDFORMAT_BEGIN
 90
        0
 91
        1
 62
     0
 92
       -2
340
0
 93
        0
 40
1.125
309
GRIDFORMAT_END
 95
       16
302
GRIDFORMAT
  1
GRIDFORMAT_BEGIN
 90
        0
 91
        1
 62
     0
 92
       -2
340
0
 93
        0
 40
1.125
309
GRIDFORMAT_END
 95
       32
302
GRIDFORMAT
  1
GRIDFORMAT_BEGIN
 90
        0
 91
        1
 62
     0
 92
       -2
340
0
 93
        0
 40
1.125
309
GRIDFORMAT_END
309
TABLEFORMAT_END
  1
CELLSTYLE_BEGIN
 90
        1
 91
        1
300
_TITLE
309
CELLSTYLE_END
300
CELLSTYLE
  1
TABLEFORMAT_BEGIN
 90
        5
170
     1
 91
        0
 92
        0
 62
   257
 93
        1
300
CONTENTFORMAT
  1
CONTENTFORMAT_BEGIN
 90
        0
 91
        0
 92
      512
 93
        0
300

 40
0.0
140
1.0
 94
        5
 62
     0
340
11
144
4.5
309
CONTENTFORMAT_END
171
     1
301
MARGIN
  1
CELLMARGIN_BEGIN
 40
1.5
 40
1.5
 40
1.5
 40
1.5
 40
4.5
 40
4.5
309
CELLMARGIN_END
 94
        6
 95
        1
302
GRIDFORMAT
  1
GRIDFORMAT_BEGIN
 90
        0
 91
        1
 62
     0
 92
       -2
340
0
 93
        0
 40
1.125
309
GRIDFORMAT_END
 95
        2
302
GRIDFORMAT
  1
GRIDFORMAT_BEGIN
 90
        0
 91
        1
 62
     0
 92
       -2
340
0
 93
        0
 40
1.125
309
GRIDFORMAT_END
 95
        4
302
GRIDFORMAT
  1
GRIDFORMAT_BEGIN
 90
        0
 91
        1
 62
     0
 92
       -2
340
0
 93
        0
 40
1.125
309
GRIDFORMAT_END
 95
        8
302
GRIDFORMAT
  1
GRIDFORMAT_BEGIN
 90
        0
 91
        1
 62
     0
 92
       -2
340
0
 93
        0
 40
1.125
309
GRIDFORMAT_END
 95
       16
302
GRIDFORMAT
  1
GRIDFORMAT_BEGIN
 90
        0
 91
        1
 62
     0
 92
       -2
340
0
 93
        0
 40
1.125
309
GRIDFORMAT_END
 95
       32
302
GRIDFORMAT
  1
GRIDFORMAT_BEGIN
 90
        0
 91
        1
 62
     0
 92
       -2
340
0
 93
        0
 40
1.125
309
GRIDFORMAT_END
309
TABLEFORMAT_END
  1
CELLSTYLE_BEGIN
 90
        2
 91
        1
300
_HEADER
309
CELLSTYLE_END
300
CELLSTYLE
  1
TABLEFORMAT_BEGIN
 90
        5
170
     1
 91
        0
 92
        0
 62
   257
 93
        1
300
CONTENTFORMAT
  1
CONTENTFORMAT_BEGIN
 90
        0
 91
        0
 92
      512
 93
        0
300

 40
0.0
140
1.0
 94
        2
 62
     0
340
11
144
4.5
309
CONTENTFORMAT_END
171
     1
301
MARGIN
  1
CELLMARGIN_BEGIN
 40
1.5
 40
1.5
 40
1.5
 40
1.5
 40
4.5
 40
4.5
309
CELLMARGIN_END
 94
        6
 95
        1
302
GRIDFORMAT
  1
GRIDFORMAT_BEGIN
 90
        0
 91
        1
 62
     0
 92
       -2
340
0
 93
        0
 40
1.125
309
GRIDFORMAT_END
 95
        2
302
GRIDFORMAT
  1
GRIDFORMAT_BEGIN
 90
        0
 91
        1
 62
     0
 92
       -2
340
0
 93
        0
 40
1.125
309
GRIDFORMAT_END
 95
        4
302
GRIDFORMAT
  1
GRIDFORMAT_BEGIN
 90
        0
 91
        1
 62
     0
 92
       -2
340
0
 93
        0
 40
1.125
309
GRIDFORMAT_END
 95
        8
302
GRIDFORMAT
  1
GRIDFORMAT_BEGIN
 90
        0
 91
        1
 62
     0
 92
       -2
340
0
 93
        0
 40
1.125
309
GRIDFORMAT_END
 95
       16
302
GRIDFORMAT
  1
GRIDFORMAT_BEGIN
 90
        0
 91
        1
 62
     0
 92
       -2
340
0
 93
        0
 40
1.125
309
GRIDFORMAT_END
 95
       32
302
GRIDFORMAT
  1
GRIDFORMAT_BEGIN
 90
        0
 91
        1
 62
     0
 92
       -2
340
0
 93
        0
 40
1.125
309
GRIDFORMAT_END
309
TABLEFORMAT_END
  1
CELLSTYLE_BEGIN
 90
        3
 91
        2
300
_DATA
309
CELLSTYLE_END
  0
ENDSEC
  0
EOF
