  0
SECTION
  2
HEADER
  9
$ACADVER
  1
AC1024
  9
$ACADMAINTVER
 70
   155
  9
$DWGCODEPAGE
  3
ANSI_936
  9
$LASTSAVEDBY
  1
Administrator
  9
$INSBASE
 10
0.0
 20
0.0
 30
0.0
  9
$EXTMIN
 10
92.73550888871659
 20
88.23228822728209
 30
0.0
  9
$EXTMAX
 10
1347.646786790979
 20
1081.339723121924
 30
0.0
  9
$LIMMIN
 10
0.0
 20
0.0
  9
$LIMMAX
 10
420.0
 20
297.0
  9
$ORTHOMODE
 70
     1
  9
$REGENMODE
 70
     1
  9
$FILLMODE
 70
     1
  9
$QTEXTMODE
 70
     0
  9
$MIRRTEXT
 70
     0
  9
$LTSCALE
 40
1.0
  9
$ATTMODE
 70
     1
  9
$TEXTSIZE
 40
2.5
  9
$TRACEWID
 40
1.0
  9
$TEXTSTYLE
  7
Standard
  9
$CLAYER
  8
dimensions
  9
$CELTYPE
  6
ByLayer
  9
$CECOLOR
 62
   256
  9
$CELTSCALE
 40
1.0
  9
$DISPSILH
 70
     0
  9
$DIMSCALE
 40
1.0
  9
$DIMASZ
 40
8.0
  9
$DIMEXO
 40
2.5
  9
$DIMDLI
 40
3.75
  9
$DIMRND
 40
0.0
  9
$DIMDLE
 40
0.0
  9
$DIMEXE
 40
5.0
  9
$DIMTP
 40
0.0
  9
$DIMTM
 40
0.0
  9
$DIMTXT
 40
9.0
  9
$DIMCEN
 40
-0.09
  9
$DIMTSZ
 40
0.0
  9
$DIMTOL
 70
     0
  9
$DIMLIM
 70
     0
  9
$DIMTIH
 70
     0
  9
$DIMTOH
 70
     0
  9
$DIMSE1
 70
     0
  9
$DIMSE2
 70
     0
  9
$DIMTAD
 70
     1
  9
$DIMZIN
 70
     8
  9
$DIMBLK
  1

  9
$DIMASO
 70
     1
  9
$DIMSHO
 70
     1
  9
$DIMPOST
  1
 mm\X
  9
$DIMAPOST
  1
 "
  9
$DIMALT
 70
     1
  9
$DIMALTD
 70
     5
  9
$DIMALTF
 40
0.03937007874016
  9
$DIMLFAC
 40
1.0
  9
$DIMTOFL
 70
     1
  9
$DIMTVP
 40
0.0
  9
$DIMTIX
 70
     0
  9
$DIMSOXD
 70
     0
  9
$DIMSAH
 70
     0
  9
$DIMBLK1
  1

  9
$DIMBLK2
  1

  9
$DIMSTYLE
  2
dimensions
  9
$DIMCLRD
 70
   256
  9
$DIMCLRE
 70
   256
  9
$DIMCLRT
 70
   256
  9
$DIMTFAC
 40
1.0
  9
$DIMGAP
 40
2.5
  9
$DIMJUST
 70
     0
  9
$DIMSD1
 70
     0
  9
$DIMSD2
 70
     0
  9
$DIMTOLJ
 70
     0
  9
$DIMTZIN
 70
     8
  9
$DIMALTZ
 70
     0
  9
$DIMALTTZ
 70
     0
  9
$DIMUPT
 70
     0
  9
$DIMDEC
 70
     2
  9
$DIMTDEC
 70
     2
  9
$DIMALTU
 70
     7
  9
$DIMALTTD
 70
     5
  9
$DIMTXSTY
  7
Standard
  9
$DIMAUNIT
 70
     0
  9
$DIMADEC
 70
     0
  9
$DIMALTRND
 40
0.0
  9
$DIMAZIN
 70
     0
  9
$DIMDSEP
 70
    44
  9
$DIMATFIT
 70
     3
  9
$DIMFRAC
 70
     0
  9
$DIMLDRBLK
  1

  9
$DIMLUNIT
 70
     2
  9
$DIMLWD
 70
    -2
  9
$DIMLWE
 70
    -2
  9
$DIMTMOVE
 70
     0
  9
$DIMFXL
 40
1.0
  9
$DIMFXLON
 70
     0
  9
$DIMJOGANG
 40
0.7853981633974483
  9
$DIMTFILL
 70
     0
  9
$DIMTFILLCLR
 70
     0
  9
$DIMARCSYM
 70
     0
  9
$DIMLTYPE
  6

  9
$DIMLTEX1
  6

  9
$DIMLTEX2
  6

  9
$DIMTXTDIRECTION
 70
     0
  9
$LUNITS
 70
     2
  9
$LUPREC
 70
     4
  9
$SKETCHINC
 40
1.0
  9
$FILLETRAD
 40
0.0
  9
$AUNITS
 70
     0
  9
$AUPREC
 70
     0
  9
$MENU
  1
.
  9
$ELEVATION
 40
0.0
  9
$PELEVATION
 40
0.0
  9
$THICKNESS
 40
0.0
  9
$LIMCHECK
 70
     0
  9
$CHAMFERA
 40
0.0
  9
$CHAMFERB
 40
0.0
  9
$CHAMFERC
 40
0.0
  9
$CHAMFERD
 40
0.0
  9
$SKPOLY
 70
     0
  9
$TDCREATE
 40
2457578.486263484
  9
$TDUCREATE
 40
2457578.152930150
  9
$TDUPDATE
 40
2457582.555970567
  9
$TDUUPDATE
 40
2457582.222637234
  9
$TDINDWG
 40
0.0733876736
  9
$TDUSRTIMER
 40
0.0733876505
  9
$USRTIMER
 70
     1
  9
$ANGBASE
 50
0.0
  9
$ANGDIR
 70
     0
  9
$PDMODE
 70
     0
  9
$PDSIZE
 40
0.0
  9
$PLINEWID
 40
0.0
  9
$SPLFRAME
 70
     0
  9
$SPLINETYPE
 70
     6
  9
$SPLINESEGS
 70
     8
  9
$HANDSEED
  5
1143
  9
$SURFTAB1
 70
     6
  9
$SURFTAB2
 70
     6
  9
$SURFTYPE
 70
     6
  9
$SURFU
 70
     6
  9
$SURFV
 70
     6
  9
$UCSBASE
  2

  9
$UCSNAME
  2

  9
$UCSORG
 10
0.0
 20
0.0
 30
0.0
  9
$UCSXDIR
 10
1.0
 20
0.0
 30
0.0
  9
$UCSYDIR
 10
0.0
 20
1.0
 30
0.0
  9
$UCSORTHOREF
  2

  9
$UCSORTHOVIEW
 70
     0
  9
$UCSORGTOP
 10
0.0
 20
0.0
 30
0.0
  9
$UCSORGBOTTOM
 10
0.0
 20
0.0
 30
0.0
  9
$UCSORGLEFT
 10
0.0
 20
0.0
 30
0.0
  9
$UCSORGRIGHT
 10
0.0
 20
0.0
 30
0.0
  9
$UCSORGFRONT
 10
0.0
 20
0.0
 30
0.0
  9
$UCSORGBACK
 10
0.0
 20
0.0
 30
0.0
  9
$PUCSBASE
  2

  9
$PUCSNAME
  2

  9
$PUCSORG
 10
0.0
 20
0.0
 30
0.0
  9
$PUCSXDIR
 10
1.0
 20
0.0
 30
0.0
  9
$PUCSYDIR
 10
0.0
 20
1.0
 30
0.0
  9
$PUCSORTHOREF
  2

  9
$PUCSORTHOVIEW
 70
     0
  9
$PUCSORGTOP
 10
0.0
 20
0.0
 30
0.0
  9
$PUCSORGBOTTOM
 10
0.0
 20
0.0
 30
0.0
  9
$PUCSORGLEFT
 10
0.0
 20
0.0
 30
0.0
  9
$PUCSORGRIGHT
 10
0.0
 20
0.0
 30
0.0
  9
$PUCSORGFRONT
 10
0.0
 20
0.0
 30
0.0
  9
$PUCSORGBACK
 10
0.0
 20
0.0
 30
0.0
  9
$USERI1
 70
     0
  9
$USERI2
 70
     0
  9
$USERI3
 70
     0
  9
$USERI4
 70
     0
  9
$USERI5
 70
     0
  9
$USERR1
 40
0.0
  9
$USERR2
 40
0.0
  9
$USERR3
 40
0.0
  9
$USERR4
 40
0.0
  9
$USERR5
 40
0.0
  9
$WORLDVIEW
 70
     1
  9
$SHADEDGE
 70
     3
  9
$SHADEDIF
 70
    70
  9
$TILEMODE
 70
     1
  9
$MAXACTVP
 70
    64
  9
$PINSBASE
 10
0.0
 20
0.0
 30
0.0
  9
$PLIMCHECK
 70
     0
  9
$PEXTMIN
 10
0.0
 20
0.0
 30
0.0
  9
$PEXTMAX
 10
0.0
 20
0.0
 30
0.0
  9
$PLIMMIN
 10
0.0
 20
0.0
  9
$PLIMMAX
 10
12.0
 20
9.0
  9
$UNITMODE
 70
     0
  9
$VISRETAIN
 70
     1
  9
$PLINEGEN
 70
     0
  9
$PSLTSCALE
 70
     1
  9
$TREEDEPTH
 70
  3020
  9
$CMLSTYLE
  2
Standard
  9
$CMLJUST
 70
     0
  9
$CMLSCALE
 40
20.0
  9
$PROXYGRAPHICS
 70
     1
  9
$MEASUREMENT
 70
     1
  9
$CELWEIGHT
370
    -1
  9
$ENDCAPS
280
     0
  9
$JOINSTYLE
280
     0
  9
$LWDISPLAY
290
     0
  9
$INSUNITS
 70
     4
  9
$HYPERLINKBASE
  1

  9
$STYLESHEET
  1

  9
$XEDIT
290
     1
  9
$CEPSNTYPE
380
     0
  9
$PSTYLEMODE
290
     1
  9
$FINGERPRINTGUID
  2
{99D701DE-15BE-41AC-AF27-FA7FFA4958C5}
  9
$VERSIONGUID
  2
{8967BECA-26EB-4E6E-B90B-582102910DB8}
  9
$EXTNAMES
290
     1
  9
$PSVPSCALE
 40
0.0
  9
$OLESTARTUP
290
     0
  9
$SORTENTS
280
   127
  9
$INDEXCTL
280
     0
  9
$HIDETEXT
280
     1
  9
$XCLIPFRAME
280
     2
  9
$HALOGAP
280
     0
  9
$OBSCOLOR
 70
   257
  9
$OBSLTYPE
280
     0
  9
$INTERSECTIONDISPLAY
280
     0
  9
$INTERSECTIONCOLOR
 70
   257
  9
$DIMASSOC
280
     2
  9
$PROJECTNAME
  1

  9
$CAMERADISPLAY
290
     0
  9
$LENSLENGTH
 40
50.0
  9
$CAMERAHEIGHT
 40
0.0
  9
$STEPSPERSEC
 40
2.0
  9
$STEPSIZE
 40
6.0
  9
$3DDWFPREC
 40
2.0
  9
$PSOLWIDTH
 40
5.0
  9
$PSOLHEIGHT
 40
80.0
  9
$LOFTANG1
 40
1.570796326794896
  9
$LOFTANG2
 40
1.570796326794896
  9
$LOFTMAG1
 40
0.0
  9
$LOFTMAG2
 40
0.0
  9
$LOFTPARAM
 70
     7
  9
$LOFTNORMALS
280
     1
  9
$LATITUDE
 40
37.795
  9
$LONGITUDE
 40
-122.394
  9
$NORTHDIRECTION
 40
0.0
  9
$TIMEZONE
 70
 -8000
  9
$LIGHTGLYPHDISPLAY
280
     1
  9
$TILEMODELIGHTSYNCH
280
     1
  9
$CMATERIAL
347
EC
  9
$SOLIDHIST
280
     0
  9
$SHOWHIST
280
     1
  9
$DWFFRAME
280
     2
  9
$DGNFRAME
280
     0
  9
$REALWORLDSCALE
290
     1
  9
$INTERFERECOLOR
 62
     1
  9
$INTERFEREOBJVS
345
F9
  9
$INTERFEREVPVS
346
F6
  9
$CSHADOW
280
     0
  9
$SHADOWPLANELOCATION
 40
0.0
  0
ENDSEC
  0
SECTION
  2
CLASSES
  0
CLASS
  1
ACDBDICTIONARYWDFLT
  2
AcDbDictionaryWithDefault
  3
ObjectDBX Classes
 90
        0
 91
        1
280
     0
281
     0
  0
CLASS
  1
DICTIONARYVAR
  2
AcDbDictionaryVar
  3
ObjectDBX Classes
 90
        0
 91
        9
280
     0
281
     0
  0
CLASS
  1
TABLESTYLE
  2
AcDbTableStyle
  3
ObjectDBX Classes
 90
     4095
 91
        1
280
     0
281
     0
  0
CLASS
  1
MATERIAL
  2
AcDbMaterial
  3
ObjectDBX Classes
 90
     1153
 91
        3
280
     0
281
     0
  0
CLASS
  1
VISUALSTYLE
  2
AcDbVisualStyle
  3
ObjectDBX Classes
 90
     4095
 91
       24
280
     0
281
     0
  0
CLASS
  1
SCALE
  2
AcDbScale
  3
ObjectDBX Classes
 90
     1153
 91
       17
280
     0
281
     0
  0
CLASS
  1
MLEADERSTYLE
  2
AcDbMLeaderStyle
  3
ACDB_MLEADERSTYLE_CLASS
 90
     4095
 91
        3
280
     0
281
     0
  0
CLASS
  1
CELLSTYLEMAP
  2
AcDbCellStyleMap
  3
ObjectDBX Classes
 90
     1152
 91
        1
280
     0
281
     0
  0
CLASS
  1
EXACXREFPANELOBJECT
  2
ExAcXREFPanelObject
  3
EXAC_ESW
 90
     1025
 91
        0
280
     0
281
     0
  0
CLASS
  1
NPOCOLLECTION
  2
AcDbImpNonPersistentObjectsCollection
  3
ObjectDBX Classes
 90
     1153
 91
        0
280
     0
281
     0
  0
CLASS
  1
LAYER_INDEX
  2
AcDbLayerIndex
  3
ObjectDBX Classes
 90
        0
 91
        0
280
     0
281
     0
  0
CLASS
  1
SPATIAL_INDEX
  2
AcDbSpatialIndex
  3
ObjectDBX Classes
 90
        0
 91
        0
280
     0
281
     0
  0
CLASS
  1
IDBUFFER
  2
AcDbIdBuffer
  3
ObjectDBX Classes
 90
        0
 91
        0
280
     0
281
     0
  0
CLASS
  1
ACDBSECTIONVIEWSTYLE
  2
AcDbSectionViewStyle
  3
ObjectDBX Classes
 90
     1025
 91
        1
280
     0
281
     0
  0
CLASS
  1
ACDBDETAILVIEWSTYLE
  2
AcDbDetailViewStyle
  3
ObjectDBX Classes
 90
     1025
 91
        1
280
     0
281
     0
  0
CLASS
  1
MULTILEADER
  2
AcDbMLeader
  3
ACDB_MLEADER_CLASS
 90
     1025
 91
        3
280
     0
281
     1
  0
CLASS
  1
DIMASSOC
  2
AcDbDimAssoc
  3
"AcDbDimAssoc|Product Desc:     AcDim ARX App For Dimension|Company:          Autodesk, Inc.|WEB Address:      www.autodesk.com"
 90
        0
 91
        7
280
     0
281
     0
  0
CLASS
  1
SORTENTSTABLE
  2
AcDbSortentsTable
  3
ObjectDBX Classes
 90
        0
 91
        1
280
     0
281
     0
  0
ENDSEC
  0
SECTION
  2
TABLES
  0
TABLE
  2
VPORT
  5
8
330
0
100
AcDbSymbolTable
 70
     1
  0
VPORT
  5
EA
330
8
100
AcDbSymbolTableRecord
100
AcDbViewportTableRecord
  2
*Active
 70
     0
 10
0.0
 20
0.0
 11
1.0
 21
1.0
 12
876.6829518408556
 22
517.6799847797518
 13
0.0
 23
0.0
 14
10.0
 24
10.0
 15
10.0
 25
10.0
 16
0.0
 26
0.0
 36
1.0
 17
0.0
 27
0.0
 37
0.0
 40
1600.760762855287
 41
2.26231527093596
 42
50.0
 43
0.0
 44
0.0
 50
0.0
 51
0.0
 71
     0
 72
  1000
 73
     1
 74
     3
 75
     0
 76
     1
 77
     0
 78
     0
281
     0
 65
     1
110
0.0
120
0.0
130
0.0
111
1.0
121
0.0
131
0.0
112
0.0
122
1.0
132
0.0
 79
     0
146
0.0
348
F5
 60
     3
 61
     5
292
     1
282
     1
141
0.0
142
0.0
 63
   250
421
  3355443
1001
ACAD_NAV_VCDISPLAY
1070
     3
  0
ENDTAB
  0
TABLE
  2
LTYPE
  5
5
330
0
100
AcDbSymbolTable
 70
     7
  0
LTYPE
  5
14
330
5
100
AcDbSymbolTableRecord
100
AcDbLinetypeTableRecord
  2
ByBlock
 70
     0
  3

 72
    65
 73
     0
 40
0.0
  0
LTYPE
  5
15
330
5
100
AcDbSymbolTableRecord
100
AcDbLinetypeTableRecord
  2
ByLayer
 70
     0
  3

 72
    65
 73
     0
 40
0.0
  0
LTYPE
  5
16
330
5
100
AcDbSymbolTableRecord
100
AcDbLinetypeTableRecord
  2
Continuous
 70
     0
  3
Solid line
 72
    65
 73
     0
 40
0.0
  0
LTYPE
  5
2BB
330
5
100
AcDbSymbolTableRecord
100
AcDbLinetypeTableRecord
  2
ACAD_ISO08W100
 70
     0
  3
ISO long-dash short-dash ____ __ ____ __ ____ _
 72
    65
 73
     4
 40
36.0
 49
24.0
 74
     0
 49
-3.0
 74
     0
 49
6.0
 74
     0
 49
-3.0
 74
     0
  0
LTYPE
  5
2BC
330
5
100
AcDbSymbolTableRecord
100
AcDbLinetypeTableRecord
  2
New Line1
 70
     0
  3

 72
    65
 73
     2
 40
1.3
 49
0.6000000000000001
 74
     4
 75
     0
340
0
 46
1.0
 50
0.0
 44
0.0
 45
0.0
 49
-0.7000000000000001
 74
     4
 75
     0
340
0
 46
1.0
 50
0.0
 44
0.0
 45
0.0
  0
LTYPE
  5
6C4
330
5
100
AcDbSymbolTableRecord
100
AcDbLinetypeTableRecord
  2
HIDDENX2
 70
     0
  3
Hidden (2x) ____ ____ ____ ____ ____ ____ ____
 72
    65
 73
     2
 40
19.05
 49
12.7
 74
     0
 49
-6.349999999999997
 74
     0
  0
LTYPE
  5
6C5
330
5
100
AcDbSymbolTableRecord
100
AcDbLinetypeTableRecord
  2
HIDDEN
 70
     0
  3
Hidden __ __ __ __ __ __ __ __ __ __ __ __ __ __
 72
    65
 73
     2
 40
9.524999999999996
 49
6.349999999999997
 74
     0
 49
-3.174999999999998
 74
     0
  0
LTYPE
  5
6C6
330
5
100
AcDbSymbolTableRecord
100
AcDbLinetypeTableRecord
  2
HIDDEN2
 70
     0
  3
Hidden (.5x) _ _ _ _ _ _ _ _ _ _ _ _ _ _ _ _ _
 72
    65
 73
     2
 40
4.762499999999998
 49
3.174999999999998
 74
     0
 49
-1.587499999999999
 74
     0
  0
LTYPE
  5
8F1
330
5
100
AcDbSymbolTableRecord
100
AcDbLinetypeTableRecord
  2
ACAD_ISO04W100
 70
     0
  3
ISO long-dash dot ____ . ____ . ____ . ____ . _
 72
    65
 73
     4
 40
30.5
 49
24.0
 74
     0
 49
-3.0
 74
     0
 49
0.5
 74
     0
 49
-3.0
 74
     0
  0
ENDTAB
  0
TABLE
  2
LAYER
  5
2
102
{ACAD_XDICTIONARY
360
1FF
102
}
330
0
100
AcDbSymbolTable
 70
     5
  0
LAYER
  5
10
102
{ACAD_XDICTIONARY
360
13C
102
}
330
2
100
AcDbSymbolTableRecord
100
AcDbLayerTableRecord
  2
0
 70
     0
 62
     7
  6
Continuous
370
    -3
390
F
347
EE
  0
LAYER
  5
2BD
330
2
100
AcDbSymbolTableRecord
100
AcDbLayerTableRecord
  2
centerline
 70
     0
 62
    10
  6
Continuous
370
    -3
390
F
347
EE
1001
AcAecLayerStandard
1000

1000

1001
AcCmTransparency
1071
        0
  0
LAYER
  5
2BE
330
2
100
AcDbSymbolTableRecord
100
AcDbLayerTableRecord
  2
dimensions
 70
     0
 62
   210
  6
Continuous
370
    -3
390
F
347
EE
1001
AcAecLayerStandard
1000

1000

1001
AcCmTransparency
1071
        0
  0
LAYER
  5
2BF
330
2
100
AcDbSymbolTableRecord
100
AcDbLayerTableRecord
  2
note
 70
     0
 62
     2
  6
Continuous
370
    -3
390
F
347
EE
1001
AcAecLayerStandard
1000

1000

1001
AcCmTransparency
1071
        0
  0
LAYER
  5
2C0
330
2
100
AcDbSymbolTableRecord
100
AcDbLayerTableRecord
  2
Defpoints
 70
     0
 62
     7
  6
Continuous
290
     0
370
    -3
390
F
347
EE
  0
ENDTAB
  0
TABLE
  2
STYLE
  5
3
330
0
100
AcDbSymbolTable
 70
     2
  0
STYLE
  5
11
330
3
100
AcDbSymbolTableRecord
100
AcDbTextStyleTableRecord
  2
Standard
 70
     0
 40
0.0
 41
1.0
 50
0.0
 71
     0
 42
2.5
  3
arial.ttf
  4

1001
ACAD
1000
Arial
1071
       34
  0
STYLE
  5
132
330
3
100
AcDbSymbolTableRecord
100
AcDbTextStyleTableRecord
  2
Annotative
 70
     0
 40
0.0
 41
1.0
 50
0.0
 71
     0
 42
2.5
  3
arial.ttf
  4

1001
AcadAnnotative
1000
AnnotativeData
1002
{
1070
     1
1070
     1
1002
}
1001
ACAD
1000
Arial
1071
       34
  0
ENDTAB
  0
TABLE
  2
VIEW
  5
6
330
0
100
AcDbSymbolTable
 70
     0
  0
ENDTAB
  0
TABLE
  2
UCS
  5
7
330
0
100
AcDbSymbolTable
 70
     0
  0
ENDTAB
  0
TABLE
  2
APPID
  5
9
330
0
100
AcDbSymbolTable
 70
    15
  0
APPID
  5
12
330
9
100
AcDbSymbolTableRecord
100
AcDbRegAppTableRecord
  2
ACAD
 70
     0
  0
APPID
  5
9E
330
9
100
AcDbSymbolTableRecord
100
AcDbRegAppTableRecord
  2
ACAD_PSEXT
 70
     0
  0
APPID
  5
133
330
9
100
AcDbSymbolTableRecord
100
AcDbRegAppTableRecord
  2
AcadAnnoPO
 70
     0
  0
APPID
  5
134
330
9
100
AcDbSymbolTableRecord
100
AcDbRegAppTableRecord
  2
AcadAnnotative
 70
     0
  0
APPID
  5
135
330
9
100
AcDbSymbolTableRecord
100
AcDbRegAppTableRecord
  2
ACAD_DSTYLE_DIMJAG
 70
     0
  0
APPID
  5
136
330
9
100
AcDbSymbolTableRecord
100
AcDbRegAppTableRecord
  2
ACAD_DSTYLE_DIMTALN
 70
     0
  0
APPID
  5
165
330
9
100
AcDbSymbolTableRecord
100
AcDbRegAppTableRecord
  2
ACAD_MLEADERVER
 70
     0
  0
APPID
  5
217
330
9
100
AcDbSymbolTableRecord
100
AcDbRegAppTableRecord
  2
ACAD_NAV_VCDISPLAY
 70
     0
  0
APPID
  5
2C2
330
9
100
AcDbSymbolTableRecord
100
AcDbRegAppTableRecord
  2
AcAecLayerStandard
 70
     0
  0
APPID
  5
2C3
330
9
100
AcDbSymbolTableRecord
100
AcDbRegAppTableRecord
  2
AcCmTransparency
 70
     0
  0
APPID
  5
2C4
330
9
100
AcDbSymbolTableRecord
100
AcDbRegAppTableRecord
  2
ACAD_DSTYLE_DIMBREAK
 70
     0
  0
APPID
  5
2C5
330
9
100
AcDbSymbolTableRecord
100
AcDbRegAppTableRecord
  2
GradientColor1ACI
 70
     0
  0
APPID
  5
2C6
330
9
100
AcDbSymbolTableRecord
100
AcDbRegAppTableRecord
  2
GradientColor2ACI
 70
     0
  0
APPID
  5
69D
330
9
100
AcDbSymbolTableRecord
100
AcDbRegAppTableRecord
  2
ACAD_EXEMPT_FROM_CAD_STANDARDS
 70
     0
  0
APPID
  5
D16
330
9
100
AcDbSymbolTableRecord
100
AcDbRegAppTableRecord
  2
ACAD_DSTYLE_DIMRADIAL_EXTENSION
 70
     0
  0
ENDTAB
  0
TABLE
  2
DIMSTYLE
  5
A
330
0
100
AcDbSymbolTable
 70
     4
100
AcDbDimStyleTable
 71
     4
340
2C1
340
1B0
340
27
340
137
  0
DIMSTYLE
105
1B0
330
A
100
AcDbSymbolTableRecord
100
AcDbDimStyleTableRecord
  2
Standard
 70
     0
340
11
  0
DIMSTYLE
105
137
330
A
100
AcDbSymbolTableRecord
100
AcDbDimStyleTableRecord
  2
Annotative
 70
     0
 40
0.0
 41
2.5
 42
0.625
 43
3.75
 44
1.25
 73
     0
 74
     0
 77
     1
 78
     8
140
2.5
141
2.5
143
0.03937007874016
147
0.625
171
     3
172
     1
271
     2
272
     2
274
     3
278
    44
283
     0
284
     8
340
11
1001
AcadAnnotative
1000
AnnotativeData
1002
{
1070
     1
1070
     1
1002
}
1001
ACAD_DSTYLE_DIMJAG
1070
   388
1040
1.5
1001
ACAD_DSTYLE_DIMTALN
1070
   392
1070
     0
  0
DIMSTYLE
105
27
330
A
100
AcDbSymbolTableRecord
100
AcDbDimStyleTableRecord
  2
ISO-25
 70
     0
 41
2.5
 42
0.625
 43
3.75
 44
1.25
 73
     0
 74
     0
 77
     1
 78
     8
140
2.5
141
2.5
143
0.03937007874016
147
0.625
171
     3
172
     1
271
     2
272
     2
274
     3
278
    44
283
     0
284
     8
340
11
  0
DIMSTYLE
105
2C1
102
{ACAD_REACTORS
330
F52
330
F6E
330
F8A
330
FA6
330
FC0
330
FDA
330
1070
102
}
330
A
100
AcDbSymbolTableRecord
100
AcDbDimStyleTableRecord
  2
dimensions
 70
     0
  3
 mm\X
  4
 "
 41
8.0
 42
2.5
 43
3.75
 44
5.0
 73
     0
 74
     0
 77
     1
 78
     8
140
9.0
141
-0.09
143
0.03937007874016
147
2.5
170
     1
171
     5
172
     1
176
   256
177
   256
178
   256
271
     2
272
     2
273
     7
274
     5
278
    44
283
     0
284
     8
340
11
1001
ACAD_DSTYLE_DIMBREAK
1070
   391
1040
3.75
1001
ACAD_DSTYLE_DIMJAG
1070
   388
1040
2.5
1001
ACAD_DSTYLE_DIMTALN
1070
   392
1070
     0
  0
ENDTAB
  0
TABLE
  2
BLOCK_RECORD
  5
1
330
0
100
AcDbSymbolTable
 70
     8
  0
BLOCK_RECORD
  5
1F
102
{ACAD_XDICTIONARY
360
1CE
102
}
330
1
100
AcDbSymbolTableRecord
100
AcDbBlockTableRecord
  2
*Model_Space
340
22
 70
     0
280
     1
281
     0
  0
BLOCK_RECORD
  5
D2
330
1
100
AcDbSymbolTableRecord
100
AcDbBlockTableRecord
  2
*Paper_Space
340
D3
 70
     0
280
     1
281
     0
  0
BLOCK_RECORD
  5
D6
330
1
100
AcDbSymbolTableRecord
100
AcDbBlockTableRecord
  2
*Paper_Space0
340
D7
 70
     0
280
     1
281
     0
  0
BLOCK_RECORD
  5
F53
330
1
100
AcDbSymbolTableRecord
100
AcDbBlockTableRecord
  2
*D1
340
0
 70
     0
280
     1
281
     0
  0
BLOCK_RECORD
  5
F6F
330
1
100
AcDbSymbolTableRecord
100
AcDbBlockTableRecord
  2
*D2
340
0
 70
     0
280
     1
281
     0
  0
BLOCK_RECORD
  5
F8B
330
1
100
AcDbSymbolTableRecord
100
AcDbBlockTableRecord
  2
*D3
340
0
 70
     0
280
     1
281
     0
  0
BLOCK_RECORD
  5
FA7
330
1
100
AcDbSymbolTableRecord
100
AcDbBlockTableRecord
  2
*D4
340
0
 70
     0
280
     1
281
     0
  0
BLOCK_RECORD
  5
FC1
330
1
100
AcDbSymbolTableRecord
100
AcDbBlockTableRecord
  2
*D5
340
0
 70
     0
280
     1
281
     0
  0
BLOCK_RECORD
  5
FDB
330
1
100
AcDbSymbolTableRecord
100
AcDbBlockTableRecord
  2
*D6
340
0
 70
     0
280
     1
281
     0
  0
BLOCK_RECORD
  5
1071
330
1
100
AcDbSymbolTableRecord
100
AcDbBlockTableRecord
  2
*D7
340
0
 70
     0
280
     1
281
     0
  0
ENDTAB
  0
ENDSEC
  0
SECTION
  2
BLOCKS
  0
BLOCK
  5
20
330
1F
100
AcDbEntity
  8
0
100
AcDbBlockBegin
  2
*Model_Space
 70
     0
 10
0.0
 20
0.0
 30
0.0
  3
*Model_Space
  1

  0
ENDBLK
  5
21
330
1F
100
AcDbEntity
  8
0
100
AcDbBlockEnd
  0
BLOCK
  5
D4
330
D2
100
AcDbEntity
 67
     1
  8
0
100
AcDbBlockBegin
  2
*Paper_Space
 70
     0
 10
0.0
 20
0.0
 30
0.0
  3
*Paper_Space
  1

  0
ENDBLK
  5
D5
330
D2
100
AcDbEntity
 67
     1
  8
0
100
AcDbBlockEnd
  0
BLOCK
  5
D8
330
D6
100
AcDbEntity
 67
     1
  8
0
100
AcDbBlockBegin
  2
*Paper_Space0
 70
     0
 10
0.0
 20
0.0
 30
0.0
  3
*Paper_Space0
  1

  0
ENDBLK
  5
D9
330
D6
100
AcDbEntity
 67
     1
  8
0
100
AcDbBlockEnd
  0
BLOCK
  5
F54
330
F53
100
AcDbEntity
  8
0
100
AcDbBlockBegin
  2
*D1
 70
     1
 10
0.0
 20
0.0
 30
0.0
  3
*D1
  1

  0
LINE
  5
10A6
330
F53
100
AcDbEntity
  8
dimensions
440
 16777216
370
    -2
100
AcDbLine
 10
301.4887198349861
 20
893.3379571850503
 30
0.0
 11
227.1964686708526
 21
893.3379571850505
 31
0.0
  0
LINE
  5
10A7
330
F53
100
AcDbEntity
  8
dimensions
440
 16777216
370
    -2
100
AcDbLine
 10
294.6887198349859
 20
423.1814155482784
 30
0.0
 11
227.1964686708525
 21
423.1814155482784
 31
0.0
  0
LINE
  5
10A8
330
F53
100
AcDbEntity
  8
dimensions
440
 16777216
370
    -2
100
AcDbLine
 10
232.1964686708526
 20
885.3379571850505
 30
0.0
 11
232.1964686708525
 21
431.1814155482784
 31
0.0
  0
SOLID
  5
10A9
330
F53
100
AcDbEntity
  8
dimensions
440
 16777216
100
AcDbTrace
 10
230.8631353375193
 20
885.3379571850505
 30
0.0
 11
233.529802004186
 21
885.3379571850505
 31
0.0
 12
232.1964686708526
 22
893.3379571850505
 32
0.0
 13
232.1964686708526
 23
893.3379571850505
 33
0.0
  0
SOLID
  5
10AA
330
F53
100
AcDbEntity
  8
dimensions
440
 16777216
100
AcDbTrace
 10
230.8631353375191
 20
431.1814155482784
 30
0.0
 11
233.5298020041858
 21
431.1814155482784
 31
0.0
 12
232.1964686708525
 22
423.1814155482784
 32
0.0
 13
232.1964686708525
 23
423.1814155482784
 33
0.0
  0
MTEXT
  5
10AB
330
F53
100
AcDbEntity
  8
dimensions
440
 16777216
100
AcDbMText
 10
224.287873855027
 20
658.2596863666644
 30
0.0
 40
9.0
 41
0.0
 46
0.0
 71
     5
 72
     1
  1
470,16 mm
 11
0.0000000000000001
 21
1.0
 31
0.0
 73
     1
 44
1.0
  0
MTEXT
  5
10AC
330
F53
100
AcDbEntity
  8
dimensions
440
 16777216
100
AcDbMText
 10
240.5225259696246
 20
658.2596863666644
 30
0.0
 40
9.0
 41
0.0
 46
0.0
 71
     5
 72
     1
  1
[18 1/2 "]
 11
0.0000000000000001
 21
1.0
 31
0.0
 73
     1
 44
1.0
  0
POINT
  5
10AD
330
F53
100
AcDbEntity
  8
Defpoints
 62
     0
440
 16777216
100
AcDbPoint
 10
303.9887198349861
 20
893.3379571850503
 30
0.0
  0
POINT
  5
10AE
330
F53
100
AcDbEntity
  8
Defpoints
 62
     0
440
 16777216
100
AcDbPoint
 10
297.1887198349859
 20
423.1814155482784
 30
0.0
  0
POINT
  5
10AF
330
F53
100
AcDbEntity
  8
Defpoints
 62
     0
440
 16777216
100
AcDbPoint
 10
232.1964686708525
 20
423.1814155482784
 30
0.0
  0
ENDBLK
  5
F55
330
F53
100
AcDbEntity
  8
0
100
AcDbBlockEnd
  0
BLOCK
  5
F70
330
F6F
100
AcDbEntity
  8
0
100
AcDbBlockBegin
  2
*D2
 70
     1
 10
0.0
 20
0.0
 30
0.0
  3
*D2
  1

  0
LINE
  5
10B0
330
F6F
100
AcDbEntity
  8
dimensions
440
 16777216
370
    -2
100
AcDbLine
 10
291.4887198349861
 20
423.4471488941903
 30
0.0
 11
170.3905199621732
 21
423.4471488941903
 31
0.0
  0
LINE
  5
10B1
330
F6F
100
AcDbEntity
  8
dimensions
440
 16777216
370
    -2
100
AcDbLine
 10
301.4887198349861
 20
896.5379571850503
 30
0.0
 11
170.3905199621733
 21
896.5379571850505
 31
0.0
  0
LINE
  5
10B2
330
F6F
100
AcDbEntity
  8
dimensions
440
 16777216
370
    -2
100
AcDbLine
 10
175.3905199621732
 20
431.4471488941904
 30
0.0
 11
175.3905199621733
 21
888.5379571850505
 31
0.0
  0
SOLID
  5
10B3
330
F6F
100
AcDbEntity
  8
dimensions
440
 16777216
100
AcDbTrace
 10
174.0571866288398
 20
431.4471488941904
 30
0.0
 11
176.7238532955065
 21
431.4471488941904
 31
0.0
 12
175.3905199621732
 22
423.4471488941903
 32
0.0
 13
175.3905199621732
 23
423.4471488941903
 33
0.0
  0
SOLID
  5
10B4
330
F6F
100
AcDbEntity
  8
dimensions
440
 16777216
100
AcDbTrace
 10
174.0571866288399
 20
888.5379571850505
 30
0.0
 11
176.7238532955066
 21
888.5379571850505
 31
0.0
 12
175.3905199621733
 22
896.5379571850505
 32
0.0
 13
175.3905199621733
 23
896.5379571850505
 33
0.0
  0
MTEXT
  5
10B5
330
F6F
100
AcDbEntity
  8
dimensions
440
 16777216
100
AcDbMText
 10
175.3905199621731
 20
659.9925530396204
 30
0.0
 40
9.0
 41
0.0
 46
0.0
 71
     5
 72
     1
  1
473,09 mm\P [18 5/8 "]
 11
0.0000000000000001
 21
1.0
 31
0.0
 73
     1
 44
1.0
  0
POINT
  5
10B6
330
F6F
100
AcDbEntity
  8
Defpoints
 62
     0
440
 16777216
100
AcDbPoint
 10
293.9887198349861
 20
423.4471488941903
 30
0.0
  0
POINT
  5
10B7
330
F6F
100
AcDbEntity
  8
Defpoints
 62
     0
440
 16777216
100
AcDbPoint
 10
303.9887198349861
 20
896.5379571850503
 30
0.0
  0
POINT
  5
10B8
330
F6F
100
AcDbEntity
  8
Defpoints
 62
     0
440
 16777216
100
AcDbPoint
 10
175.3905199621733
 20
896.5379571850505
 30
0.0
  0
ENDBLK
  5
F71
330
F6F
100
AcDbEntity
  8
0
100
AcDbBlockEnd
  0
BLOCK
  5
F8C
330
F8B
100
AcDbEntity
  8
0
100
AcDbBlockBegin
  2
*D3
 70
     1
 10
0.0
 20
0.0
 30
0.0
  3
*D3
  1

  0
LINE
  5
10B9
330
F8B
100
AcDbEntity
  8
dimensions
440
 16777216
370
    -2
100
AcDbLine
 10
281.8887198349857
 20
424.257892114665
 30
0.0
 11
112.8029727697503
 21
424.2578921146651
 31
0.0
  0
LINE
  5
10BA
330
F8B
100
AcDbEntity
  8
dimensions
440
 16777216
370
    -2
100
AcDbLine
 10
301.4887198349859
 20
906.1379571850505
 30
0.0
 11
112.8029727697505
 21
906.1379571850507
 31
0.0
  0
LINE
  5
10BB
330
F8B
100
AcDbEntity
  8
dimensions
440
 16777216
370
    -2
100
AcDbLine
 10
117.8029727697504
 20
432.2578921146651
 30
0.0
 11
117.8029727697505
 21
898.1379571850506
 31
0.0
  0
SOLID
  5
10BC
330
F8B
100
AcDbEntity
  8
dimensions
440
 16777216
100
AcDbTrace
 10
116.469639436417
 20
432.2578921146651
 30
0.0
 11
119.1363061030837
 21
432.2578921146651
 31
0.0
 12
117.8029727697504
 22
424.2578921146651
 32
0.0
 13
117.8029727697504
 23
424.2578921146651
 33
0.0
  0
SOLID
  5
10BD
330
F8B
100
AcDbEntity
  8
dimensions
440
 16777216
100
AcDbTrace
 10
116.4696394364171
 20
898.1379571850506
 30
0.0
 11
119.1363061030838
 21
898.1379571850506
 31
0.0
 12
117.8029727697505
 22
906.1379571850507
 32
0.0
 13
117.8029727697505
 23
906.1379571850507
 33
0.0
  0
MTEXT
  5
10BE
330
F8B
100
AcDbEntity
  8
dimensions
440
 16777216
100
AcDbMText
 10
117.8029727697503
 20
665.1979246498578
 30
0.0
 40
9.0
 41
0.0
 46
0.0
 71
     5
 72
     1
  1
481,88 mm\P [18 31/32 "]
 11
0.0000000000000001
 21
1.0
 31
0.0
 73
     1
 44
1.0
  0
POINT
  5
10BF
330
F8B
100
AcDbEntity
  8
Defpoints
 62
     0
440
 16777216
100
AcDbPoint
 10
284.3887198349857
 20
424.257892114665
 30
0.0
  0
POINT
  5
10C0
330
F8B
100
AcDbEntity
  8
Defpoints
 62
     0
440
 16777216
100
AcDbPoint
 10
303.9887198349859
 20
906.1379571850505
 30
0.0
  0
POINT
  5
10C1
330
F8B
100
AcDbEntity
  8
Defpoints
 62
     0
440
 16777216
100
AcDbPoint
 10
117.8029727697505
 20
906.1379571850507
 30
0.0
  0
ENDBLK
  5
F8D
330
F8B
100
AcDbEntity
  8
0
100
AcDbBlockEnd
  0
BLOCK
  5
FA8
330
FA7
100
AcDbEntity
  8
0
100
AcDbBlockBegin
  2
*D4
 70
     1
 10
0.0
 20
0.0
 30
0.0
  3
*D4
  1

  0
LINE
  5
10C2
330
FA7
100
AcDbEntity
  8
dimensions
440
 16777216
370
    -2
100
AcDbLine
 10
297.1887198349859
 20
889.0379571850504
 30
0.0
 11
297.1887198349859
 21
982.9314911701185
 31
0.0
  0
LINE
  5
10C3
330
FA7
100
AcDbEntity
  8
dimensions
440
 16777216
370
    -2
100
AcDbLine
 10
1052.793719835005
 20
889.0379571850507
 30
0.0
 11
1052.793719835005
 21
982.9314911701185
 31
0.0
  0
LINE
  5
10C4
330
FA7
100
AcDbEntity
  8
dimensions
440
 16777216
370
    -2
100
AcDbLine
 10
305.1887198349859
 20
977.9314911701185
 30
0.0
 11
1044.793719835005
 21
977.9314911701185
 31
0.0
  0
SOLID
  5
10C5
330
FA7
100
AcDbEntity
  8
dimensions
440
 16777216
100
AcDbTrace
 10
305.1887198349859
 20
979.2648245034518
 30
0.0
 11
305.1887198349859
 21
976.5981578367851
 31
0.0
 12
297.1887198349859
 22
977.9314911701185
 32
0.0
 13
297.1887198349859
 23
977.9314911701185
 33
0.0
  0
SOLID
  5
10C6
330
FA7
100
AcDbEntity
  8
dimensions
440
 16777216
100
AcDbTrace
 10
1044.793719835005
 20
979.2648245034518
 30
0.0
 11
1044.793719835005
 21
976.5981578367851
 31
0.0
 12
1052.793719835005
 22
977.9314911701185
 32
0.0
 13
1052.793719835005
 23
977.9314911701185
 33
0.0
  0
MTEXT
  5
10C7
330
FA7
100
AcDbEntity
  8
dimensions
440
 16777216
100
AcDbMText
 10
674.9912198349957
 20
985.840085985944
 30
0.0
 40
9.0
 41
0.0
 46
0.0
 71
     5
 72
     1
  1
755,61 mm
 73
     1
 44
1.0
  0
MTEXT
  5
10C8
330
FA7
100
AcDbEntity
  8
dimensions
440
 16777216
100
AcDbMText
 10
674.9912198349957
 20
969.6054338713464
 30
0.0
 40
9.0
 41
0.0
 46
0.0
 71
     5
 72
     1
  1
[29 3/4 "]
 73
     1
 44
1.0
  0
POINT
  5
10C9
330
FA7
100
AcDbEntity
  8
Defpoints
 62
     0
440
 16777216
100
AcDbPoint
 10
297.1887198349859
 20
886.5379571850503
 30
0.0
  0
POINT
  5
10CA
330
FA7
100
AcDbEntity
  8
Defpoints
 62
     0
440
 16777216
100
AcDbPoint
 10
1052.793719835005
 20
886.5379571850509
 30
0.0
  0
POINT
  5
10CB
330
FA7
100
AcDbEntity
  8
Defpoints
 62
     0
440
 16777216
100
AcDbPoint
 10
1052.793719835005
 20
977.9314911701185
 30
0.0
  0
ENDBLK
  5
FA9
330
FA7
100
AcDbEntity
  8
0
100
AcDbBlockEnd
  0
BLOCK
  5
FC2
330
FC1
100
AcDbEntity
  8
0
100
AcDbBlockBegin
  2
*D5
 70
     1
 10
0.0
 20
0.0
 30
0.0
  3
*D5
  1

  0
LINE
  5
10CC
330
FC1
100
AcDbEntity
  8
dimensions
440
 16777216
370
    -2
100
AcDbLine
 10
293.9887198349861
 20
889.0379571850504
 30
0.0
 11
293.9887198349861
 21
1027.563441853138
 31
0.0
  0
LINE
  5
10CD
330
FC1
100
AcDbEntity
  8
dimensions
440
 16777216
370
    -2
100
AcDbLine
 10
1055.993719835005
 20
889.0379571850502
 30
0.0
 11
1055.993719835005
 21
1027.563441853138
 31
0.0
  0
LINE
  5
10CE
330
FC1
100
AcDbEntity
  8
dimensions
440
 16777216
370
    -2
100
AcDbLine
 10
301.9887198349861
 20
1022.563441853138
 30
0.0
 11
1047.993719835005
 21
1022.563441853138
 31
0.0
  0
SOLID
  5
10CF
330
FC1
100
AcDbEntity
  8
dimensions
440
 16777216
100
AcDbTrace
 10
301.9887198349861
 20
1023.896775186471
 30
0.0
 11
301.9887198349861
 21
1021.230108519805
 31
0.0
 12
293.9887198349861
 22
1022.563441853138
 32
0.0
 13
293.9887198349861
 23
1022.563441853138
 33
0.0
  0
SOLID
  5
10D0
330
FC1
100
AcDbEntity
  8
dimensions
440
 16777216
100
AcDbTrace
 10
1047.993719835005
 20
1023.896775186471
 30
0.0
 11
1047.993719835005
 21
1021.230108519805
 31
0.0
 12
1055.993719835005
 22
1022.563441853138
 32
0.0
 13
1055.993719835005
 23
1022.563441853138
 33
0.0
  0
MTEXT
  5
10D1
330
FC1
100
AcDbEntity
  8
dimensions
440
 16777216
100
AcDbMText
 10
674.9912198349957
 20
1030.472036668963
 30
0.0
 40
9.0
 41
0.0
 46
0.0
 71
     5
 72
     1
  1
762,01 mm
 73
     1
 44
1.0
  0
MTEXT
  5
10D2
330
FC1
100
AcDbEntity
  8
dimensions
440
 16777216
100
AcDbMText
 10
674.9912198349957
 20
1014.295706518895
 30
0.0
 40
9.0
 41
0.0
 46
0.0
 71
     5
 72
     1
  1
[30 "]
 73
     1
 44
1.0
  0
POINT
  5
10D3
330
FC1
100
AcDbEntity
  8
Defpoints
 62
     0
440
 16777216
100
AcDbPoint
 10
293.9887198349861
 20
886.5379571850503
 30
0.0
  0
POINT
  5
10D4
330
FC1
100
AcDbEntity
  8
Defpoints
 62
     0
440
 16777216
100
AcDbPoint
 10
1055.993719835005
 20
886.5379571850501
 30
0.0
  0
POINT
  5
10D5
330
FC1
100
AcDbEntity
  8
Defpoints
 62
     0
440
 16777216
100
AcDbPoint
 10
1055.993719835005
 20
1022.563441853138
 30
0.0
  0
ENDBLK
  5
FC3
330
FC1
100
AcDbEntity
  8
0
100
AcDbBlockEnd
  0
BLOCK
  5
FDC
330
FDB
100
AcDbEntity
  8
0
100
AcDbBlockBegin
  2
*D6
 70
     1
 10
0.0
 20
0.0
 30
0.0
  3
*D6
  1

  0
LINE
  5
10D6
330
FDB
100
AcDbEntity
  8
dimensions
440
 16777216
370
    -2
100
AcDbLine
 10
284.3887198349857
 20
889.0379571850504
 30
0.0
 11
284.3887198349857
 21
1070.677376600778
 31
0.0
  0
LINE
  5
10D7
330
FDB
100
AcDbEntity
  8
dimensions
440
 16777216
370
    -2
100
AcDbLine
 10
1065.593719835005
 20
889.0379571850504
 30
0.0
 11
1065.593719835005
 21
1070.677376600778
 31
0.0
  0
LINE
  5
10D8
330
FDB
100
AcDbEntity
  8
dimensions
440
 16777216
370
    -2
100
AcDbLine
 10
292.3887198349857
 20
1065.677376600778
 30
0.0
 11
1057.593719835005
 21
1065.677376600778
 31
0.0
  0
SOLID
  5
10D9
330
FDB
100
AcDbEntity
  8
dimensions
440
 16777216
100
AcDbTrace
 10
292.3887198349857
 20
1067.010709934111
 30
0.0
 11
292.3887198349857
 21
1064.344043267445
 31
0.0
 12
284.3887198349857
 22
1065.677376600778
 32
0.0
 13
284.3887198349857
 23
1065.677376600778
 33
0.0
  0
SOLID
  5
10DA
330
FDB
100
AcDbEntity
  8
dimensions
440
 16777216
100
AcDbTrace
 10
1057.593719835005
 20
1067.010709934111
 30
0.0
 11
1057.593719835005
 21
1064.344043267445
 31
0.0
 12
1065.593719835005
 22
1065.677376600778
 32
0.0
 13
1065.593719835005
 23
1065.677376600778
 33
0.0
  0
MTEXT
  5
10DB
330
FDB
100
AcDbEntity
  8
dimensions
440
 16777216
100
AcDbMText
 10
674.9912198349955
 20
1073.585971416603
 30
0.0
 40
9.0
 41
0.0
 46
0.0
 71
     5
 72
     1
  1
781,21 mm
 73
     1
 44
1.0
  0
MTEXT
  5
10DC
330
FDB
100
AcDbEntity
  8
dimensions
440
 16777216
100
AcDbMText
 10
674.9912198349955
 20
1057.351319302006
 30
0.0
 40
9.0
 41
0.0
 46
0.0
 71
     5
 72
     1
  1
[30 3/4 "]
 73
     1
 44
1.0
  0
POINT
  5
10DD
330
FDB
100
AcDbEntity
  8
Defpoints
 62
     0
440
 16777216
100
AcDbPoint
 10
284.3887198349857
 20
886.5379571850503
 30
0.0
  0
POINT
  5
10DE
330
FDB
100
AcDbEntity
  8
Defpoints
 62
     0
440
 16777216
100
AcDbPoint
 10
1065.593719835005
 20
886.5379571850503
 30
0.0
  0
POINT
  5
10DF
330
FDB
100
AcDbEntity
  8
Defpoints
 62
     0
440
 16777216
100
AcDbPoint
 10
1065.593719835005
 20
1065.677376600778
 30
0.0
  0
ENDBLK
  5
FDD
330
FDB
100
AcDbEntity
  8
0
100
AcDbBlockEnd
  0
BLOCK
  5
1072
330
1071
100
AcDbEntity
  8
0
100
AcDbBlockBegin
  2
*D7
 70
     1
 10
0.0
 20
0.0
 30
0.0
  3
*D7
  1

  0
LINE
  5
10E6
330
1071
100
AcDbEntity
  8
dimensions
440
 16777216
370
    -2
100
AcDbLine
 10
1139.466654781843
 20
953.9840972733495
 30
0.0
 11
1060.59054678273
 21
897.0704138338208
 31
0.0
  0
MTEXT
  5
10E7
330
1071
100
AcDbEntity
  8
dimensions
440
 16777216
100
AcDbMText
 10
1113.856381399028
 20
935.5048007020014
 30
0.0
 40
9.0
 41
0.0
 46
0.0
 71
     5
 72
     1
  1
R10 mm\P [R13/32 "]
 11
0.8109348304290893
 21
0.5851364804871975
 31
0.0
 73
     1
 44
1.0
  0
LINE
  5
10E8
330
1071
100
AcDbEntity
  8
dimensions
440
 16777216
370
    -2
100
AcDbLine
 10
1045.993719835005
 20
886.5379571850501
 30
0.0
 11
1054.103068139297
 21
892.3893219899232
 31
0.0
  0
SOLID
  5
10E9
330
1071
100
AcDbEntity
  8
dimensions
440
 16777216
100
AcDbTrace
 10
1059.810364808747
 20
898.151660274393
 30
0.0
 11
1061.370728756713
 21
895.9891673932487
 31
0.0
 12
1054.103068139297
 22
892.3893219899232
 32
0.0
 13
1054.103068139297
 23
892.3893219899232
 33
0.0
  0
POINT
  5
10EA
330
1071
100
AcDbEntity
  8
Defpoints
 62
     0
440
 16777216
100
AcDbPoint
 10
1054.103068139297
 20
892.3893219899232
 30
0.0
  0
POINT
  5
10EB
330
1071
100
AcDbEntity
  8
Defpoints
 62
     0
440
 16777216
100
AcDbPoint
 10
1045.993719835005
 20
886.5379571850501
 30
0.0
  0
ENDBLK
  5
1073
330
1071
100
AcDbEntity
  8
0
100
AcDbBlockEnd
  0
ENDSEC
  0
SECTION
  2
ENTITIES
  0
LINE
  5
40A
330
1F
100
AcDbEntity
  8
0
  6
ByBlock
370
    40
100
AcDbLine
 10
122.4095072099635
 20
258.3251311760303
 30
0.0
 11
111.9082507023729
 21
258.3251311760303
 31
0.0
  0
LINE
  5
40B
330
1F
100
AcDbEntity
  8
0
  6
ByBlock
370
    40
100
AcDbLine
 10
111.9082507023729
 20
258.3251311760303
 30
0.0
 11
111.9082507023729
 21
256.6449432620852
 31
0.0
  0
LINE
  5
40C
330
1F
100
AcDbEntity
  8
0
  6
ByBlock
370
    40
100
AcDbLine
 10
111.9082507023729
 20
256.6449432620852
 30
0.0
 11
112.7985421502299
 21
256.6370718064727
 31
0.0
  0
SPLINE
  5
40D
330
1F
100
AcDbEntity
  8
0
  6
ByBlock
370
    40
100
AcDbSpline
210
0.0
220
0.0
230
1.0
 70
  1064
 71
     3
 72
    16
 73
    12
 74
    10
 42
0.000000001
 43
0.0000000001
 44
0.00001
 40
0.0
 40
0.0
 40
0.0
 40
0.0
 40
0.6984460512773021
 40
1.101520165680522
 40
1.435302918672462
 40
1.757408282031144
 40
2.126151446382044
 40
2.560642181969434
 40
2.953932748484773
 40
3.387241651851925
 40
3.558353040344513
 40
3.558353040344513
 40
3.558353040344513
 40
3.558353040344513
 10
112.7985421502299
 20
256.6370718064781
 30
0.0
 10
113.0317429898603
 20
256.6242503439248
 30
0.0
 10
113.399523129134
 20
256.6040174327397
 30
0.0
 10
113.8643092964875
 20
256.4825746833604
 30
0.0
 10
114.1938883678581
 20
256.3536076664624
 30
0.0
 10
114.4865952611958
 20
256.1723248806328
 30
0.0
 10
114.7388140723957
 20
255.8826088469834
 30
0.0
 10
114.8716716389166
 20
255.5023062940493
 30
0.0
 10
114.9970350737049
 20
255.0997205145936
 30
0.0
 10
115.0106256160989
 20
254.7649245243901
 30
0.0
 10
115.0223231890027
 20
254.5639461716649
 30
0.0
 10
115.0256287495645
 20
254.5070488597442
 30
0.0
 11
112.7985421502299
 21
256.6370718064781
 31
0.0
 11
113.493691924743
 21
256.5692643346392
 31
0.0
 11
113.8839752714848
 21
256.4685238220796
 31
0.0
 11
114.1931872340698
 21
256.342827618426
 31
0.0
 11
114.4640362720375
 21
256.1684907608403
 31
0.0
 11
114.704941859067
 21
255.8893188218642
 31
0.0
 11
114.8736029295523
 21
255.4888982281408
 31
0.0
 11
114.9770130786717
 21
255.1094446507002
 31
0.0
 11
115.0159870941617
 21
254.6778912146175
 31
0.0
 11
115.0256287495645
 21
254.5070488597442
 31
0.0
  0
LINE
  5
40E
330
1F
100
AcDbEntity
  8
0
  6
ByBlock
370
    40
100
AcDbLine
 10
115.0256287495535
 20
254.5070488597428
 30
0.0
 11
115.0256287495535
 21
239.258133257501
 31
0.0
  0
LINE
  5
40F
330
1F
100
AcDbEntity
  8
0
  6
ByBlock
370
    40
100
AcDbLine
 10
115.0256287495535
 20
239.258133257501
 30
0.0
 11
119.0618837158859
 21
238.6599732274188
 31
0.0
  0
LINE
  5
410
330
1F
100
AcDbEntity
  8
0
  6
ByBlock
370
    40
100
AcDbLine
 10
119.0618837158859
 20
238.6599732274188
 30
0.0
 11
119.0618837158859
 21
239.8716832187255
 31
0.0
  0
LINE
  5
411
330
1F
100
AcDbEntity
  8
0
  6
ByBlock
370
    40
100
AcDbLine
 10
119.0618837158859
 20
239.8716832187255
 30
0.0
 11
122.2356179178764
 21
243.8921615372844
 31
0.0
  0
LINE
  5
412
330
1F
100
AcDbEntity
  8
0
  6
ByBlock
370
    40
100
AcDbLine
 10
122.2356179178764
 20
243.8921615372844
 30
0.0
 11
126.1104091057658
 21
237.880769718386
 31
0.0
  0
LINE
  5
413
330
1F
100
AcDbEntity
  8
0
  6
ByBlock
370
    40
100
AcDbLine
 10
127.2657223108842
 20
236.0884046559404
 30
0.0
 11
128.4013681866537
 21
234.3265516951525
 31
0.0
  0
LINE
  5
414
330
1F
100
AcDbEntity
  8
0
  6
ByBlock
370
    40
100
AcDbLine
 10
126.1104091057658
 20
237.880769718386
 30
0.0
 11
130.949569530566
 21
237.6052687721563
 31
0.0
  0
LINE
  5
415
330
1F
100
AcDbEntity
  8
0
  6
ByBlock
370
    40
100
AcDbLine
 10
133.1641646091784
 20
234.1258380232791
 30
0.0
 11
132.0640222399048
 21
235.8543116502478
 31
0.0
  0
LINE
  5
416
330
1F
100
AcDbEntity
  8
0
  6
ByBlock
370
    40
100
AcDbLine
 10
130.949569530566
 20
237.6052687721563
 30
0.0
 11
124.9893969181242
 21
246.9695124013627
 31
0.0
  0
LINE
  5
417
330
1F
100
AcDbEntity
  8
0
  6
ByBlock
370
    40
100
AcDbLine
 10
124.9893969181242
 20
246.9695124013627
 30
0.0
 11
124.9893969181242
 21
247.0715942381993
 31
0.0
  0
LINE
  5
418
330
1F
100
AcDbEntity
  8
0
  6
ByBlock
370
    40
100
AcDbLine
 10
124.9893969181242
 20
247.0715942381993
 30
0.0
 11
130.8864234775822
 21
254.4915177365811
 31
0.0
  0
SPLINE
  5
419
330
1F
100
AcDbEntity
  8
0
  6
ByBlock
370
    40
100
AcDbSpline
210
0.0
220
0.0
230
1.0
 70
  1064
 71
     3
 72
    13
 73
     9
 74
     7
 42
0.000000001
 43
0.0000000001
 44
0.00001
 40
0.0
 40
0.0
 40
0.0
 40
0.0
 40
0.5320102234487228
 40
1.739434318363573
 40
2.6026519576682
 40
3.357793282875373
 40
4.169172182150663
 40
5.071977070781465
 40
5.071977070781465
 40
5.071977070781465
 40
5.071977070781465
 10
130.886423477593
 20
254.4915177365838
 30
0.0
 10
131.0016358995027
 20
254.6267677673971
 30
0.0
 10
131.37834428302
 20
255.0689606644553
 30
0.0
 10
132.0782880353691
 20
255.590600271299
 30
0.0
 10
132.8568271849543
 20
256.128916885038
 30
0.0
 10
133.6293971692385
 20
256.3951934110776
 30
0.0
 10
134.4382875087832
 20
256.5539372429482
 30
0.0
 10
135.008326553516
 20
256.5996110754248
 30
0.0
 10
135.3085483568662
 20
256.6236585637467
 30
0.0
 11
130.886423477593
 21
254.4915177365838
 31
0.0
 11
131.2405845660734
 21
254.8885144236077
 31
0.0
 11
132.1754856449121
 21
255.6526103855579
 31
0.0
 11
132.9061465868356
 21
256.1122610353689
 31
0.0
 11
133.6150119556494
 21
256.3725485404953
 31
0.0
 11
134.4102448291442
 21
256.5336133473648
 31
0.0
 11
135.3085483568662
 21
256.6236585637467
 31
0.0
  0
LINE
  5
41A
330
1F
100
AcDbEntity
  8
0
  6
ByBlock
370
    40
100
AcDbLine
 10
135.3085483568662
 20
256.6236585637426
 30
0.0
 11
136.5428839449349
 21
256.6236585637426
 31
0.0
  0
LINE
  5
41B
330
1F
100
AcDbEntity
  8
0
  6
ByBlock
370
    40
100
AcDbLine
 10
136.5428839449349
 20
256.6236585637426
 30
0.0
 11
136.5428839449349
 21
258.3251311760303
 31
0.0
  0
LINE
  5
41C
330
1F
100
AcDbEntity
  8
0
  6
ByBlock
370
    40
100
AcDbLine
 10
136.5428839449349
 20
258.3251311760303
 30
0.0
 11
125.3187748782814
 21
258.3251311760303
 31
0.0
  0
LINE
  5
41D
330
1F
100
AcDbEntity
  8
0
  6
ByBlock
370
    40
100
AcDbLine
 10
125.3187748782814
 20
258.3251311760303
 30
0.0
 11
125.3187748782814
 21
256.6311417412663
 31
0.0
  0
LINE
  5
41E
330
1F
100
AcDbEntity
  8
0
  6
ByBlock
370
    40
100
AcDbLine
 10
125.3187748782814
 20
256.6311417412663
 30
0.0
 11
126.7709982985897
 21
256.6311417412663
 31
0.0
  0
LINE
  5
41F
330
1F
100
AcDbEntity
  8
0
  6
ByBlock
370
    40
100
AcDbLine
 10
122.4095072099635
 20
258.3251311760303
 30
0.0
 11
122.4095072099635
 21
256.62507048403
 31
0.0
  0
LINE
  5
420
330
1F
100
AcDbEntity
  8
0
  6
ByBlock
370
    40
100
AcDbLine
 10
122.4095072099635
 20
256.62507048403
 30
0.0
 11
121.2364844023585
 21
256.62507048403
 31
0.0
  0
SPLINE
  5
421
330
1F
100
AcDbEntity
  8
0
  6
ByBlock
370
    40
100
AcDbSpline
210
0.0
220
0.0
230
1.0
 70
  1064
 71
     3
 72
    16
 73
    12
 74
    10
 42
0.000000001
 43
0.0000000001
 44
0.00001
 40
0.0
 40
0.0
 40
0.0
 40
0.0
 40
0.3055943414939875
 40
0.7341826668520265
 40
1.179338813993893
 40
1.603794135781539
 40
1.99437485646028
 40
2.340972261301957
 40
2.764840714427734
 40
3.093219912605464
 40
3.262602712495013
 40
3.262602712495013
 40
3.262602712495013
 40
3.262602712495013
 10
121.2364844023801
 20
256.6250704840313
 30
0.0
 10
121.1345360820083
 20
256.623092795801
 30
0.0
 10
120.8896084989721
 20
256.6183250104529
 30
0.0
 10
120.5008525607234
 20
256.55018565911
 30
0.0
 10
120.0824872687301
 20
256.4394578759155
 30
0.0
 10
119.6970657092101
 20
256.2564701687257
 30
0.0
 10
119.4245198962147
 20
255.9704952970451
 30
0.0
 10
119.2371640992506
 20
255.6303640902623
 30
0.0
 10
119.1096045525782
 20
255.2835184703264
 30
0.0
 10
119.0721975383853
 20
254.9773832772004
 30
0.0
 10
119.0578105426248
 20
254.8121594745937
 30
0.0
 10
119.052921050332
 20
254.7559351085472
 30
0.0
 11
121.2364844023801
 21
256.6250704840313
 31
0.0
 11
120.931142681721
 21
256.6126102874869
 31
0.0
 11
120.5078604298839
 21
256.5453675837623
 31
0.0
 11
120.0795536534276
 21
256.4240483330032
 31
0.0
 11
119.7024427091442
 21
256.2292386312427
 31
0.0
 11
119.4293530047773
 21
255.9499960962483
 31
0.0
 11
119.2566858943595
 21
255.6494688629129
 31
0.0
 11
119.1165423961386
 21
255.249436547266
 31
0.0
 11
119.0682662201811
 21
254.924624284973
 31
0.0
 11
119.052921050332
 21
254.7559351085472
 31
0.0
  0
LINE
  5
422
330
1F
100
AcDbEntity
  8
0
  6
ByBlock
370
    40
100
AcDbLine
 10
119.0529210503103
 20
254.7559351085432
 30
0.0
 11
119.0529210503103
 21
242.8552825756652
 31
0.0
  0
LINE
  5
423
330
1F
100
AcDbEntity
  8
0
  6
ByBlock
370
    40
100
AcDbLine
 10
119.0529210503103
 20
242.8552825756652
 30
0.0
 11
128.1585818883506
 21
254.2372308926809
 31
0.0
  0
SPLINE
  5
424
330
1F
100
AcDbEntity
  8
0
  6
ByBlock
370
    40
100
AcDbSpline
210
0.0
220
0.0
230
1.0
 70
  1064
 71
     3
 72
    19
 73
    15
 74
    13
 42
0.000000001
 43
0.0000000001
 44
0.00001
 40
0.0
 40
0.0
 40
0.0
 40
0.0
 40
0.6428144523921824
 40
1.135476044311892
 40
1.471118915082378
 40
1.671945404179031
 40
1.809557939080442
 40
1.968342534131433
 40
2.090644140025762
 40
2.276996327023093
 40
2.633435198831299
 40
3.193782223268967
 40
3.931885792522152
 40
4.445763484309262
 40
4.445763484309262
 40
4.445763484309262
 40
4.445763484309262
 10
128.1585818883506
 20
254.2372308926836
 30
0.0
 10
128.2965560757969
 20
254.4011514936
 30
0.0
 10
128.5402675513103
 20
254.6907094636318
 30
0.0
 10
128.8169967756929
 20
255.0982595040366
 30
0.0
 10
128.9652453261725
 20
255.4073490766437
 30
0.0
 10
129.0450184644747
 20
255.6199010915248
 30
0.0
 10
129.0572453566706
 20
255.7856523467819
 30
0.0
 10
129.0569638340262
 20
255.9272495857028
 30
0.0
 10
128.9965216197374
 20
256.0738811078988
 30
0.0
 10
128.8442810598354
 20
256.2434678195093
 30
0.0
 10
128.4883536370068
 20
256.3703972237336
 30
0.0
 10
127.9585621748242
 20
256.5074753226261
 30
0.0
 10
127.3593511114109
 20
256.6095636710277
 30
0.0
 10
126.9422134461802
 20
256.6248665289196
 30
0.0
 10
126.7709982986005
 20
256.631141741269
 30
0.0
 11
128.1585818883506
 21
254.2372308926836
 31
0.0
 11
128.5628524253088
 21
254.7370153766844
 31
0.0
 11
128.8336335642678
 21
255.1485901406858
 31
0.0
 11
128.9792768799956
 21
255.4509881684062
 31
0.0
 11
129.0413365492517
 21
255.6419856853866
 31
0.0
 11
129.0551200425287
 21
255.7789066553257
 31
0.0
 11
129.0454104881713
 21
255.9373947076767
 31
0.0
 11
128.9999860693883
 21
256.0509483968494
 31
0.0
 11
128.8772247105197
 21
256.1911520814662
 31
0.0
 11
128.5545008505625
 21
256.3424746383573
 31
0.0
 11
128.0129385726336
 21
256.4863493157189
 31
0.0
 11
127.2841109032304
 21
256.6030092295262
 31
0.0
 11
126.7709982986005
 21
256.631141741269
 31
0.0
  0
LINE
  5
425
330
1F
100
AcDbEntity
  8
0
  6
ByBlock
370
    40
100
AcDbLine
 10
115.0256287495535
 20
237.5214360050406
 30
0.0
 11
115.0256287495535
 21
235.8775372135307
 31
0.0
  0
LINE
  5
426
330
1F
100
AcDbEntity
  8
0
  6
ByBlock
370
    40
100
AcDbLine
 10
115.0256287495535
 20
237.5214360050406
 30
0.0
 11
119.0618837158859
 21
236.9281339569022
 31
0.0
  0
LINE
  5
427
330
1F
100
AcDbEntity
  8
0
  6
ByBlock
370
    40
100
AcDbLine
 10
119.0618837158859
 20
236.9281339569022
 30
0.0
 11
119.0618837158859
 21
235.2599872604438
 31
0.0
  0
LINE
  5
428
330
1F
100
AcDbEntity
  8
0
  6
ByBlock
370
    40
100
AcDbLine
 10
119.0618837158859
 20
233.5439859572602
 30
0.0
 11
119.0618837158859
 21
232.7224248395854
 31
0.0
  0
LINE
  5
429
330
1F
100
AcDbEntity
  8
0
  6
ByBlock
370
    40
100
AcDbLine
 10
115.0256287495535
 20
234.1457463840796
 30
0.0
 11
115.0256287495535
 21
232.8714530259961
 31
0.0
  0
SPLINE
  5
42A
330
1F
100
AcDbEntity
  8
0
  6
ByBlock
370
    40
100
AcDbSpline
210
0.0
220
0.0
230
1.0
 70
  1064
 71
     3
 72
     9
 73
     5
 74
     3
 42
0.000000001
 43
0.0000000001
 44
0.00001
 40
0.0
 40
0.0
 40
0.0
 40
0.0
 40
1.939160426905057
 40
4.083491158017496
 40
4.083491158017496
 40
4.083491158017496
 40
4.083491158017496
 10
115.0256287495645
 20
235.8775372135334
 30
0.0
 10
115.6628251237127
 20
235.7686288055367
 30
0.0
 10
117.004638759602
 20
235.5393088760168
 30
0.0
 10
118.3535429881351
 20
235.3561549752748
 30
0.0
 10
119.0618837158859
 20
235.2599872604464
 30
0.0
 11
115.0256287495645
 21
235.8775372135334
 31
0.0
 11
116.9388183565217
 21
235.5612317709747
 31
0.0
 11
119.0618837158859
 21
235.2599872604464
 31
0.0
  0
SPLINE
  5
42B
330
1F
100
AcDbEntity
  8
0
  6
ByBlock
370
    40
100
AcDbSpline
210
0.0
220
0.0
230
1.0
 70
  1064
 71
     3
 72
    12
 73
     8
 74
     6
 42
0.000000001
 43
0.0000000001
 44
0.00001
 40
0.0
 40
0.0
 40
0.0
 40
0.0
 40
0.7378399352939166
 40
1.739330061203769
 40
2.918036665318411
 40
3.722407254401324
 40
4.081526932952121
 40
4.081526932952121
 40
4.081526932952121
 40
4.081526932952121
 10
115.0256287495645
 20
234.1457463840836
 30
0.0
 10
115.2673639263265
 20
234.1002257962033
 30
0.0
 10
115.8372099501142
 20
233.9929031720497
 30
0.0
 10
116.8016931850187
 20
233.8644887035922
 30
0.0
 10
117.7847289100226
 20
233.71250616253
 30
0.0
 10
118.5570331152281
 20
233.5964852015194
 30
0.0
 10
118.9428111992177
 20
233.5563730839561
 30
0.0
 10
119.0618837158859
 20
233.543985957263
 30
0.0
 11
115.0256287495645
 21
234.1457463840836
 31
0.0
 11
115.7517404596916
 21
234.0147201813418
 31
0.0
 11
116.7425902994609
 21
233.869115901617
 31
0.0
 11
117.9082800170497
 21
233.6944260639705
 31
0.0
 11
118.7048708701878
 21
233.5828137651889
 31
0.0
 11
119.0618837158859
 21
233.543985957263
 31
0.0
  0
SPLINE
  5
42C
330
1F
100
AcDbEntity
  8
0
  6
ByBlock
370
    40
100
AcDbSpline
210
0.0
220
0.0
230
1.0
 70
  1064
 71
     3
 72
    15
 73
    11
 74
     9
 42
0.000000001
 43
0.0000000001
 44
0.00001
 40
0.0
 40
0.0
 40
0.0
 40
0.0
 40
0.4291218924111073
 40
0.8302260447533997
 40
1.238137521798712
 40
1.678461799953187
 40
2.148172630488305
 40
2.611474895534596
 40
3.091247811726047
 40
3.392683288389041
 40
3.392683288389041
 40
3.392683288389041
 40
3.392683288389041
 10
115.0256287495645
 20
232.8714530259988
 30
0.0
 10
115.0130190219215
 20
232.728307055903
 30
0.0
 10
114.9886098189452
 20
232.4513631923438
 30
0.0
 10
114.824559023338
 20
232.064196035299
 30
0.0
 10
114.5647261910722
 20
231.7373217642269
 30
0.0
 10
114.2421449191577
 20
231.4290645608778
 30
0.0
 10
113.8105907061463
 20
231.2590969735531
 30
0.0
 10
113.3639800169358
 20
231.1087398023024
 30
0.0
 10
112.9492865289154
 20
231.0623058469935
 30
0.0
 10
112.6897094614474
 20
231.0442305358007
 30
0.0
 10
112.5895490846112
 20
231.0372626776502
 30
0.0
 11
115.0256287495645
 21
232.8714530259988
 31
0.0
 11
114.9649270599301
 21
232.4466415092983
 31
0.0
 11
114.8104568765792
 21
232.0764713077521
 31
0.0
 11
114.5642551690039
 21
231.7512354693679
 31
0.0
 11
114.2345377139332
 21
231.4593915458004
 31
0.0
 11
113.80813210893
 21
231.2623933675994
 31
0.0
 11
113.3652949503609
 21
231.1262136558071
 31
0.0
 11
112.8901378765342
 21
231.0598181042568
 31
0.0
 11
112.5895490846112
 21
231.0372626776502
 31
0.0
  0
LINE
  5
42D
330
1F
100
AcDbEntity
  8
0
  6
ByBlock
370
    40
100
AcDbLine
 10
112.5895490845895
 20
231.0372626776474
 30
0.0
 11
111.9082507023729
 21
231.0372626776474
 31
0.0
  0
LINE
  5
42E
330
1F
100
AcDbEntity
  8
0
  6
ByBlock
370
    40
100
AcDbLine
 10
111.9082507023729
 20
231.0372626776474
 30
0.0
 11
111.9082507023729
 21
229.3886339531673
 31
0.0
  0
LINE
  5
42F
330
1F
100
AcDbEntity
  8
0
  6
ByBlock
370
    40
100
AcDbLine
 10
111.9082507023729
 20
229.3886339531673
 30
0.0
 11
122.404686382273
 21
229.3886339531673
 31
0.0
  0
LINE
  5
430
330
1F
100
AcDbEntity
  8
0
  6
ByBlock
370
    40
100
AcDbLine
 10
122.404686382273
 20
229.3886339531673
 30
0.0
 11
122.404686382273
 21
231.0446046631425
 31
0.0
  0
LINE
  5
431
330
1F
100
AcDbEntity
  8
0
  6
ByBlock
370
    40
100
AcDbLine
 10
122.404686382273
 20
231.0446046631425
 30
0.0
 11
121.6364094044921
 21
231.0446046631425
 31
0.0
  0
SPLINE
  5
432
330
1F
100
AcDbEntity
  8
0
  6
ByBlock
370
    40
100
AcDbSpline
210
0.0
220
0.0
230
1.0
 70
  1064
 71
     3
 72
    15
 73
    11
 74
     9
 42
0.000000001
 43
0.0000000001
 44
0.00001
 40
0.0
 40
0.0
 40
0.0
 40
0.0
 40
0.3223178719117476
 40
0.6663931418305667
 40
1.039412090662606
 40
1.397812657752157
 40
1.935582391338026
 40
2.285767009404426
 40
2.994494082489738
 40
3.424644708434212
 40
3.424644708434212
 40
3.424644708434212
 40
3.424644708434212
 10
119.0618837158859
 20
232.7224248395893
 30
0.0
 10
119.0704414364548
 20
232.614757475995
 30
0.0
 10
119.0881479591888
 20
232.392156737763
 30
0.0
 10
119.2166356387586
 20
232.0668027539525
 30
0.0
 10
119.4060313865236
 20
231.7562514593172
 30
0.0
 10
119.741699985624
 20
231.4921523670648
 30
0.0
 10
120.1052750755406
 20
231.2796935901675
 30
0.0
 10
120.6267117947383
 20
231.1625776396953
 30
0.0
 10
121.1121248210522
 20
231.0488089086584
 30
0.0
 10
121.4926761113914
 20
231.0457530904433
 30
0.0
 10
121.6364094044921
 20
231.0446046631465
 30
0.0
 11
119.0618837158859
 21
232.7224248395893
 31
0.0
 11
119.1026910038962
 21
232.4026954903311
 31
0.0
 11
119.2217179187805
 21
232.0798599164398
 31
0.0
 11
119.4254148638534
 21
231.76736665866
 31
0.0
 11
119.6981650732852
 21
231.534858685209
 31
0.0
 11
120.1713530766498
 21
231.2793364110539
 31
0.0
 11
120.5095579044301
 21
231.1885146385228
 31
0.0
 11
121.2065409514528
 21
231.0600298922955
 31
0.0
 11
121.6364094044921
 21
231.0446046631465
 31
0.0
  0
SPLINE
  5
433
330
1F
100
AcDbEntity
  8
0
  6
ByBlock
370
    40
100
AcDbSpline
210
0.0
220
0.0
230
1.0
 70
  1064
 71
     3
 72
    13
 73
     9
 74
     7
 42
0.000000001
 43
0.0000000001
 44
0.00001
 40
0.0
 40
0.0
 40
0.0
 40
0.0
 40
0.5442118626145148
 40
1.367513247527663
 40
2.1915976480245
 40
3.327297689929046
 40
4.266612631479121
 40
4.804215498410577
 40
4.804215498410577
 40
4.804215498410577
 40
4.804215498410577
 10
132.0640222399156
 20
235.8543116502491
 30
0.0
 10
131.8827325208513
 20
235.860673626649
 30
0.0
 10
131.4271823411619
 20
235.8766761359456
 30
0.0
 10
130.6968233823038
 20
235.8963213198436
 30
0.0
 10
129.7709781299848
 20
235.956681821809
 30
0.0
 10
128.8055460586709
 20
235.9994778626356
 30
0.0
 10
127.9360372398633
 20
236.0484277476634
 30
0.0
 10
127.4446048287499
 20
236.0777303474382
 30
0.0
 10
127.2657223108517
 20
236.0884046559863
 30
0.0
 11
132.0640222399156
 21
235.8543116502491
 31
0.0
 11
131.5201246736685
 21
235.8728072805687
 31
0.0
 11
130.6973248136091
 21
235.9015398584324
 31
0.0
 11
129.874524953528
 21
235.947533161821
 31
0.0
 11
128.7402724644626
 21
236.0048571255185
 31
0.0
 11
127.8023838304212
 21
236.0566040040825
 31
0.0
 11
127.2657223108517
 21
236.0884046559863
 31
0.0
  0
LINE
  5
434
330
1F
100
AcDbEntity
  8
0
  6
ByBlock
370
    40
100
AcDbLine
 10
128.4013681866537
 20
234.3265516951539
 30
0.0
 11
133.1641646091784
 21
234.1258380232791
 31
0.0
  0
LINE
  5
435
330
1F
100
AcDbEntity
  8
0
  6
ByBlock
370
    40
100
AcDbLine
 10
126.2686816320773
 20
229.3886339531661
 30
0.0
 11
146.6402094104918
 21
229.3886339531661
 31
0.0
  0
LINE
  5
436
330
1F
100
AcDbEntity
  8
0
  6
ByBlock
370
    40
100
AcDbLine
 10
126.2686816320773
 20
229.3886339531673
 30
0.0
 11
126.2686816320773
 21
231.0412866504732
 31
0.0
  0
LINE
  5
437
330
1F
100
AcDbEntity
  8
0
  6
ByBlock
370
    40
100
AcDbLine
 10
126.2686816320773
 20
231.0412866504732
 30
0.0
 11
127.3806632551562
 21
231.0412866504732
 31
0.0
  0
LINE
  5
438
330
1F
100
AcDbEntity
  8
0
  6
ByBlock
370
    40
100
AcDbLine
 10
146.6402094104918
 20
229.3886339531673
 30
0.0
 11
146.6402094104918
 21
231.0441457890516
 31
0.0
  0
LINE
  5
439
330
1F
100
AcDbEntity
  8
0
  6
ByBlock
370
    40
100
AcDbLine
 10
146.6402094104918
 20
231.0441457890516
 30
0.0
 11
145.8727472204905
 21
231.0441457890516
 31
0.0
  0
SPLINE
  5
43A
330
1F
100
AcDbEntity
  8
0
  6
ByBlock
370
    40
100
AcDbSpline
210
0.0
220
0.0
230
1.0
 70
  1064
 71
     3
 72
    18
 73
    14
 74
    12
 42
0.000000001
 43
0.0000000001
 44
0.00001
 40
0.0
 40
0.0
 40
0.0
 40
0.0
 40
0.2416590012870249
 40
0.8010501013097732
 40
1.524547288706535
 40
2.166438977688993
 40
2.459304152810124
 40
2.579933077913827
 40
2.705785337173443
 40
2.911433048499009
 40
3.152095676015771
 40
3.467996442447988
 40
3.707578588388857
 40
3.707578588388857
 40
3.707578588388857
 40
3.707578588388857
 10
127.3806632551562
 20
231.0412866504759
 30
0.0
 10
127.4612298005105
 20
231.0408653584263
 30
0.0
 10
127.728291354463
 20
231.0394861448543
 30
0.0
 10
128.235690019407
 20
231.0772718055067
 30
0.0
 10
128.873522425171
 20
231.141137780472
 30
0.0
 10
129.4192780035669
 20
231.2487980381284
 30
0.0
 10
129.7449821856698
 20
231.3869084758213
 30
0.0
 10
129.8836983067077
 20
231.51265777895
 30
0.0
 10
129.9097931389711
 20
231.6690602634263
 30
0.0
 10
129.8747404546912
 20
231.8564943028217
 30
0.0
 10
129.8046122935499
 20
232.1030809633946
 30
0.0
 10
129.6558131392276
 20
232.3257526984259
 30
0.0
 10
129.5734220991389
 20
232.4914990726216
 30
0.0
 10
129.5378818023198
 20
232.5629837410446
 30
0.0
 11
127.3806632551562
 21
231.0412866504759
 31
0.0
 11
127.6223157309784
 21
231.0419573126043
 31
0.0
 11
128.1807169563847
 21
231.0752433334004
 31
0.0
 11
128.8996992734565
 21
231.1560051738839
 31
0.0
 11
129.5251167937728
 21
231.3005152153742
 31
0.0
 11
129.7874784590201
 21
231.4306589679381
 31
0.0
 11
129.8705868125825
 21
231.5180921317829
 31
0.0
 11
129.8995117788015
 21
231.640576216784
 31
0.0
 11
129.873981761675
 21
231.8446339964296
 31
0.0
 11
129.801669346176
 21
232.0741769372801
 31
0.0
 11
129.6484892434923
 21
232.350454439667
 31
0.0
 11
129.5378818023198
 21
232.5629837410446
 31
0.0
  0
SPLINE
  5
43B
330
1F
100
AcDbEntity
  8
0
  6
ByBlock
370
    40
100
AcDbSpline
210
0.0
220
0.0
230
1.0
 70
  1064
 71
     3
 72
    10
 73
     6
 74
     4
 42
0.000000001
 43
0.0000000001
 44
0.00001
 40
0.0
 40
0.0
 40
0.0
 40
0.0
 40
1.618794718517145
 40
3.511499321772686
 40
4.815974444358793
 40
4.815974444358793
 40
4.815974444358793
 40
4.815974444358793
 10
129.5378818023306
 20
232.5629837410446
 30
0.0
 10
130.0767240251614
 20
232.5340819073915
 30
0.0
 10
131.245584579045
 20
232.4714014852884
 30
0.0
 10
132.8504915313395
 20
232.4278771473679
 30
0.0
 10
133.9160689411862
 20
232.4106147212039
 30
0.0
 10
134.3508332201772
 20
232.4035779405078
 30
0.0
 11
129.5378818023306
 21
232.5629837410446
 31
0.0
 11
131.1546923542477
 21
232.4828572646925
 31
0.0
 11
133.0465616809614
 21
232.4266275392159
 31
0.0
 11
134.3508332201772
 21
232.4035779405078
 31
0.0
  0
SPLINE
  5
43C
330
1F
100
AcDbEntity
  8
0
  6
ByBlock
370
    40
100
AcDbSpline
210
0.0
220
0.0
230
1.0
 70
  1064
 71
     3
 72
    21
 73
    17
 74
    15
 42
0.000000001
 43
0.0000000001
 44
0.00001
 40
0.0
 40
0.0
 40
0.0
 40
0.0
 40
0.2015090212973325
 40
0.6237162699658676
 40
1.029269493999799
 40
1.605104055288572
 40
2.362266142092665
 40
3.282239112355418
 40
3.991878681064085
 40
4.645747174333306
 40
5.448980967937446
 40
6.026487742640705
 40
6.384116338185451
 40
6.781102747483236
 40
7.150744557582124
 40
7.422576121782758
 40
7.422576121782758
 40
7.422576121782758
 40
7.422576121782758
 10
134.3508332201772
 20
232.4035779405078
 30
0.0
 10
134.3878352694837
 20
232.3472208283366
 30
0.0
 10
134.5023783285295
 20
232.1727927611468
 30
0.0
 10
134.7709936198703
 20
231.953361646243
 30
0.0
 10
135.1031869621353
 20
231.6230787009597
 30
0.0
 10
135.623217377056
 20
231.3448053521091
 30
0.0
 10
136.3577041497989
 20
231.1689064013648
 30
0.0
 10
137.1500683963423
 20
231.0893141480778
 30
0.0
 10
137.9094030796477
 20
231.0385954297591
 30
0.0
 10
138.6327863373071
 20
231.0281872845425
 30
0.0
 10
139.3078031220972
 20
231.1216124673655
 30
0.0
 10
139.8628459579956
 20
231.3114317436556
 30
0.0
 10
140.2272049560297
 20
231.5733837553295
 30
0.0
 10
140.467547270958
 20
231.8663285780939
 30
0.0
 10
140.6077433365156
 20
232.190899604327
 30
0.0
 10
140.6248545681714
 20
232.4049344603969
 30
0.0
 10
140.632100117006
 20
232.4956351432939
 30
0.0
 11
134.3508332201772
 21
232.4035779405078
 31
0.0
 11
134.4668725798803
 21
232.2388421408827
 31
0.0
 11
134.7701094320925
 21
231.9450568269282
 31
0.0
 11
135.0733462843156
 21
231.6757683299621
 31
0.0
 11
135.5756629508279
 21
231.3942314245037
 31
0.0
 11
136.3066633876651
 21
231.1969155642322
 31
0.0
 11
137.2201762872622
 21
231.0880918080215
 31
0.0
 11
137.9284305652468
 21
231.0437928089869
 31
0.0
 11
138.582297758862
 21
231.0437928089869
 31
0.0
 11
139.3768516425512
 21
231.1615469610178
 31
0.0
 11
139.9167164459554
 21
231.3666283828688
 31
0.0
 11
140.2063056028431
 21
231.576475035703
 31
0.0
 11
140.4571923401889
 21
231.884132466492
 31
0.0
 11
140.5978790302305
 21
232.2259583682565
 31
0.0
 11
140.632100117006
 21
232.4956351432939
 31
0.0
  0
LINE
  5
43D
330
1F
100
AcDbEntity
  8
0
  6
ByBlock
370
    40
100
AcDbLine
 10
140.6321001169952
 20
232.4956351432925
 30
0.0
 11
143.8514624346649
 21
232.7467451665425
 31
0.0
  0
SPLINE
  5
43E
330
1F
100
AcDbEntity
  8
0
  6
ByBlock
370
    40
100
AcDbSpline
210
0.0
220
0.0
230
1.0
 70
  1064
 71
     3
 72
    14
 73
    10
 74
     8
 42
0.000000001
 43
0.0000000001
 44
0.00001
 40
0.0
 40
0.0
 40
0.0
 40
0.0
 40
0.4191077194228106
 40
0.8983518141414744
 40
1.275623085237578
 40
1.687148125494033
 40
2.18620942187165
 40
2.730312572871219
 40
3.102268426830196
 40
3.102268426830196
 40
3.102268426830196
 40
3.102268426830196
 10
143.8514624346757
 20
232.7467451665453
 30
0.0
 10
143.8482614433304
 20
232.6070668579588
 30
0.0
 10
143.8414140479768
 20
232.3076684189905
 30
0.0
 10
143.920449830988
 20
231.8821844047342
 30
0.0
 10
144.1435133591992
 20
231.5121375539249
 30
0.0
 10
144.5026422401273
 20
231.2543910568262
 30
0.0
 10
144.9784795170554
 20
231.1387473021509
 30
0.0
 10
145.4428213647568
 20
231.0533938226539
 30
0.0
 10
145.7485920482921
 20
231.0468115878527
 30
0.0
 10
145.8727472205013
 20
231.0441457890529
 30
0.0
 11
143.8514624346757
 21
232.7467451665453
 31
0.0
 11
143.8554684745975
 21
232.3276519270124
 31
0.0
 11
143.9573169471338
 21
231.8593532654384
 31
0.0
 11
144.1560572665205
 21
231.5386708699852
 31
0.0
 11
144.487200600211
 21
231.2943380641199
 31
0.0
 11
144.96398724964
 21
231.1468982880112
 31
0.0
 11
145.501136093725
 21
231.0601710843269
 31
0.0
 11
145.8727472205013
 21
231.0441457890529
 31
0.0
  0
LINE
  5
43F
330
1F
100
AcDbEntity
  8
0
  6
ByBlock
370
    40
100
AcDbLine
 10
140.6655064159912
 20
234.1813267753356
 30
0.0
 11
140.6655064159912
 21
235.8873853575421
 31
0.0
  0
LINE
  5
440
330
1F
100
AcDbEntity
  8
0
  6
ByBlock
370
    40
100
AcDbLine
 10
140.6655064159912
 20
237.6053746661743
 30
0.0
 11
140.6655064159912
 21
245.0426647841031
 31
0.0
  0
LINE
  5
441
330
1F
100
AcDbEntity
  8
0
  6
ByBlock
370
    40
100
AcDbLine
 10
143.8101119548232
 20
234.4611340784484
 30
0.0
 11
143.8101119548232
 21
236.1594270990646
 31
0.0
  0
LINE
  5
442
330
1F
100
AcDbEntity
  8
0
  6
ByBlock
370
    40
100
AcDbLine
 10
143.8101119548232
 20
237.8876175317797
 30
0.0
 11
143.8101119548232
 21
242.7628370947984
 31
0.0
  0
LINE
  5
443
330
1F
100
AcDbEntity
  8
0
  6
ByBlock
370
    40
100
AcDbLine
 10
143.8101119548232
 20
245.3417095011316
 30
0.0
 11
143.8101119548232
 21
249.4305600596547
 31
0.0
  0
LINE
  5
444
330
1F
100
AcDbEntity
  8
0
  6
ByBlock
370
    40
100
AcDbLine
 10
143.8101119548232
 20
249.4305600596547
 30
0.0
 11
137.7480908698666
 21
247.2436367253077
 31
0.0
  0
LINE
  5
445
330
1F
100
AcDbEntity
  8
0
  6
ByBlock
370
    40
100
AcDbLine
 10
137.7480908698666
 20
247.2436367253077
 30
0.0
 11
138.2264391958461
 21
246.1280079096114
 31
0.0
  0
LINE
  5
446
330
1F
100
AcDbEntity
  8
0
  6
ByBlock
370
    40
100
AcDbLine
 10
140.6655064159912
 20
234.1813267753356
 30
0.0
 11
143.8101119548232
 21
234.4611340784484
 31
0.0
  0
LINE
  5
447
330
1F
100
AcDbEntity
  8
0
  6
ByBlock
370
    40
100
AcDbLine
 10
140.6655064159805
 20
235.8873853575421
 30
0.0
 11
143.8101119548232
 21
236.1594270990646
 31
0.0
  0
LINE
  5
448
330
1F
100
AcDbEntity
  8
0
  6
ByBlock
370
    40
100
AcDbLine
 10
140.6655064159912
 20
237.6053746661743
 30
0.0
 11
143.8101119548232
 21
237.8876175317797
 31
0.0
  0
SPLINE
  5
449
330
1F
100
AcDbEntity
  8
0
  6
ByBlock
370
    40
100
AcDbSpline
210
0.0
220
0.0
230
1.0
 70
  1064
 71
     3
 72
    15
 73
    11
 74
     9
 42
0.000000001
 43
0.0000000001
 44
0.00001
 40
0.0
 40
0.0
 40
0.0
 40
0.0
 40
0.4817482979279787
 40
0.9802150022323317
 40
1.524009407487549
 40
1.941122804660975
 40
2.239718325652046
 40
2.498820030009393
 40
2.752468970683552
 40
3.026510485787257
 40
3.026510485787257
 40
3.026510485787257
 40
3.026510485787257
 10
138.2264391958679
 20
246.1280079096155
 30
0.0
 10
138.3870733176839
 20
246.1260880221245
 30
0.0
 10
138.7139161058018
 20
246.1221790052861
 30
0.0
 10
139.2206833859785
 20
246.1029640850161
 30
0.0
 10
139.7097503320059
 20
246.0705567014999
 30
0.0
 10
140.1107148309868
 20
245.9469633754784
 30
0.0
 10
140.4093914539242
 20
245.7944383431279
 30
0.0
 10
140.5538359057259
 20
245.5571195387419
 30
0.0
 10
140.6511926477025
 20
245.3115631615566
 30
0.0
 10
140.6606175876973
 20
245.134577928406
 30
0.0
 10
140.6655064159912
 20
245.0426647841045
 30
0.0
 11
138.2264391958679
 21
246.1280079096155
 31
0.0
 11
138.7081145719529
 21
246.1202070500227
 31
0.0
 11
139.2062215015715
 21
246.1012520201548
 31
0.0
 11
139.7470368907187
 21
246.0443869305469
 31
0.0
 11
140.1455360142326
 21
245.921161587399
 31
0.0
 11
140.4009719833426
 21
245.7665210178347
 31
0.0
 11
140.5477016827656
 21
245.5529680742545
 31
0.0
 11
140.6357666620143
 21
245.3150948037035
 31
0.0
 11
140.6655064159912
 21
245.0426647841045
 31
0.0
  0
SPLINE
  5
44A
330
1F
100
AcDbEntity
  8
0
  6
ByBlock
370
    40
100
AcDbSpline
210
0.0
220
0.0
230
1.0
 70
  1064
 71
     3
 72
    47
 73
    43
 74
    41
 42
0.000000001
 43
0.0000000001
 44
0.00001
 40
0.0
 40
0.0
 40
0.0
 40
0.0
 40
0.9432398604806227
 40
2.005647510879532
 40
3.1048210469655
 40
3.978684803594519
 40
4.686306192737617
 40
5.307608786294127
 40
5.552625351153308
 40
5.790413712208352
 40
5.957786086688445
 40
6.33578951511156
 40
6.84142003545165
 40
7.496029852728208
 40
7.937196163834974
 40
8.408264029444289
 40
8.755159827506009
 40
9.050729580575627
 40
9.54884410042047
 40
9.98686596375996
 40
10.54226035516185
 40
11.08225764192451
 40
11.58010261046571
 40
12.14317588480205
 40
12.72121832136325
 40
13.3884064277143
 40
13.98436238142331
 40
14.46512164325524
 40
15.14067720365447
 40
15.67155261375351
 40
16.08796200219241
 40
16.57052078241251
 40
17.06113091068831
 40
17.72376935842735
 40
18.62945447378871
 40
19.29101329745927
 40
20.07319427634539
 40
20.82901250717459
 40
21.95698700858601
 40
22.98288922665931
 40
23.85413097776732
 40
24.07973734594577
 40
24.07973734594577
 40
24.07973734594577
 40
24.07973734594577
 10
143.810111954834
 20
242.7628370948025
 30
0.0
 10
144.0164225556487
 20
243.0001665761503
 30
0.0
 10
144.4551040376559
 20
243.5048136168938
 30
0.0
 10
145.1548497412261
 20
244.2665076602992
 30
0.0
 10
145.8341922289427
 20
245.0198245542738
 30
0.0
 10
146.5533378732891
 20
245.560063045183
 30
0.0
 10
147.2042044731322
 20
245.9025162636196
 30
0.0
 10
147.6703513493369
 20
246.1407253542247
 30
0.0
 10
148.0286207478935
 20
246.2492556363419
 30
0.0
 10
148.2456732545392
 20
246.2265881263236
 30
0.0
 10
148.5108385670814
 20
246.2180618733629
 30
0.0
 10
148.8000031960638
 20
245.9876687691139
 30
0.0
 10
149.2058397898063
 20
245.6888587350257
 30
0.0
 10
149.6548693481289
 20
245.3925192942489
 30
0.0
 10
150.1380752139155
 20
245.1845599363672
 30
0.0
 10
150.5588269020614
 20
245.1284372078705
 30
0.0
 10
150.929620300404
 20
245.1329938273266
 30
0.0
 10
151.3105571801807
 20
245.1553251220063
 30
0.0
 10
151.7062780561498
 20
245.2745623168252
 30
0.0
 10
152.1673962727613
 20
245.4721164172285
 30
0.0
 10
152.5434588775949
 20
245.83106993639
 30
0.0
 10
152.8687347135001
 20
246.2520242241041
 30
0.0
 10
153.0899148218228
 20
246.7470470857764
 30
0.0
 10
153.1395603065962
 20
247.2971664914908
 30
0.0
 10
153.0850270767557
 20
247.9043338380798
 30
0.0
 10
152.8098423645884
 20
248.467402647674
 30
0.0
 10
152.4338712386857
 20
248.9158856129169
 30
0.0
 10
151.9688473928511
 20
249.2756183238325
 30
0.0
 10
151.4285824232083
 20
249.4811992050005
 30
0.0
 10
150.8850843526263
 20
249.4919118036754
 30
0.0
 10
150.4078349177384
 20
249.4973529334522
 30
0.0
 10
149.9498899348948
 20
249.4168973591258
 30
0.0
 10
149.415715600463
 20
249.3078991886327
 30
0.0
 10
148.7604611363973
 20
249.0990444314654
 30
0.0
 10
148.0741169929017
 20
248.8096979916534
 30
0.0
 10
147.3867195134854
 20
248.4336163190342
 30
0.0
 10
146.7577867544538
 20
248.055279554191
 30
0.0
 10
146.0451933237138
 20
247.5227579459215
 30
0.0
 10
145.3046419700187
 20
246.894937042557
 30
0.0
 10
144.5821364543361
 20
246.1918889469976
 30
0.0
 10
144.0836390674555
 20
245.6875472797204
 30
0.0
 10
143.8567762908499
 20
245.4007070746985
 30
0.0
 10
143.810111954834
 20
245.3417095011343
 30
0.0
 11
143.810111954834
 21
242.7628370948025
 31
0.0
 11
144.4319987281054
 21
243.472044655549
 31
0.0
 11
145.1457528235859
 21
244.2589784281549
 31
0.0
 11
145.9118570339545
 21
245.0471829290276
 31
0.0
 11
146.6110807473549
 21
245.5713230379976
 31
0.0
 11
147.2299799654343
 21
245.914384370021
 31
0.0
 11
147.7944242001898
 21
246.1740365110133
 31
0.0
 11
148.0321385350772
 21
246.2334077591282
 31
0.0
 11
148.2698528699646
 21
246.2274776939204
 31
0.0
 11
148.4362732740722
 21
246.2096522002758
 31
0.0
 11
148.763071072938
 21
246.0196783255089
 31
0.0
 11
149.1701933671249
 21
245.7198217543086
 31
0.0
 11
149.7256749363048
 21
245.3734777076168
 31
0.0
 11
150.1343589070638
 21
245.2073299877085
 31
0.0
 11
150.6000101234725
 21
245.1360986091768
 31
0.0
 11
150.946906020902
 21
245.1360986091768
 31
0.0
 11
151.2415197024414
 21
245.1598541680251
 31
0.0
 11
151.7223802907467
 21
245.2898214305498
 31
0.0
 11
152.1187745458354
 21
245.4761949085808
 31
0.0
 11
152.5356742933775
 21
245.8431529914798
 31
0.0
 11
152.8588055472245
 21
246.2758006657794
 31
0.0
 11
153.0557125941232
 21
246.7330510511085
 31
0.0
 11
153.1223214951542
 21
247.2921714852189
 31
0.0
 11
153.0557125941232
 21
247.8663641684112
 31
0.0
 11
152.7759008905799
 21
248.4720426740247
 31
0.0
 11
152.3926215346468
 21
248.9283990675765
 31
0.0
 11
152.0095929832718
 21
249.2189485064684
 31
0.0
 11
151.3767065749867
 21
249.4552333666943
 31
0.0
 11
150.8470945178253
 21
249.4918374001583
 31
0.0
 11
150.4307379621472
 21
249.485201374813
 31
0.0
 11
149.9532723229234
 21
249.4152760225356
 31
0.0
 11
149.4736339162766
 21
249.3120999474808
 31
0.0
 11
148.8407475079698
 21
249.1157724314027
 31
0.0
 11
148.0069480128751
 21
248.7621569952357
 31
0.0
 11
147.4240352550828
 21
248.4493107573897
 31
0.0
 11
146.7576746488147
 21
248.0397126817901
 31
0.0
 11
146.1485528841012
 21
247.5922398444649
 31
0.0
 11
145.2879332912343
 21
246.8630889096449
 31
0.0
 11
144.5474269969576
 21
246.1530694947291
 31
0.0
 11
143.9514097357264
 21
245.5175994710373
 31
0.0
 11
143.810111954834
 21
245.3417095011343
 31
0.0
  0
SPLINE
  5
44B
330
1F
100
AcDbEntity
  8
0
  6
ByBlock
370
    40
100
AcDbSpline
210
0.0
220
0.0
230
1.0
 70
  1065
 71
     3
 72
    35
 73
    31
 74
    29
 42
0.000000001
 43
0.0000000001
 44
0.00001
 40
0.0
 40
0.0
 40
0.0
 40
0.0
 40
0.4070718340673809
 40
1.200476808480315
 40
1.892484890288552
 40
2.567383763043674
 40
3.233454562071417
 40
3.9320528966951
 40
4.500535855417092
 40
4.860895131076767
 40
5.286683835221703
 40
5.879066171614845
 40
6.323645596991053
 40
6.984959450223694
 40
7.620452298755624
 40
8.150489292829625
 40
8.745375328950721
 40
9.359852431817223
 40
10.00387786302368
 40
10.64184869074815
 40
11.23810842688072
 40
11.96398435539141
 40
12.77239205939433
 40
13.68674851746871
 40
14.21871537319116
 40
15.0325808743689
 40
15.52310742111357
 40
15.71196497320262
 40
15.96700663748289
 40
16.14614187065823
 40
16.14614187065823
 40
16.14614187065823
 40
16.14614187065823
 10
159.3405102379754
 20
257.3432084406022
 30
0.0
 10
159.2778412893182
 20
257.2227935222589
 30
0.0
 10
159.0930381640037
 20
256.8676775669016
 30
0.0
 10
158.7458034182354
 20
256.3399679292818
 30
0.0
 10
158.3517963181076
 20
255.7374133339169
 30
0.0
 10
157.9662927586922
 20
255.1801646585859
 30
0.0
 10
157.613354309977
 20
254.5974008435406
 30
0.0
 10
157.3613479617334
 20
254.0022504205053
 30
0.0
 10
157.2302604320403
 20
253.4703514725105
 30
0.0
 10
157.2248467803341
 20
253.0184191862369
 30
0.0
 10
157.2410101960623
 20
252.5549697412432
 30
0.0
 10
157.4555084725824
 20
252.100415038598
 30
0.0
 10
157.814855036928
 20
251.6615748481196
 30
0.0
 10
158.2752612141493
 20
251.2963707330027
 30
0.0
 10
158.8418411848541
 20
251.0518475672469
 30
0.0
 10
159.4332205271309
 20
250.9831330649253
 30
0.0
 10
160.0106479354694
 20
251.109665074761
 30
0.0
 10
160.5520036688036
 20
251.4240694701975
 30
0.0
 10
161.0044298712905
 20
251.8726780117756
 30
0.0
 10
161.3550850029601
 20
252.3979115624507
 30
0.0
 10
161.5345809747469
 20
253.0457096287027
 30
0.0
 10
161.3955790225248
 20
253.7562177319087
 30
0.0
 10
161.1583676232017
 20
254.5386036799512
 30
0.0
 10
160.760243971259
 20
255.1839689379967
 30
0.0
 10
160.3350785486577
 20
255.8048187997251
 30
0.0
 10
159.9814025670384
 20
256.304228703358
 30
0.0
 10
159.6932298537372
 20
256.7113029812337
 30
0.0
 10
159.5459529064888
 20
256.9859940347224
 30
0.0
 10
159.4384434364658
 20
257.1637306632285
 30
0.0
 10
159.3691173126142
 20
257.2907884619621
 30
0.0
 10
159.3405102379754
 20
257.3432084406022
 30
0.0
 11
159.3405102379754
 21
257.3432084406022
 31
0.0
 11
159.1484240187781
 21
256.9842983033465
 31
0.0
 11
158.7276540292883
 21
256.3116594780642
 31
0.0
 11
158.3461296511935
 21
255.7343252722339
 31
0.0
 11
157.9702408885688
 21
255.173792917832
 31
0.0
 11
157.6328508485681
 21
254.599494340619
 31
0.0
 11
157.3635634872049
 21
253.9548821330508
 31
0.0
 11
157.2401231385091
 21
253.3999621617983
 31
0.0
 11
157.227697624854
 21
253.0398165942932
 31
0.0
 11
157.2630729943121
 21
252.6154992496915
 31
0.0
 11
157.4991577536401
 21
252.0721923228053
 31
0.0
 11
157.7784262653195
 21
251.726271852198
 31
0.0
 11
158.2975139803115
 21
251.3165325845819
 31
0.0
 11
158.8834821922719
 21
251.070576070381
 31
0.0
 11
159.4104461891227
 21
251.013569788747
 31
0.0
 11
159.9924762601374
 21
251.1365833438425
 31
0.0
 11
160.527316538879
 21
251.4391225635929
 31
0.0
 11
160.9890975133293
 21
251.8880426192226
 31
0.0
 11
161.3315120779709
 21
252.4263372290789
 31
0.0
 11
161.4805503427696
 21
253.0036714349174
 31
0.0
 11
161.3901088991692
 21
253.723891973912
 31
0.0
 11
161.1384073740653
 21
254.4921178027006
 31
0.0
 11
160.6860643580674
 21
255.2867465408866
 31
0.0
 11
160.3871730406906
 21
255.726806796701
 31
0.0
 11
159.9189416629798
 21
256.3924919145621
 31
0.0
 11
159.6475494331699
 21
256.8011016459617
 31
0.0
 11
159.5551930986926
 21
256.9658369732955
 31
0.0
 11
159.4272851365892
 21
257.186485288614
 31
0.0
 11
159.3405102379754
 21
257.3432084406022
 31
0.0
  0
SPLINE
  5
44C
330
1F
100
AcDbEntity
  8
0
  6
ByBlock
370
    40
100
AcDbSpline
210
0.0
220
0.0
230
1.0
 70
  1065
 71
     3
 72
    35
 73
    31
 74
    29
 42
0.000000001
 43
0.0000000001
 44
0.00001
 40
0.0
 40
0.0
 40
0.0
 40
0.0
 40
0.4070718340674345
 40
1.200476808491794
 40
1.892484890294092
 40
2.567383763049135
 40
3.233454562071508
 40
3.932052896703495
 40
4.500535855425481
 40
4.860895131084784
 40
5.286683835230613
 40
5.87906617161952
 40
6.323645596995746
 40
6.984959450219909
 40
7.620452298741776
 40
8.150489292837194
 40
8.74537532896883
 40
9.359852431826103
 40
10.00387786303254
 40
10.64184869076281
 40
11.23810842689265
 40
11.96398435540333
 40
12.77239205940956
 40
13.6867485174786
 40
14.21871537319502
 40
15.03258087438523
 40
15.52310742112392
 40
15.71196497321293
 40
15.96700663749318
 40
16.14614187066331
 40
16.14614187066331
 40
16.14614187066331
 40
16.14614187066331
 10
166.0248933890802
 20
257.3432084406022
 30
0.0
 10
165.9622244404237
 20
257.2227935222584
 30
0.0
 10
165.7774213151095
 20
256.8676775668965
 30
0.0
 10
165.4301865693128
 20
256.3399679292922
 30
0.0
 10
165.0361794692055
 20
255.7374133339122
 30
0.0
 10
164.6506759097818
 20
255.1801646585905
 30
0.0
 10
164.2977374610889
 20
254.5974008435319
 30
0.0
 10
164.0457311128129
 20
254.0022504205105
 30
0.0
 10
163.9146435831195
 20
253.4703514725106
 30
0.0
 10
163.9092299314287
 20
253.018419186236
 30
0.0
 10
163.9253933471731
 20
252.5549697412464
 30
0.0
 10
164.1398916236737
 20
252.1004150385953
 30
0.0
 10
164.4992381880223
 20
251.6615748481232
 30
0.0
 10
164.9596443652309
 20
251.2963707330029
 30
0.0
 10
165.5262243359365
 20
251.051847567242
 30
0.0
 10
166.1176036782211
 20
250.9831330649269
 30
0.0
 10
166.6950310865686
 20
251.1096650747557
 30
0.0
 10
167.2363868199
 20
251.4240694702011
 30
0.0
 10
167.6888130223819
 20
251.8726780117787
 30
0.0
 10
168.0394681540704
 20
252.3979115624455
 30
0.0
 10
168.2189641258348
 20
253.0457096287051
 30
0.0
 10
168.0799621736234
 20
253.7562177319102
 30
0.0
 10
167.8427507742804
 20
254.538603679947
 30
0.0
 10
167.4446271223492
 20
255.1839689379932
 30
0.0
 10
167.0194616997667
 20
255.8048187997357
 30
0.0
 10
166.665785718116
 20
256.3042287033468
 30
0.0
 10
166.3776130048308
 20
256.7113029812359
 30
0.0
 10
166.2303360575833
 20
256.9859940347225
 30
0.0
 10
166.1228265875575
 20
257.1637306632252
 30
0.0
 10
166.0535004637148
 20
257.2907884619617
 30
0.0
 10
166.0248933890802
 20
257.3432084406022
 30
0.0
 11
166.0248933890802
 21
257.3432084406022
 31
0.0
 11
165.8328071698827
 21
256.9842983033465
 31
0.0
 11
165.4120371803714
 21
256.3116594780642
 31
0.0
 11
165.0305128022874
 21
255.7343252722339
 31
0.0
 11
164.6546240396628
 21
255.173792917832
 31
0.0
 11
164.3172339996727
 21
254.599494340619
 31
0.0
 11
164.047946638288
 21
253.9548821330508
 31
0.0
 11
163.9245062895922
 21
253.3999621617983
 31
0.0
 11
163.9120807759479
 21
253.0398165942932
 31
0.0
 11
163.9474561454167
 21
252.6154992496915
 31
0.0
 11
164.1835409047341
 21
252.0721923228053
 31
0.0
 11
164.4628094164136
 21
251.726271852198
 31
0.0
 11
164.9818971313948
 21
251.3165325845819
 31
0.0
 11
165.5678653433442
 21
251.070576070381
 31
0.0
 11
166.0948293402165
 21
251.013569788747
 31
0.0
 11
166.676859411242
 21
251.1365833438425
 31
0.0
 11
167.211699689973
 21
251.4391225635929
 31
0.0
 11
167.6734806644233
 21
251.8880426192226
 31
0.0
 11
168.0158952290757
 21
252.4263372290789
 31
0.0
 11
168.1649334938635
 21
253.0036714349174
 31
0.0
 11
168.074492050263
 21
253.723891973912
 31
0.0
 11
167.8227905251485
 21
254.4921178027006
 31
0.0
 11
167.3704475091615
 21
255.2867465408866
 31
0.0
 11
167.0715561917954
 21
255.726806796701
 31
0.0
 11
166.6033248140629
 21
256.3924919145621
 31
0.0
 11
166.3319325842638
 21
256.8011016459617
 31
0.0
 11
166.2395762497866
 21
256.9658369732955
 31
0.0
 11
166.1116682876832
 21
257.186485288614
 31
0.0
 11
166.0248933890802
 21
257.3432084406022
 31
0.0
  0
LINE
  5
44D
330
1F
100
AcDbEntity
  8
0
  6
ByBlock
370
    40
100
AcDbLine
 10
166.2292693239478
 20
244.4067711843189
 30
0.0
 11
166.2292693239478
 21
241.4236659994726
 31
0.0
  0
LINE
  5
44E
330
1F
100
AcDbEntity
  8
0
  6
ByBlock
370
    40
100
AcDbLine
 10
166.2292693239478
 20
239.6928282162139
 30
0.0
 11
166.2292693239478
 21
238.0337512816029
 31
0.0
  0
LINE
  5
44F
330
1F
100
AcDbEntity
  8
0
  6
ByBlock
370
    40
100
AcDbLine
 10
166.2292693239478
 20
236.2915828380311
 30
0.0
 11
166.2292693239478
 21
233.101913715035
 31
0.0
  0
LINE
  5
450
330
1F
100
AcDbEntity
  8
0
  6
ByBlock
370
    40
100
AcDbLine
 10
169.4264286746179
 20
231.9756249011691
 30
0.0
 11
169.4264286746179
 21
236.8139580466464
 31
0.0
  0
LINE
  5
451
330
1F
100
AcDbEntity
  8
0
  6
ByBlock
370
    40
100
AcDbLine
 10
169.4264286746179
 20
238.5344182157884
 30
0.0
 11
169.4264286746179
 21
240.2110382599856
 31
0.0
  0
LINE
  5
452
330
1F
100
AcDbEntity
  8
0
  6
ByBlock
370
    40
100
AcDbLine
 10
169.4264286746179
 20
241.9354165079258
 30
0.0
 11
169.4264286746179
 21
243.8412618108948
 31
0.0
  0
LINE
  5
453
330
1F
100
AcDbEntity
  8
0
  6
ByBlock
370
    40
100
AcDbLine
 10
166.2292693239478
 20
241.4236659994726
 30
0.0
 11
169.4264286746179
 21
241.9354165079258
 31
0.0
  0
LINE
  5
454
330
1F
100
AcDbEntity
  8
0
  6
ByBlock
370
    40
100
AcDbLine
 10
169.4264286746179
 20
240.2110382599856
 30
0.0
 11
166.2292693239478
 21
239.6928282162166
 31
0.0
  0
LINE
  5
455
330
1F
100
AcDbEntity
  8
0
  6
ByBlock
370
    40
100
AcDbLine
 10
166.2292693239478
 20
238.0337512816029
 30
0.0
 11
169.4264286746179
 21
238.5344182157912
 31
0.0
  0
LINE
  5
456
330
1F
100
AcDbEntity
  8
0
  6
ByBlock
370
    40
100
AcDbLine
 10
166.2292693239478
 20
236.2915828380325
 30
0.0
 11
169.4264286746179
 21
236.8139580466464
 31
0.0
  0
SPLINE
  5
457
330
1F
100
AcDbEntity
  8
0
  6
ByBlock
370
    40
100
AcDbSpline
210
0.0
220
0.0
230
1.0
 70
  1064
 71
     3
 72
    57
 73
    53
 74
    51
 42
0.000000001
 43
0.0000000001
 44
0.00001
 40
0.0
 40
0.0
 40
0.0
 40
0.0
 40
0.4158578909166045
 40
0.9648743934404555
 40
1.727439431771556
 40
2.265191833121689
 40
2.957789432219366
 40
3.551445539834017
 40
4.108225869013469
 40
4.804822080484075
 40
5.480586041188497
 40
6.128273298314554
 40
6.942076733392109
 40
7.508109601365021
 40
8.035421131982113
 40
8.637058315107429
 40
9.185736286733657
 40
9.645624086379509
 40
10.31246782431796
 40
10.81720201509458
 40
11.32622262436963
 40
11.91619459110419
 40
12.37640059388036
 40
12.90701333259079
 40
13.48682452403627
 40
14.03218890977125
 40
14.45959100822454
 40
14.88775445477125
 40
15.42954054982628
 40
15.97442014513027
 40
16.19132681697908
 40
16.48586395579437
 40
16.87424901687732
 40
17.45230006876289
 40
17.99476277801668
 40
18.79715760707167
 40
19.59166169635599
 40
20.3575353435469
 40
21.19809979177293
 40
22.07137870405888
 40
23.06408637518466
 40
24.0786295528937
 40
25.24365789545459
 40
26.45867167627561
 40
27.65214107408542
 40
29.15241205778107
 40
30.70888596761768
 40
32.16150901341781
 40
32.8231618726433
 40
33.688836990673
 40
34.80183441343254
 40
35.53703753244369
 40
35.53703753244369
 40
35.53703753244369
 40
35.53703753244369
 10
166.2292693239586
 20
244.4067711843215
 30
0.0
 10
166.2172218775745
 20
244.5451414228646
 30
0.0
 10
166.1892841503533
 20
244.8661900056947
 30
0.0
 10
166.0347259350048
 20
245.4225047486104
 30
0.0
 10
165.8031135036483
 20
246.0017048447046
 30
0.0
 10
165.3813901667285
 20
246.5216547350361
 30
0.0
 10
164.9284498363005
 20
246.9310898190981
 30
0.0
 10
164.3906395634038
 20
247.2424626141442
 30
0.0
 10
163.7921070126244
 20
247.4008157649817
 30
0.0
 10
163.1525672759552
 20
247.492356894897
 30
0.0
 10
162.4785401066625
 20
247.4550757528858
 30
0.0
 10
161.766226607705
 20
247.4179663855029
 30
0.0
 10
161.1074509899393
 20
247.2320680782956
 30
0.0
 10
160.5435548668705
 20
246.9317425902908
 30
0.0
 10
160.0987839209137
 20
246.579060134931
 30
0.0
 10
159.7280360509661
 20
246.1544020192249
 30
0.0
 10
159.4646452187264
 20
245.6845311503156
 30
0.0
 10
159.2301437739702
 20
245.1772059098869
 30
0.0
 10
159.0578237906198
 20
244.6605517472135
 30
0.0
 10
158.8020332120192
 20
244.1588036890874
 30
0.0
 10
158.4838708512383
 20
243.7293196823524
 30
0.0
 10
158.1327618894345
 20
243.3365926684516
 30
0.0
 10
157.6608207570397
 20
243.0858323435513
 30
0.0
 10
157.1483050712919
 20
242.9555439817862
 30
0.0
 10
156.5906810480421
 20
242.9657528132933
 30
0.0
 10
156.082559496996
 20
243.0860263092713
 30
0.0
 10
155.6632730171919
 20
243.30021033755
 30
0.0
 10
155.3095933972643
 20
243.6147036038486
 30
0.0
 10
155.0654641514166
 20
244.063732457471
 30
0.0
 10
154.9401280513211
 20
244.4899165302739
 30
0.0
 10
154.9573246495735
 20
244.8428146631626
 30
0.0
 10
154.9409215804925
 20
245.1429805268835
 30
0.0
 10
154.9947845707111
 20
245.5604954904352
 30
0.0
 10
155.1158561695322
 20
246.0577168185277
 30
0.0
 10
155.5012208853184
 20
246.5810343079229
 30
0.0
 10
155.993343563789
 20
247.0976478681397
 30
0.0
 10
156.6274506370723
 20
247.5716166467521
 30
0.0
 10
157.327518778033
 20
247.9622545169316
 30
0.0
 10
158.0859418081906
 20
248.2932670915177
 30
0.0
 10
158.9371366092569
 20
248.595137888936
 30
0.0
 10
159.8713277962636
 20
248.8246519435871
 30
0.0
 10
160.9162282459091
 20
248.9891233133035
 30
0.0
 10
162.042824662798
 20
249.1113636938394
 30
0.0
 10
163.2353635115975
 20
249.1035726881758
 30
0.0
 10
164.5379523931024
 20
249.0484631946361
 30
0.0
 10
165.9359084142443
 20
248.7401134681659
 30
0.0
 10
167.2814493763902
 20
248.0390017609236
 30
0.0
 10
168.2159336068348
 20
247.2160223711417
 30
0.0
 10
168.7546749653061
 20
246.3764686510204
 30
0.0
 10
169.1343248124254
 20
245.5817463329675
 30
0.0
 10
169.3985043085233
 20
244.7041017007148
 30
0.0
 10
169.4184778298419
 20
244.0868145988043
 30
0.0
 10
169.4264286746286
 20
243.8412618108975
 30
0.0
 11
166.2292693239586
 21
244.4067711843215
 31
0.0
 11
166.1822832286359
 21
244.8199696566491
 31
0.0
 11
166.0456025784945
 21
245.3516988371783
 31
0.0
 11
165.7363227169116
 21
246.0487285854404
 31
0.0
 11
165.4055188781455
 21
246.4726929499651
 31
0.0
 11
164.8876533448228
 21
246.932590685831
 31
0.0
 11
164.3699915084505
 21
247.2231991791475
 31
0.0
 11
163.835558623577
 21
247.3793575630132
 31
0.0
 11
163.1448901818733
 21
247.470038143521
 31
0.0
 11
162.4692953140922
 21
247.4549305964397
 31
0.0
 11
161.8239833921519
 21
247.3995127251256
 31
0.0
 11
161.0409723353296
 21
247.1777706438665
 31
0.0
 11
160.5418469209702
 21
246.9108118153857
 31
0.0
 11
160.1284779204624
 21
246.5834227985687
 31
0.0
 11
159.7343922307492
 21
246.1288197637807
 31
0.0
 11
159.4571606885295
 21
245.655332295143
 31
0.0
 11
159.2655497622306
 21
245.2372626978167
 31
0.0
 11
159.023014599631
 21
244.6160883670412
 31
0.0
 11
158.7910716781879
 21
244.1678036755456
 31
0.0
 11
158.49360623942
 21
243.7547463952425
 31
0.0
 11
158.079218754193
 21
243.3348060035314
 31
0.0
 11
157.6758988029669
 21
243.1131698163026
 31
0.0
 11
157.161699814674
 21
242.9822142095696
 31
0.0
 11
156.5819104100261
 21
242.9872618246033
 31
0.0
 11
156.0525020498259
 21
243.1182174313337
 31
0.0
 11
155.6733541361044
 21
243.315497993596
 31
0.0
 11
155.3557226997644
 21
243.6026119841906
 31
0.0
 11
155.0835156821748
 21
244.0710518377999
 31
0.0
 11
154.9524027485598
 21
244.5999218797427
 31
0.0
 11
154.9528780414258
 21
244.8168281340067
 31
0.0
 11
154.9503657790892
 21
245.1113547061269
 31
0.0
 11
154.9925310467429
 21
245.4974443089235
 31
0.0
 11
155.1545380170281
 21
246.0523289821736
 31
0.0
 11
155.4556021018173
 21
246.503578706267
 31
0.0
 11
156.0106083781419
 21
247.0830660905396
 31
0.0
 11
156.6445132711461
 21
247.5620247502982
 31
0.0
 11
157.3109417764229
 21
247.9394310433254
 31
0.0
 11
158.0794903501195
 21
248.2798450248012
 31
0.0
 11
158.9035802908354
 21
248.5687945117717
 31
0.0
 11
159.8667273460768
 21
248.8092445368519
 31
0.0
 11
160.8678299320458
 21
248.9738391444458
 31
0.0
 11
162.0272729433133
 21
249.0877811117006
 31
0.0
 11
163.2422573216218
 21
249.0962173354166
 31
0.0
 11
164.4334091573284
 21
249.0218797322463
 31
0.0
 11
165.8949347381475
 21
248.6831247571045
 31
0.0
 11
167.2771543083216
 21
247.9675282570605
 31
0.0
 11
168.3436436136846
 21
246.9812666377615
 31
0.0
 11
168.7071747616195
 21
246.4284292489302
 31
0.0
 11
169.0811623527692
 21
245.6477079255906
 31
0.0
 11
169.3772698118829
 21
244.5748249966133
 31
0.0
 11
169.4264286746286
 21
243.8412618108975
 31
0.0
  0
SPLINE
  5
458
330
1F
100
AcDbEntity
  8
0
  6
ByBlock
370
    40
100
AcDbSpline
210
0.0
220
0.0
230
1.0
 70
  1064
 71
     3
 72
    27
 73
    23
 74
    21
 42
0.000000001
 43
0.0000000001
 44
0.00001
 40
0.0
 40
0.0
 40
0.0
 40
0.0
 40
0.7709328502826791
 40
1.559922625367435
 40
2.485372734860593
 40
3.237137203496455
 40
4.010498401450185
 40
4.888638290943254
 40
5.508126014961606
 40
6.046731327388664
 40
6.691842366924599
 40
7.30599577887123
 40
7.743622495861743
 40
8.178746271449581
 40
8.672992744165799
 40
9.166414995554598
 40
9.620061930444734
 40
10.0743240429743
 40
10.48698992605893
 40
10.98369380313743
 40
11.47377464446595
 40
11.71974010574083
 40
11.71974010574083
 40
11.71974010574083
 40
11.71974010574083
 10
166.2292693239586
 20
233.1019137150363
 30
0.0
 10
166.0367920821171
 20
232.9314800342395
 30
0.0
 10
165.6473198772803
 20
232.5866318360612
 30
0.0
 10
164.9715572147699
 20
232.104004696007
 30
0.0
 10
164.2464629063808
 20
231.7117568429073
 30
0.0
 10
163.4905363563669
 20
231.400126965955
 30
0.0
 10
162.7255066606247
 20
231.1573247983712
 30
0.0
 10
161.9771446638108
 20
231.0272572459158
 30
0.0
 10
161.3003678960031
 20
230.9751765437012
 30
0.0
 10
160.6986508430425
 20
230.9557087544356
 30
0.0
 10
160.1012717165711
 20
231.0155674860636
 30
0.0
 10
159.5448118868219
 20
231.1394301186092
 30
0.0
 10
159.0984921923627
 20
231.3618000175146
 30
0.0
 10
158.7230303689461
 20
231.6224110679091
 30
0.0
 10
158.3796307706932
 20
231.9523875607957
 30
0.0
 10
158.0857879150591
 20
232.3356547527693
 30
0.0
 10
157.8806755118525
 20
232.7592621451644
 30
0.0
 10
157.7743380481796
 20
233.1890844434168
 30
0.0
 10
157.726226027441
 20
233.6412396802341
 30
0.0
 10
157.7210961134784
 20
234.1106688615985
 30
0.0
 10
157.811593045063
 20
234.5137387003584
 30
0.0
 10
157.8746209877897
 20
234.7507059606442
 30
0.0
 10
157.8956878066706
 20
234.8298923597126
 30
0.0
 11
166.2292693239586
 21
233.1019137150363
 31
0.0
 11
165.6433690109853
 21
232.6008585027701
 31
0.0
 11
165.0006372503472
 21
232.1432551373805
 31
0.0
 11
164.188022237522
 21
231.7004063389979
 31
0.0
 11
163.4935514528359
 21
231.4125510902471
 31
0.0
 11
162.7548105321034
 21
231.1837494075421
 31
0.0
 11
161.8904564952304
 21
231.0287558579103
 31
0.0
 11
161.2730510547361
 21
230.9779973235533
 31
0.0
 11
160.7345442309861
 21
230.9676550074432
 31
0.0
 11
160.092423561188
 21
231.0297089041081
 31
0.0
 11
159.4968815928013
 21
231.1797607327363
 31
0.0
 11
159.1033390949519
 21
231.3711818258011
 31
0.0
 11
158.7460546533163
 21
231.6195386044895
 31
0.0
 11
158.3887023127155
 21
231.9609762281747
 31
0.0
 11
158.0924590556168
 21
232.355572650707
 31
0.0
 11
157.8956878066706
 21
232.7643235741405
 31
0.0
 11
157.7817533154142
 21
233.2040661478859
 31
0.0
 11
157.7351067149943
 21
233.6140877995714
 31
0.0
 11
157.7403349365963
 21
234.1107660589417
 31
0.0
 11
157.833492339462
 21
234.5919131951409
 31
0.0
 11
157.8956878066706
 21
234.8298923597126
 31
0.0
  0
LINE
  5
459
330
1F
100
AcDbEntity
  8
0
  6
ByBlock
370
    40
100
AcDbLine
 10
157.8956878066706
 20
234.8298923597087
 30
0.0
 11
154.2825113952142
 21
234.2332501439428
 31
0.0
  0
SPLINE
  5
45A
330
1F
100
AcDbEntity
  8
0
  6
ByBlock
370
    40
100
AcDbSpline
210
0.0
220
0.0
230
1.0
 70
  1064
 71
     3
 72
    22
 73
    18
 74
    16
 42
0.000000001
 43
0.0000000001
 44
0.00001
 40
0.0
 40
0.0
 40
0.0
 40
0.0
 40
0.7415860590483523
 40
1.630521699546401
 40
2.574551612468887
 40
3.794096913698069
 40
5.136073717125847
 40
6.528612333067576
 40
7.770588209679861
 40
8.771135870616115
 40
9.654470788252815
 40
10.73857598727088
 40
11.7763827037215
 40
12.79303186203154
 40
13.56521952053621
 40
14.85258913169381
 40
15.94332227003532
 40
15.94332227003532
 40
15.94332227003532
 40
15.94332227003532
 10
154.2825113952359
 20
234.2332501439441
 30
0.0
 10
154.2668919739473
 20
233.9860488168334
 30
0.0
 10
154.2325620268369
 20
233.4425281480195
 30
0.0
 10
154.3489046717289
 20
232.587552973501
 30
0.0
 10
154.6137271867487
 20
231.5998126960383
 30
0.0
 10
155.2264377524198
 20
230.580653593684
 30
0.0
 10
156.2112766256107
 20
229.6851142290416
 30
0.0
 10
157.3886777373974
 20
229.0367336501817
 30
0.0
 10
158.5865467698597
 20
228.7893853354197
 30
0.0
 10
159.6269298582336
 20
228.7190511297925
 30
0.0
 10
160.6163043068453
 20
228.732387552493
 30
0.0
 10
161.6191320031242
 20
228.8021668655237
 30
0.0
 10
162.6358131594163
 20
229.06616012127
 30
0.0
 10
163.5230952758223
 20
229.3849099185174
 30
0.0
 10
164.4596642337218
 20
229.8046703083108
 30
0.0
 10
165.3635825672427
 20
230.3483806221178
 30
0.0
 10
165.9842057025171
 20
230.8421611219482
 30
0.0
 10
166.2688544302887
 20
231.0686426060534
 30
0.0
 11
154.2825113952359
 21
234.2332501439441
 31
0.0
 11
154.2579998628608
 21
233.4920625886667
 31
0.0
 11
154.3643296681527
 21
232.6095065145385
 31
0.0
 11
154.6260802425599
 21
231.7024889214216
 31
0.0
 11
155.2481707127599
 21
230.6535380413358
 31
0.0
 11
156.2296504930531
 21
229.7383313105402
 31
0.0
 11
157.4578751727639
 21
229.0821060586071
 31
0.0
 11
158.6683782182738
 21
228.8042754439015
 31
0.0
 11
159.6662216531569
 21
228.7307496949004
 31
0.0
 11
160.5495195058894
 21
228.7389035345605
 31
0.0
 11
161.6291812136785
 21
228.83696139857
 31
0.0
 11
162.6374131927459
 21
229.0829532107828
 31
0.0
 11
163.5943814406532
 21
229.4261557348295
 31
0.0
 11
164.2977469919171
 21
229.744826143865
 31
0.0
 11
165.4019202321135
 21
230.4067343749606
 31
0.0
 11
166.2688544302887
 21
231.0686426060534
 31
0.0
  0
SPLINE
  5
45B
330
1F
100
AcDbEntity
  8
0
  6
ByBlock
370
    40
100
AcDbSpline
210
0.0
220
0.0
230
1.0
 70
  1064
 71
     3
 72
    19
 73
    15
 74
    13
 42
0.000000001
 43
0.0000000001
 44
0.00001
 40
0.0
 40
0.0
 40
0.0
 40
0.0
 40
0.2507919980740591
 40
0.9721556876155542
 40
1.712087936643158
 40
2.364645601780143
 40
3.216838510485736
 40
4.040382671845843
 40
4.984521381070486
 40
5.748778045849206
 40
6.582715260885354
 40
7.319746847212147
 40
8.032700592129117
 40
8.510774008484546
 40
8.510774008484546
 40
8.510774008484546
 40
8.510774008484546
 10
166.2688544302887
 20
231.0686426060534
 30
0.0
 10
166.2848785234174
 20
230.9865866902007
 30
0.0
 10
166.347012913
 20
230.6685137160179
 30
0.0
 10
166.4725358923279
 20
230.1122039367982
 30
0.0
 10
166.7985579533968
 20
229.4637787354152
 30
0.0
 10
167.4080560901513
 20
229.0050944663274
 30
0.0
 10
168.1477785276617
 20
228.7161568889354
 30
0.0
 10
169.0288096000419
 20
228.7355245708794
 30
0.0
 10
169.8781419005976
 20
228.7876079038341
 30
0.0
 10
170.6686008808696
 20
229.122585950542
 30
0.0
 10
171.3202906941222
 20
229.5562462887333
 30
0.0
 10
171.8610710689774
 20
230.095452277394
 30
0.0
 10
172.2945607293706
 20
230.5698691192803
 30
0.0
 10
172.544902646707
 20
230.8781227058645
 30
0.0
 10
172.6453835984193
 20
231.0018587764224
 30
0.0
 11
166.2688544302887
 21
231.0686426060534
 31
0.0
 11
166.3175380001575
 21
230.8226154958409
 31
0.0
 11
166.4999825639414
 21
230.1247032974008
 31
0.0
 11
166.8581496923543
 21
229.4772319512556
 31
0.0
 11
167.3669167621165
 21
229.0685869218455
 31
0.0
 11
168.1649334938743
 21
228.7695775028235
 31
0.0
 11
168.9879370509165
 21
228.7396800907259
 31
0.0
 11
169.925689886973
 21
228.8493157010964
 31
0.0
 11
170.6353021445686
 21
229.1331116790177
 31
0.0
 11
171.3286186465721
 21
229.5965392156011
 31
0.0
 11
171.8623046426316
 21
230.1048658173494
 31
0.0
 11
172.3411282614988
 21
230.6331004951636
 31
0.0
 11
172.6453835984193
 21
231.0018587764224
 31
0.0
  0
LINE
  5
45C
330
1F
100
AcDbEntity
  8
0
  6
ByBlock
370
    40
100
AcDbLine
 10
172.6453835984085
 20
231.001858776421
 30
0.0
 11
171.8680760560542
 21
231.8765433949396
 31
0.0
  0
SPLINE
  5
45D
330
1F
100
AcDbEntity
  8
0
  6
ByBlock
370
    40
100
AcDbSpline
210
0.0
220
0.0
230
1.0
 70
  1064
 71
     3
 72
    19
 73
    15
 74
    13
 42
0.000000001
 43
0.0000000001
 44
0.00001
 40
0.0
 40
0.0
 40
0.0
 40
0.0
 40
0.2928347067594101
 40
0.6780740143358058
 40
1.138523102236443
 40
1.561456022267247
 40
1.886571752858679
 40
2.109989568677536
 40
2.352478671157779
 40
2.509525236265071
 40
2.759995490258839
 40
3.006783095120175
 40
3.325785164257811
 40
3.582003727718136
 40
3.582003727718136
 40
3.582003727718136
 40
3.582003727718136
 10
171.8680760560651
 20
231.8765433949422
 30
0.0
 10
171.7919751309716
 20
231.8153754576808
 30
0.0
 10
171.6157495361436
 20
231.673750310835
 30
0.0
 10
171.3182714801754
 20
231.4390009175818
 30
0.0
 10
170.9872317450981
 20
231.1717009571591
 30
0.0
 10
170.6236629596521
 20
230.9976771276085
 30
0.0
 10
170.3178248011867
 20
230.8759675727753
 30
0.0
 10
170.0549261973485
 20
230.8676826373998
 30
0.0
 10
169.8408949820314
 20
230.8369110859912
 30
0.0
 10
169.6443241324123
 20
230.9567794664459
 30
0.0
 10
169.5579119146298
 20
231.166911573328
 30
0.0
 10
169.4869112922479
 20
231.4271768255629
 30
0.0
 10
169.4396678907775
 20
231.6987689934012
 30
0.0
 10
169.4305053400165
 20
231.8903080133416
 30
0.0
 10
169.4264286746286
 20
231.9756249011718
 30
0.0
 11
171.8680760560651
 21
231.8765433949422
 31
0.0
 11
171.6395959826906
 21
231.6933820355651
 31
0.0
 11
171.3379887060376
 21
231.4537085666434
 31
0.0
 11
170.9678713568787
 21
231.1797960307388
 31
0.0
 11
170.5908962105587
 21
230.9880572556023
 31
0.0
 11
170.2824311367554
 21
230.8853400546424
 31
0.0
 11
170.060061971728
 21
230.8637023762297
 31
0.0
 11
169.8175947081262
 21
230.8670909849174
 31
0.0
 11
169.6828831284468
 21
230.9478175273944
 31
0.0
 11
169.5631093247592
 21
231.1677947082947
 31
0.0
 11
169.496364625765
 21
231.4053855947857
 31
0.0
 11
169.4434034200479
 21
231.7199614349867
 31
0.0
 11
169.4264286746286
 21
231.9756249011718
 31
0.0
  0
LINE
  5
45E
330
1F
100
AcDbEntity
  8
0
  6
ByBlock
370
    40
100
AcDbLine
 10
165.0604562532147
 20
239.4818167291389
 30
0.0
 11
156.8297416931824
 21
238.0694375668892
 31
0.0
  0
LINE
  5
45F
330
1F
100
AcDbEntity
  8
0
  6
ByBlock
370
    40
100
AcDbLine
 10
154.972772443039
 20
236.0849836018735
 30
0.0
 11
159.2840861842003
 21
236.8181938075123
 31
0.0
  0
SPLINE
  5
460
330
1F
100
AcDbEntity
  8
0
  6
ByBlock
370
    40
100
AcDbSpline
210
0.0
220
0.0
230
1.0
 70
  1064
 71
     3
 72
    13
 73
     9
 74
     7
 42
0.000000001
 43
0.0000000001
 44
0.00001
 40
0.0
 40
0.0
 40
0.0
 40
0.0
 40
0.4304318262663021
 40
1.045532391753506
 40
1.659221682900547
 40
2.034886802430148
 40
2.404028041768687
 40
2.736817226793003
 40
2.736817226793003
 40
2.736817226793003
 40
2.736817226793003
 10
156.8297416931824
 20
238.0694375668932
 30
0.0
 10
156.7188734405829
 20
237.9783564299102
 30
0.0
 10
156.4495734689232
 20
237.7571145580765
 30
0.0
 10
156.0300917211602
 20
237.3967190616538
 30
0.0
 10
155.6464796111184
 20
237.0222266649568
 30
0.0
 10
155.3582394197654
 20
236.6730682945121
 30
0.0
 10
155.1354848028661
 20
236.3898233129299
 30
0.0
 10
155.0250993915824
 20
236.1830299513013
 30
0.0
 10
154.9727724430498
 20
236.0849836018762
 30
0.0
 11
156.8297416931824
 21
238.0694375668932
 31
0.0
 11
156.4979872686733
 21
237.7952073489181
 31
0.0
 11
156.0339656278346
 21
237.3914334445189
 31
0.0
 11
155.5998195389253
 21
236.9576915319902
 31
0.0
 11
155.3578954671767
 21
236.6702951573357
 31
0.0
 11
155.137563271609
 21
236.3741095788843
 31
0.0
 11
154.9727724430498
 21
236.0849836018762
 31
0.0
  0
SPLINE
  5
461
330
1F
100
AcDbEntity
  8
0
  6
ByBlock
370
    40
100
AcDbSpline
210
0.0
220
0.0
230
1.0
 70
  1064
 71
     3
 72
    19
 73
    15
 74
    13
 42
0.000000001
 43
0.0000000001
 44
0.00001
 40
0.0
 40
0.0
 40
0.0
 40
0.0
 40
0.4257201053474612
 40
0.9925452311340499
 40
1.544720307617485
 40
2.001713751012306
 40
2.693619324856372
 40
3.319749971172566
 40
3.882308528335084
 40
4.527954536210705
 40
5.236666801808267
 40
5.706512111005419
 40
6.10338461795773
 40
6.425806411319598
 40
6.425806411319598
 40
6.425806411319598
 40
6.425806411319598
 10
159.2840861842112
 20
236.8181938075137
 30
0.0
 10
159.389449183148
 20
236.9132939714046
 30
0.0
 10
159.6351082340083
 20
237.1350033537747
 30
0.0
 10
160.0488228737667
 20
237.4437471091153
 30
0.0
 10
160.5001213871233
 20
237.7129603170972
 30
0.0
 10
160.9788588028571
 20
238.0172873372266
 30
0.0
 10
161.5085642072771
 20
238.2830610835418
 30
0.0
 10
162.0811440438183
 20
238.5384535500631
 30
0.0
 10
162.6523100659253
 20
238.7572934625077
 30
0.0
 10
163.2564701606529
 20
238.9659502727522
 30
0.0
 10
163.8420509251893
 20
239.1310024527196
 30
0.0
 10
164.3503141641384
 20
239.262334570116
 30
0.0
 10
164.7346212608706
 20
239.3611943232909
 30
0.0
 10
164.9596054085554
 20
239.4444873355035
 30
0.0
 10
165.0604562532255
 20
239.481816729143
 30
0.0
 11
159.2840861842112
 21
236.8181938075137
 31
0.0
 11
159.6038903879526
 21
237.0992012428708
 31
0.0
 11
160.0580666764491
 21
237.4383444960933
 31
0.0
 11
160.5258906602919
 21
237.7316709359556
 31
0.0
 11
160.9158345120984
 21
237.969967782595
 31
0.0
 11
161.5303881953317
 21
238.2878616354748
 31
0.0
 11
162.1027766109544
 21
238.5416543072655
 31
0.0
 11
162.6274320424405
 21
238.7446531467061
 31
0.0
 11
163.2383870796634
 21
238.9534408593138
 31
0.0
 11
163.9194138659752
 21
239.1495918853405
 31
0.0
 11
164.3739975483615
 21
239.2683696795781
 31
0.0
 11
164.7564046132337
 21
239.3745460852494
 31
0.0
 11
165.0604562532255
 21
239.481816729143
 31
0.0
  0
LINE
  5
462
330
1F
100
AcDbEntity
  8
0
  6
ByBlock
370
    40
100
AcDbLine
 10
178.861195876878
 20
249.2093827465115
 30
0.0
 11
178.861195876878
 21
243.1083339893077
 31
0.0
  0
LINE
  5
463
330
1F
100
AcDbEntity
  8
0
  6
ByBlock
370
    40
100
AcDbLine
 10
178.861195876878
 20
241.4009340828363
 30
0.0
 11
178.861195876878
 21
239.7110419879351
 31
0.0
  0
LINE
  5
464
330
1F
100
AcDbEntity
  8
0
  6
ByBlock
370
    40
100
AcDbLine
 10
178.861195876878
 20
237.998665062447
 30
0.0
 11
178.861195876878
 21
233.2987001051972
 31
0.0
  0
LINE
  5
465
330
1F
100
AcDbEntity
  8
0
  6
ByBlock
370
    40
100
AcDbLine
 10
175.7432746378551
 20
233.4106653840504
 30
0.0
 11
175.7432746378551
 21
237.6826067059376
 31
0.0
  0
LINE
  5
466
330
1F
100
AcDbEntity
  8
0
  6
ByBlock
370
    40
100
AcDbLine
 10
175.7432746378551
 20
239.4086792582198
 30
0.0
 11
175.7432746378551
 21
241.0937708241434
 31
0.0
  0
LINE
  5
467
330
1F
100
AcDbEntity
  8
0
  6
ByBlock
370
    40
100
AcDbLine
 10
175.7432746378551
 20
242.826726487831
 30
0.0
 11
175.7432746378551
 21
244.9524430776875
 31
0.0
  0
LINE
  5
468
330
1F
100
AcDbEntity
  8
0
  6
ByBlock
370
    40
100
AcDbLine
 10
178.861195876878
 20
249.2093827465115
 30
0.0
 11
172.9306951194587
 21
247.5551769368911
 31
0.0
  0
LINE
  5
469
330
1F
100
AcDbEntity
  8
0
  6
ByBlock
370
    40
100
AcDbLine
 10
172.9306951194587
 20
247.5551769368911
 30
0.0
 11
173.2348825574029
 21
246.3576214464815
 31
0.0
  0
LINE
  5
46A
330
1F
100
AcDbEntity
  8
0
  6
ByBlock
370
    40
100
AcDbLine
 10
173.2348825574029
 20
246.3576214464815
 30
0.0
 11
173.9820429518796
 21
246.3576214464815
 31
0.0
  0
SPLINE
  5
46B
330
1F
100
AcDbEntity
  8
0
  6
ByBlock
370
    40
100
AcDbSpline
210
0.0
220
0.0
230
1.0
 70
  1064
 71
     3
 72
    14
 73
    10
 74
     8
 42
0.000000001
 43
0.0000000001
 44
0.00001
 40
0.0
 40
0.0
 40
0.0
 40
0.0
 40
0.4629788101759541
 40
1.027735746291132
 40
1.338309988785129
 40
1.631469435017568
 40
1.983872312471743
 40
2.287891158364077
 40
2.579452597651839
 40
2.579452597651839
 40
2.579452597651839
 40
2.579452597651839
 10
173.9820429518903
 20
246.3576214464842
 30
0.0
 10
174.1361811660907
 20
246.3456976839125
 30
0.0
 10
174.4783407752167
 20
246.3192133798799
 30
0.0
 10
174.9128705586935
 20
246.219612138612
 30
0.0
 10
175.2845292754928
 20
246.0807478104964
 30
0.0
 10
175.5064230727384
 20
245.8393720457168
 30
0.0
 10
175.6481960149042
 20
245.555128398601
 30
0.0
 10
175.742035992981
 20
245.2495870742698
 30
0.0
 10
175.7428718729997
 20
245.0501004846906
 30
0.0
 10
175.7432746378551
 20
244.9524430776901
 30
0.0
 11
173.9820429518903
 21
246.3576214464842
 31
0.0
 11
174.4427375426237
 21
246.3116987391073
 31
0.0
 11
174.992990890234
 21
246.1845200191507
 31
0.0
 11
175.276333340779
 21
246.0573412991968
 31
0.0
 11
175.4816598614004
 21
245.8480947124902
 31
0.0
 11
175.6459074981172
 21
245.5363074148573
 31
0.0
 11
175.7281331649346
 21
245.2436163391116
 31
0.0
 11
175.7432746378551
 21
244.9524430776901
 31
0.0
  0
LINE
  5
46C
330
1F
100
AcDbEntity
  8
0
  6
ByBlock
370
    40
100
AcDbLine
 10
175.7432746378551
 20
242.826726487831
 30
0.0
 11
178.861195876878
 21
243.108333989309
 31
0.0
  0
LINE
  5
46D
330
1F
100
AcDbEntity
  8
0
  6
ByBlock
370
    40
100
AcDbLine
 10
175.7432746378551
 20
241.0937708241434
 30
0.0
 11
178.861195876878
 21
241.4009340828363
 31
0.0
  0
LINE
  5
46E
330
1F
100
AcDbEntity
  8
0
  6
ByBlock
370
    40
100
AcDbLine
 10
175.7432746378551
 20
239.4086792582198
 30
0.0
 11
178.861195876878
 21
239.7110419879351
 31
0.0
  0
LINE
  5
46F
330
1F
100
AcDbEntity
  8
0
  6
ByBlock
370
    40
100
AcDbLine
 10
175.7432746378551
 20
237.6826067059376
 30
0.0
 11
178.861195876878
 21
237.9986650624443
 31
0.0
  0
SPLINE
  5
470
330
1F
100
AcDbEntity
  8
0
  6
ByBlock
370
    40
100
AcDbSpline
210
0.0
220
0.0
230
1.0
 70
  1064
 71
     3
 72
    23
 73
    19
 74
    17
 42
0.000000001
 43
0.0000000001
 44
0.00001
 40
0.0
 40
0.0
 40
0.0
 40
0.0
 40
0.8821043297756631
 40
2.02901380670989
 40
2.932355680488604
 40
3.553789413326846
 40
4.372988288361062
 40
5.591297794457995
 40
6.724298569201238
 40
7.369268675832308
 40
8.130218874291102
 40
9.025758789648795
 40
10.3962698292065
 40
11.67944105431405
 40
12.55983071401505
 40
13.34985309508949
 40
14.07860717140512
 40
14.65344144515646
 40
14.65344144515646
 40
14.65344144515646
 40
14.65344144515646
 10
175.7432746378551
 20
233.4106653840531
 30
0.0
 10
175.7824329508727
 20
233.1188722708154
 30
0.0
 10
175.8725179513627
 20
232.4476927988424
 30
0.0
 10
176.1843166403391
 20
231.5132785930916
 30
0.0
 10
176.6236472668942
 20
230.7299043839301
 30
0.0
 10
177.1480844030661
 20
230.1473676333996
 30
0.0
 10
177.8049479532998
 20
229.5480964143346
 30
0.0
 10
178.7445795088773
 20
229.0327546366584
 30
0.0
 10
179.7228564554391
 20
228.7855293351652
 30
0.0
 10
180.5675425971606
 20
228.7303487627827
 30
0.0
 10
181.3372263708622
 20
228.7067462180771
 30
0.0
 10
182.333958587819
 20
228.8912495976298
 30
0.0
 10
183.4763078466147
 20
229.2157033908553
 30
0.0
 10
184.5329722225278
 20
229.7446587337889
 30
0.0
 10
185.3993904430706
 20
230.2127675875806
 30
0.0
 10
186.0668427687257
 20
230.6540711917996
 30
0.0
 10
186.6468016608021
 20
231.0432733582115
 30
0.0
 10
186.9827957319245
 20
231.3191869494123
 30
0.0
 10
187.1309523513875
 20
231.4408600920224
 30
0.0
 11
175.7432746378551
 21
233.4106653840531
 31
0.0
 11
175.8845045197605
 21
232.5399341423393
 31
0.0
 11
176.247492475864
 21
231.4519789642897
 31
0.0
 11
176.7017366633259
 21
230.6711517469281
 31
0.0
 11
177.1100811392037
 21
230.2027118933241
 31
0.0
 11
177.7225978529989
 21
229.6587343043
 31
0.0
 11
178.7888834614007
 21
229.069398776016
 31
0.0
 11
179.8866741973129
 21
228.7891325988123
 31
0.0
 11
180.5294738569273
 21
228.736256184021
 31
0.0
 11
181.2904177446917
 21
228.7330087673606
 31
0.0
 11
182.174937779126
 21
228.8730712599474
 31
0.0
 11
183.488239882872
 21
229.2649144379222
 31
0.0
 11
184.6491087727917
 21
229.8116452715066
 31
0.0
 11
185.4188795281686
 21
230.2388923507064
 31
0.0
 11
186.0834068619272
 21
230.6661394299062
 31
0.0
 11
186.6815968905923
 21
231.0823735308526
 31
0.0
 11
187.1309523513875
 21
231.4408600920224
 31
0.0
  0
LINE
  5
471
330
1F
100
AcDbEntity
  8
0
  6
ByBlock
370
    40
100
AcDbLine
 10
187.1309523513658
 20
231.4408600920196
 30
0.0
 11
187.1309523513658
 21
229.1379828040123
 31
0.0
  0
LINE
  5
472
330
1F
100
AcDbEntity
  8
0
  6
ByBlock
370
    40
100
AcDbLine
 10
187.1309523513658
 20
233.3686254574692
 30
0.0
 11
187.1309523513658
 21
238.1703192714827
 31
0.0
  0
LINE
  5
473
330
1F
100
AcDbEntity
  8
0
  6
ByBlock
370
    40
100
AcDbLine
 10
187.1309523513658
 20
239.8796605683493
 30
0.0
 11
187.1309523513658
 21
241.5804950454856
 31
0.0
  0
LINE
  5
474
330
1F
100
AcDbEntity
  8
0
  6
ByBlock
370
    40
100
AcDbLine
 10
187.1309523513658
 20
243.27603482154
 30
0.0
 11
187.1309523513658
 21
245.3088823544359
 31
0.0
  0
SPLINE
  5
475
330
1F
100
AcDbEntity
  8
0
  6
ByBlock
370
    40
100
AcDbSpline
210
0.0
220
0.0
230
1.0
 70
  1064
 71
     3
 72
    20
 73
    16
 74
    14
 42
0.000000001
 43
0.0000000001
 44
0.00001
 40
0.0
 40
0.0
 40
0.0
 40
0.0
 40
0.3432600429129451
 40
0.9334932639363172
 40
2.1444704754915
 40
2.976086067719985
 40
3.820599920184921
 40
4.420714236530096
 40
5.293568651358008
 40
6.153592147058111
 40
6.942463111055833
 40
7.979311518869074
 40
8.767257711134654
 40
9.497872381294998
 40
10.12874458518053
 40
10.12874458518053
 40
10.12874458518053
 40
10.12874458518053
 10
178.8611958768889
 20
233.2987001051999
 30
0.0
 10
178.8622018712988
 20
233.1838607823159
 30
0.0
 10
178.8649475634288
 20
232.8715567833985
 30
0.0
 10
179.0691031575915
 20
232.1808066723598
 30
0.0
 10
179.6222587855302
 20
231.4124709577287
 30
0.0
 10
180.5710471167887
 20
231.1244968991782
 30
0.0
 10
181.3243403772373
 20
231.0484349549703
 30
0.0
 10
182.0989511224829
 20
231.0525094193529
 30
0.0
 10
182.8707065365266
 20
231.160593573688
 30
0.0
 10
183.691750716261
 20
231.3529873316177
 30
0.0
 10
184.5208238399876
 20
231.6966869305474
 30
0.0
 10
185.2967231074939
 20
232.0962456759847
 30
0.0
 10
186.0093000619622
 20
232.564042939688
 30
0.0
 10
186.6011132861771
 20
232.9680429592398
 30
0.0
 10
186.9631830971027
 20
233.241779883172
 30
0.0
 10
187.1309523513875
 20
233.3686254574719
 30
0.0
 11
178.8611958768889
 21
233.2987001051999
 31
0.0
 11
178.8758620569325
 21
232.9557446672039
 31
0.0
 11
179.0322334117691
 21
232.3865995990416
 31
0.0
 11
179.7870663911757
 21
231.4396599597752
 31
0.0
 11
180.56776888259
 21
231.1531460352975
 31
0.0
 11
181.4068644982846
 21
231.057629627804
 31
0.0
 11
182.0069556984139
 21
231.0629243288845
 31
0.0
 11
182.8726677149304
 21
231.174360137627
 31
0.0
 11
183.7073498967919
 21
231.3815947379242
 31
0.0
 11
184.4402515051147
 21
231.6734386614916
 31
0.0
 11
185.3600111110329
 21
232.1520796391784
 31
0.0
 11
186.0238594549861
 21
232.5765381758128
 31
0.0
 11
186.6249012408799
 21
232.9919251245863
 31
0.0
 11
187.1309523513875
 21
233.3686254574719
 31
0.0
  0
LINE
  5
476
330
1F
100
AcDbEntity
  8
0
  6
ByBlock
370
    40
100
AcDbLine
 10
190.2572930641438
 20
249.2119242030329
 30
0.0
 11
184.3343290936696
 21
247.5489644876248
 31
0.0
  0
LINE
  5
477
330
1F
100
AcDbEntity
  8
0
  6
ByBlock
370
    40
100
AcDbLine
 10
184.3343290936696
 20
247.5489644876248
 30
0.0
 11
184.6593615190021
 21
246.3677872725526
 31
0.0
  0
LINE
  5
478
330
1F
100
AcDbEntity
  8
0
  6
ByBlock
370
    40
100
AcDbLine
 10
184.6593615190021
 20
246.3677872725526
 30
0.0
 11
185.4374159501599
 21
246.3561036321681
 31
0.0
  0
LINE
  5
479
330
1F
100
AcDbEntity
  8
0
  6
ByBlock
370
    40
100
AcDbLine
 10
190.2572930641438
 20
249.2119242030329
 30
0.0
 11
190.2572930641438
 21
243.0826370400655
 31
0.0
  0
LINE
  5
47A
330
1F
100
AcDbEntity
  8
0
  6
ByBlock
370
    40
100
AcDbLine
 10
190.2572930641438
 20
241.3674009759922
 30
0.0
 11
190.2572930641438
 21
239.6744732524734
 31
0.0
  0
LINE
  5
47B
330
1F
100
AcDbEntity
  8
0
  6
ByBlock
370
    40
100
AcDbLine
 10
190.2572930641438
 20
237.9579311621256
 30
0.0
 11
190.2572930641438
 21
233.1895939649279
 31
0.0
  0
LINE
  5
47C
330
1F
100
AcDbEntity
  8
0
  6
ByBlock
370
    40
100
AcDbLine
 10
193.0168434778359
 20
229.5882794819187
 30
0.0
 11
193.0168434778359
 21
231.0857268415378
 31
0.0
  0
LINE
  5
47D
330
1F
100
AcDbEntity
  8
0
  6
ByBlock
370
    40
100
AcDbLine
 10
187.1309523513658
 20
243.27603482154
 30
0.0
 11
190.2572930641438
 21
243.0826370400655
 31
0.0
  0
LINE
  5
47E
330
1F
100
AcDbEntity
  8
0
  6
ByBlock
370
    40
100
AcDbLine
 10
187.1309523513658
 20
241.5804950454856
 30
0.0
 11
190.2572930641438
 21
241.3674009759922
 31
0.0
  0
LINE
  5
47F
330
1F
100
AcDbEntity
  8
0
  6
ByBlock
370
    40
100
AcDbLine
 10
187.1309523513658
 20
239.8796605683493
 30
0.0
 11
190.2572930641438
 21
239.6744732524734
 31
0.0
  0
LINE
  5
480
330
1F
100
AcDbEntity
  8
0
  6
ByBlock
370
    40
100
AcDbLine
 10
187.1309523513658
 20
238.1703192714827
 30
0.0
 11
190.2572930641438
 21
237.9579311621256
 31
0.0
  0
SPLINE
  5
481
330
1F
100
AcDbEntity
  8
0
  6
ByBlock
370
    40
100
AcDbSpline
210
0.0
220
0.0
230
1.0
 70
  1064
 71
     3
 72
    14
 73
    10
 74
     8
 42
0.000000001
 43
0.0000000001
 44
0.00001
 40
0.0
 40
0.0
 40
0.0
 40
0.0
 40
0.4082220387767116
 40
0.9180047792489769
 40
1.273333440987825
 40
1.540853648584003
 40
1.816771724954163
 40
2.062027522574589
 40
2.211161522825233
 40
2.211161522825233
 40
2.211161522825233
 40
2.211161522825233
 10
185.4374159501706
 20
246.3561036321708
 30
0.0
 10
185.5735120724953
 20
246.3464622022085
 30
0.0
 10
185.8795625288821
 20
246.3247718354329
 30
0.0
 10
186.2897627453077
 20
246.2163143914627
 30
0.0
 10
186.6592769682783
 20
246.1190092382504
 30
0.0
 10
186.9006652413622
 20
245.928232772267
 30
0.0
 10
187.0404423976395
 20
245.7026635951452
 30
0.0
 10
187.1205863806952
 20
245.490424515769
 30
0.0
 10
187.1281122023379
 20
245.3586949878923
 30
0.0
 10
187.1309523513875
 20
245.3088823544372
 30
0.0
 11
185.4374159501706
 21
246.3561036321708
 31
0.0
 11
185.8436555576017
 21
246.3160050959889
 31
0.0
 11
186.340744002512
 21
246.2029455789121
 31
0.0
 11
186.676232871027
 21
246.0858620890109
 31
0.0
 11
186.8863802193498
 21
245.9203144352301
 31
0.0
 11
187.0374554535865
 21
245.6894301701027
 31
0.0
 11
187.1167614642207
 21
245.457345772739
 31
0.0
 11
187.1309523513875
 21
245.3088823544372
 31
0.0
  0
SPLINE
  5
482
330
1F
100
AcDbEntity
  8
0
  6
ByBlock
370
    40
100
AcDbSpline
210
0.0
220
0.0
230
1.0
 70
  1064
 71
     3
 72
    15
 73
    11
 74
     9
 42
0.000000001
 43
0.0000000001
 44
0.00001
 40
0.0
 40
0.0
 40
0.0
 40
0.0
 40
0.5324001495112525
 40
0.9890312435866796
 40
1.448023334984929
 40
1.865215828638174
 40
2.379421784747623
 40
2.902996839955027
 40
3.509644713617843
 40
4.01019221179449
 40
4.01019221179449
 40
4.01019221179449
 40
4.01019221179449
 10
190.2572930641546
 20
233.1895939649279
 30
0.0
 10
190.2650113274267
 20
233.0113234617461
 30
0.0
 10
190.2793619195808
 20
232.6801544423878
 30
0.0
 10
190.4331045084
 20
232.2190952679718
 30
0.0
 10
190.6280568734517
 20
231.8152426901733
 30
0.0
 10
190.9643431525626
 20
231.4826753419457
 30
0.0
 10
191.4052640733191
 20
231.268565754268
 30
0.0
 10
191.9350707777502
 20
231.1141391997177
 30
0.0
 10
192.4816126212619
 20
231.0973022436126
 30
0.0
 10
192.8502069751414
 20
231.0893257862595
 30
0.0
 10
193.0168434778467
 20
231.0857268415404
 30
0.0
 11
190.2572930641546
 21
233.1895939649279
 31
0.0
 11
190.3067235228268
 21
232.6594884927409
 31
0.0
 11
190.4419782943377
 21
232.2233463157221
 31
0.0
 11
190.6571501672904
 21
231.8179134049795
 31
0.0
 11
190.9523070406828
 21
231.5230691508038
 31
0.0
 11
191.4072981169806
 21
231.2835015759109
 31
0.0
 11
191.9114480559917
 21
231.1422036530692
 31
0.0
 11
192.5164279828309
 21
231.0972339918872
 31
0.0
 11
193.0168434778467
 21
231.0857268415404
 31
0.0
  0
SPLINE
  5
483
330
1F
100
AcDbEntity
  8
0
  6
ByBlock
370
    40
100
AcDbSpline
210
0.0
220
0.0
230
1.0
 70
  1064
 71
     3
 72
    12
 73
     8
 74
     6
 42
0.000000001
 43
0.0000000001
 44
0.00001
 40
0.0
 40
0.0
 40
0.0
 40
0.0
 40
1.042803631644087
 40
2.317864374833903
 40
3.699689703410879
 40
4.854213106944176
 40
5.904038906383568
 40
5.904038906383568
 40
5.904038906383568
 40
5.904038906383568
 10
187.1309523513875
 20
229.1379828040136
 30
0.0
 10
187.4764221931974
 20
229.1765695442677
 30
0.0
 10
188.2443083680772
 20
229.2623159430733
 30
0.0
 10
189.4737258425708
 20
229.3612551077279
 30
0.0
 10
190.7409842241244
 20
229.4506099045388
 30
0.0
 10
191.9331077398461
 20
229.5404890852236
 30
0.0
 10
192.6672203156729
 20
229.5728687324239
 30
0.0
 10
193.0168434778467
 20
229.5882794819201
 30
0.0
 11
187.1309523513875
 21
229.1379828040136
 31
0.0
 11
188.167837700715
 21
229.2489244406588
 31
0.0
 11
189.438363446032
 21
229.3563715745888
 31
0.0
 11
190.8165090773081
 21
229.4571473851493
 31
0.0
 11
191.9682795036674
 21
229.5368502854238
 31
0.0
 11
193.0168434778467
 21
229.5882794819201
 31
0.0
  0
LINE
  5
484
330
1F
100
AcDbEntity
  8
0
  6
ByBlock
370
    40
100
AcDbLine
 10
209.6592912830541
 20
242.4339302636693
 30
0.0
 11
210.9319897957725
 21
243.0029341398018
 31
0.0
  0
LINE
  5
485
330
1F
100
AcDbEntity
  8
0
  6
ByBlock
370
    40
100
AcDbLine
 10
210.9319897957725
 20
243.0029341398018
 30
0.0
 11
208.3314587971954
 21
249.2706247890126
 31
0.0
  0
LINE
  5
486
330
1F
100
AcDbEntity
  8
0
  6
ByBlock
370
    40
100
AcDbLine
 10
208.3314587971954
 20
249.2706247890126
 30
0.0
 11
206.4269602598764
 21
248.4020467257411
 31
0.0
  0
LINE
  5
487
330
1F
100
AcDbEntity
  8
0
  6
ByBlock
370
    40
100
AcDbLine
 10
196.7181527675279
 20
242.3444498154058
 30
0.0
 11
201.7259063638372
 21
241.5564924005838
 31
0.0
  0
SPLINE
  5
488
330
1F
100
AcDbEntity
  8
0
  6
ByBlock
370
    40
100
AcDbSpline
210
0.0
220
0.0
230
1.0
 70
  1064
 71
     3
 72
    28
 73
    24
 74
    22
 42
0.000000001
 43
0.0000000001
 44
0.00001
 40
0.0
 40
0.0
 40
0.0
 40
0.0
 40
0.1561683534035693
 40
0.4175788889382514
 40
0.932096190917173
 40
1.730764155684749
 40
2.454752869349585
 40
3.242739148007905
 40
3.90086201186505
 40
4.595382670439714
 40
5.272347053786152
 40
6.166670032038326
 40
7.180338070841416
 40
8.155084638796513
 40
9.081380804717641
 40
9.950244790354451
 40
10.6829150220952
 40
11.36107787570776
 40
12.17178708781516
 40
12.74747814153789
 40
13.53440580295751
 40
14.23889718630013
 40
14.72037298920433
 40
14.72037298920433
 40
14.72037298920433
 40
14.72037298920433
 10
206.4269602598871
 20
248.4020467257424
 30
0.0
 10
206.3752919104696
 20
248.3961701163372
 30
0.0
 10
206.2371375833365
 20
248.3804392700621
 30
0.0
 10
205.9231697880389
 20
248.3726713901385
 30
0.0
 10
205.4244188684754
 20
248.5622367531588
 30
0.0
 10
204.7733903246677
 20
248.7431592862982
 30
0.0
 10
204.0345361545657
 20
248.9664820552651
 30
0.0
 10
203.317517291449
 20
249.0793045719925
 30
0.0
 10
202.6044963839142
 20
249.1145009515465
 30
0.0
 10
201.9270596026179
 20
249.1117828010837
 30
0.0
 10
201.1754838336332
 20
249.0322079026132
 30
0.0
 10
200.3238351341517
 20
248.884442869743
 30
0.0
 10
199.4180911387163
 20
248.5519362857854
 30
0.0
 10
198.5467441986703
 20
248.1135061696712
 30
0.0
 10
197.8124822797637
 20
247.5467348957772
 30
0.0
 10
197.2203892667945
 20
246.9409737046407
 30
0.0
 10
196.8115363070615
 20
246.2942694587586
 30
0.0
 10
196.5239866144379
 20
245.610387306337
 30
0.0
 10
196.3588644380476
 20
244.9340308326383
 30
0.0
 10
196.369443865538
 20
244.2069249460117
 30
0.0
 10
196.415226855581
 20
243.5196443235744
 30
0.0
 10
196.5349309250099
 20
242.8696812590012
 30
0.0
 10
196.6652447434911
 20
242.496110116825
 30
0.0
 10
196.7181527675495
 20
242.3444498154071
 30
0.0
 11
206.4269602598871
 21
248.4020467257424
 31
0.0
 11
206.2716073897804
 21
248.386127324492
 31
0.0
 11
206.0101963102867
 21
248.386127324492
 31
0.0
 11
205.5138547541581
 21
248.5216716721597
 31
0.0
 11
204.7494480183574
 21
248.7530854073802
 31
0.0
 11
204.0513106886524
 21
248.9448241825154
 31
0.0
 11
203.2734599544343
 21
249.0708027702317
 31
0.0
 11
202.6164015086659
 21
249.1082186578635
 31
0.0
 11
201.9219307239908
 21
249.0998883281641
 31
0.0
 11
201.2482370276738
 21
249.0334221806036
 31
0.0
 11
200.3695563056707
 21
248.8668861826159
 31
0.0
 11
199.4137423404782
 21
248.5293313397185
 31
0.0
 11
198.5491846066764
 21
248.0791405558341
 31
0.0
 11
197.8120053624836
 21
247.5182552213634
 31
0.0
 11
197.2143585256825
 21
246.8875857266412
 31
0.0
 11
196.8207481288568
 21
246.2696235145237
 31
0.0
 11
196.5564173931585
 21
245.6450958730589
 31
0.0
 11
196.3802874346503
 21
244.8537498495493
 31
0.0
 11
196.3726148497419
 21
244.278109948062
 31
0.0
 11
196.4330449434173
 21
243.4935058439307
 31
0.0
 11
196.5690466037638
 21
242.8022649688451
 31
0.0
 11
196.7181527675495
 21
242.3444498154071
 31
0.0
  0
SPLINE
  5
489
330
1F
100
AcDbEntity
  8
0
  6
ByBlock
370
    40
100
AcDbSpline
210
0.0
220
0.0
230
1.0
 70
  1064
 71
     3
 72
    33
 73
    29
 74
    27
 42
0.000000001
 43
0.0000000001
 44
0.00001
 40
0.0
 40
0.0
 40
0.0
 40
0.0
 40
0.6923126202897525
 40
1.749849774198004
 40
2.870340608844562
 40
3.997877006229343
 40
5.019543839462747
 40
6.059650715781597
 40
7.071478957829224
 40
8.062979549438741
 40
8.641885600255902
 40
9.449417622123698
 40
10.03686993296063
 40
10.73846411773701
 40
11.08262044809996
 40
11.65833707754148
 40
12.18427240333374
 40
12.61015419641719
 40
13.06658411701218
 40
13.52263661777763
 40
13.99745629362045
 40
14.53040010414034
 40
15.09567930035604
 40
15.53166465376216
 40
16.12388420985492
 40
16.76780007214379
 40
17.75451036618804
 40
18.25744865695246
 40
18.25744865695246
 40
18.25744865695246
 40
18.25744865695246
 10
209.6592912830649
 20
242.433930263672
 30
0.0
 10
209.5381375367979
 20
242.6303078003041
 30
0.0
 10
209.2319027391724
 20
243.1266519085106
 30
0.0
 10
208.6719717527974
 20
243.905944512007
 30
0.0
 10
207.9052185007318
 20
244.7001212884565
 30
0.0
 10
207.1036299490347
 20
245.4406349642073
 30
0.0
 10
206.2439092998741
 20
246.0683359403238
 30
0.0
 10
205.3826806989968
 20
246.625489713435
 30
0.0
 10
204.4634925017394
 20
247.0634230565676
 30
0.0
 10
203.6351805002041
 20
247.3110974822821
 30
0.0
 10
202.8504409472428
 20
247.4350478166204
 30
0.0
 10
202.1906821190057
 20
247.4406889019021
 30
0.0
 10
201.4915202161204
 20
247.3805649405827
 30
0.0
 10
200.971487592063
 20
247.1988824294539
 30
0.0
 10
200.4891370298715
 20
246.9573552338044
 30
0.0
 10
200.0692292124042
 20
246.7102709230084
 30
0.0
 10
199.7259436734349
 20
246.3279131400732
 30
0.0
 10
199.4470336168919
 20
245.9499091176721
 30
0.0
 10
199.2560737301241
 20
245.541027537553
 30
0.0
 10
199.1682766223948
 20
245.0850848886464
 30
0.0
 10
199.1097763461318
 20
244.5994277614963
 30
0.0
 10
199.1522370186922
 20
244.0734229585613
 30
0.0
 10
199.2807882245307
 20
243.5744941699236
 30
0.0
 10
199.5216667550693
 20
243.0979865377353
 30
0.0
 10
199.8625376467483
 20
242.6520496343492
 30
0.0
 10
200.4314247694009
 20
242.1676220317728
 30
0.0
 10
201.0771819527254
 20
241.8552017074114
 30
0.0
 10
201.5384084449967
 20
241.6723400737101
 30
0.0
 10
201.6941296404111
 20
241.6106042456342
 30
0.0
 11
209.6592912830649
 21
242.433930263672
 31
0.0
 11
209.2903282165776
 21
243.0197359912317
 31
0.0
 11
208.6653180901512
 21
243.8728182293426
 31
0.0
 11
207.8994854757199
 21
244.6907436522819
 31
0.0
 11
207.0632416172755
 21
245.4470740526418
 31
0.0
 11
206.2434972113625
 21
246.0568471270913
 31
0.0
 11
205.3632548127657
 21
246.6109199461775
 31
0.0
 11
204.4477728427282
 21
247.0418380181235
 31
0.0
 11
203.4970513011419
 21
247.3232690295637
 31
0.0
 11
202.9248665824694
 21
247.4112316635206
 31
0.0
 11
202.1174797912245
 21
247.4265862966526
 31
0.0
 11
201.5336164477219
 21
247.3617438574168
 31
0.0
 11
200.8675274373694
 21
247.1413783984413
 31
0.0
 11
200.5589265656028
 21
246.9890321993491
 31
0.0
 11
200.0745352302525
 21
246.677880265845
 31
0.0
 11
199.7112077792569
 21
246.2976148342299
 31
0.0
 11
199.4644628798069
 21
245.9504942313864
 31
0.0
 11
199.2741420341213
 21
245.5356367527194
 31
0.0
 11
199.1746700259797
 21
245.0905641798764
 31
0.0
 11
199.1270728397846
 21
244.6181356514598
 31
0.0
 11
199.1660468552854
 21
244.0866182589816
 31
0.0
 11
199.313116049622
 21
243.540805173583
 31
0.0
 11
199.5077824301214
 21
243.1506915979619
 31
0.0
 11
199.8667643462924
 21
242.6796749898232
 31
0.0
 11
200.3555691154544
 21
242.2605111542707
 31
0.0
 11
201.2281389291104
 21
241.7998368622571
 31
0.0
 11
201.6941296404111
 21
241.6106042456342
 31
0.0
  0
LINE
  5
48A
330
1F
100
AcDbEntity
  8
0
  6
ByBlock
370
    40
100
AcDbLine
 10
201.7259063638372
 20
241.5564924005838
 30
0.0
 11
201.6941296404004
 21
241.6106042456329
 31
0.0
  0
LINE
  5
48B
330
1F
100
AcDbEntity
  8
0
  6
ByBlock
370
    40
100
AcDbLine
 10
198.2946313243224
 20
240.3760211456519
 30
0.0
 11
209.4371937139531
 21
238.5704574811449
 31
0.0
  0
SPLINE
  5
48C
330
1F
100
AcDbEntity
  8
0
  6
ByBlock
370
    40
100
AcDbSpline
210
0.0
220
0.0
230
1.0
 70
  1064
 71
     3
 72
    22
 73
    18
 74
    16
 42
0.000000001
 43
0.0000000001
 44
0.00001
 40
0.0
 40
0.0
 40
0.0
 40
0.0
 40
0.2739139449294444
 40
0.6563767667381218
 40
1.155216454959034
 40
2.130545026698321
 40
2.805486356743428
 40
3.871297160984716
 40
4.92748664527633
 40
6.078169316598553
 40
6.996010839987472
 40
8.013654174703315
 40
8.897864694145468
 40
10.60279790172143
 40
12.22589812114328
 40
13.00178090162789
 40
13.38131822494817
 40
13.38131822494817
 40
13.38131822494817
 40
13.38131822494817
 10
198.2946313243332
 20
240.3760211456519
 30
0.0
 10
198.3569353879166
 20
240.3089712946926
 30
0.0
 10
198.5062222747848
 20
240.1482890600778
 30
0.0
 10
198.8267642811022
 20
239.9303086282884
 30
0.0
 10
199.3604253695439
 20
239.618597083297
 30
0.0
 10
199.9930664221536
 20
239.2799859908905
 30
0.0
 10
200.8215423541488
 20
238.9145016563289
 30
0.0
 10
201.6885316827433
 20
238.5694000828868
 30
0.0
 10
202.7338840014377
 20
238.2543709673462
 30
0.0
 10
203.7412810359346
 20
237.9902184613438
 30
0.0
 10
204.7376855643877
 20
237.733699599568
 30
0.0
 10
205.6562857646836
 20
237.5346102258967
 30
0.0
 10
206.8299622585496
 20
237.2723349726491
 30
0.0
 10
208.2214385721218
 20
237.076368695348
 30
0.0
 10
209.5768604550658
 20
236.8911560570956
 30
0.0
 10
210.4814684797727
 20
236.6818003298113
 30
0.0
 10
210.8655701578807
 20
236.6495237407546
 30
0.0
 10
210.9917408996963
 20
236.6389152289162
 30
0.0
 11
198.2946313243332
 21
240.3760211456519
 31
0.0
 11
198.4872607353836
 21
240.1812820399058
 31
0.0
 11
198.7961332030659
 21
239.9557277738652
 31
0.0
 11
199.2246436764727
 21
239.7003466917507
 31
0.0
 11
200.0876397337239
 21
239.2459201470098
 31
0.0
 11
200.7036192955768
 21
238.9700309227035
 31
0.0
 11
201.69657400375
 21
238.5827411876516
 31
0.0
 11
202.7052133767073
 21
238.2694007776961
 31
0.0
 11
203.8166518079331
 21
237.9714502988873
 31
0.0
 11
204.706739558883
 21
237.747449145168
 31
0.0
 11
205.6995584690928
 21
237.524048057575
 31
0.0
 11
206.5643877987994
 21
237.3399336520016
 31
0.0
 11
208.2484183426092
 21
237.0737866776845
 31
0.0
 11
209.8515133002255
 21
236.819746919835
 31
0.0
 11
210.6140867635383
 21
236.6766487986333
 31
0.0
 11
210.9917408996963
 21
236.6389152289162
 31
0.0
  0
SPLINE
  5
48D
330
1F
100
AcDbEntity
  8
0
  6
ByBlock
370
    40
100
AcDbSpline
210
0.0
220
0.0
230
1.0
 70
  1064
 71
     3
 72
    12
 73
     8
 74
     6
 42
0.000000001
 43
0.0000000001
 44
0.00001
 40
0.0
 40
0.0
 40
0.0
 40
0.0
 40
0.2919696361136423
 40
0.8905523918334745
 40
1.455724879498618
 40
2.069470987602171
 40
2.504801571360906
 40
2.504801571360906
 40
2.504801571360906
 40
2.504801571360906
 10
210.9917408996963
 20
236.6389152289162
 30
0.0
 10
210.954979138469
 20
236.7292641363609
 30
0.0
 10
210.8428290399654
 20
237.0048324397034
 30
0.0
 10
210.5545189061235
 20
237.4001252995875
 30
0.0
 10
210.2020440048168
 20
237.8752256521682
 30
0.0
 10
209.8264215111092
 20
238.2646106615454
 30
0.0
 10
209.5513459779374
 20
238.4807666506135
 30
0.0
 10
209.4371937139748
 20
238.5704574811476
 30
0.0
 11
210.9917408996963
 21
236.6389152289162
 31
0.0
 11
210.8745472572891
 21
236.9063329314961
 31
0.0
 11
210.5478173574211
 21
237.4078823158611
 31
0.0
 11
210.2023473385897
 21
237.8551786631647
 31
0.0
 11
209.774312158049
 21
238.2950271309375
 31
0.0
 11
209.4371937139748
 21
238.5704574811476
 31
0.0
  0
LINE
  5
48E
330
1F
100
AcDbEntity
  8
0
  6
ByBlock
370
    40
100
AcDbLine
 10
200.3485076213428
 20
229.4984813515848
 30
0.0
 11
198.281526820851
 21
228.7033584413096
 31
0.0
  0
LINE
  5
48F
330
1F
100
AcDbEntity
  8
0
  6
ByBlock
370
    40
100
AcDbLine
 10
198.281526820851
 20
228.7033584413096
 30
0.0
 11
195.6096339925069
 21
235.362539288417
 31
0.0
  0
LINE
  5
490
330
1F
100
AcDbEntity
  8
0
  6
ByBlock
370
    40
100
AcDbLine
 10
195.6096339925069
 20
235.362539288417
 30
0.0
 11
196.679654044904
 21
235.817812985343
 31
0.0
  0
LINE
  5
491
330
1F
100
AcDbEntity
  8
0
  6
ByBlock
370
    40
100
AcDbLine
 10
211.4574600150597
 20
234.8853455290306
 30
0.0
 11
208.5471059630357
 21
235.3443608147131
 31
0.0
  0
SPLINE
  5
492
330
1F
100
AcDbEntity
  8
0
  6
ByBlock
370
    40
100
AcDbSpline
210
0.0
220
0.0
230
1.0
 70
  1064
 71
     3
 72
    26
 73
    22
 74
    20
 42
0.000000001
 43
0.0000000001
 44
0.00001
 40
0.0
 40
0.0
 40
0.0
 40
0.0
 40
0.987464821672796
 40
2.088661798896637
 40
3.911775617684702
 40
5.601372273231026
 40
6.869741804863104
 40
8.212497615789974
 40
9.204480569878992
 40
10.0162619422597
 40
10.67731475102968
 40
11.78046501249157
 40
12.4639333490227
 40
13.34180395332932
 40
14.10098662253116
 40
14.84405936630466
 40
15.47770974182788
 40
16.06537341592511
 40
16.72066871078978
 40
17.16495117990408
 40
17.2821207625465
 40
17.2821207625465
 40
17.2821207625465
 40
17.2821207625465
 10
196.6796540449148
 20
235.817812985343
 30
0.0
 10
196.8815799527419
 20
235.5578083512818
 30
0.0
 10
197.3087003388398
 20
235.0078619443122
 30
0.0
 10
198.1582612524798
 20
234.0183602397698
 30
0.0
 10
199.231074956642
 20
232.9115624216101
 30
0.0
 10
200.4879481089672
 20
231.9245084667236
 30
0.0
 10
201.7179707665341
 20
231.1781851236678
 30
0.0
 10
202.8470753278354
 20
230.7515260132807
 30
0.0
 10
203.8745698195914
 20
230.5174208779162
 30
0.0
 10
204.6964643220281
 20
230.4800016227359
 30
0.0
 10
205.5582422666864
 20
230.4718592774405
 30
0.0
 10
206.3546859606772
 20
230.718971311111
 30
0.0
 10
207.1333107839946
 20
231.1491312486259
 30
0.0
 10
207.7354639921005
 20
231.6450782434712
 30
0.0
 10
208.2381259469309
 20
232.2651418570591
 30
0.0
 10
208.5608841884778
 20
232.9073184077306
 30
0.0
 10
208.7179074516559
 20
233.5474030116748
 30
0.0
 10
208.7668896267859
 20
234.1721765416447
 30
0.0
 10
208.7305530365603
 20
234.7384924736908
 30
0.0
 10
208.6146680829051
 20
235.1285342629488
 30
0.0
 10
208.5587740798496
 20
235.3070975187254
 30
0.0
 10
208.5471059630357
 20
235.344360814717
 30
0.0
 11
196.6796540449148
 21
235.817812985343
 31
0.0
 11
197.2913559709303
 21
235.0426334491345
 31
0.0
 11
198.0078260256871
 21
234.2063883604558
 31
0.0
 11
199.2908451836354
 21
232.9111632841108
 31
0.0
 11
200.6209862348697
 21
231.8693073034679
 31
0.0
 11
201.7135487491799
 21
231.2250480759779
 31
0.0
 11
202.9671676480539
 21
230.7439715357876
 31
0.0
 11
203.9371725004133
 21
230.5363133594046
 31
0.0
 11
204.7472073519473
 21
230.4830839645445
 31
0.0
 11
205.4080681407085
 21
230.4990386638042
 31
0.0
 11
206.4686502346424
 21
230.8025309297401
 31
0.0
 11
207.0667044653335
 21
231.1333791512698
 31
0.0
 11
207.7435215147839
 21
231.6924642873698
 31
0.0
 11
208.218474891671
 21
232.2847295502532
 31
0.0
 11
208.548871336569
 21
232.950308774095
 31
0.0
 11
208.7038847117621
 21
233.5647058874924
 31
0.0
 11
208.751889291804
 21
234.1504057210328
 31
0.0
 11
208.6972306115512
 21
234.8034188543119
 31
0.0
 11
208.5820060396168
 21
235.232501429886
 31
0.0
 11
208.5471059630357
 21
235.344360814717
 31
0.0
  0
SPLINE
  5
493
330
1F
100
AcDbEntity
  8
0
  6
ByBlock
370
    40
100
AcDbSpline
210
0.0
220
0.0
230
1.0
 70
  1064
 71
     3
 72
    27
 73
    23
 74
    21
 42
0.000000001
 43
0.0000000001
 44
0.00001
 40
0.0
 40
0.0
 40
0.0
 40
0.0
 40
0.4523072765949287
 40
1.286809576236198
 40
2.17174966068936
 40
3.11769955445827
 40
3.83119351640365
 40
4.794275873866944
 40
5.855212237626034
 40
6.929293589631461
 40
7.88901396809281
 40
9.043240184556193
 40
9.658036428220228
 40
10.40723432575202
 40
10.94790590487534
 40
12.3873477505165
 40
13.29996280226403
 40
13.89270429757212
 40
14.16233170513413
 40
14.47841037025014
 40
14.68046118045617
 40
14.86151464100141
 40
14.86151464100141
 40
14.86151464100141
 40
14.86151464100141
 10
211.4574600150705
 20
234.8853455290334
 30
0.0
 10
211.4624074144485
 20
234.734675103025
 30
0.0
 10
211.4764700243974
 20
234.3060189666133
 30
0.0
 10
211.4551624251622
 20
233.580545164837
 30
0.0
 10
211.2817639511363
 20
232.7036853540739
 30
0.0
 10
210.9535044418431
 20
231.9154628314463
 30
0.0
 10
210.4823436683941
 20
231.1742425352786
 30
0.0
 10
209.8429068795375
 20
230.5164001959363
 30
0.0
 10
209.0408008508727
 20
229.8612137364919
 30
0.0
 10
208.1322931722126
 20
229.3599119126723
 30
0.0
 10
207.1356160524153
 20
228.986691120812
 30
0.0
 10
206.2432021763155
 20
228.7809335916331
 30
0.0
 10
205.4045574829333
 20
228.7318485392751
 30
0.0
 10
204.7686156521056
 20
228.7192107739259
 30
0.0
 10
203.8629265310727
 20
228.8220636866611
 30
0.0
 10
202.924291836043
 20
229.0534085165497
 30
0.0
 10
201.9803639025846
 20
229.3220341477074
 30
0.0
 10
201.409555876296
 20
229.4762962394779
 30
0.0
 10
201.0267502796289
 20
229.5683239818746
 30
0.0
 10
200.7621366821837
 20
229.5763883320081
 30
0.0
 10
200.5300503387322
 20
229.5483591917309
 30
0.0
 10
200.4067707383963
 20
229.5144838804091
 30
0.0
 10
200.3485076213536
 20
229.4984813515875
 30
0.0
 11
211.4574600150705
 21
234.8853455290334
 31
0.0
 11
211.4690028419589
 21
234.4331780567473
 31
0.0
 11
211.4332879775982
 21
233.5994391265864
 31
0.0
 11
211.2583802007486
 21
232.7319553015317
 31
0.0
 11
210.8962070324248
 21
231.8580825371796
 31
0.0
 11
210.5108124124039
 21
231.2576281366256
 31
0.0
 11
209.8541613605146
 21
230.5531152108399
 31
0.0
 11
209.0259295818813
 21
229.8900774435129
 31
0.0
 11
208.0879051498982
 21
229.3668550827316
 31
0.0
 11
207.1901448140184
 21
229.0276059354896
 31
0.0
 11
206.0622748292481
 21
228.7823553814289
 31
0.0
 11
205.4490791256474
 21
228.7380210843839
 31
0.0
 11
204.6998817617002
 21
228.7371033361952
 31
0.0
 11
204.1622576247277
 21
228.7944272998901
 31
0.0
 11
202.7568166027701
 21
229.1054380413697
 31
0.0
 11
201.8772531940221
 21
229.348817801048
 31
0.0
 11
201.304321586557
 21
229.5007757220596
 31
0.0
 11
201.0404661437137
 21
229.5562641893815
 31
0.0
 11
200.7246000809287
 21
229.5678419357464
 31
0.0
 11
200.5241622869849
 21
229.5423567745445
 31
0.0
 11
200.3485076213536
 21
229.4984813515875
 31
0.0
  0
CIRCLE
  5
494
330
1F
100
AcDbEntity
  8
0
  6
ByBlock
370
    40
100
AcDbCircle
 10
215.1807685748117
 20
250.5813280415253
 30
0.0
 40
3.624641230862822
  0
CIRCLE
  5
495
330
1F
100
AcDbEntity
  8
0
  6
ByBlock
370
    40
100
AcDbCircle
 10
215.1807685748117
 20
250.5813280415253
 30
0.0
 40
3.198743230862822
  0
LINE
  5
496
330
1F
100
AcDbEntity
  8
0
  6
ByBlock
370
    40
100
AcDbLine
 10
215.3835047492698
 20
252.3878738730787
 30
0.0
 11
213.7382648937218
 21
252.3878738730787
 31
0.0
  0
LINE
  5
497
330
1F
100
AcDbEntity
  8
0
  6
ByBlock
370
    40
100
AcDbLine
 10
213.7382648937218
 20
252.3878738730787
 30
0.0
 11
213.7382648937218
 21
248.8718940873841
 31
0.0
  0
LINE
  5
498
330
1F
100
AcDbEntity
  8
0
  6
ByBlock
370
    40
100
AcDbLine
 10
213.7382648937218
 20
248.8718940873841
 30
0.0
 11
214.4983159098802
 21
248.8718940873841
 31
0.0
  0
LINE
  5
499
330
1F
100
AcDbEntity
  8
0
  6
ByBlock
370
    40
100
AcDbLine
 10
214.4983159098802
 20
248.8718940873841
 30
0.0
 11
214.4983159098802
 21
250.3322944235466
 31
0.0
  0
LINE
  5
49A
330
1F
100
AcDbEntity
  8
0
  6
ByBlock
370
    40
100
AcDbLine
 10
215.4527820802904
 20
250.9319669732336
 30
0.0
 11
214.4988964461589
 21
250.9319669732336
 31
0.0
  0
LINE
  5
49B
330
1F
100
AcDbEntity
  8
0
  6
ByBlock
370
    40
100
AcDbLine
 10
214.4988964461589
 20
250.9319669732336
 30
0.0
 11
214.4988964461589
 21
251.7546682165475
 31
0.0
  0
LINE
  5
49C
330
1F
100
AcDbEntity
  8
0
  6
ByBlock
370
    40
100
AcDbLine
 10
214.4988964461589
 20
251.7546682165475
 30
0.0
 11
215.3497691402213
 21
251.7546682165475
 31
0.0
  0
SPLINE
  5
49D
330
1F
100
AcDbEntity
  8
0
  6
ByBlock
370
    40
100
AcDbSpline
210
0.0
220
0.0
230
1.0
 70
  1064
 71
     3
 72
    16
 73
    12
 74
    10
 42
0.000000001
 43
0.0000000001
 44
0.00001
 40
0.0
 40
0.0
 40
0.0
 40
0.0
 40
0.1189285682107572
 40
0.2424616000615611
 40
0.4605005310679546
 40
0.6047757874546168
 40
0.794955051759972
 40
0.9861479350111769
 40
1.19431229511746
 40
1.276473337540815
 40
1.37207928844152
 40
1.37207928844152
 40
1.37207928844152
 40
1.37207928844152
 10
215.3497691402322
 20
251.7546682165475
 30
0.0
 10
215.3893955570253
 20
251.7538364360221
 30
0.0
 10
215.470181966206
 20
251.7521272823427
 30
0.0
 10
215.6230879712887
 20
251.7270542364175
 30
0.0
 10
215.7627720349807
 20
251.6243127832818
 30
0.0
 10
215.8448502511822
 20
251.4561333267022
 30
0.0
 10
215.8654047969147
 20
251.2779554842389
 30
0.0
 10
215.8004900751054
 20
251.0814216895572
 30
0.0
 10
215.6644670854706
 20
250.9830450001612
 30
0.0
 10
215.5450933628646
 20
250.93137924613
 30
0.0
 10
215.4850662517909
 20
250.9317579653466
 30
0.0
 10
215.4527820803012
 20
250.931966973235
 30
0.0
 11
215.3497691402322
 21
251.7546682165475
 31
0.0
 11
215.4685855682911
 21
251.7494035187746
 31
0.0
 11
215.589724141508
 21
251.7251926156301
 31
0.0
 11
215.7657556464784
 21
251.5965260846716
 31
0.0
 11
215.8312272395738
 21
251.4679601530362
 31
0.0
 11
215.8512234896674
 21
251.278833430434
 31
0.0
 11
215.7865904490059
 21
251.0988947791063
 31
0.0
 11
215.6248788392798
 21
250.9678138644566
 31
0.0
 11
215.5481835445091
 21
250.9383382635392
 31
0.0
 11
215.4527820803012
 21
250.931966973235
 31
0.0
  0
SPLINE
  5
49E
330
1F
100
AcDbEntity
  8
0
  6
ByBlock
370
    40
100
AcDbSpline
210
0.0
220
0.0
230
1.0
 70
  1064
 71
     3
 72
    16
 73
    12
 74
    10
 42
0.000000001
 43
0.0000000001
 44
0.00001
 40
0.0
 40
0.0
 40
0.0
 40
0.0
 40
0.4376851434573351
 40
0.8878686450094161
 40
1.370846983129873
 40
1.931446266243209
 40
2.249663056098376
 40
2.635441083986738
 40
2.978963987523122
 40
3.178120610562101
 40
3.255342007798338
 40
3.255342007798338
 40
3.255342007798338
 40
3.255342007798338
 10
215.3835047492807
 20
252.3878738730814
 30
0.0
 10
215.5292225690079
 20
252.3822097750208
 30
0.0
 10
215.8248180996985
 20
252.3707061742052
 30
0.0
 10
216.2753882395922
 20
252.2348862099153
 30
0.0
 10
216.6191627648643
 20
251.821228731983
 30
0.0
 10
216.6262521967951
 20
251.3503201504628
 30
0.0
 10
216.5753785889219
 20
250.9252980228265
 30
0.0
 10
216.3397980605582
 20
250.6417621812432
 30
0.0
 10
216.0660890671611
 20
250.4884452102699
 30
0.0
 10
215.8613858830886
 20
250.4438457697173
 30
0.0
 10
215.7691957549173
 20
250.4436696599509
 30
0.0
 10
215.7434372512053
 20
250.4436243382737
 30
0.0
 11
215.3835047492807
 21
252.3878738730814
 31
0.0
 11
215.819745521765
 21
252.3522952467227
 31
0.0
 11
216.2432144957948
 21
252.1995184119374
 31
0.0
 11
216.5510277393789
 21
251.8273344590816
 31
0.0
 11
216.6112745058151
 21
251.2699806902233
 31
0.0
 11
216.5515437716349
 21
250.957418601332
 31
0.0
 11
216.3160395485963
 21
250.6518649317682
 31
0.0
 11
216.0158377808734
 21
250.4848700596911
 31
0.0
 11
215.8206485782105
 21
250.4453009936103
 31
0.0
 11
215.7434372512053
 21
250.4436243382737
 31
0.0
  0
SPLINE
  5
49F
330
1F
100
AcDbEntity
  8
0
  6
ByBlock
370
    40
100
AcDbSpline
210
0.0
220
0.0
230
1.0
 70
  1064
 71
     3
 72
    12
 73
     8
 74
     6
 42
0.000000001
 43
0.0000000001
 44
0.00001
 40
0.0
 40
0.0
 40
0.0
 40
0.0
 40
0.1414026313431429
 40
0.4506069693228507
 40
0.8891083974135529
 40
1.609391075899676
 40
1.970388567085283
 40
1.970388567085283
 40
1.970388567085283
 40
1.970388567085283
 10
215.7434372512053
 20
250.4436243382737
 30
0.0
 10
215.7821017103817
 20
250.4166744285028
 30
0.0
 10
215.905302134778
 20
250.3307772463554
 30
0.0
 10
216.1274027030075
 20
250.1311528845407
 30
0.0
 10
216.4074585266068
 20
249.7270687424302
 30
0.0
 10
216.6791852568135
 20
249.3000735176415
 30
0.0
 10
216.8549757280322
 20
248.9852990012392
 30
0.0
 10
216.9136694106724
 20
248.8802102978864
 30
0.0
 11
215.7434372512053
 21
250.4436243382737
 31
0.0
 11
215.8583834373059
 21
250.3612670278605
 31
0.0
 11
216.0875662651399
 21
250.1536970964985
 31
0.0
 11
216.3517102786457
 21
249.8036785272577
 31
0.0
 11
216.7356382806784
 21
249.1942478434749
 31
0.0
 11
216.9136694106724
 21
248.8802102978864
 31
0.0
  0
SPLINE
  5
4A0
330
1F
100
AcDbEntity
  8
0
  6
ByBlock
370
    40
100
AcDbSpline
210
0.0
220
0.0
230
1.0
 70
  1064
 71
     3
 72
    16
 73
    12
 74
    10
 42
0.000000001
 43
0.0000000001
 44
0.00001
 40
0.0
 40
0.0
 40
0.0
 40
0.0
 40
0.4059519248418276
 40
0.8943564120743642
 40
1.172425834653034
 40
1.430397548507012
 40
1.624684313475927
 40
1.832531003926864
 40
1.982688507640824
 40
2.130658491693127
 40
2.229282156165763
 40
2.229282156165763
 40
2.229282156165763
 40
2.229282156165763
 10
216.0066782082439
 20
248.8802102978864
 30
0.0
 10
215.9341220523375
 20
248.9944736398669
 30
0.0
 10
215.7742821727284
 20
249.2462143073019
 30
0.0
 10
215.5456196429097
 20
249.5631439061542
 30
0.0
 10
215.3697545751541
 20
249.857045902434
 30
0.0
 10
215.2194198851969
 20
250.0471842497258
 30
0.0
 10
215.0892899418461
 20
250.2295505001776
 30
0.0
 10
214.9130952612877
 20
250.307252547164
 30
0.0
 10
214.7457112839634
 20
250.3277497815748
 30
0.0
 10
214.6133747782155
 20
250.3321464288262
 30
0.0
 10
214.5311866129375
 20
250.3322565268235
 30
0.0
 10
214.498315909891
 20
250.3322944235466
 30
0.0
 11
216.0066782082439
 21
248.8802102978864
 31
0.0
 11
215.7860099127272
 21
249.2209401965232
 31
0.0
 11
215.5118677741585
 21
249.6251482664196
 31
0.0
 11
215.3613798660968
 21
249.8589746204446
 31
0.0
 11
215.2076022523662
 21
250.0661086214161
 31
0.0
 11
215.0805293081448
 21
250.2130842287213
 31
0.0
 11
214.8932741015099
 21
250.3032882861249
 31
0.0
 11
214.7447858184608
 21
250.3256213352839
 31
0.0
 11
214.5969425757454
 21
250.3317578938341
 31
0.0
 11
214.498315909891
 21
250.3322944235466
 31
0.0
  0
LINE
  5
4A1
330
1F
100
AcDbEntity
  8
0
  6
ByBlock
370
    40
100
AcDbLine
 10
216.0066782082439
 20
248.8802102978823
 30
0.0
 11
216.9136694106507
 21
248.8802102978823
 31
0.0
  0
LINE
  5
4A2
330
1F
100
AcDbEntity
  8
0
  6
ByBlock
370
    -3
100
AcDbLine
 10
92.73550888871659
 20
273.9467397312075
 30
0.0
 11
390.905654854205
 21
273.9467397312075
 31
0.0
  0
LINE
  5
4A3
330
1F
100
AcDbEntity
  8
0
  6
ByBlock
370
    -3
100
AcDbLine
 10
240.1238887551528
 20
273.9467397312075
 30
0.0
 11
240.1238887551528
 21
216.467298277986
 31
0.0
  0
MTEXT
  5
4A4
330
1F
100
AcDbEntity
  8
0
  6
ByBlock
370
    -3
100
AcDbMText
 10
257.7247467747048
 20
250.7701764965272
 30
0.0
 40
14.85
 41
143.2278001120339
 46
0.0
 71
     1
 72
     5
  1
KHF203-33
 73
     1
 44
1.0
1001
ACAD
1000
ACAD_MTEXT_COLUMN_INFO_BEGIN
1070
    75
1070
     2
1070
    79
1070
     0
1070
    76
1070
     1
1070
    78
1070
     0
1070
    48
1040
143.2278001120339
1070
    49
1040
12.5
1070
    50
1070
     1
1040
0.0
1000
ACAD_MTEXT_COLUMN_INFO_END
  0
LINE
  5
4A5
330
1F
100
AcDbEntity
  8
0
  6
ByBlock
370
    -3
100
AcDbLine
 10
92.73550888871659
 20
216.4672982779864
 30
0.0
 11
390.9056548542057
 21
216.4672982779864
 31
0.0
  0
LINE
  5
4A6
330
1F
100
AcDbEntity
  8
0
  6
ByBlock
370
    -3
100
AcDbLine
 10
92.73550888871659
 20
128.6992491386055
 30
0.0
 11
390.905654854205
 21
128.6992491386055
 31
0.0
  0
MTEXT
  5
4A7
330
1F
100
AcDbEntity
  8
0
  6
ByBlock
370
    -3
100
AcDbMText
 10
108.9562251615727
 20
196.3218312263676
 30
0.0
 40
11.88
 41
256.0623730560901
 46
0.0
 71
     1
 72
     5
  1
33 inch Farmhouse Apron 60/40 Double Bowl 16 gauge Stainless Steel Kitchen Sink
 73
     1
 44
1.0
1001
ACAD
1000
ACAD_MTEXT_COLUMN_INFO_BEGIN
1070
    75
1070
     2
1070
    79
1070
     0
1070
    76
1070
     1
1070
    78
1070
     0
1070
    48
1040
256.0623730560901
1070
    49
1040
12.5
1070
    50
1070
     1
1040
0.0
1000
ACAD_MTEXT_COLUMN_INFO_END
  0
MTEXT
  5
4A8
330
1F
100
AcDbEntity
  8
0
  6
ByBlock
370
    -3
100
AcDbMText
 10
112.4128768529848
 20
113.830084929145
 30
0.0
 40
12.87
 41
266.9781062566162
 46
0.0
 71
     1
 72
     5
  1
www.kraususa.com
 73
     1
 44
1.0
1001
ACAD
1000
ACAD_MTEXT_COLUMN_INFO_BEGIN
1070
    75
1070
     2
1070
    79
1070
     0
1070
    76
1070
     1
1070
    78
1070
     0
1070
    48
1040
266.9781062566162
1070
    49
1040
12.5
1070
    50
1070
     1
1040
0.0
1000
ACAD_MTEXT_COLUMN_INFO_END
  0
LINE
  5
4A9
330
1F
100
AcDbEntity
  8
0
  6
ByBlock
370
    -3
100
AcDbLine
 10
92.73550888871659
 20
88.2322882272822
 30
0.0
 11
390.905654854205
 21
88.2322882272822
 31
0.0
  0
LINE
  5
4AA
330
1F
100
AcDbEntity
  8
0
  6
ByBlock
370
    -3
100
AcDbLine
 10
92.73550888871659
 20
273.9467397312075
 30
0.0
 11
92.73550888871659
 21
88.2322882272822
 31
0.0
  0
LINE
  5
4AB
330
1F
100
AcDbEntity
  8
0
  6
ByBlock
370
    -3
100
AcDbLine
 10
390.905654854205
 20
273.9467397312075
 30
0.0
 11
390.905654854205
 21
88.2322882272822
 31
0.0
  0
MULTILEADER
  5
4B0
330
1F
100
AcDbEntity
  8
note
160
               452
310
C4010000170000000C00000016000000000000C00C00000033000000000000000C00000013000000993A00000C00000033000000000000000C00000010000000030000000C00000016000000020000C30C00000017000000050000000C00000012000000FF7F00000C00000013000000010000000C00000014000000010000
310
00540000000700000003000000F0F516FF04337340E9BED7A2D88A82400000000000000000F0F516FF049372403E142DF82D9882400000000000000000F0F516FF043373409369824D83A5824000000000000000000C00000013000000891300003C0000000600000002000000F0F516FF043373403E142DF82D9882400000
310
000000000000F01EED796AF379403E142DF82D98824000000000000000000C00000013000000112700003C0000000600000002000000F01EED796AF379403E142DF82D98824000000000000000001EB950CDCB3D7D403E142DF82D98824000000000000000000C00000016000000020000C30C00000012000000FF7F00000C
310
00000017000000000000000C000000130000009A3A00000C00000016000000000000C00C00000012000000FF7F00000C00000017000000FDFFFFFF0C0000003300000000000000
370
    -3
100
AcDbMLeader
270
     2
300
CONTEXT_DATA{
 40
1.0
 10
467.8622563508269
 20
595.0224460145761
 30
0.0
 41
4.0
140
10.0
145
2.0
174
     1
175
     1
176
     0
177
     0
290
     1
304

 11
0.0
 21
0.0
 31
1.0
340
11
 12
469.862256350827
 22
597.0224460145762
 32
0.0
 13
1.0
 23
0.0
 33
0.0
 42
0.0
 43
0.0
 44
0.0
 45
1.0
170
     1
 90
-1073741824
171
     1
172
     5
 91
-1073741824
141
0.0
 92
        0
291
     0
292
     0
173
     0
293
     0
142
0.0
143
0.0
294
     0
295
     0
296
     0
110
297.1887198349859
120
595.0224460145761
130
0.0
111
1.0
121
0.0
131
0.0
112
0.0
122
1.0
132
0.0
297
     0
302
LEADER{
290
     1
291
     1
 10
415.2134951841863
 20
595.0224460145761
 30
0.0
 11
1.0
 21
0.0
 31
0.0
 90
        0
 40
52.64876116664061
304
LEADER_LINE{
 10
297.1887198349859
 20
595.0224460145761
 30
0.0
 91
        0
305
}
271
     0
303
}
272
     9
273
     9
301
}
340
2C7
 90
   279680
170
     1
 91
-1023410174
341
14
171
     5
290
     1
291
     1
 41
8.0
 42
10.0
172
     2
343
11
173
     1
 95
        1
174
     1
175
     0
 92
-1056964608
292
     0
 93
-1056964608
 10
1.0
 20
1.0
 30
1.0
 43
0.0
176
     0
293
     0
294
     0
178
     0
179
     1
 45
1.0
271
     0
272
     9
273
     9
  0
MULTILEADER
  5
4B1
330
1F
100
AcDbEntity
  8
note
160
               452
310
C4010000170000000C00000016000000000000C00C00000033000000000000000C00000013000000993A00000C00000033000000000000000C00000010000000030000000C00000016000000020000C30C00000017000000050000000C00000012000000FF7F00000C00000013000000010000000C00000014000000010000
310
00540000000700000003000000C0C2E3CBD1FF7240496ED42091D885400000000000000000C0C2E3CBD15F72409EC32976E6E585400000000000000000C0C2E3CBD1FF7240F3187FCB3BF3854000000000000000000C00000013000000891300003C0000000600000002000000C0C2E3CBD1FF72409EC32976E6E585400000
310
000000000000C0EBB94637C079409EC32976E6E5854000000000000000000C00000013000000112700003C0000000600000002000000C0EBB94637C079409EC32976E6E585400000000000000000A0D3619752B77A409EC32976E6E5854000000000000000000C00000016000000020000C30C00000012000000FF7F00000C
310
00000017000000000000000C000000130000009A3A00000C00000016000000000000C00C00000012000000FF7F00000C00000017000000FDFFFFFF0C0000003300000000000000
370
    -3
100
AcDbMLeader
270
     2
300
CONTEXT_DATA{
 40
1.0
 10
427.4576639005045
 20
700.7375300658057
 30
0.0
 41
4.0
140
10.0
145
2.0
174
     1
175
     1
176
     0
177
     0
290
     1
304

 11
0.0
 21
0.0
 31
1.0
340
11
 12
429.4576639005044
 22
702.7375300658056
 32
0.0
 13
1.0
 23
0.0
 33
0.0
 42
0.0
 43
0.0
 44
0.0
 45
1.0
170
     1
 90
-1073741824
171
     1
172
     5
 91
-1073741824
141
0.0
 92
        0
291
     0
292
     0
173
     0
293
     0
142
0.0
143
0.0
294
     0
295
     0
296
     0
110
293.9887198349861
120
700.7375300658057
130
0.0
111
1.0
121
0.0
131
0.0
112
0.0
122
1.0
132
0.0
297
     0
302
LEADER{
290
     1
291
     1
 10
412.0134951841865
 20
700.7375300658057
 30
0.0
 11
1.0
 21
0.0
 31
0.0
 90
        0
 40
15.44416871631802
304
LEADER_LINE{
 10
293.9887198349861
 20
700.7375300658057
 30
0.0
 91
        0
305
}
271
     0
303
}
272
     9
273
     9
301
}
340
2C7
 90
   279680
170
     1
 91
-1023410174
341
14
171
     5
290
     1
291
     1
 41
8.0
 42
10.0
172
     2
343
11
173
     1
 95
        1
174
     1
175
     0
 92
-1056964608
292
     0
 93
-1056964608
 10
1.0
 20
1.0
 30
1.0
 43
0.0
176
     0
293
     0
294
     0
178
     0
179
     1
 45
1.0
271
     0
272
     9
273
     9
  0
MULTILEADER
  5
4B2
330
1F
100
AcDbEntity
  8
note
160
               452
310
C4010000170000000C00000016000000000000C00C00000033000000000000000C00000013000000993A00000C00000033000000000000000C00000010000000030000000C00000016000000020000C30C00000017000000050000000C00000012000000FF7F00000C00000013000000010000000C00000014000000010000
310
00540000000700000003000000738FDE285C50814051F04B891AA18C4000000000000000001E3A89D30643814051F04B891A518C400000000000000000C9E4337EB135814051F04B891AA18C4000000000000000000C00000013000000891300003C00000006000000020000001E3A89D30643814051F04B891AA18C400000
310
0000000000001E3A89D306438140E1A983F84D6F8D4000000000000000000C00000013000000112700003C00000006000000020000001E3A89D306438140E1A983F84D6F8D4000000000000000005094F5D5990E7A40E1A983F84D6F8D4000000000000000000C00000016000000020000C30C00000012000000FF7F00000C
310
00000017000000000000000C000000130000009A3A00000C00000016000000000000C00C00000012000000FF7F00000C00000017000000FDFFFFFF0C0000003300000000000000
370
    -3
100
AcDbMLeader
270
     2
300
CONTEXT_DATA{
 40
1.0
 10
412.9125575631087
 20
941.9130716596811
 30
0.0
 41
4.0
140
10.0
145
2.0
174
     1
175
     1
176
     2
177
     0
290
     1
304

 11
0.0
 21
0.0
 31
1.0
340
11
 12
414.9125575631087
 22
943.913071659681
 32
0.0
 13
1.0
 23
0.0
 33
0.0
 42
0.0
 43
0.0
 44
0.0
 45
1.0
170
     1
 90
-1073741824
171
     3
172
     5
 91
-1073741824
141
0.0
 92
        0
291
     0
292
     0
173
     0
293
     0
142
0.0
143
0.0
294
     0
295
     0
296
     0
110
552.3783331604825
120
906.1379571850499
130
0.0
111
1.0
121
0.0
131
0.0
112
0.0
122
1.0
132
0.0
297
     0
302
LEADER{
290
     1
291
     1
 10
552.3783331604825
 20
941.9130716596811
 30
0.0
 11
-1.0
 21
0.0
 31
0.0
 90
        0
 40
135.4657755973737
304
LEADER_LINE{
 10
552.3783331604825
 20
906.1379571850503
 30
0.0
 91
        0
305
}
271
     0
303
}
272
     9
273
     9
301
}
340
2C7
 90
   279680
170
     1
 91
-1023410174
341
14
171
     5
290
     1
291
     1
 41
8.0
 42
10.0
172
     2
343
11
173
     1
 95
        1
174
     1
175
     2
 92
-1056964608
292
     0
 93
-1056964608
 10
1.0
 20
1.0
 30
1.0
 43
0.0
176
     0
293
     0
294
     0
178
     0
179
     3
 45
1.0
271
     0
272
     9
273
     9
  0
MTEXT
  5
4B5
330
1F
100
AcDbEntity
  8
note
 62
     2
370
    -3
100
AcDbMText
 10
417.381844881538
 20
959.9632207454234
 30
0.0
 40
10.0
 41
201.1158221863448
 46
0.0
 71
     1
 72
     5
  1
\A1;3/8" Positive Reveal
 73
     1
 44
1.0
1001
ACAD
1000
ACAD_MTEXT_COLUMN_INFO_BEGIN
1070
    75
1070
     2
1070
    79
1070
     0
1070
    76
1070
     1
1070
    78
1070
     0
1070
    48
1040
201.1158221863448
1070
    49
1040
12.5
1070
    50
1070
     1
1040
30.41614051781163
1000
ACAD_MTEXT_COLUMN_INFO_END
  0
MTEXT
  5
4B6
330
1F
100
AcDbEntity
  8
note
 62
     2
370
    -3
100
AcDbMText
 10
352.661697310527
 20
718.0231255868616
 30
0.0
 40
10.0
 41
201.1158221863448
 46
0.0
 71
     1
 72
     5
  1
\A1;Zero Reveal
 73
     1
 44
1.0
1001
ACAD
1000
ACAD_MTEXT_COLUMN_INFO_BEGIN
1070
    75
1070
     2
1070
    79
1070
     0
1070
    76
1070
     1
1070
    78
1070
     0
1070
    48
1040
201.1158221863448
1070
    49
1040
12.5
1070
    50
1070
     1
1040
30.41614051781163
1000
ACAD_MTEXT_COLUMN_INFO_END
  0
MTEXT
  5
4B7
330
1F
100
AcDbEntity
  8
note
 62
     2
370
    -3
100
AcDbMText
 10
338.6660554353248
 20
612.1316381886885
 30
0.0
 40
10.0
 41
201.1158221863448
 46
0.0
 71
     1
 72
     5
  1
\A1;1/8" Negative Reveal
 73
     1
 44
1.0
1001
ACAD
1000
ACAD_MTEXT_COLUMN_INFO_BEGIN
1070
    75
1070
     2
1070
    79
1070
     0
1070
    76
1070
     1
1070
    78
1070
     0
1070
    48
1040
201.1158221863448
1070
    49
1040
12.5
1070
    50
1070
     1
1040
30.41614051781163
1000
ACAD_MTEXT_COLUMN_INFO_END
  0
LINE
  5
4D3
330
1F
100
AcDbEntity
  8
0
370
     5
100
AcDbLine
 10
524.594829709501
 20
147.9577294024668
 30
0.0
 11
520.464606778335
 21
226.7670774996212
 31
0.0
  0
LINE
  5
4D4
330
1F
100
AcDbEntity
  8
0
370
     5
100
AcDbLine
 10
522.6969005763276
 20
145.9577294024668
 30
0.0
 11
518.5666776451617
 21
224.7670774996212
 31
0.0
  0
LINE
  5
4D5
330
1F
100
AcDbEntity
  8
0
370
     5
100
AcDbLine
 10
575.7051155692502
 20
143.5481960252471
 30
0.0
 11
575.7051155692497
 21
145.5481960252498
 31
0.0
  0
ARC
  5
4D6
330
1F
100
AcDbEntity
  8
0
370
     5
100
AcDbCircle
 10
913.3703771611198
 20
367.6021220668151
 30
0.0
 40
407.7454318089715
100
AcDbArc
 50
212.5938397801225
 51
212.9966235360776
  0
ARC
  5
4D7
330
1F
100
AcDbEntity
  8
0
370
     5
100
AcDbCircle
 10
913.3703771611198
 20
367.6021220668151
 30
0.0
 40
409.7454318089716
100
AcDbArc
 50
212.747102818928
 51
213.1486111216632
  0
LINE
  5
4D8
330
1F
100
AcDbEntity
  8
0
370
     5
100
AcDbLine
 10
524.594829709501
 20
147.9577294024668
 30
0.0
 11
569.8406434666485
 21
147.9577294024668
 31
0.0
  0
LINE
  5
4D9
330
1F
100
AcDbEntity
  8
0
370
     5
100
AcDbLine
 10
522.6969005763276
 20
145.9577294024668
 30
0.0
 11
568.7472756592433
 21
145.9577294024668
 31
0.0
  0
LINE
  5
4DA
330
1F
100
AcDbEntity
  8
0
370
     5
100
AcDbLine
 10
571.3931979654744
 20
145.5481960252471
 30
0.0
 11
601.7775056656333
 21
145.5481960252471
 31
0.0
  0
LINE
  5
4DB
330
1F
100
AcDbEntity
  8
0
370
     5
100
AcDbLine
 10
570.3089291468026
 20
143.5481960252471
 30
0.0
 11
602.861774484305
 21
143.5481960252471
 31
0.0
  0
HATCH
  5
4DC
330
1F
100
AcDbEntity
  8
0
 62
     2
370
    -3
100
AcDbHatch
 10
0.0
 20
0.0
 30
0.0
210
0.0
220
0.0
230
1.0
  2
ANSI31
 70
     0
 71
     1
 91
        2
 92
        7
 72
     1
 73
     1
 93
        5
 10
468.9824008510913
 20
236.9748168738704
 42
0.0
 10
468.9824008510913
 20
226.7670774996231
 42
0.0
 10
520.464606778335
 20
226.7670774996212
 42
0.0
 10
520.464606778335
 20
233.9748168738676
 42
0.4142135623730786
 10
517.4646067783352
 20
236.9748168738677
 42
0.0
 97
        5
330
4E1
330
4E0
330
4DD
330
4DF
330
4DE
 92
        7
 72
     1
 73
     1
 93
        6
 10
669.850921786493
 20
226.7670774996212
 42
0.0
 10
704.1883027800158
 20
226.7670774996231
 42
0.0
 10
704.1883027800158
 20
236.9748168738704
 42
0.0
 10
655.7060968527719
 20
236.9748168738677
 42
0.4142135623730784
 10
652.7060968527721
 20
233.9748168738676
 42
0.0
 10
652.7060968527721
 20
226.7670774996212
 42
0.0
 97
        6
330
4EC
330
4ED
330
4EA
330
4EE
330
4EB
330
4E9
 75
     1
 76
     1
 52
0.0
 41
1.0
 77
     0
 78
     1
 53
45.0
 43
-1149.828229310228
 44
-158.9728419609175
 45
-2.245064030267287
 46
2.245064030267288
 79
     0
 47
0.3964580164686978
 98
        2
 10
507.1705724843704
 20
233.3656870174593
 10
665.8626940213617
 20
230.5904820201827
1001
GradientColor1ACI
1070
     5
1001
GradientColor2ACI
1070
     2
1001
ACAD
1010
0.0
1020
0.0
1030
0.0
  0
LINE
  5
4DD
102
{ACAD_REACTORS
330
4DC
102
}
330
1F
100
AcDbEntity
  8
0
370
     5
100
AcDbLine
 10
468.9824008510913
 20
236.9748168738704
 30
0.0
 11
468.9824008510913
 21
226.7670774996231
 31
0.0
  0
LINE
  5
4DE
102
{ACAD_REACTORS
330
4DC
102
}
330
1F
100
AcDbEntity
  8
0
370
     5
100
AcDbLine
 10
520.464606778335
 20
226.7670774996212
 30
0.0
 11
520.464606778335
 21
233.9748168738676
 31
0.0
  0
LINE
  5
4DF
102
{ACAD_REACTORS
330
4DC
102
}
330
1F
100
AcDbEntity
  8
0
370
     5
100
AcDbLine
 10
468.9824008510913
 20
226.7670774996231
 30
0.0
 11
520.464606778335
 21
226.7670774996212
 31
0.0
  0
LINE
  5
4E0
102
{ACAD_REACTORS
330
4DC
102
}
330
1F
100
AcDbEntity
  8
0
370
     5
100
AcDbLine
 10
517.4646067783351
 20
236.9748168738677
 30
0.0
 11
468.9824008510913
 21
236.9748168738704
 31
0.0
  0
ARC
  5
4E1
102
{ACAD_REACTORS
330
4DC
102
}
330
1F
100
AcDbEntity
  8
0
370
     5
100
AcDbCircle
 10
517.4646067783351
 20
233.9748168738676
 30
0.0
 40
3.0
100
AcDbArc
 50
0.0
 51
89.99999999998697
  0
LINE
  5
4E2
330
1F
100
AcDbEntity
  8
0
370
     5
100
AcDbLine
 10
503.3197818446142
 20
226.7670774996212
 30
0.0
 11
520.464606778335
 21
226.7670774996212
 31
0.0
  0
LINE
  5
4E3
330
1F
100
AcDbEntity
  8
0
370
     5
100
AcDbLine
 10
503.3197818446142
 20
224.7670774996212
 30
0.0
 11
518.5666776451617
 21
224.7670774996212
 31
0.0
  0
LINE
  5
4E4
330
1F
100
AcDbEntity
  8
0
370
    -3
100
AcDbLine
 10
503.3197818446142
 20
224.7670774996212
 30
0.0
 11
503.3197818446142
 21
226.7670774996212
 31
0.0
  0
LINE
  5
4E5
330
1F
100
AcDbEntity
  8
0
370
     5
100
AcDbLine
 10
648.5758739216062
 20
147.9577294024668
 30
0.0
 11
652.7060968527721
 21
226.7670774996212
 31
0.0
  0
LINE
  5
4E6
330
1F
100
AcDbEntity
  8
0
370
     5
100
AcDbLine
 10
650.4738030547796
 20
145.9577294024668
 30
0.0
 11
654.6040259859455
 21
224.7670774996212
 31
0.0
  0
LINE
  5
4E7
330
1F
100
AcDbEntity
  8
0
370
     5
100
AcDbLine
 10
648.5758739216062
 20
147.9577294024668
 30
0.0
 11
603.3300601644587
 21
147.9577294024668
 31
0.0
  0
LINE
  5
4E8
330
1F
100
AcDbEntity
  8
0
370
     5
100
AcDbLine
 10
650.4738030547796
 20
145.9577294024668
 30
0.0
 11
604.4234279718644
 21
145.9577294024668
 31
0.0
  0
LINE
  5
4E9
102
{ACAD_REACTORS
330
4DC
102
}
330
1F
100
AcDbEntity
  8
0
370
     5
100
AcDbLine
 10
704.1883027800158
 20
236.9748168738704
 30
0.0
 11
704.1883027800158
 21
226.7670774996231
 31
0.0
  0
LINE
  5
4EA
102
{ACAD_REACTORS
330
4DC
102
}
330
1F
100
AcDbEntity
  8
0
370
     5
100
AcDbLine
 10
652.7060968527721
 20
226.7670774996212
 30
0.0
 11
652.7060968527721
 21
233.9748168738676
 31
0.0
  0
LINE
  5
4EB
102
{ACAD_REACTORS
330
4DC
102
}
330
1F
100
AcDbEntity
  8
0
370
     5
100
AcDbLine
 10
704.1883027800158
 20
226.7670774996231
 30
0.0
 11
652.7060968527721
 21
226.7670774996212
 31
0.0
  0
LINE
  5
4EC
102
{ACAD_REACTORS
330
4DC
102
}
330
1F
100
AcDbEntity
  8
0
370
     5
100
AcDbLine
 10
655.7060968527721
 20
236.9748168738677
 30
0.0
 11
704.1883027800158
 21
236.9748168738704
 31
0.0
  0
ARC
  5
4ED
102
{ACAD_REACTORS
330
4DC
102
}
330
1F
100
AcDbEntity
  8
0
370
     5
100
AcDbCircle
 10
655.7060968527721
 20
233.9748168738676
 30
0.0
 40
3.0
100
AcDbArc
 50
90.0
 51
180.0
  0
LINE
  5
4EE
102
{ACAD_REACTORS
330
4DC
102
}
330
1F
100
AcDbEntity
  8
0
370
     5
100
AcDbLine
 10
669.850921786493
 20
226.7670774996212
 30
0.0
 11
652.7060968527721
 21
226.7670774996212
 31
0.0
  0
LINE
  5
4EF
330
1F
100
AcDbEntity
  8
0
370
     5
100
AcDbLine
 10
669.850921786493
 20
224.7670774996212
 30
0.0
 11
654.6040259859455
 21
224.7670774996212
 31
0.0
  0
LINE
  5
4F0
330
1F
100
AcDbEntity
  8
0
370
    -3
100
AcDbLine
 10
669.850921786493
 20
224.7670774996212
 30
0.0
 11
669.850921786493
 21
226.7670774996212
 31
0.0
  0
LINE
  5
4F1
330
1F
100
AcDbEntity
  8
0
370
     5
100
AcDbLine
 10
597.4655880618574
 20
143.5481960252471
 30
0.0
 11
597.4655880618574
 21
145.5481960252498
 31
0.0
  0
ARC
  5
4F2
330
1F
100
AcDbEntity
  8
0
370
     5
100
AcDbCircle
 10
259.8003264699878
 20
367.6021220668151
 30
0.0
 40
407.7454318089715
100
AcDbArc
 50
327.0033764639252
 51
327.4061602198775
  0
ARC
  5
4F3
330
1F
100
AcDbEntity
  8
0
370
     5
100
AcDbCircle
 10
259.8003264699878
 20
367.6021220668151
 30
0.0
 40
409.7454318089716
100
AcDbArc
 50
326.8513888783368
 51
327.2528971810802
  0
LINE
  5
4F4
330
1F
100
AcDbEntity
  8
0
370
     5
100
AcDbLine
 10
1144.697761996438
 20
144.8666077710287
 30
0.0
 11
1140.567539065272
 21
223.6759558681831
 31
0.0
  0
LINE
  5
4F5
330
1F
100
AcDbEntity
  8
0
370
     5
100
AcDbLine
 10
1142.799832863265
 20
142.8666077710287
 30
0.0
 11
1138.669609932099
 21
221.6759558681831
 31
0.0
  0
LINE
  5
4F6
330
1F
100
AcDbEntity
  8
0
370
     5
100
AcDbLine
 10
1195.808047856187
 20
140.4570743938089
 30
0.0
 11
1195.808047856187
 21
142.4570743938117
 31
0.0
  0
ARC
  5
4F7
330
1F
100
AcDbEntity
  8
0
370
     5
100
AcDbCircle
 10
1533.473309448057
 20
364.511000435377
 30
0.0
 40
407.7454318089715
100
AcDbArc
 50
212.5938397801224
 51
212.9966235360807
  0
ARC
  5
4F8
330
1F
100
AcDbEntity
  8
0
370
     5
100
AcDbCircle
 10
1533.473309448057
 20
364.511000435377
 30
0.0
 40
409.7454318089716
100
AcDbArc
 50
212.7471028189265
 51
213.1486111216648
  0
LINE
  5
4F9
330
1F
100
AcDbEntity
  8
0
370
     5
100
AcDbLine
 10
1144.697761996438
 20
144.8666077710287
 30
0.0
 11
1189.943575753585
 21
144.8666077710287
 31
0.0
  0
LINE
  5
4FA
330
1F
100
AcDbEntity
  8
0
370
     5
100
AcDbLine
 10
1142.799832863265
 20
142.8666077710287
 30
0.0
 11
1188.85020794618
 21
142.8666077710287
 31
0.0
  0
LINE
  5
4FB
330
1F
100
AcDbEntity
  8
0
370
     5
100
AcDbLine
 10
1191.496130252411
 20
142.4570743938089
 30
0.0
 11
1221.88043795257
 21
142.4570743938089
 31
0.0
  0
LINE
  5
4FC
330
1F
100
AcDbEntity
  8
0
370
     5
100
AcDbLine
 10
1190.41186143374
 20
140.4570743938089
 30
0.0
 11
1222.964706771242
 21
140.4570743938089
 31
0.0
  0
HATCH
  5
4FD
330
1F
100
AcDbEntity
  8
0
 62
     2
370
    -3
100
AcDbHatch
 10
0.0
 20
0.0
 30
0.0
210
0.0
220
0.0
230
1.0
  2
ANSI31
 70
     0
 71
     1
 91
        2
 92
        7
 72
     1
 73
     1
 93
        5
 10
1082.595141388592
 20
233.8836952424323
 42
0.0
 10
1082.595141388592
 20
223.6759558681849
 42
0.0
 10
1134.077347315836
 20
223.6759558681831
 42
0.0
 10
1134.077347315836
 20
230.8836952424296
 42
0.4142135623730788
 10
1131.077347315836
 20
233.8836952424296
 42
0.0
 97
        5
330
502
330
4FE
330
501
330
4FF
330
500
 92
        7
 72
     1
 73
     1
 93
        5
 10
1282.299220889146
 20
233.8836952424296
 42
0.4142135623730784
 10
1279.299220889146
 20
230.8836952424296
 42
0.0
 10
1279.299220889146
 20
223.6759558681831
 42
0.0
 10
1330.78142681639
 20
223.6759558681849
 42
0.0
 10
1330.78142681639
 20
233.8836952424323
 42
0.0
 97
        5
330
513
330
514
330
511
330
512
330
510
 75
     1
 76
     1
 52
0.0
 41
1.0
 77
     0
 78
     1
 53
45.0
 43
-530.3617487373586
 44
-366.8068262042115
 45
-2.245064030267287
 46
2.245064030267288
 79
     0
 47
0.2478031236227961
 98
        2
 10
1121.097389215985
 20
230.6374127379485
 10
1287.487484287834
 20
230.6374127379485
1001
GradientColor1ACI
1070
     5
1001
GradientColor2ACI
1070
     2
1001
ACAD
1010
0.0
1020
0.0
1030
0.0
  0
LINE
  5
4FE
102
{ACAD_REACTORS
330
4FD
102
}
330
1F
100
AcDbEntity
  8
0
370
     5
100
AcDbLine
 10
1082.595141388592
 20
233.8836952424323
 30
0.0
 11
1082.595141388592
 21
223.6759558681849
 31
0.0
  0
LINE
  5
4FF
102
{ACAD_REACTORS
330
4FD
102
}
330
1F
100
AcDbEntity
  8
0
370
     5
100
AcDbLine
 10
1134.077347315836
 20
223.6759558681831
 30
0.0
 11
1134.077347315836
 21
230.8836952424296
 31
0.0
  0
ARC
  5
500
102
{ACAD_REACTORS
330
4FD
102
}
330
1F
100
AcDbEntity
  8
0
370
     5
100
AcDbCircle
 10
1131.077347315836
 20
230.8836952424296
 30
0.0
 40
3.0
100
AcDbArc
 50
0.0
 51
89.99999999999349
  0
LINE
  5
501
102
{ACAD_REACTORS
330
4FD
102
}
330
1F
100
AcDbEntity
  8
0
370
     5
100
AcDbLine
 10
1082.595141388592
 20
223.6759558681849
 30
0.0
 11
1134.077347315836
 21
223.6759558681831
 31
0.0
  0
LINE
  5
502
102
{ACAD_REACTORS
330
4FD
102
}
330
1F
100
AcDbEntity
  8
0
370
     5
100
AcDbLine
 10
1131.077347315836
 20
233.8836952424296
 30
0.0
 11
1082.595141388592
 21
233.8836952424323
 31
0.0
  0
LINE
  5
503
330
1F
100
AcDbEntity
  8
0
370
     5
100
AcDbLine
 10
1123.422714131551
 20
223.6759558681831
 30
0.0
 11
1140.567539065272
 21
223.6759558681831
 31
0.0
  0
LINE
  5
504
330
1F
100
AcDbEntity
  8
0
370
     5
100
AcDbLine
 10
1123.422714131551
 20
221.6759558681831
 30
0.0
 11
1138.669609932099
 21
221.6759558681831
 31
0.0
  0
LINE
  5
505
330
1F
100
AcDbEntity
  8
0
370
    -3
100
AcDbLine
 10
1123.422714131551
 20
221.6759558681831
 30
0.0
 11
1123.422714131551
 21
223.6759558681831
 31
0.0
  0
LINE
  5
506
330
1F
100
AcDbEntity
  8
0
370
     5
100
AcDbLine
 10
1268.678806208543
 20
144.8666077710287
 30
0.0
 11
1272.809029139709
 21
223.6759558681831
 31
0.0
  0
LINE
  5
507
330
1F
100
AcDbEntity
  8
0
370
     5
100
AcDbLine
 10
1270.576735341717
 20
142.8666077710287
 30
0.0
 11
1274.706958272882
 21
221.6759558681831
 31
0.0
  0
LINE
  5
508
330
1F
100
AcDbEntity
  8
0
370
     5
100
AcDbLine
 10
1268.678806208543
 20
144.8666077710287
 30
0.0
 11
1223.432992451396
 21
144.8666077710287
 31
0.0
  0
LINE
  5
509
330
1F
100
AcDbEntity
  8
0
370
     5
100
AcDbLine
 10
1270.576735341717
 20
142.8666077710287
 30
0.0
 11
1224.526360258801
 21
142.8666077710287
 31
0.0
  0
LINE
  5
50A
330
1F
100
AcDbEntity
  8
0
370
     5
100
AcDbLine
 10
1289.95385407343
 20
223.6759558681831
 30
0.0
 11
1272.809029139709
 21
223.6759558681831
 31
0.0
  0
LINE
  5
50B
330
1F
100
AcDbEntity
  8
0
370
     5
100
AcDbLine
 10
1289.95385407343
 20
221.6759558681831
 30
0.0
 11
1274.706958272882
 21
221.6759558681831
 31
0.0
  0
LINE
  5
50C
330
1F
100
AcDbEntity
  8
0
370
    -3
100
AcDbLine
 10
1289.95385407343
 20
221.6759558681831
 30
0.0
 11
1289.95385407343
 21
223.6759558681831
 31
0.0
  0
LINE
  5
50D
330
1F
100
AcDbEntity
  8
0
370
     5
100
AcDbLine
 10
1217.568520348794
 20
140.4570743938089
 30
0.0
 11
1217.568520348794
 21
142.4570743938117
 31
0.0
  0
ARC
  5
50E
330
1F
100
AcDbEntity
  8
0
370
     5
100
AcDbCircle
 10
879.903258756925
 20
364.511000435377
 30
0.0
 40
407.7454318089715
100
AcDbArc
 50
327.0033764639197
 51
327.4061602198774
  0
ARC
  5
50F
330
1F
100
AcDbEntity
  8
0
370
     5
100
AcDbCircle
 10
879.903258756925
 20
364.511000435377
 30
0.0
 40
409.7454318089716
100
AcDbArc
 50
326.8513888783351
 51
327.2528971810836
  0
LINE
  5
510
102
{ACAD_REACTORS
330
4FD
102
}
330
1F
100
AcDbEntity
  8
0
370
     5
100
AcDbLine
 10
1330.78142681639
 20
233.8836952424323
 30
0.0
 11
1330.78142681639
 21
223.6759558681849
 31
0.0
  0
LINE
  5
511
102
{ACAD_REACTORS
330
4FD
102
}
330
1F
100
AcDbEntity
  8
0
370
     5
100
AcDbLine
 10
1279.299220889146
 20
223.6759558681831
 30
0.0
 11
1279.299220889146
 21
230.8836952424296
 31
0.0
  0
LINE
  5
512
102
{ACAD_REACTORS
330
4FD
102
}
330
1F
100
AcDbEntity
  8
0
370
     5
100
AcDbLine
 10
1330.78142681639
 20
223.6759558681849
 30
0.0
 11
1279.299220889146
 21
223.6759558681831
 31
0.0
  0
LINE
  5
513
102
{ACAD_REACTORS
330
4FD
102
}
330
1F
100
AcDbEntity
  8
0
370
     5
100
AcDbLine
 10
1282.299220889145
 20
233.8836952424296
 30
0.0
 11
1330.78142681639
 21
233.8836952424323
 31
0.0
  0
ARC
  5
514
102
{ACAD_REACTORS
330
4FD
102
}
330
1F
100
AcDbEntity
  8
0
370
     5
100
AcDbCircle
 10
1282.299220889146
 20
230.8836952424296
 30
0.0
 40
3.0
100
AcDbArc
 50
90.0
 51
180.0
  0
LINE
  5
515
330
1F
100
AcDbEntity
  8
0
370
     5
100
AcDbLine
 10
832.7993952198008
 20
144.8803106006833
 30
0.0
 11
828.6691722886349
 21
223.6896586978377
 31
0.0
  0
LINE
  5
516
330
1F
100
AcDbEntity
  8
0
370
     5
100
AcDbLine
 10
830.9014660866273
 20
142.8803106006833
 30
0.0
 11
826.7712431554613
 21
221.6896586978377
 31
0.0
  0
LINE
  5
517
330
1F
100
AcDbEntity
  8
0
370
     5
100
AcDbLine
 10
883.9096810795499
 20
140.4707772234636
 30
0.0
 11
883.9096810795494
 21
142.4707772234662
 31
0.0
  0
ARC
  5
518
330
1F
100
AcDbEntity
  8
0
370
     5
100
AcDbCircle
 10
1221.574942671419
 20
364.5247032650316
 30
0.0
 40
407.7454318089715
100
AcDbArc
 50
212.593839780122
 51
212.9966235360797
  0
ARC
  5
519
330
1F
100
AcDbEntity
  8
0
370
     5
100
AcDbCircle
 10
1221.574942671419
 20
364.5247032650316
 30
0.0
 40
409.7454318089716
100
AcDbArc
 50
212.7471028189276
 51
213.1486111216637
  0
LINE
  5
51A
330
1F
100
AcDbEntity
  8
0
370
     5
100
AcDbLine
 10
832.7993952198008
 20
144.8803106006833
 30
0.0
 11
878.0452089769482
 21
144.8803106006833
 31
0.0
  0
LINE
  5
51B
330
1F
100
AcDbEntity
  8
0
370
     5
100
AcDbLine
 10
830.9014660866273
 20
142.8803106006833
 30
0.0
 11
876.9518411695431
 21
142.8803106006833
 31
0.0
  0
LINE
  5
51C
330
1F
100
AcDbEntity
  8
0
370
     5
100
AcDbLine
 10
879.5977634757742
 20
142.4707772234635
 30
0.0
 11
909.9820711759329
 21
142.4707772234635
 31
0.0
  0
LINE
  5
51D
330
1F
100
AcDbEntity
  8
0
370
     5
100
AcDbLine
 10
878.5134946571025
 20
140.4707772234635
 30
0.0
 11
911.0663399946046
 21
140.4707772234635
 31
0.0
  0
HATCH
  5
51E
330
1F
100
AcDbEntity
  8
0
 62
     2
370
    -3
100
AcDbHatch
 10
0.0
 20
0.0
 30
0.0
210
0.0
220
0.0
230
1.0
  2
ANSI31
 70
     0
 71
     1
 91
        2
 92
        7
 72
     1
 73
     1
 93
        5
 10
832.9726247112816
 20
230.8973980720842
 42
0.4142135623730792
 10
829.9726247112818
 20
233.8973980720842
 42
0.0
 10
781.4904187840379
 20
233.8973980720869
 42
0.0
 10
781.4904187840379
 20
223.6896586978395
 42
0.0
 10
832.9726247112816
 20
223.6896586978377
 42
0.0
 97
        5
330
523
330
522
330
51F
330
521
330
520
 92
        7
 72
     1
 73
     1
 93
        5
 10
1008.089415867669
 20
223.6896586978395
 42
0.0
 10
1008.089415867669
 20
233.8973980720869
 42
0.0
 10
959.6072099404253
 20
233.8973980720842
 42
0.4142135623730784
 10
956.6072099404255
 20
230.8973980720842
 42
0.0
 10
956.6072099404255
 20
223.6896586978377
 42
0.0
 97
        5
330
534
330
535
330
532
330
533
330
531
 75
     1
 76
     1
 52
0.0
 41
1.0
 77
     0
 78
     1
 53
45.0
 43
-841.6236637999286
 44
47.30447637602378
 45
-2.245064030267287
 46
2.245064030267288
 79
     0
 47
0.2487134224183104
 98
        2
 10
828.7331422450602
 20
229.4966092035834
 10
972.3393453004469
 20
225.2684808540698
1001
GradientColor1ACI
1070
     5
1001
GradientColor2ACI
1070
     2
1001
ACAD
1010
0.0
1020
0.0
1030
0.0
  0
LINE
  5
51F
102
{ACAD_REACTORS
330
51E
102
}
330
1F
100
AcDbEntity
  8
0
370
     5
100
AcDbLine
 10
781.4904187840379
 20
233.8973980720869
 30
0.0
 11
781.4904187840379
 21
223.6896586978395
 31
0.0
  0
LINE
  5
520
102
{ACAD_REACTORS
330
51E
102
}
330
1F
100
AcDbEntity
  8
0
370
     5
100
AcDbLine
 10
832.9726247112816
 20
223.6896586978377
 30
0.0
 11
832.9726247112816
 21
230.8973980720842
 31
0.0
  0
LINE
  5
521
102
{ACAD_REACTORS
330
51E
102
}
330
1F
100
AcDbEntity
  8
0
370
     5
100
AcDbLine
 10
781.4904187840379
 20
223.6896586978395
 30
0.0
 11
832.9726247112816
 21
223.6896586978377
 31
0.0
  0
LINE
  5
522
102
{ACAD_REACTORS
330
51E
102
}
330
1F
100
AcDbEntity
  8
0
370
     5
100
AcDbLine
 10
829.9726247112817
 20
233.8973980720842
 30
0.0
 11
781.4904187840379
 21
233.8973980720869
 31
0.0
  0
ARC
  5
523
102
{ACAD_REACTORS
330
51E
102
}
330
1F
100
AcDbEntity
  8
0
370
     5
100
AcDbCircle
 10
829.9726247112817
 20
230.8973980720842
 30
0.0
 40
3.0
100
AcDbArc
 50
0.0
 51
89.99999999999349
  0
LINE
  5
524
330
1F
100
AcDbEntity
  8
0
370
     5
100
AcDbLine
 10
811.5243473549138
 20
223.6896586978377
 30
0.0
 11
828.6691722886349
 21
223.6896586978377
 31
0.0
  0
LINE
  5
525
330
1F
100
AcDbEntity
  8
0
370
     5
100
AcDbLine
 10
811.5243473549138
 20
221.6896586978377
 30
0.0
 11
826.7712431554613
 21
221.6896586978377
 31
0.0
  0
LINE
  5
526
330
1F
100
AcDbEntity
  8
0
370
    -3
100
AcDbLine
 10
811.5243473549138
 20
221.6896586978377
 30
0.0
 11
811.5243473549138
 21
223.6896586978377
 31
0.0
  0
LINE
  5
527
330
1F
100
AcDbEntity
  8
0
370
     5
100
AcDbLine
 10
956.7804394319059
 20
144.8803106006833
 30
0.0
 11
960.9106623630719
 21
223.6896586978377
 31
0.0
  0
LINE
  5
528
330
1F
100
AcDbEntity
  8
0
370
     5
100
AcDbLine
 10
958.6783685650793
 20
142.8803106006833
 30
0.0
 11
962.8085914962452
 21
221.6896586978377
 31
0.0
  0
LINE
  5
529
330
1F
100
AcDbEntity
  8
0
370
     5
100
AcDbLine
 10
956.7804394319059
 20
144.8803106006833
 30
0.0
 11
911.5346256747583
 21
144.8803106006833
 31
0.0
  0
LINE
  5
52A
330
1F
100
AcDbEntity
  8
0
370
     5
100
AcDbLine
 10
958.6783685650793
 20
142.8803106006833
 30
0.0
 11
912.627993482164
 21
142.8803106006833
 31
0.0
  0
LINE
  5
52B
330
1F
100
AcDbEntity
  8
0
370
     5
100
AcDbLine
 10
978.0554872967927
 20
223.6896586978377
 30
0.0
 11
960.9106623630719
 21
223.6896586978377
 31
0.0
  0
LINE
  5
52C
330
1F
100
AcDbEntity
  8
0
370
     5
100
AcDbLine
 10
978.0554872967927
 20
221.6896586978377
 30
0.0
 11
962.8085914962452
 21
221.6896586978377
 31
0.0
  0
LINE
  5
52D
330
1F
100
AcDbEntity
  8
0
370
    -3
100
AcDbLine
 10
978.0554872967927
 20
221.6896586978377
 30
0.0
 11
978.0554872967927
 21
223.6896586978377
 31
0.0
  0
LINE
  5
52E
330
1F
100
AcDbEntity
  8
0
370
     5
100
AcDbLine
 10
905.6701535721572
 20
140.4707772234636
 30
0.0
 11
905.6701535721572
 21
142.4707772234662
 31
0.0
  0
ARC
  5
52F
330
1F
100
AcDbEntity
  8
0
370
     5
100
AcDbCircle
 10
568.0048919802875
 20
364.5247032650316
 30
0.0
 40
407.7454318089715
100
AcDbArc
 50
327.0033764639206
 51
327.4061602198776
  0
ARC
  5
530
330
1F
100
AcDbEntity
  8
0
370
     5
100
AcDbCircle
 10
568.0048919802875
 20
364.5247032650316
 30
0.0
 40
409.7454318089716
100
AcDbArc
 50
326.8513888783362
 51
327.252897181082
  0
LINE
  5
531
102
{ACAD_REACTORS
330
51E
102
}
330
1F
100
AcDbEntity
  8
0
370
     5
100
AcDbLine
 10
1008.089415867669
 20
233.8973980720869
 30
0.0
 11
1008.089415867669
 21
223.6896586978395
 31
0.0
  0
LINE
  5
532
102
{ACAD_REACTORS
330
51E
102
}
330
1F
100
AcDbEntity
  8
0
370
     5
100
AcDbLine
 10
956.6072099404255
 20
223.6896586978377
 30
0.0
 11
956.6072099404255
 21
230.8973980720842
 31
0.0
  0
LINE
  5
533
102
{ACAD_REACTORS
330
51E
102
}
330
1F
100
AcDbEntity
  8
0
370
     5
100
AcDbLine
 10
1008.089415867669
 20
223.6896586978395
 30
0.0
 11
956.6072099404255
 21
223.6896586978377
 31
0.0
  0
LINE
  5
534
102
{ACAD_REACTORS
330
51E
102
}
330
1F
100
AcDbEntity
  8
0
370
     5
100
AcDbLine
 10
959.6072099404251
 20
233.8973980720842
 30
0.0
 11
1008.089415867669
 21
233.8973980720869
 31
0.0
  0
ARC
  5
535
102
{ACAD_REACTORS
330
51E
102
}
330
1F
100
AcDbEntity
  8
0
370
     5
100
AcDbCircle
 10
959.6072099404254
 20
230.8973980720842
 30
0.0
 40
3.0
100
AcDbArc
 50
90.0
 51
180.0
  0
MTEXT
  5
536
330
1F
100
AcDbEntity
  8
note
370
    -3
100
AcDbMText
 10
462.8816057089825
 20
127.3558308172089
 30
0.0
 40
8.0
 41
233.6010130528989
 46
0.0
 71
     1
 72
     5
  1
{\fCalibri|b0|i0|c0|p34;The countertop meets the edge of the sink fitting flush with the wall of the bowl}
 73
     1
 44
1.0
1001
ACAD
1000
ACAD_MTEXT_COLUMN_INFO_BEGIN
1070
    75
1070
     2
1070
    79
1070
     0
1070
    76
1070
     1
1070
    78
1070
     0
1070
    48
1040
233.6010130528989
1070
    49
1040
12.5
1070
    50
1070
     1
1040
35.89923947831051
1000
ACAD_MTEXT_COLUMN_INFO_END
  0
MTEXT
  5
537
330
1F
100
AcDbEntity
  8
note
370
    -3
100
AcDbMText
 10
771.0861712192823
 20
128.3865591404449
 30
0.0
 40
8.0
 41
244.6985338073505
 46
0.0
 71
     1
 72
     5
  1
{\fCalibri|b0|i0|c0|p34;The countertop extends over the edge of the sink by approximately 1/8"}
 73
     1
 44
1.0
1001
ACAD
1000
ACAD_MTEXT_COLUMN_INFO_BEGIN
1070
    75
1070
     2
1070
    79
1070
     0
1070
    76
1070
     1
1070
    78
1070
     0
1070
    48
1040
244.6985338073505
1070
    49
1040
12.5
1070
    50
1070
     1
1040
30.24120512822353
1000
ACAD_MTEXT_COLUMN_INFO_END
  0
MTEXT
  5
538
330
1F
100
AcDbEntity
  8
note
370
    -3
100
AcDbMText
 10
1074.052493982454
 20
260.3063559878123
 30
0.0
 40
8.0
 41
237.1240077337111
 46
0.0
 71
     1
 72
     5
  1
{\fCalibri|b1|i0|c0|p34;3/8" Positive Reveal}
 73
     1
 44
1.0
1001
ACAD
1000
ACAD_MTEXT_COLUMN_INFO_BEGIN
1070
    75
1070
     2
1070
    79
1070
     0
1070
    76
1070
     1
1070
    78
1070
     0
1070
    48
1040
237.1240077337111
1070
    49
1040
12.5
1070
    50
1070
     1
1040
49.41104810070462
1000
ACAD_MTEXT_COLUMN_INFO_END
  0
LWPOLYLINE
  5
539
330
1F
100
AcDbEntity
  8
0
370
    -3
100
AcDbPolyline
 90
        4
 70
     1
 43
0.0
 10
1060.572894452091
 20
273.4769012014291
 10
1347.646786790979
 20
273.4769012014291
 10
1347.646786790979
 20
88.23228822728209
 10
1060.572894452091
 20
88.23228822728209
  0
MTEXT
  5
53A
330
1F
100
AcDbEntity
  8
note
370
    -3
100
AcDbMText
 10
456.8390063770416
 20
260.8588464230491
 30
0.0
 40
8.0
 41
233.6010130528989
 46
0.0
 71
     1
 72
     5
  1
{\fCalibri|b1|i0|c0|p34;Zero Reveal}
 73
     1
 44
1.0
1001
ACAD
1000
ACAD_MTEXT_COLUMN_INFO_BEGIN
1070
    75
1070
     2
1070
    79
1070
     0
1070
    76
1070
     1
1070
    78
1070
     0
1070
    48
1040
233.6010130528989
1070
    49
1040
12.5
1070
    50
1070
     1
1040
51.40105957113622
1000
ACAD_MTEXT_COLUMN_INFO_END
  0
LWPOLYLINE
  5
53B
330
1F
100
AcDbEntity
  8
0
370
    -3
100
AcDbPolyline
 90
        4
 70
     1
 43
0.0
 10
441.1064138792217
 20
273.4769012014292
 10
728.1803062181088
 20
273.4769012014292
 10
728.1803062181088
 20
88.2322882272822
 10
441.1064138792217
 20
88.2322882272822
  0
MTEXT
  5
53C
330
1F
100
AcDbEntity
  8
note
370
    -3
100
AcDbMText
 10
1074.688945696514
 20
127.3193491445018
 30
0.0
 40
8.0
 41
237.1240077337111
 46
0.0
 71
     1
 72
     5
  1
{\fCalibri|b0|i0|c0|p34;The countertop edge sits approximately 3/8" back from the edge of the sink}
 73
     1
 44
1.0
1001
ACAD
1000
ACAD_MTEXT_COLUMN_INFO_BEGIN
1070
    75
1070
     2
1070
    79
1070
     0
1070
    76
1070
     1
1070
    78
1070
     0
1070
    48
1040
237.1240077337111
1070
    49
1040
12.5
1070
    50
1070
     1
1040
49.41104810070462
1000
ACAD_MTEXT_COLUMN_INFO_END
  0
LWPOLYLINE
  5
53D
330
1F
100
AcDbEntity
  8
0
370
    -3
100
AcDbPolyline
 90
        4
 70
     1
 43
0.0
 10
749.3109793895214
 20
273.4769012014292
 10
1036.384871728408
 20
273.4769012014292
 10
1036.384871728408
 20
88.2322882272822
 10
749.3109793895214
 20
88.2322882272822
  0
MTEXT
  5
53E
330
1F
100
AcDbEntity
  8
note
370
    -3
100
AcDbMText
 10
768.7604612818754
 20
258.6665653240473
 30
0.0
 40
8.0
 41
177.9117880023291
 46
0.0
 71
     1
 72
     5
  1
{\fCalibri|b1|i0|c0|p34;1/8" Negative Reveal}
 73
     1
 44
1.0
1001
ACAD
1000
ACAD_MTEXT_COLUMN_INFO_BEGIN
1070
    75
1070
     2
1070
    79
1070
     0
1070
    76
1070
     1
1070
    78
1070
     0
1070
    48
1040
177.9117880023291
1070
    49
1040
12.5
1070
    50
1070
     1
1040
24.69815819178072
1000
ACAD_MTEXT_COLUMN_INFO_END
  0
LWPOLYLINE
  5
F25
102
{ACAD_REACTORS
330
FA5
330
FF3
102
}
330
1F
100
AcDbEntity
  8
0
  6
New Line1
 62
     3
 48
7.0
370
     5
100
AcDbPolyline
 90
        6
 70
     1
 43
0.0
 10
1065.593719835006
 20
424.257892114665
 10
1065.593719835005
 20
886.5379571850503
 42
0.4142135623730951
 10
1045.993719835005
 20
906.1379571850503
 10
303.9887198349861
 20
906.1379571850503
 42
0.4142135623730951
 10
284.3887198349857
 20
886.5379571850503
 10
284.3887198349857
 20
424.257892114665
  0
LWPOLYLINE
  5
F26
102
{ACAD_REACTORS
330
F89
330
FD9
330
1081
102
}
330
1F
100
AcDbEntity
  8
0
 48
5.0
370
     5
100
AcDbPolyline
 90
        6
 70
     1
 43
0.0
 10
1055.993719835005
 20
423.4471488941903
 10
1055.993719835005
 20
886.5379571850503
 42
0.4142135623730951
 10
1045.993719835005
 20
896.5379571850503
 10
303.9887198349861
 20
896.5379571850503
 42
0.4142135623730951
 10
293.9887198349861
 20
886.5379571850503
 10
293.9887198349861
 20
423.4471488941903
  0
LWPOLYLINE
  5
F31
102
{ACAD_REACTORS
330
F6D
330
FBF
102
}
330
1F
100
AcDbEntity
  8
0
  6
New Line1
 62
    30
 48
4.0
370
     5
100
AcDbPolyline
 90
        6
 70
     1
 43
0.0
 10
1052.793719835004
 20
423.1814155482784
 10
1052.793719835005
 20
886.5379571850503
 42
0.4142135623730951
 10
1045.993719835005
 20
893.3379571850514
 10
303.9887198349861
 20
893.3379571850503
 42
0.4142135623730951
 10
297.1887198349859
 20
886.5379571850503
 10
297.1887198349859
 20
423.1814155482784
  0
LINE
  5
F3C
330
1F
100
AcDbEntity
  8
centerline
  6
ACAD_ISO08W100
370
    -3
100
AcDbLine
 10
674.9912198349957
 20
945.7841834474448
 30
0.0
 11
674.9912198349957
 21
385.3216057067477
 31
0.0
  0
DIMENSION
  5
F52
102
{ACAD_XDICTIONARY
360
F61
102
}
102
{ACAD_REACTORS
330
F6D
102
}
330
1F
100
AcDbEntity
  8
dimensions
100
AcDbDimension
280
     0
  2
*D1
 10
232.1964686708525
 20
423.1814155482784
 30
0.0
 11
232.1964686708524
 21
658.2596863666644
 31
0.0
 70
    32
 71
     5
 42
470.1565416367719
 73
     0
 74
     0
 75
     0
  3
dimensions
100
AcDbAlignedDimension
 13
303.9887198349861
 23
893.3379571850503
 33
0.0
 14
297.1887198349859
 24
423.1814155482784
 34
0.0
 50
90.0
100
AcDbRotatedDimension
  0
DIMENSION
  5
F6E
102
{ACAD_XDICTIONARY
360
F7D
102
}
102
{ACAD_REACTORS
330
F89
102
}
330
1F
100
AcDbEntity
  8
dimensions
100
AcDbDimension
280
     0
  2
*D2
 10
175.3905199621733
 20
896.5379571850505
 30
0.0
 11
175.3905199621731
 21
659.9925530396204
 31
0.0
 70
   160
 71
     5
 42
473.09080829086
 73
     0
 74
     0
 75
     0
  3
dimensions
100
AcDbAlignedDimension
 13
293.9887198349861
 23
423.4471488941903
 33
0.0
 14
303.9887198349861
 24
896.5379571850503
 34
0.0
 50
90.0
100
AcDbRotatedDimension
  0
DIMENSION
  5
F8A
102
{ACAD_XDICTIONARY
360
F99
102
}
102
{ACAD_REACTORS
330
FA5
102
}
330
1F
100
AcDbEntity
  8
dimensions
100
AcDbDimension
280
     0
  2
*D3
 10
117.8029727697505
 20
906.1379571850507
 30
0.0
 11
117.8029727697503
 21
665.1979246498578
 31
0.0
 70
   160
 71
     5
 42
481.8800650703854
 73
     0
 74
     0
 75
     0
  3
dimensions
100
AcDbAlignedDimension
 13
284.3887198349857
 23
424.257892114665
 33
0.0
 14
303.9887198349859
 24
906.1379571850505
 34
0.0
 50
90.0
100
AcDbRotatedDimension
  0
DIMENSION
  5
FA6
102
{ACAD_XDICTIONARY
360
FB4
102
}
102
{ACAD_REACTORS
330
FBF
102
}
330
1F
100
AcDbEntity
  8
dimensions
100
AcDbDimension
280
     0
  2
*D4
 10
1052.793719835005
 20
977.9314911701185
 30
0.0
 11
674.9912198349957
 21
977.9314911701185
 31
0.0
 70
    32
 71
     5
 42
755.6050000000196
 73
     0
 74
     0
 75
     0
  3
dimensions
100
AcDbAlignedDimension
 13
297.1887198349859
 23
886.5379571850503
 33
0.0
 14
1052.793719835005
 24
886.5379571850509
 34
0.0
100
AcDbRotatedDimension
  0
DIMENSION
  5
FC0
102
{ACAD_XDICTIONARY
360
FCE
102
}
102
{ACAD_REACTORS
330
FD9
102
}
330
1F
100
AcDbEntity
  8
dimensions
100
AcDbDimension
280
     0
  2
*D5
 10
1055.993719835005
 20
1022.563441853138
 30
0.0
 11
674.9912198349957
 21
1022.563441853138
 31
0.0
 70
    32
 71
     5
 42
762.0050000000191
 73
     0
 74
     0
 75
     0
  3
dimensions
100
AcDbAlignedDimension
 13
293.9887198349861
 23
886.5379571850503
 33
0.0
 14
1055.993719835005
 24
886.5379571850501
 34
0.0
100
AcDbRotatedDimension
  0
DIMENSION
  5
FDA
102
{ACAD_XDICTIONARY
360
FE8
102
}
102
{ACAD_REACTORS
330
FF3
102
}
330
1F
100
AcDbEntity
  8
dimensions
100
AcDbDimension
280
     0
  2
*D6
 10
1065.593719835005
 20
1065.677376600778
 30
0.0
 11
674.9912198349955
 21
1065.677376600778
 31
0.0
 70
    32
 71
     5
 42
781.2050000000194
 73
     0
 74
     0
 75
     0
  3
dimensions
100
AcDbAlignedDimension
 13
284.3887198349857
 23
886.5379571850503
 33
0.0
 14
1065.593719835005
 24
886.5379571850503
 34
0.0
100
AcDbRotatedDimension
  0
DIMENSION
  5
1070
102
{ACAD_XDICTIONARY
360
107A
102
}
102
{ACAD_REACTORS
330
1081
102
}
330
1F
100
AcDbEntity
  8
dimensions
100
AcDbDimension
280
     0
  2
*D7
 10
1045.993719835005
 20
886.5379571850501
 30
0.0
 11
1113.856381399028
 21
935.5048007020014
 31
0.0
 70
   164
 71
     5
 42
10.00000000000182
 73
     0
 74
     0
 75
     0
  3
dimensions
100
AcDbRadialDimension
 15
1054.103068139297
 25
892.3893219899232
 35
0.0
 40
0.0
1001
ACAD
1000
DSTYLE
1002
{
1070
   288
1070
     1
1002
}
1001
ACAD_DSTYLE_DIMRADIAL_EXTENSION
1070
   387
1070
     1
1070
   388
1040
0.0
1070
   390
1040
1.570796326794896
  0
ENDSEC
  0
SECTION
  2
OBJECTS
  0
DICTIONARY
  5
C
330
0
100
AcDbDictionary
281
     1
  3
ACAD_CIP_PREVIOUS_PRODUCT_INFO
350
216
  3
ACAD_COLOR
350
6B
  3
ACAD_DETAILVIEWSTYLE
350
21B
  3
ACAD_GROUP
350
D
  3
ACAD_LAYOUT
350
1A
  3
ACAD_MATERIAL
350
6A
  3
ACAD_MLEADERSTYLE
350
12D
  3
ACAD_MLINESTYLE
350
17
  3
ACAD_PLOTSETTINGS
350
19
  3
ACAD_PLOTSTYLENAME
350
E
  3
ACAD_SCALELIST
350
10C
  3
ACAD_SECTIONVIEWSTYLE
350
219
  3
ACAD_TABLESTYLE
350
7E
  3
ACAD_VISUALSTYLE
350
EF
  3
ACDB_RECOMPOSE_DATA
350
1108
  3
AcDbVariableDictionary
350
5E
  3
AcDsDecomposeData
350
110E
  0
DICTIONARY
  5
1FF
330
2
100
AcDbDictionary
280
     1
281
     1
  3
ACAD_LAYERSTATES
360
200
  0
DICTIONARY
  5
13C
330
10
100
AcDbDictionary
280
     1
281
     1
  0
DICTIONARY
  5
1CE
330
1F
100
AcDbDictionary
280
     1
281
     1
  3
ACAD_SORTENTS
360
715
  0
DICTIONARY
  5
F61
330
F52
100
AcDbDictionary
280
     1
281
     1
  3
ACAD_DIMASSOC
360
F6D
  0
DICTIONARY
  5
F7D
330
F6E
100
AcDbDictionary
280
     1
281
     1
  3
ACAD_DIMASSOC
360
F89
  0
DICTIONARY
  5
F99
330
F8A
100
AcDbDictionary
280
     1
281
     1
  3
ACAD_DIMASSOC
360
FA5
  0
DICTIONARY
  5
FB4
330
FA6
100
AcDbDictionary
280
     1
281
     1
  3
ACAD_DIMASSOC
360
FBF
  0
DICTIONARY
  5
FCE
330
FC0
100
AcDbDictionary
280
     1
281
     1
  3
ACAD_DIMASSOC
360
FD9
  0
DICTIONARY
  5
FE8
330
FDA
100
AcDbDictionary
280
     1
281
     1
  3
ACAD_DIMASSOC
360
FF3
  0
DICTIONARY
  5
107A
330
1070
100
AcDbDictionary
280
     1
281
     1
  3
ACAD_DIMASSOC
360
1081
  0
XRECORD
  5
216
102
{ACAD_REACTORS
330
C
102
}
330
C
100
AcDbXrecord
280
     1
300
ACD
300
2014
300
ACD_F_S
  0
DICTIONARY
  5
6B
102
{ACAD_REACTORS
330
C
102
}
330
C
100
AcDbDictionary
281
     1
  0
DICTIONARY
  5
21B
102
{ACAD_REACTORS
330
C
102
}
330
C
100
AcDbDictionary
281
     1
  3
Metric50
350
21C
  0
DICTIONARY
  5
D
102
{ACAD_REACTORS
330
C
102
}
330
C
100
AcDbDictionary
281
     1
  0
DICTIONARY
  5
1A
102
{ACAD_REACTORS
330
C
102
}
330
C
100
AcDbDictionary
281
     1
  3
Model
350
22
  3
布局1
350
D3
  3
布局2
350
D7
  0
DICTIONARY
  5
6A
102
{ACAD_REACTORS
330
C
102
}
330
C
100
AcDbDictionary
281
     1
  3
ByBlock
350
ED
  3
ByLayer
350
EC
  3
Global
350
EE
  0
DICTIONARY
  5
12D
102
{ACAD_REACTORS
330
C
102
}
330
C
100
AcDbDictionary
281
     1
  3
Annotative
350
13B
  3
leader
350
2C7
  3
Standard
350
12E
  0
DICTIONARY
  5
17
102
{ACAD_REACTORS
330
C
102
}
330
C
100
AcDbDictionary
281
     1
  3
Standard
350
18
  0
DICTIONARY
  5
19
102
{ACAD_REACTORS
330
C
102
}
330
C
100
AcDbDictionary
281
     1
  0
ACDBDICTIONARYWDFLT
  5
E
102
{ACAD_REACTORS
330
C
102
}
330
C
100
AcDbDictionary
281
     1
  3
Normal
350
F
100
AcDbDictionaryWithDefault
340
F
  0
DICTIONARY
  5
10C
102
{ACAD_REACTORS
330
C
102
}
330
C
100
AcDbDictionary
281
     1
  3
A0
350
10D
  3
A1
350
1BE
  3
A2
350
1BF
  3
A3
350
1C0
  3
A4
350
1C1
  3
A5
350
1C2
  3
A6
350
1C3
  3
A7
350
1C4
  3
A8
350
1C5
  3
A9
350
1C6
  3
B0
350
1C7
  3
B1
350
1C8
  3
B2
350
1C9
  3
B3
350
1CA
  3
B4
350
1CB
  3
B5
350
1CC
  3
B6
350
1CD
  0
DICTIONARY
  5
219
102
{ACAD_REACTORS
330
C
102
}
330
C
100
AcDbDictionary
281
     1
  3
Metric50
350
21A
  0
DICTIONARY
  5
7E
102
{ACAD_REACTORS
330
C
102
}
330
C
100
AcDbDictionary
281
     1
  3
Standard
350
7F
  0
DICTIONARY
  5
EF
102
{ACAD_REACTORS
330
C
102
}
330
C
100
AcDbDictionary
281
     1
  3
2dWireframe
350
F5
  3
Basic
350
F4
  3
Brighten
350
FB
  3
ColorChange
350
FF
  3
Conceptual
350
F8
  3
Dim
350
FA
  3
EdgeColorOff
350
1E6
  3
Facepattern
350
FE
  3
Flat
350
F0
  3
FlatWithEdges
350
F1
  3
Gouraud
350
F2
  3
GouraudWithEdges
350
F3
  3
Hidden
350
F7
  3
JitterOff
350
1E4
  3
Linepattern
350
FD
  3
OverhangOff
350
1E5
  3
Realistic
350
F9
  3
Shaded
350
1F3
  3
Shaded with edges
350
1F2
  3
Shades of Gray
350
1EF
  3
Sketchy
350
1F0
  3
Thicken
350
FC
  3
Wireframe
350
F6
  3
X-Ray
350
1F1
  0
XRECORD
  5
1108
102
{ACAD_REACTORS
330
C
102
}
330
C
100
AcDbXrecord
280
     1
 90
        1
330
7F
330
4A4
330
4A7
330
4A8
330
4B5
330
4B6
330
4B7
330
536
330
537
330
538
330
53A
330
53C
330
53E
  0
DICTIONARY
  5
5E
102
{ACAD_REACTORS
330
C
102
}
330
C
100
AcDbDictionary
281
     1
  3
CANNOSCALE
350
146
  3
CMLEADERSTYLE
350
145
  3
CTABLESTYLE
350
84
  3
CVIEWDETAILSTYLE
350
227
  3
CVIEWSECTIONSTYLE
350
228
  3
DIMASSOC
350
5F
  3
HIDETEXT
350
63
  3
LAYEREVAL
350
1AE
  3
LAYERNOTIFY
350
1AF
  0
DICTIONARY
  5
110E
102
{ACAD_REACTORS
330
C
102
}
330
C
100
AcDbDictionary
281
     1
  3
AcDsRecords
350
1110
  3
AcDsSchemas
350
110F
1001
ACAD
1070
     2
  0
DICTIONARY
  5
200
102
{ACAD_REACTORS
330
1FF
102
}
330
1FF
100
AcDbDictionary
281
     1
  0
SORTENTSTABLE
  5
715
102
{ACAD_REACTORS
330
1CE
102
}
330
1CE
100
AcDbSortentsTable
330
1F
331
424
  5
424
331
420
  5
420
331
41C
  5
41C
331
52C
  5
52C
331
45F
  5
45F
331
49E
  5
49E
331
4ED
  5
4ED
331
418
  5
418
331
4E9
  5
4E9
331
45B
  5
45B
331
49A
  5
49A
331
528
  5
528
331
496
  5
496
331
457
  5
457
331
4E5
  5
4E5
331
524
  5
524
331
453
  5
453
331
492
  5
492
331
4E1
  5
4E1
331
520
  5
520
331
414
  5
414
331
410
  5
410
331
40C
  5
40C
331
51C
  5
51C
331
44F
  5
44F
331
48E
  5
48E
331
4DD
  5
4DD
331
4D9
  5
4D9
331
44B
  5
44B
331
48A
  5
48A
331
518
  5
518
331
486
  5
486
331
447
  5
447
331
4D5
  5
4D5
331
514
  5
514
331
482
  5
482
331
443
  5
443
331
510
  5
510
331
53C
  5
53C
331
538
  5
538
331
50C
  5
50C
331
43F
  5
43F
331
47E
  5
47E
331
4B5
  5
4B5
331
4B1
  5
4B1
331
43B
  5
43B
331
47A
  5
47A
331
508
  5
508
331
504
  5
504
331
437
  5
437
331
476
  5
476
331
4A9
  5
4A9
331
472
  5
472
331
433
  5
433
331
500
  5
500
331
42F
  5
42F
331
42B
  5
42B
331
4FC
  5
4FC
331
46E
  5
46E
331
4F8
  5
4F8
331
46A
  5
46A
331
537
  5
537
331
4A5
  5
4A5
331
466
  5
466
331
4F4
  5
4F4
331
533
  5
533
331
462
  5
462
331
4A1
  5
4A1
331
4F0
  5
4F0
331
427
  5
427
331
423
  5
423
331
41F
  5
41F
331
52F
  5
52F
331
41B
  5
41B
331
52B
  5
52B
331
4EC
  5
4EC
331
45E
  5
45E
331
49D
  5
49D
331
4E8
  5
4E8
331
45A
  5
45A
331
499
  5
499
331
527
  5
527
331
495
  5
495
331
456
  5
456
331
4E4
  5
4E4
331
523
  5
523
331
452
  5
452
331
491
  5
491
331
4E0
  5
4E0
331
417
  5
417
331
413
  5
413
331
40F
  5
40F
331
51F
  5
51F
331
40B
  5
40B
331
51B
  5
51B
331
44E
  5
44E
331
48D
  5
48D
331
4DC
  5
4DC
331
4D8
  5
4D8
331
44A
  5
44A
331
489
  5
489
331
517
  5
517
331
485
  5
485
331
446
  5
446
331
4D4
  5
4D4
331
513
  5
513
331
442
  5
442
331
481
  5
481
331
53B
  5
53B
331
50F
  5
50F
331
50B
  5
50B
331
43E
  5
43E
331
47D
  5
47D
331
4B0
  5
4B0
331
43A
  5
43A
331
479
  5
479
331
507
  5
507
331
503
  5
503
331
475
  5
475
331
436
  5
436
331
4A8
  5
4A8
331
471
  5
471
331
432
  5
432
331
F26
  5
F1A
331
42E
  5
42E
331
4FF
  5
4FF
331
42A
  5
42A
331
4FB
  5
4FB
331
46D
  5
46D
331
4F7
  5
4F7
331
469
  5
469
331
536
  5
536
331
4A4
  5
4A4
331
465
  5
465
331
4F3
  5
4F3
331
532
  5
532
331
461
  5
461
331
4A0
  5
4A0
331
426
  5
426
331
422
  5
422
331
41E
  5
41E
331
41A
  5
41A
331
52E
  5
52E
331
4EF
  5
4EF
331
4EB
  5
4EB
331
45D
  5
45D
331
49C
  5
49C
331
52A
  5
52A
331
4E7
  5
4E7
331
459
  5
459
331
498
  5
498
331
526
  5
526
331
494
  5
494
331
455
  5
455
331
4E3
  5
4E3
331
522
  5
522
331
451
  5
451
331
490
  5
490
331
416
  5
416
331
412
  5
412
331
40E
  5
40E
331
40A
  5
40A
331
51E
  5
51E
331
4DF
  5
4DF
331
51A
  5
51A
331
44D
  5
44D
331
48C
  5
48C
331
4DB
  5
4DB
331
4D7
  5
4D7
331
449
  5
449
331
488
  5
488
331
516
  5
516
331
484
  5
484
331
445
  5
445
331
4D3
  5
4D3
331
512
  5
512
331
441
  5
441
331
480
  5
480
331
53E
  5
53E
331
53A
  5
53A
331
4B7
  5
4B7
331
50E
  5
50E
331
50A
  5
50A
331
43D
  5
43D
331
47C
  5
47C
331
506
  5
506
331
439
  5
439
331
478
  5
478
331
4AB
  5
4AB
331
474
  5
474
331
435
  5
435
331
502
  5
502
331
431
  5
431
331
470
  5
470
331
F31
  5
F20
331
F25
  5
F1B
331
42D
  5
42D
331
429
  5
429
331
4FE
  5
4FE
331
4FA
  5
4FA
331
46C
  5
46C
331
4A7
  5
4A7
331
468
  5
468
331
4F6
  5
4F6
331
535
  5
535
331
464
  5
464
331
4A3
  5
4A3
331
4F2
  5
4F2
331
531
  5
531
331
460
  5
460
331
425
  5
425
331
421
  5
421
331
41D
  5
41D
331
52D
  5
52D
331
49F
  5
49F
331
4EE
  5
4EE
331
419
  5
419
331
4EA
  5
4EA
331
45C
  5
45C
331
49B
  5
49B
331
529
  5
529
331
497
  5
497
331
458
  5
458
331
4E6
  5
4E6
331
525
  5
525
331
493
  5
493
331
454
  5
454
331
4E2
  5
4E2
331
521
  5
521
331
450
  5
450
331
415
  5
415
331
411
  5
411
331
40D
  5
40D
331
51D
  5
51D
331
48F
  5
48F
331
4DE
  5
4DE
331
4DA
  5
4DA
331
44C
  5
44C
331
48B
  5
48B
331
519
  5
519
331
4D6
  5
4D6
331
448
  5
448
331
487
  5
487
331
515
  5
515
331
483
  5
483
331
444
  5
444
331
511
  5
511
331
440
  5
440
331
53D
  5
53D
331
539
  5
539
331
50D
  5
50D
331
47F
  5
47F
331
4B6
  5
4B6
331
509
  5
509
331
43C
  5
43C
331
47B
  5
47B
331
4B2
  5
4B2
331
505
  5
505
331
438
  5
438
331
477
  5
477
331
4AA
  5
4AA
331
473
  5
473
331
434
  5
434
331
501
  5
501
331
430
  5
430
331
42C
  5
42C
331
46F
  5
46F
331
4FD
  5
4FD
331
428
  5
428
331
4F9
  5
4F9
331
46B
  5
46B
331
4A6
  5
4A6
331
467
  5
467
331
4F5
  5
4F5
331
534
  5
534
331
463
  5
463
331
4A2
  5
4A2
331
4F1
  5
4F1
331
530
  5
530
  0
DIMASSOC
  5
F6D
102
{ACAD_REACTORS
330
F61
102
}
330
F61
100
AcDbDimAssoc
330
F52
 90
        3
 70
     0
 71
     0
  1
AcDbOsnapPointRef
 72
     1
331
F31
 73
     2
 91
        3
 40
1.0
 10
0.0
 20
0.0
 30
2.000000000000000E+50
 75
     0
  1
AcDbOsnapPointRef
 72
     1
331
F31
 73
     2
 91
        5
 40
1.0
 10
0.0
 20
0.0
 30
2.000000000000000E+50
 75
     0
  0
DIMASSOC
  5
F89
102
{ACAD_REACTORS
330
F7D
102
}
330
F7D
100
AcDbDimAssoc
330
F6E
 90
        3
 70
     0
 71
     0
  1
AcDbOsnapPointRef
 72
     1
331
F26
 73
     2
 91
        5
 40
1.0
 10
0.0
 20
0.0
 30
2.000000000000000E+50
 75
     0
  1
AcDbOsnapPointRef
 72
     1
331
F26
 73
     2
 91
        3
 40
1.0
 10
0.0
 20
0.0
 30
2.000000000000000E+50
 75
     0
  0
DIMASSOC
  5
FA5
102
{ACAD_REACTORS
330
F99
102
}
330
F99
100
AcDbDimAssoc
330
F8A
 90
        3
 70
     0
 71
     0
  1
AcDbOsnapPointRef
 72
     1
331
F25
 73
     2
 91
        5
 40
1.0
 10
0.0
 20
0.0
 30
2.000000000000000E+50
 75
     0
  1
AcDbOsnapPointRef
 72
     6
331
F25
 73
     2
 91
        3
 40
1.0
 10
0.0
 20
0.0
 30
0.0
332
F25
 74
     2
 92
        4
 75
     0
  0
DIMASSOC
  5
FBF
102
{ACAD_REACTORS
330
FB4
102
}
330
FB4
100
AcDbDimAssoc
330
FA6
 90
        3
 70
     0
 71
     0
  1
AcDbOsnapPointRef
 72
     1
331
F31
 73
     2
 91
        4
 40
3.141592653589776
 10
0.0
 20
0.0
 30
2.000000000000000E+50
 75
     0
  1
AcDbOsnapPointRef
 72
     8
331
F31
 73
     2
 91
        2
 40
6.283185307179586
 10
0.0
 20
0.0
 30
0.0
 75
     1
  1
AcDbOsnapPointRef
 72
     1
331
F31
 73
     2
 91
        4
 40
3.141592653589776
 10
0.0
 20
0.0
 30
2.000000000000000E+50
 75
     0
  0
DIMASSOC
  5
FD9
102
{ACAD_REACTORS
330
FCE
102
}
330
FCE
100
AcDbDimAssoc
330
FC0
 90
        3
 70
     0
 71
     0
  1
AcDbOsnapPointRef
 72
     1
331
F26
 73
     2
 91
        4
 40
3.141592653589793
 10
0.0
 20
0.0
 30
2.000000000000000E+50
 75
     0
  1
AcDbOsnapPointRef
 72
     6
331
F26
 73
     2
 91
        1
 40
0.9999999999999998
 10
0.0
 20
0.0
 30
0.0
332
F26
 74
     2
 92
        2
 75
     0
  0
DIMASSOC
  5
FF3
102
{ACAD_REACTORS
330
FE8
102
}
330
FE8
100
AcDbDimAssoc
330
FDA
 90
        3
 70
     0
 71
     0
  1
AcDbOsnapPointRef
 72
    13
331
F25
 73
     2
 91
        5
 40
0.0
 10
0.0
 20
0.0
 30
2.000000000000000E+50
 75
     0
  1
AcDbOsnapPointRef
 72
    13
331
F25
 73
     2
 91
        2
 40
0.0
 10
0.0
 20
0.0
 30
2.000000000000000E+50
 75
     0
  0
DIMASSOC
  5
1081
102
{ACAD_REACTORS
330
107A
102
}
330
107A
100
AcDbDimAssoc
330
1070
 90
        2
 70
     0
 71
     0
  1
AcDbOsnapPointRef
 72
     3
331
F26
 73
     2
 91
        2
 40
0.0
 10
0.0
 20
0.0
 30
0.0
 75
     0
  0
ACDBDETAILVIEWSTYLE
  5
21C
102
{ACAD_XDICTIONARY
360
236
102
}
102
{ACAD_REACTORS
330
21B
102
}
330
21B
100
AcDbModelDocViewStyle
 70
     0
  3
Metric50
290
     0
100
AcDbDetailViewStyle
 70
     0
 71
     0
 90
        3
 71
     1
340
11
 62
   256
 40
5.0
340
0
 62
   256
 40
5.0
300

 40
0.0
280
     1
 71
     2
340
16
 90
       25
 62
   256
 71
     3
340
11
 62
   256
 40
5.0
 90
        0
 40
15.0
 90
        1
300
%<\AcVar ViewDetailId>% (%<\AcVar ViewScale \f "%sn">%)
 71
     4
340
16
 90
       25
 62
   256
340
16
 90
       25
 62
   256
280
     0
  0
LAYOUT
  5
22
102
{ACAD_XDICTIONARY
360
205
102
}
102
{ACAD_REACTORS
330
1A
102
}
330
1A
100
AcDbPlotSettings
  1

  2
none_device
  4
ISO_A4_(210.00_x_297.00_MM)
  6

 40
7.5
 41
20.0
 42
7.5
 43
20.0
 44
210.0
 45
297.0
 46
11.54999923706054
 47
-13.65000009536743
 48
0.0
 49
0.0
140
0.0
141
0.0
142
1.0
143
8.704084754739808
 70
 11952
 72
     1
 73
     0
 74
     0
  7

 75
     0
147
0.1148885871608098
 76
     0
 77
     2
 78
   300
148
0.0
149
0.0
100
AcDbLayout
  1
Model
 70
     1
 71
     0
 10
0.0
 20
0.0
 11
12.0
 21
9.0
 12
0.0
 22
0.0
 32
0.0
 14
0.0
 24
0.0
 34
0.0
 15
0.0
 25
0.0
 35
0.0
146
0.0
 13
0.0
 23
0.0
 33
0.0
 16
1.0
 26
0.0
 36
0.0
 17
0.0
 27
1.0
 37
0.0
 76
     0
330
1F
331
EA
1001
ACAD_PSEXT
1000
None
1000
None
1000
Not applicable
1000
The layout will not be plotted unless a new plotter configuration name is selected.
1070
     0
  0
LAYOUT
  5
D3
102
{ACAD_REACTORS
330
1A
102
}
330
1A
100
AcDbPlotSettings
  1

  2
C:\Documents and Settings\basas\Application Data\Autodesk\AutoCAD 2005\R16.1\enu\plotters\Default Windows System Printer.pc3
  4

  6

 40
0.0
 41
0.0
 42
0.0
 43
0.0
 44
0.0
 45
0.0
 46
0.0
 47
0.0
 48
0.0
 49
0.0
140
0.0
141
0.0
142
1.0
143
1.0
 70
   688
 72
     0
 73
     0
 74
     5
  7

 75
    16
147
1.0
 76
     0
 77
     2
 78
   300
148
0.0
149
0.0
100
AcDbLayout
  1
布局1
 70
     1
 71
     1
 10
0.0
 20
0.0
 11
12.0
 21
9.0
 12
0.0
 22
0.0
 32
0.0
 14
0.0
 24
0.0
 34
0.0
 15
0.0
 25
0.0
 35
0.0
146
0.0
 13
0.0
 23
0.0
 33
0.0
 16
1.0
 26
0.0
 36
0.0
 17
0.0
 27
1.0
 37
0.0
 76
     0
330
D2
  0
LAYOUT
  5
D7
102
{ACAD_REACTORS
330
1A
102
}
330
1A
100
AcDbPlotSettings
  1

  2
C:\Documents and Settings\basas\Application Data\Autodesk\AutoCAD 2005\R16.1\enu\plotters\Default Windows System Printer.pc3
  4

  6

 40
0.0
 41
0.0
 42
0.0
 43
0.0
 44
0.0
 45
0.0
 46
0.0
 47
0.0
 48
0.0
 49
0.0
140
0.0
141
0.0
142
1.0
143
1.0
 70
   688
 72
     0
 73
     0
 74
     5
  7

 75
    16
147
1.0
 76
     0
 77
     2
 78
   300
148
0.0
149
0.0
100
AcDbLayout
  1
布局2
 70
     1
 71
     2
 10
0.0
 20
0.0
 11
12.0
 21
9.0
 12
0.0
 22
0.0
 32
0.0
 14
0.0
 24
0.0
 34
0.0
 15
0.0
 25
0.0
 35
0.0
146
0.0
 13
0.0
 23
0.0
 33
0.0
 16
1.0
 26
0.0
 36
0.0
 17
0.0
 27
1.0
 37
0.0
 76
     0
330
D6
  0
MATERIAL
  5
ED
102
{ACAD_XDICTIONARY
360
1F9
102
}
102
{ACAD_REACTORS
330
6A
102
}
330
6A
100
AcDbMaterial
  1
ByBlock
 94
       63
  0
MATERIAL
  5
EC
102
{ACAD_XDICTIONARY
360
1F7
102
}
102
{ACAD_REACTORS
330
6A
102
}
330
6A
100
AcDbMaterial
  1
ByLayer
 94
       63
  0
MATERIAL
  5
EE
102
{ACAD_XDICTIONARY
360
173
102
}
102
{ACAD_REACTORS
330
6A
102
}
330
6A
100
AcDbMaterial
  1
Global
 43
0.0007999999797903
 43
0.0
 43
0.0
 43
0.0
 43
0.0
 43
0.0007999999797903
 43
0.0
 43
0.0
 43
0.0
 43
0.0
 43
1.0
 43
0.0
 43
0.0
 43
0.0
 43
0.0
 43
1.0
 49
0.0007999999797903
 49
0.0
 49
0.0
 49
0.0
 49
0.0
 49
0.0007999999797903
 49
0.0
 49
0.0
 49
0.0
 49
0.0
 49
1.0
 49
0.0
 49
0.0
 49
0.0
 49
0.0
 49
1.0
142
0.0007999999797903
142
0.0
142
0.0
142
0.0
142
0.0
142
0.0007999999797903
142
0.0
142
0.0
142
0.0
142
0.0
142
1.0
142
0.0
142
0.0
142
0.0
142
0.0
142
1.0
144
0.0007999999797903
144
0.0
144
0.0
144
0.0
144
0.0
144
0.0007999999797903
144
0.0
144
0.0
144
0.0
144
0.0
144
1.0
144
0.0
144
0.0
144
0.0
144
0.0
144
1.0
 94
       63
1001
ACAD
1070
    -1
1070
     3
1070
     0
1000

1071
        0
1070
     0
  0
MLEADERSTYLE
  5
13B
102
{ACAD_REACTORS
330
12D
102
}
330
12D
100
AcDbMLeaderStyle
179
     2
170
     2
171
     1
172
     0
 90
        2
 40
0.0
 41
0.0
173
     1
 91
-1056964608
340
14
 92
       -2
290
     1
 42
2.0
291
     1
 43
8.0
  3
Standard
 44
4.0
300

342
11
174
     1
178
     1
175
     1
176
     0
 93
-1056964608
 45
4.0
292
     0
297
     0
 46
4.0
 94
-1056964608
 47
1.0
 49
1.0
140
1.0
293
     1
141
0.0
294
     1
177
     0
142
1.0
295
     0
296
     1
143
3.75
271
     0
272
     9
273
     9
  0
MLEADERSTYLE
  5
2C7
102
{ACAD_REACTORS
330
12D
330
4B0
330
4B1
330
4B2
102
}
330
12D
100
AcDbMLeaderStyle
179
     2
170
     2
171
     1
172
     0
 90
        2
 40
0.0
 41
0.0
173
     1
 91
-1023410174
340
14
 92
        5
290
     1
 42
2.0
291
     1
 43
8.0
  3
Standard
 44
10.0
300

342
11
174
     1
178
     1
175
     1
176
     0
 93
-1056964608
 45
4.0
292
     0
297
     0
 46
4.0
 94
-1056964608
 47
1.0
 49
1.0
140
1.0
293
     1
141
0.0
294
     1
177
     0
142
1.0
295
     0
296
     0
143
3.75
271
     0
272
     9
273
     9
  0
MLEADERSTYLE
  5
12E
102
{ACAD_REACTORS
330
12D
102
}
330
12D
100
AcDbMLeaderStyle
179
     2
170
     2
171
     1
172
     0
 90
        2
 40
0.0
 41
0.0
173
     1
 91
-1056964608
340
14
 92
       -2
290
     1
 42
2.0
291
     1
 43
8.0
  3
Standard
 44
4.0
300

342
11
174
     1
178
     1
175
     1
176
     0
 93
-1056964608
 45
4.0
292
     0
297
     0
 46
4.0
 94
-1056964608
 47
1.0
 49
1.0
140
1.0
293
     1
141
0.0
294
     1
177
     0
142
1.0
295
     0
296
     0
143
3.75
271
     0
272
     9
273
     9
  0
MLINESTYLE
  5
18
102
{ACAD_REACTORS
330
17
102
}
330
17
100
AcDbMlineStyle
  2
STANDARD
 70
     0
  3

 62
   256
 51
90.0
 52
90.0
 71
     2
 49
0.5
 62
   256
  6
BYLAYER
 49
-0.5
 62
   256
  6
BYLAYER
  0
ACDBPLACEHOLDER
  5
F
102
{ACAD_REACTORS
330
E
102
}
330
E
  0
SCALE
  5
10D
102
{ACAD_REACTORS
330
10C
102
}
330
10C
100
AcDbScale
 70
     0
300
1:1
140
1.0
141
1.0
290
     1
  0
SCALE
  5
1BE
102
{ACAD_REACTORS
330
10C
102
}
330
10C
100
AcDbScale
 70
     0
300
1:2
140
1.0
141
2.0
290
     0
  0
SCALE
  5
1BF
102
{ACAD_REACTORS
330
10C
102
}
330
10C
100
AcDbScale
 70
     0
300
1:4
140
1.0
141
4.0
290
     0
  0
SCALE
  5
1C0
102
{ACAD_REACTORS
330
10C
102
}
330
10C
100
AcDbScale
 70
     0
300
1:5
140
1.0
141
5.0
290
     0
  0
SCALE
  5
1C1
102
{ACAD_REACTORS
330
10C
102
}
330
10C
100
AcDbScale
 70
     0
300
1:8
140
1.0
141
8.0
290
     0
  0
SCALE
  5
1C2
102
{ACAD_REACTORS
330
10C
102
}
330
10C
100
AcDbScale
 70
     0
300
1:10
140
1.0
141
10.0
290
     0
  0
SCALE
  5
1C3
102
{ACAD_REACTORS
330
10C
102
}
330
10C
100
AcDbScale
 70
     0
300
1:16
140
1.0
141
16.0
290
     0
  0
SCALE
  5
1C4
102
{ACAD_REACTORS
330
10C
102
}
330
10C
100
AcDbScale
 70
     0
300
1:20
140
1.0
141
20.0
290
     0
  0
SCALE
  5
1C5
102
{ACAD_REACTORS
330
10C
102
}
330
10C
100
AcDbScale
 70
     0
300
1:30
140
1.0
141
30.0
290
     0
  0
SCALE
  5
1C6
102
{ACAD_REACTORS
330
10C
102
}
330
10C
100
AcDbScale
 70
     0
300
1:40
140
1.0
141
40.0
290
     0
  0
SCALE
  5
1C7
102
{ACAD_REACTORS
330
10C
102
}
330
10C
100
AcDbScale
 70
     0
300
1:50
140
1.0
141
50.0
290
     0
  0
SCALE
  5
1C8
102
{ACAD_REACTORS
330
10C
102
}
330
10C
100
AcDbScale
 70
     0
300
1:100
140
1.0
141
100.0
290
     0
  0
SCALE
  5
1C9
102
{ACAD_REACTORS
330
10C
102
}
330
10C
100
AcDbScale
 70
     0
300
2:1
140
2.0
141
1.0
290
     0
  0
SCALE
  5
1CA
102
{ACAD_REACTORS
330
10C
102
}
330
10C
100
AcDbScale
 70
     0
300
4:1
140
4.0
141
1.0
290
     0
  0
SCALE
  5
1CB
102
{ACAD_REACTORS
330
10C
102
}
330
10C
100
AcDbScale
 70
     0
300
8:1
140
8.0
141
1.0
290
     0
  0
SCALE
  5
1CC
102
{ACAD_REACTORS
330
10C
102
}
330
10C
100
AcDbScale
 70
     0
300
10:1
140
10.0
141
1.0
290
     0
  0
SCALE
  5
1CD
102
{ACAD_REACTORS
330
10C
102
}
330
10C
100
AcDbScale
 70
     0
300
100:1
140
100.0
141
1.0
290
     0
  0
ACDBSECTIONVIEWSTYLE
  5
21A
102
{ACAD_XDICTIONARY
360
234
102
}
102
{ACAD_REACTORS
330
219
102
}
330
219
100
AcDbModelDocViewStyle
 70
     0
  3
Metric50
290
     0
100
AcDbSectionViewStyle
 70
     0
 71
     0
 90
      102
 71
     1
340
11
 62
   256
 40
5.0
340
0
340
0
 62
   256
 40
5.0
300
I, O, Q, S, X, Z
 40
10.0
 90
        0
 40
2.5
 90
        0
 71
     2
340
16
 90
       25
 62
   256
340
16
 90
       50
 62
   256
 40
5.0
 40
2.5
 40
5.0
 71
     3
340
11
 62
   256
 40
5.0
 90
        0
 40
15.0
 90
        1
300
%<\AcVar ViewSectionStartId>%-%<\AcVar ViewSectionEndId>% (%<\AcVar ViewScale \f "%sn">%)
 71
     4
 62
   256
 62
   257
300
ANSI31
 40
1.0
 90
        0
290
     0
290
     0
 90
        6
 40
0.0
 40
1.570796326794896
 40
0.2617993877991494
 40
1.308996938995747
 40
-0.2617993877991494
 40
1.832595714594046
  0
TABLESTYLE
  5
7F
102
{ACAD_XDICTIONARY
360
162
102
}
102
{ACAD_REACTORS
330
7E
102
}
330
7E
100
AcDbTableStyle
280
     0
  3
Standard
 70
     0
 71
     0
 40
1.5
 41
1.5
280
     0
281
     0
  7
Standard
140
4.5
170
     2
 62
     0
 63
     7
283
     0
 90
      512
 91
        0
  1

274
    -2
284
     1
 64
     0
275
    -2
285
     1
 65
     0
276
    -2
286
     1
 66
     0
277
    -2
287
     1
 67
     0
278
    -2
288
     1
 68
     0
279
    -2
289
     1
 69
     0
  7
Standard
140
6.0
170
     5
 62
     0
 63
     7
283
     0
 90
      512
 91
        0
  1

274
    -2
284
     1
 64
     0
275
    -2
285
     1
 65
     0
276
    -2
286
     1
 66
     0
277
    -2
287
     1
 67
     0
278
    -2
288
     1
 68
     0
279
    -2
289
     1
 69
     0
  7
Standard
140
4.5
170
     5
 62
     0
 63
     7
283
     0
 90
      512
 91
        0
  1

274
    -2
284
     1
 64
     0
275
    -2
285
     1
 65
     0
276
    -2
286
     1
 66
     0
277
    -2
287
     1
 67
     0
278
    -2
288
     1
 68
     0
279
    -2
289
     1
 69
     0
  0
VISUALSTYLE
  5
F5
102
{ACAD_XDICTIONARY
360
111B
102
}
102
{ACAD_REACTORS
330
EF
102
}
330
EF
100
AcDbVisualStyle
  2
2dWireframe
 70
     4
177
     2
291
     0
 71
     0
176
     1
 72
     2
176
     1
 73
     1
176
     1
 90
        0
176
     1
 40
0.6
176
     1
 41
30.0
176
     1
 63
     7
421
 16777215
176
     1
 74
     1
176
     1
 91
        4
176
     1
 64
     7
176
     1
 65
   257
176
     1
 75
     1
176
     1
175
     1
176
     1
 42
1.0
176
     1
 92
        0
176
     1
 66
   257
176
     1
 43
1.0
176
     1
 76
     1
176
     1
 77
     6
176
     1
 78
     2
176
     1
 67
     7
176
     1
 79
     5
176
     1
170
     0
176
     1
171
     0
176
     1
290
     0
176
     1
 93
        1
176
     1
 44
0.0
176
     1
173
     0
176
     1
1001
ACAD
1000
AcDbSavedByObjectVersion
1070
     0
  0
VISUALSTYLE
  5
F4
102
{ACAD_XDICTIONARY
360
1119
102
}
102
{ACAD_REACTORS
330
EF
102
}
330
EF
100
AcDbVisualStyle
  2
Basic
 70
     7
177
     2
291
     1
 71
     1
176
     1
 72
     0
176
     1
 73
     1
176
     1
 90
        0
176
     1
 40
0.6
176
     1
 41
30.0
176
     1
 63
     7
421
 16777215
176
     1
 74
     0
176
     1
 91
        4
176
     1
 64
     7
176
     1
 65
   257
176
     1
 75
     1
176
     1
175
     1
176
     1
 42
1.0
176
     1
 92
        8
176
     1
 66
     7
176
     1
 43
1.0
176
     1
 76
     1
176
     1
 77
     6
176
     1
 78
     2
176
     1
 67
     7
176
     1
 79
     5
176
     1
170
     0
176
     1
171
     0
176
     1
290
     0
176
     1
 93
        1
176
     1
 44
0.0
176
     1
173
     0
176
     1
1001
ACAD
1000
AcDbSavedByObjectVersion
1070
     0
  0
VISUALSTYLE
  5
FB
102
{ACAD_XDICTIONARY
360
1127
102
}
102
{ACAD_REACTORS
330
EF
102
}
330
EF
100
AcDbVisualStyle
  2
Brighten
 70
    12
177
     2
291
     1
 71
     2
176
     1
 72
     2
176
     1
 73
     1
176
     1
 90
        0
176
     1
 40
0.6
176
     1
 41
30.0
176
     1
 63
     7
421
 16777215
176
     1
 74
     1
176
     1
 91
        4
176
     1
 64
     7
176
     1
 65
   257
176
     1
 75
     1
176
     1
175
     1
176
     1
 42
1.0
176
     1
 92
        8
176
     1
 66
     7
176
     1
 43
1.0
176
     1
 76
     1
176
     1
 77
     6
176
     1
 78
     2
176
     1
 67
     7
176
     1
 79
     5
176
     1
170
     0
176
     1
171
     0
176
     1
290
     0
176
     1
 93
        1
176
     1
 44
50.0
176
     1
173
     0
176
     1
1001
ACAD
1000
AcDbSavedByObjectVersion
1070
     0
  0
VISUALSTYLE
  5
FF
102
{ACAD_XDICTIONARY
360
112F
102
}
102
{ACAD_REACTORS
330
EF
102
}
330
EF
100
AcDbVisualStyle
  2
ColorChange
 70
    16
177
     2
291
     1
 71
     2
176
     1
 72
     2
176
     1
 73
     3
176
     1
 90
        0
176
     1
 40
0.6
176
     1
 41
30.0
176
     1
 63
     8
421
  8421504
176
     1
 74
     1
176
     1
 91
        4
176
     1
 64
     7
176
     1
 65
   257
176
     1
 75
     1
176
     1
175
     1
176
     1
 42
1.0
176
     1
 92
        8
176
     1
 66
     8
424
  8421504
176
     1
 43
1.0
176
     1
 76
     1
176
     1
 77
     6
176
     1
 78
     2
176
     1
 67
     7
176
     1
 79
     5
176
     1
170
     0
176
     1
171
     0
176
     1
290
     0
176
     1
 93
        1
176
     1
 44
0.0
176
     1
173
     0
176
     1
1001
ACAD
1000
AcDbSavedByObjectVersion
1070
     0
  0
VISUALSTYLE
  5
F8
102
{ACAD_XDICTIONARY
360
1121
102
}
102
{ACAD_REACTORS
330
EF
102
}
330
EF
100
AcDbVisualStyle
  2
Conceptual
 70
     9
177
     2
291
     0
 71
     3
176
     1
 72
     2
176
     1
 73
     1
176
     1
 90
        0
176
     1
 40
0.6
176
     1
 41
30.0
176
     1
 63
     7
421
 16777215
176
     1
 74
     2
176
     1
 91
        2
176
     1
 64
     7
176
     1
 65
   257
176
     1
 75
     1
176
     1
175
     1
176
     1
 42
40.0
176
     1
 92
        8
176
     1
 66
     7
176
     1
 43
1.0
176
     1
 76
     1
176
     1
 77
     6
176
     1
 78
     2
176
     1
 67
     7
176
     1
 79
     3
176
     1
170
     0
176
     1
171
     0
176
     1
290
     0
176
     1
 93
        1
176
     1
 44
0.0
176
     1
173
     0
176
     1
1001
ACAD
1000
AcDbSavedByObjectVersion
1070
     0
  0
VISUALSTYLE
  5
FA
102
{ACAD_XDICTIONARY
360
1125
102
}
102
{ACAD_REACTORS
330
EF
102
}
330
EF
100
AcDbVisualStyle
  2
Dim
 70
    11
177
     2
291
     1
 71
     2
176
     1
 72
     2
176
     1
 73
     1
176
     1
 90
        0
176
     1
 40
0.6
176
     1
 41
30.0
176
     1
 63
     7
421
 16777215
176
     1
 74
     1
176
     1
 91
        4
176
     1
 64
     7
176
     1
 65
   257
176
     1
 75
     1
176
     1
175
     1
176
     1
 42
1.0
176
     1
 92
        8
176
     1
 66
     7
176
     1
 43
1.0
176
     1
 76
     1
176
     1
 77
     6
176
     1
 78
     2
176
     1
 67
     7
176
     1
 79
     5
176
     1
170
     0
176
     1
171
     0
176
     1
290
     0
176
     1
 93
        1
176
     1
 44
-50.0
176
     1
173
     0
176
     1
1001
ACAD
1000
AcDbSavedByObjectVersion
1070
     0
  0
VISUALSTYLE
  5
1E6
102
{ACAD_XDICTIONARY
360
1135
102
}
102
{ACAD_REACTORS
330
EF
102
}
330
EF
100
AcDbVisualStyle
  2
EdgeColorOff
 70
    22
177
     2
291
     1
 71
     2
176
     0
 72
     2
176
     0
 73
     0
176
     0
 90
        0
176
     0
 40
0.6
176
     0
 41
30.0
176
     0
 63
     7
421
 16777215
176
     0
 74
     1
176
     0
 91
        4
176
     0
 64
     7
176
     0
 65
   257
176
     0
 75
     1
176
     0
175
     1
176
     0
 42
1.0
176
     0
 92
        8
176
     2
 66
     7
176
     0
 43
1.0
176
     0
 76
     1
176
     0
 77
     6
176
     0
 78
     2
176
     0
 67
     7
176
     0
 79
     5
176
     0
170
     0
176
     0
171
     0
176
     0
290
     0
176
     0
 93
        1
176
     0
 44
0.0
176
     0
173
     0
176
     0
1001
ACAD
1000
AcDbSavedByObjectVersion
1070
     0
  0
VISUALSTYLE
  5
FE
102
{ACAD_XDICTIONARY
360
112D
102
}
102
{ACAD_REACTORS
330
EF
102
}
330
EF
100
AcDbVisualStyle
  2
Facepattern
 70
    15
177
     2
291
     1
 71
     2
176
     1
 72
     2
176
     1
 73
     1
176
     1
 90
        0
176
     1
 40
0.6
176
     1
 41
30.0
176
     1
 63
     7
421
 16777215
176
     1
 74
     1
176
     1
 91
        4
176
     1
 64
     7
176
     1
 65
   257
176
     1
 75
     1
176
     1
175
     1
176
     1
 42
1.0
176
     1
 92
        8
176
     1
 66
     7
176
     1
 43
1.0
176
     1
 76
     1
176
     1
 77
     6
176
     1
 78
     2
176
     1
 67
     7
176
     1
 79
     5
176
     1
170
     0
176
     1
171
     0
176
     1
290
     0
176
     1
 93
        1
176
     1
 44
0.0
176
     1
173
     0
176
     1
1001
ACAD
1000
AcDbSavedByObjectVersion
1070
     0
  0
VISUALSTYLE
  5
F0
102
{ACAD_XDICTIONARY
360
1111
102
}
102
{ACAD_REACTORS
330
EF
102
}
330
EF
100
AcDbVisualStyle
  2
Flat
 70
     0
177
     2
291
     1
 71
     2
176
     1
 72
     1
176
     1
 73
     1
176
     1
 90
        2
176
     1
 40
0.6
176
     1
 41
30.0
176
     1
 63
     7
421
 16777215
176
     1
 74
     0
176
     1
 91
        0
176
     1
 64
     7
176
     1
 65
   257
176
     1
 75
     1
176
     1
175
     1
176
     1
 42
1.0
176
     1
 92
        8
176
     1
 66
     7
176
     1
 43
1.0
176
     1
 76
     1
176
     1
 77
     6
176
     1
 78
     2
176
     1
 67
     7
176
     1
 79
     5
176
     1
170
     0
176
     1
171
     0
176
     1
290
     0
176
     1
 93
       13
176
     1
 44
0.0
176
     1
173
     0
176
     1
1001
ACAD
1000
AcDbSavedByObjectVersion
1070
     0
  0
VISUALSTYLE
  5
F1
102
{ACAD_XDICTIONARY
360
1113
102
}
102
{ACAD_REACTORS
330
EF
102
}
330
EF
100
AcDbVisualStyle
  2
FlatWithEdges
 70
     1
177
     2
291
     1
 71
     2
176
     1
 72
     1
176
     1
 73
     1
176
     1
 90
        2
176
     1
 40
0.6
176
     1
 41
30.0
176
     1
 63
     7
421
 16777215
176
     1
 74
     1
176
     1
 91
        0
176
     1
 64
     7
176
     1
 65
   257
176
     1
 75
     1
176
     1
175
     1
176
     1
 42
1.0
176
     1
 92
        0
176
     1
 66
   257
176
     1
 43
1.0
176
     1
 76
     1
176
     1
 77
     6
176
     1
 78
     2
176
     1
 67
     7
176
     1
 79
     5
176
     1
170
     0
176
     1
171
     0
176
     1
290
     0
176
     1
 93
       13
176
     1
 44
0.0
176
     1
173
     0
176
     1
1001
ACAD
1000
AcDbSavedByObjectVersion
1070
     0
  0
VISUALSTYLE
  5
F2
102
{ACAD_XDICTIONARY
360
1115
102
}
102
{ACAD_REACTORS
330
EF
102
}
330
EF
100
AcDbVisualStyle
  2
Gouraud
 70
     2
177
     2
291
     1
 71
     2
176
     1
 72
     2
176
     1
 73
     1
176
     1
 90
        2
176
     1
 40
0.6
176
     1
 41
30.0
176
     1
 63
     7
421
 16777215
176
     1
 74
     0
176
     1
 91
        0
176
     1
 64
     7
176
     1
 65
   257
176
     1
 75
     1
176
     1
175
     1
176
     1
 42
1.0
176
     1
 92
        0
176
     1
 66
     7
176
     1
 43
1.0
176
     1
 76
     1
176
     1
 77
     6
176
     1
 78
     2
176
     1
 67
     7
176
     1
 79
     5
176
     1
170
     0
176
     1
171
     0
176
     1
290
     0
176
     1
 93
       13
176
     1
 44
0.0
176
     1
173
     0
176
     1
1001
ACAD
1000
AcDbSavedByObjectVersion
1070
     0
  0
VISUALSTYLE
  5
F3
102
{ACAD_XDICTIONARY
360
1117
102
}
102
{ACAD_REACTORS
330
EF
102
}
330
EF
100
AcDbVisualStyle
  2
GouraudWithEdges
 70
     3
177
     2
291
     1
 71
     2
176
     1
 72
     2
176
     1
 73
     1
176
     1
 90
        2
176
     1
 40
0.6
176
     1
 41
30.0
176
     1
 63
     7
421
 16777215
176
     1
 74
     1
176
     1
 91
        0
176
     1
 64
     7
176
     1
 65
   257
176
     1
 75
     1
176
     1
175
     1
176
     1
 42
1.0
176
     1
 92
        0
176
     1
 66
   257
176
     1
 43
1.0
176
     1
 76
     1
176
     1
 77
     6
176
     1
 78
     2
176
     1
 67
     7
176
     1
 79
     5
176
     1
170
     0
176
     1
171
     0
176
     1
290
     0
176
     1
 93
       13
176
     1
 44
0.0
176
     1
173
     0
176
     1
1001
ACAD
1000
AcDbSavedByObjectVersion
1070
     0
  0
VISUALSTYLE
  5
F7
102
{ACAD_XDICTIONARY
360
111F
102
}
102
{ACAD_REACTORS
330
EF
102
}
330
EF
100
AcDbVisualStyle
  2
Hidden
 70
     6
177
     2
291
     0
 71
     1
176
     1
 72
     2
176
     1
 73
     2
176
     1
 90
        0
176
     1
 40
0.6
176
     1
 41
30.0
176
     1
 63
     7
421
 16777215
176
     1
 74
     2
176
     1
 91
        2
176
     1
 64
     7
176
     1
 65
   257
176
     1
 75
     2
176
     1
175
     1
176
     1
 42
40.0
176
     1
 92
        0
176
     1
 66
   257
176
     1
 43
1.0
176
     1
 76
     1
176
     1
 77
     6
176
     1
 78
     2
176
     1
 67
     7
176
     1
 79
     3
176
     1
170
     0
176
     1
171
     0
176
     1
290
     0
176
     1
 93
        1
176
     1
 44
0.0
176
     1
173
     0
176
     1
1001
ACAD
1000
AcDbSavedByObjectVersion
1070
     0
  0
VISUALSTYLE
  5
1E4
102
{ACAD_XDICTIONARY
360
1131
102
}
102
{ACAD_REACTORS
330
EF
102
}
330
EF
100
AcDbVisualStyle
  2
JitterOff
 70
    20
177
     2
291
     1
 71
     2
176
     0
 72
     2
176
     0
 73
     0
176
     0
 90
        0
176
     0
 40
0.6
176
     0
 41
30.0
176
     0
 63
     7
421
 16777215
176
     0
 74
     1
176
     0
 91
        4
176
     0
 64
     7
176
     0
 65
   257
176
     0
 75
     1
176
     0
175
     1
176
     0
 42
1.0
176
     0
 92
       10
176
     2
 66
     7
176
     0
 43
1.0
176
     0
 76
     1
176
     0
 77
     6
176
     0
 78
     2
176
     0
 67
     7
176
     0
 79
     5
176
     0
170
     0
176
     0
171
     0
176
     0
290
     0
176
     0
 93
        1
176
     0
 44
0.0
176
     0
173
     0
176
     0
1001
ACAD
1000
AcDbSavedByObjectVersion
1070
     0
  0
VISUALSTYLE
  5
FD
102
{ACAD_XDICTIONARY
360
112B
102
}
102
{ACAD_REACTORS
330
EF
102
}
330
EF
100
AcDbVisualStyle
  2
Linepattern
 70
    14
177
     2
291
     1
 71
     2
176
     1
 72
     2
176
     1
 73
     1
176
     1
 90
        0
176
     1
 40
0.6
176
     1
 41
30.0
176
     1
 63
     7
421
 16777215
176
     1
 74
     1
176
     1
 91
        4
176
     1
 64
     7
176
     1
 65
   257
176
     1
 75
     7
176
     1
175
     7
176
     1
 42
1.0
176
     1
 92
        8
176
     1
 66
     7
176
     1
 43
1.0
176
     1
 76
     1
176
     1
 77
     6
176
     1
 78
     2
176
     1
 67
     7
176
     1
 79
     5
176
     1
170
     0
176
     1
171
     0
176
     1
290
     0
176
     1
 93
        1
176
     1
 44
0.0
176
     1
173
     0
176
     1
1001
ACAD
1000
AcDbSavedByObjectVersion
1070
     0
  0
VISUALSTYLE
  5
1E5
102
{ACAD_XDICTIONARY
360
1133
102
}
102
{ACAD_REACTORS
330
EF
102
}
330
EF
100
AcDbVisualStyle
  2
OverhangOff
 70
    21
177
     2
291
     1
 71
     2
176
     0
 72
     2
176
     0
 73
     0
176
     0
 90
        0
176
     0
 40
0.6
176
     0
 41
30.0
176
     0
 63
     7
421
 16777215
176
     0
 74
     1
176
     0
 91
        4
176
     0
 64
     7
176
     0
 65
   257
176
     0
 75
     1
176
     0
175
     1
176
     0
 42
1.0
176
     0
 92
        9
176
     2
 66
     7
176
     0
 43
1.0
176
     0
 76
     1
176
     0
 77
     6
176
     0
 78
     2
176
     0
 67
     7
176
     0
 79
     5
176
     0
170
     0
176
     0
171
     0
176
     0
290
     0
176
     0
 93
        1
176
     0
 44
0.0
176
     0
173
     0
176
     0
1001
ACAD
1000
AcDbSavedByObjectVersion
1070
     0
  0
VISUALSTYLE
  5
F9
102
{ACAD_XDICTIONARY
360
1123
102
}
102
{ACAD_REACTORS
330
EF
102
}
330
EF
100
AcDbVisualStyle
  2
Realistic
 70
     8
177
     2
291
     0
 71
     2
176
     1
 72
     3
176
     1
 73
     0
176
     1
 90
        2
176
     1
 40
0.6
176
     1
 41
30.0
176
     1
 63
     7
421
 16777215
176
     1
 74
     0
176
     1
 91
        0
176
     1
 64
     7
176
     1
 65
   257
176
     1
 75
     1
176
     1
175
     1
176
     1
 42
1.0
176
     1
 92
        8
176
     1
 66
   257
176
     1
 43
1.0
176
     1
 76
     1
176
     1
 77
     6
176
     1
 78
     2
176
     1
 67
     7
176
     1
 79
     3
176
     1
170
     0
176
     1
171
     0
176
     1
290
     0
176
     1
 93
       13
176
     1
 44
0.0
176
     1
173
     0
176
     1
1001
ACAD
1000
AcDbSavedByObjectVersion
1070
     0
  0
VISUALSTYLE
  5
1F3
102
{ACAD_XDICTIONARY
360
113F
102
}
102
{ACAD_REACTORS
330
EF
102
}
330
EF
100
AcDbVisualStyle
  2
Shaded
 70
    27
177
     2
291
     0
 71
     2
176
     1
 72
     2
176
     1
 73
     1
176
     1
 90
        2
176
     1
 40
0.6
176
     1
 41
30.0
176
     1
 63
     7
421
 16777215
176
     1
 74
     0
176
     1
 91
        4
176
     1
 64
     7
176
     1
 65
   257
176
     1
 75
     1
176
     1
175
     1
176
     1
 42
1.0
176
     1
 92
        8
176
     1
 66
   257
176
     1
 43
1.0
176
     1
 76
     1
176
     1
 77
     6
176
     1
 78
     2
176
     1
 67
     8
425
  7895160
176
     1
 79
     3
176
     1
170
     0
176
     1
171
     0
176
     1
290
     0
176
     1
 93
        5
176
     1
 44
0.0
176
     1
173
     0
176
     1
1001
ACAD
1000
AcDbSavedByObjectVersion
1070
     0
  0
VISUALSTYLE
  5
1F2
102
{ACAD_XDICTIONARY
360
113D
102
}
102
{ACAD_REACTORS
330
EF
102
}
330
EF
100
AcDbVisualStyle
  2
Shaded with edges
 70
    26
177
     2
291
     0
 71
     2
176
     1
 72
     2
176
     1
 73
     1
176
     1
 90
        2
176
     1
 40
0.6
176
     1
 41
30.0
176
     1
 63
     7
421
 16777215
176
     1
 74
     1
176
     1
 91
       10
176
     1
 64
     7
176
     1
 65
   257
176
     1
 75
     2
176
     1
175
     1
176
     1
 42
1.0
176
     1
 92
        8
176
     1
 66
   257
176
     1
 43
1.0
176
     1
 76
     1
176
     1
 77
     6
176
     1
 78
     2
176
     1
 67
     7
176
     1
 79
     3
176
     1
170
     0
176
     1
171
     0
176
     1
290
     0
176
     1
 93
        5
176
     1
 44
0.0
176
     1
173
     0
176
     1
1001
ACAD
1000
AcDbSavedByObjectVersion
1070
     0
  0
VISUALSTYLE
  5
1EF
102
{ACAD_XDICTIONARY
360
1137
102
}
102
{ACAD_REACTORS
330
EF
102
}
330
EF
100
AcDbVisualStyle
  2
Shades of Gray
 70
    23
177
     2
291
     0
 71
     2
176
     1
 72
     2
176
     1
 73
     3
176
     1
 90
        0
176
     1
 40
0.6
176
     1
 41
30.0
176
     1
 63
     7
421
 16777215
176
     1
 74
     2
176
     1
 91
        2
176
     1
 64
     7
176
     1
 65
     7
176
     1
 75
     1
176
     1
175
     1
176
     1
 42
40.0
176
     1
 92
        8
176
     1
 66
     7
176
     1
 43
1.0
176
     1
 76
     1
176
     1
 77
     6
176
     1
 78
     2
176
     1
 67
     7
176
     1
 79
     3
176
     1
170
     0
176
     1
171
     0
176
     1
290
     0
176
     1
 93
        1
176
     1
 44
0.0
176
     1
173
     0
176
     1
1001
ACAD
1000
AcDbSavedByObjectVersion
1070
     0
  0
VISUALSTYLE
  5
1F0
102
{ACAD_XDICTIONARY
360
1139
102
}
102
{ACAD_REACTORS
330
EF
102
}
330
EF
100
AcDbVisualStyle
  2
Sketchy
 70
    24
177
     2
291
     0
 71
     1
176
     1
 72
     2
176
     1
 73
     2
176
     1
 90
        0
176
     1
 40
0.6
176
     1
 41
30.0
176
     1
 63
     7
421
 16777215
176
     1
 74
     2
176
     1
 91
        2
176
     1
 64
     7
176
     1
 65
     7
176
     1
 75
     1
176
     1
175
     1
176
     1
 42
40.0
176
     1
 92
       11
176
     1
 66
     7
176
     1
 43
1.0
176
     1
 76
     1
176
     1
 77
     6
176
     1
 78
     2
176
     1
 67
     7
176
     1
 79
     6
176
     1
170
     0
176
     1
171
     0
176
     1
290
     0
176
     1
 93
        1
176
     1
 44
0.0
176
     1
173
     0
176
     1
1001
ACAD
1000
AcDbSavedByObjectVersion
1070
     0
  0
VISUALSTYLE
  5
FC
102
{ACAD_XDICTIONARY
360
1129
102
}
102
{ACAD_REACTORS
330
EF
102
}
330
EF
100
AcDbVisualStyle
  2
Thicken
 70
    13
177
     2
291
     1
 71
     2
176
     1
 72
     2
176
     1
 73
     1
176
     1
 90
        0
176
     1
 40
0.6
176
     1
 41
30.0
176
     1
 63
     7
421
 16777215
176
     1
 74
     1
176
     1
 91
        4
176
     1
 64
     7
176
     1
 65
   257
176
     1
 75
     1
176
     1
175
     1
176
     1
 42
1.0
176
     1
 92
       12
176
     1
 66
     7
176
     1
 43
1.0
176
     1
 76
     1
176
     1
 77
     6
176
     1
 78
     2
176
     1
 67
     7
176
     1
 79
     5
176
     1
170
     0
176
     1
171
     0
176
     1
290
     0
176
     1
 93
        1
176
     1
 44
0.0
176
     1
173
     0
176
     1
1001
ACAD
1000
AcDbSavedByObjectVersion
1070
     0
  0
VISUALSTYLE
  5
F6
102
{ACAD_XDICTIONARY
360
111D
102
}
102
{ACAD_REACTORS
330
EF
102
}
330
EF
100
AcDbVisualStyle
  2
Wireframe
 70
     5
177
     2
291
     0
 71
     0
176
     1
 72
     2
176
     1
 73
     0
176
     1
 90
        0
176
     1
 40
0.6
176
     1
 41
30.0
176
     1
 63
     7
421
 16777215
176
     1
 74
     1
176
     1
 91
        4
176
     1
 64
     7
176
     1
 65
   257
176
     1
 75
     1
176
     1
175
     1
176
     1
 42
1.0
176
     1
 92
        0
176
     1
 66
   257
176
     1
 43
1.0
176
     1
 76
     1
176
     1
 77
     6
176
     1
 78
     2
176
     1
 67
     7
176
     1
 79
     3
176
     1
170
     0
176
     1
171
     0
176
     1
290
     0
176
     1
 93
        1
176
     1
 44
0.0
176
     1
173
     0
176
     1
1001
ACAD
1000
AcDbSavedByObjectVersion
1070
     0
  0
VISUALSTYLE
  5
1F1
102
{ACAD_XDICTIONARY
360
113B
102
}
102
{ACAD_REACTORS
330
EF
102
}
330
EF
100
AcDbVisualStyle
  2
X-Ray
 70
    25
177
     2
291
     0
 71
     2
176
     1
 72
     2
176
     1
 73
     1
176
     1
 90
        1
176
     1
 40
0.5
176
     1
 41
30.0
176
     1
 63
     7
421
 16777215
176
     1
 74
     1
176
     1
 91
        0
176
     1
 64
     7
176
     1
 65
   257
176
     1
 75
     1
176
     1
175
     1
176
     1
 42
1.0
176
     1
 92
        8
176
     1
 66
     7
176
     1
 43
1.0
176
     1
 76
     1
176
     1
 77
     6
176
     1
 78
     2
176
     1
 67
     7
176
     1
 79
     3
176
     1
170
     0
176
     1
171
     0
176
     1
290
     0
176
     1
 93
       13
176
     1
 44
0.0
176
     1
173
     0
176
     1
1001
ACAD
1000
AcDbSavedByObjectVersion
1070
     0
  0
DICTIONARYVAR
  5
146
102
{ACAD_REACTORS
330
5E
102
}
330
5E
100
DictionaryVariables
280
     0
  1
1:1
  0
DICTIONARYVAR
  5
145
102
{ACAD_REACTORS
330
5E
102
}
330
5E
100
DictionaryVariables
280
     0
  1
STANDARD
  0
DICTIONARYVAR
  5
84
102
{ACAD_REACTORS
330
5E
102
}
330
5E
100
DictionaryVariables
280
     0
  1
STANDARD
  0
DICTIONARYVAR
  5
227
102
{ACAD_REACTORS
330
5E
102
}
330
5E
100
DictionaryVariables
280
     0
  1
Metric50
  0
DICTIONARYVAR
  5
228
102
{ACAD_REACTORS
330
5E
102
}
330
5E
100
DictionaryVariables
280
     0
  1
Metric50
  0
DICTIONARYVAR
  5
5F
102
{ACAD_REACTORS
330
5E
102
}
330
5E
100
DictionaryVariables
280
     0
  1
2
  0
DICTIONARYVAR
  5
63
102
{ACAD_REACTORS
330
5E
102
}
330
5E
100
DictionaryVariables
280
     0
  1
1
  0
DICTIONARYVAR
  5
1AE
102
{ACAD_REACTORS
330
5E
102
}
330
5E
100
DictionaryVariables
280
     0
  1
0
  0
DICTIONARYVAR
  5
1AF
102
{ACAD_REACTORS
330
5E
102
}
330
5E
100
DictionaryVariables
280
     0
  1
0
  0
DICTIONARY
  5
1110
102
{ACAD_REACTORS
330
110E
102
}
330
110E
100
AcDbDictionary
281
     1
  0
DICTIONARY
  5
110F
102
{ACAD_REACTORS
330
110E
102
}
330
110E
100
AcDbDictionary
281
     1
  3
140699282588944
350
1109
  3
140699282588960
350
110A
  3
140699282588976
350
110B
  3
140699282588992
350
110C
  3
140699282589008
350
110D
  0
DICTIONARY
  5
236
330
21C
100
AcDbDictionary
280
     1
281
     1
  3
ACAD_XREC_ROUNDTRIP
360
1142
  0
DICTIONARY
  5
205
330
22
100
AcDbDictionary
280
     1
281
     1
  0
DICTIONARY
  5
1F9
330
ED
100
AcDbDictionary
280
     1
281
     1
  3
FBXASSET
360
1FA
  0
DICTIONARY
  5
1F7
330
EC
100
AcDbDictionary
280
     1
281
     1
  3
FBXASSET
360
1F8
  0
DICTIONARY
  5
173
330
EE
100
AcDbDictionary
280
     1
281
     1
  3
BUMPTILE
360
175
  3
DIFFUSETILE
360
174
  3
FBXASSET
360
1FB
  3
OPACITYTILE
360
176
  3
REFLECTIONTILE
360
177
  0
DICTIONARY
  5
234
330
21A
100
AcDbDictionary
280
     1
281
     1
  3
ACAD_XREC_ROUNDTRIP
360
1141
  0
DICTIONARY
  5
162
330
7F
100
AcDbDictionary
280
     1
281
     1
  3
ACAD_ROUNDTRIP_2008_TABLESTYLE_CELLSTYLEMAP
360
1107
  0
DICTIONARY
  5
111B
330
F5
100
AcDbDictionary
280
     1
281
     1
  3
ACAD_XREC_ROUNDTRIP
360
111C
  0
DICTIONARY
  5
1119
330
F4
100
AcDbDictionary
280
     1
281
     1
  3
ACAD_XREC_ROUNDTRIP
360
111A
  0
DICTIONARY
  5
1127
330
FB
100
AcDbDictionary
280
     1
281
     1
  3
ACAD_XREC_ROUNDTRIP
360
1128
  0
DICTIONARY
  5
112F
330
FF
100
AcDbDictionary
280
     1
281
     1
  3
ACAD_XREC_ROUNDTRIP
360
1130
  0
DICTIONARY
  5
1121
330
F8
100
AcDbDictionary
280
     1
281
     1
  3
ACAD_XREC_ROUNDTRIP
360
1122
  0
DICTIONARY
  5
1125
330
FA
100
AcDbDictionary
280
     1
281
     1
  3
ACAD_XREC_ROUNDTRIP
360
1126
  0
DICTIONARY
  5
1135
330
1E6
100
AcDbDictionary
280
     1
281
     1
  3
ACAD_XREC_ROUNDTRIP
360
1136
  0
DICTIONARY
  5
112D
330
FE
100
AcDbDictionary
280
     1
281
     1
  3
ACAD_XREC_ROUNDTRIP
360
112E
  0
DICTIONARY
  5
1111
330
F0
100
AcDbDictionary
280
     1
281
     1
  3
ACAD_XREC_ROUNDTRIP
360
1112
  0
DICTIONARY
  5
1113
330
F1
100
AcDbDictionary
280
     1
281
     1
  3
ACAD_XREC_ROUNDTRIP
360
1114
  0
DICTIONARY
  5
1115
330
F2
100
AcDbDictionary
280
     1
281
     1
  3
ACAD_XREC_ROUNDTRIP
360
1116
  0
DICTIONARY
  5
1117
330
F3
100
AcDbDictionary
280
     1
281
     1
  3
ACAD_XREC_ROUNDTRIP
360
1118
  0
DICTIONARY
  5
111F
330
F7
100
AcDbDictionary
280
     1
281
     1
  3
ACAD_XREC_ROUNDTRIP
360
1120
  0
DICTIONARY
  5
1131
330
1E4
100
AcDbDictionary
280
     1
281
     1
  3
ACAD_XREC_ROUNDTRIP
360
1132
  0
DICTIONARY
  5
112B
330
FD
100
AcDbDictionary
280
     1
281
     1
  3
ACAD_XREC_ROUNDTRIP
360
112C
  0
DICTIONARY
  5
1133
330
1E5
100
AcDbDictionary
280
     1
281
     1
  3
ACAD_XREC_ROUNDTRIP
360
1134
  0
DICTIONARY
  5
1123
330
F9
100
AcDbDictionary
280
     1
281
     1
  3
ACAD_XREC_ROUNDTRIP
360
1124
  0
DICTIONARY
  5
113F
330
1F3
100
AcDbDictionary
280
     1
281
     1
  3
ACAD_XREC_ROUNDTRIP
360
1140
  0
DICTIONARY
  5
113D
330
1F2
100
AcDbDictionary
280
     1
281
     1
  3
ACAD_XREC_ROUNDTRIP
360
113E
  0
DICTIONARY
  5
1137
330
1EF
100
AcDbDictionary
280
     1
281
     1
  3
ACAD_XREC_ROUNDTRIP
360
1138
  0
DICTIONARY
  5
1139
330
1F0
100
AcDbDictionary
280
     1
281
     1
  3
ACAD_XREC_ROUNDTRIP
360
113A
  0
DICTIONARY
  5
1129
330
FC
100
AcDbDictionary
280
     1
281
     1
  3
ACAD_XREC_ROUNDTRIP
360
112A
  0
DICTIONARY
  5
111D
330
F6
100
AcDbDictionary
280
     1
281
     1
  3
ACAD_XREC_ROUNDTRIP
360
111E
  0
DICTIONARY
  5
113B
330
1F1
100
AcDbDictionary
280
     1
281
     1
  3
ACAD_XREC_ROUNDTRIP
360
113C
  0
XRECORD
  5
1109
102
{ACAD_REACTORS
330
110F
102
}
330
110F
100
AcDbXrecord
280
     1
  1
AcDb_Thumbnail_Schema
102
{ATTRRECORD
341
110A
  2
AcDbDs::TreatedAsObjectData
280
     1
291
     1
102
ATTRRECORD}
102
{ATTRRECORD
341
110B
  2
AcDbDs::Legacy
280
     1
291
     1
102
ATTRRECORD}
  2
AcDbDs::ID
280
    10
 91
        8
102
{ATTRRECORD
341
110C
  2
AcDs:Indexable
280
     1
291
     1
102
ATTRRECORD}
102
{ATTRRECORD
341
110D
  2
AcDbDs::HandleAttribute
280
     7
282
     1
102
ATTRRECORD}
  2
Thumbnail_Data
280
    15
 91
        0
  0
XRECORD
  5
110A
102
{ACAD_REACTORS
330
110F
102
}
330
110F
100
AcDbXrecord
280
     1
  1
AcDbDs::TreatedAsObjectDataSchema
  2
AcDbDs::TreatedAsObjectData
280
     1
 91
        0
  0
XRECORD
  5
110B
102
{ACAD_REACTORS
330
110F
102
}
330
110F
100
AcDbXrecord
280
     1
  1
AcDbDs::LegacySchema
  2
AcDbDs::Legacy
280
     1
 91
        0
  0
XRECORD
  5
110C
102
{ACAD_REACTORS
330
110F
102
}
330
110F
100
AcDbXrecord
280
     1
  1
AcDbDs::IndexedPropertySchema
  2
AcDs:Indexable
280
     1
 91
        0
  0
XRECORD
  5
110D
102
{ACAD_REACTORS
330
110F
102
}
330
110F
100
AcDbXrecord
280
     1
  1
AcDbDs::HandleAttributeSchema
  2
AcDbDs::HandleAttribute
280
     7
 91
        1
284
     1
  0
XRECORD
  5
1142
102
{ACAD_REACTORS
330
236
102
}
330
236
100
AcDbXrecord
280
     1
102
DISPLAYNAME
  1
Metric50
102
FLAGS
 90
        0
  0
XRECORD
  5
1FA
102
{ACAD_REACTORS
330
1F9
102
}
330
1F9
100
AcDbXrecord
280
     1
 70
     1
 90
429727718
  1
D62C5603-E3A1-4AEA-B7FB-FE5D8D0755AF
310
504B03040A0000080000CC70623B3DEE336E79000000790000001B0000006175746F6465736B2D64657369676E2D7061636B6167652E786D6C3C3F786D6C2076657273696F6E3D22312E302220656E636F64696E673D227574662D3822203F3E3C666F726D6174733E3C666F726D61743E687474703A2F2F736368656D612E
310
6175746F6465736B2E636F6D2F64657369676E2D7061636B6167652F323030393C2F666F726D61743E3C2F666F726D6174733E504B0304140006080800CC70623BD486FD9CA0000000F4000000130000005B436F6E74656E745F54797065735D2E786D6C7D8EC10E82300C865F65E91D8A1E8C310C0EEA1BF002731658846E
310
D98AC1B77784ABF1D8FE5FBFBF75BBCE937A534CCEB38643598122B6FEE978D0B0485F9C41B54DDD7D022595594E1A469170414C76A4D9A4D207E29CF43ECE46F218070CC6BECC4078ACAA135ACF422C856C0E68EA1BF5669944DDD7BCDE7B1F8E415D77AECB980613C2E4AC91FC167A2B244592486606FC29C8FD7F045B9A
310
EF7053A7E60B504B0304140006080800CC70623B853B8169EB0000007C01000008000000636F72652E786D6C8D90416EC3201045AF62CDB6C206821CC7C244919D9CA01740401C94182C03558F5F9C3852BBEB6A467FFE9B197D7EFC9E1EC5975982F5AE035262288C535E5B377690E21535501C055FBC8FBF6C503839990E
310
5619041F179FE64D52DE45E362569DD7661365082642A11EB9E920A89B99642953CC8E702F67A9EE7234257977194EC9EAE275C4EABCCF5EAD5940D4AC6F0E35A568B8F43562CD7046CD199FD07E60174276A7BE677B5EADB0E0D14EEFFB6A31321A0D82627C4084204C3F096B71DD52F6819B16635EADF63F509AF53FA164
310
5DDCD1EDDD17164090FCC8732078B56691CB33A85CD7DCC40F504B0304140006080800CC70623B55019EA25F0000007C00000007000000636E782E786D6C4DCB3B0E80201045D1AD90E915ED2CF8AC45050C11660C8261F98AB1B07AC9C97D42D718D865D3E909258CFD00CCE24AC6E326A164D74DC0B4128928FF32603847
310
2BA13128B1252AC747C6BAB984FC68F0B87FE8960A5C09FE86CFB69FBA01504B0304140006080800CC70623BDBABAAF470010000D40300000C0000006662782F636F72652E786D6CC553D16E823014FD95A6AF4B694182CC941A83FA05FB810A9511A125A5257EFE2E82712ECEB8A7F100CD39F7F69E734AF9FADC366850B6
310
AF8DCE7018308C942E4C59EB2AC3DE1D498AD15A706B8CFB56869196ADCAF00863C12B6B7C374385D14E6907A836A59A41D9F7CA615434B0C8705F7CAA5606D23BA8E84F41278B93AC54100640439DE0BDB320004D43C63716C7C399D30917DCFBBA9CD9BA8469F5B156168B24CED3F7248AC8769F27244EB73B92EED8862C
310
B7F13E0C179B3C8F979C8ECD82BBBABDAA2BAC924E9558448CBD9330242CFA08E3154B5651FCC6D215639C8EE5774DBE2B5F6CF2B5768B68963BB5F5588420E442FC700B1139D4CB01F450C1E918227C2E09DF070D8140C84E1E9AAB8F1340832A9CB13130A5F1376A908D57309505ECF2A0DF179C4E9D30F5B239B87E3823
310
7A79C6F31DE1A8A5AEC08474B03C7837EAE4938639B44E5932B833D2C6B6B279CDC613877FA26EE21F4A2A4C63EC7F29A2F301D1F9F7A0E37D145F504B0304140006080800CC70623B9C113CC27E0000009D0000000B0000006662782F636E782E786D6C4DCCDF0A83201C86E15B91DFB94BFB330DD428C8FB886521330DA7
310
6397BF1A1DECE883878F57749FCDA1B7892F1BBC047A23808C7F84D9FA55424E0BE6803A256208E9EF06C84F9B91703228B1C690F78B66B34CD9A5439DF5CF0BFBF65E35BCA1B8D6A5C6F540381E886698B5741C695F9503EBA150A2F8958E3DC3EA0B504B0304140006080800CC70623B7DF2F77C2A010000120200003100
310
00006662782F41393633353835312D344632462D344230382D423046372D3739314545314133324237412F636F72652E786D6C8D51DB8EC22014FC15C2939B0D2DB4B45643319AE817EC0F6041255A68B86CFCFC856D4D76DF7CE190393373060EDB3DC707F856CE6B6B7A480A0C81328395DA5C7B18C3057510EC3873D686
310
3F34088C18550F330C39BB3A1BA7051AAC09CA84841A2BD5020AEF55806078A44B0FFD7053A328440C89E1EFC52486BBB8AA8214A99D789CF9E05200300FC927E4FB4D5B375D43103D5527440FB843077C5AA3F5861C8F645F5787F59E95B390B318B55CE45AA638FAA2957BD7248B390B7A7CC51F9C124149C82B8C378810
310
84AB2F42B7B8DD56F413775B8C5999E9FF4471926F8AA236A1AE96B8B3CC434E5839373893369E1FAF30EA395917409EB7F26AF8801C171837A4A6AC9C89E9F9C9B1A58BA30FD6A5EF5DDDCF894B9AD9B6A59C957943A9FCAE2FD5BC4DFE03504B0304140006080800CC70623BAD7543B64E01000033030000300000006662
310
782F41393633353835312D344632462D344230382D423046372D3739314545314133324237412F636E782E786D6CD593CD6EC32010845F0571AD6CE3D48AD20813A9873E410FBD12D82434182C7EAAE6EDBB2424CD25871E7B41D6EC30B3FA84F9E67BB2E40B4234DE8DB46F1925E094D7C6ED479AD3AE5951B2113C789FEE
310
6C943839C1488B4C05DF079FE72A69D8C96C13AAD6B8631503449F83828872B949AC57D26200B826A308D316B4064D6E46FCDA41C05550DC9E483A00797BFD207EFB092A45DE9514C1BBD22178396BD39D891265658C238DEA00936C654E5E433CB65A26D9F6EDB5EBC14EBF49A45CB856E66048291F6939A9A81BB5C89177
310
38143CA680F4AA299D66A042CEB3354A2684DC9D8D178FE0D9B8B41CAAD720F880EE7EF93C0C18769E099ECC04D5A102C8049A8A05632F4DDF376CF1DE0F6BB65C2F8627B65A33C6BB62177CEBBDAD973006829F89F22E814B54F4BC2BE347F8AA8F681390B50FA73F804400B5F542E796F19FF974E7F78DB802FE05E20750
310
4B0304140006080800CC70623BE75B7789680500003C100000340000006662782F41393633353835312D344632462D344230382D423046372D3739314545314133324237412F6F626A656374732E786D6CAD575B8F9B3818FD2B887D06C22499CB8AA1CA655245D5B455A356FB305264C061D8018C6C3393D95FBFC7600890
310
A4CD5EF210B0B1BFEBF98E3F7B1FF6596ABC522E1296DF9BAE3D320D9A872C4AF2F8DE2CE5CEBA358D0FBEC719939D65A691938CDE9B6ADAF4BD98B3B2D05311DD91329583D9D5FC0F438434A7A611A644887B5384CF34233629258BA878B12322891DEFF6B66BD70BFB62634E8AE781D082709A4B588AF91C528CDA28B73F
310
1C998EEF39EABBEFA97FBD6A7C7E9553F9D3D79FE442923C3C523610337627CB87ABE99D359D4CC6D6E4FACAB5E6ABF9D2726FC6A3C5F56271377BB88362213924694B38DD99FE47C48627A1E7D49F5A8BB5E1A74C0A599ED3B0F21F1E56366B89112D681E218F0915D0D6F17AD41FBA2A369DCF6335D62ABBD39779D5DDD1
310
11D4D8DE3CBB96B2E04FB8202E41051754A1AA8E8F76B4C6DFE810B580B1547F4B84911149794252234D024EF8BBE963A95AE27B3D310A9D5C215C7960FAEE415ED75694C6AFB17BCACA5D99A60A9AA65F217B0BFC53292ACB92BF283FAD0D3621576592CB5BED907C2FA8E9DF794E35E97BEA31BED21FEB401ABB94C44839
310
DCACBF0E1C5DA8DA5B2F4DFFD32AD86F543D9E565E7056502E157C00AD2671CD534549AB752FCA9CDA00677A313F04E51B22FF19E57B300579E3C97EB29F682D92935CEC18CF901B7B54FD8C51F362B56FC72FE0B3C1EAE335EDCCBF5AEC39ADB17DC238973F804BA5E6F6BFE7AF1FB32E523BE9F3BD571418E3631DCA4D48
310
5250CF639223210A9446CA30052EDF057BD35F8329C1ECD84552BF0DC8D18BE7BCE23BFE6BD960AB4A7DE79923A103BEBD80F911CBAA2C60DB19B01CF164A5583B772EE6D3FFA56666CBCDA74DC97724A48F9A58967497E489C4D979006FD7A05E227A1EBDD0F737C623387A9C844D3709995625106D157315F8B8392CD4E0
310
A0B9A720C4BE9829CEF37EA1E13111214D53925356365ADA634861B52519DD27A00AEB808EAF0628E6F435519D446F45CF2C9CF5214F0A15B2F6D06B79DA3EE3CBF7F56780D2F4E7EF73A0F5E5B02A38D07DC852C6B7C1FBB6664213E0C39E3EBA7FF4E1AD23EA2829407C85E586727488B751B2DB9502BC7B228A3FD68B6E
310
A65A22397E690AA8D158D7E404EC8CDA235CC3B7D1898680131CEC2CDF2638C65196279577750F15884AEE19F94199155B92B13297978469D4F8D358DF0AEF7631E28DC8F0D9F437D5D39A83B2231A1D52D543813A824EF8D44BCFF2FA6A31BD1E8DAD87F1CCB526B3879935BF59CDADD5C37479BB1CDD4CA7B3556B516589
310
EF352754B706114D9C885EC9131DE6EFEB43D99AFE2391C2F958179413D7CFEF6B1B6DB1E7600F00DE6E5C67454A339A4BA2E0FBA85ED26F045D454F463DBFCE484C2F90F2E5E3666003662ED8F755951A7D1BECD5B30B550B2785C8E7320B7292A4838DDA71BBC863ED7613CAF659337A3354231D4FF4A182A54904C2898C
310
98B28C4AD0CE056CCF332A80986E571EE9DBC305BB5FEB7E509220A58D25CF042D712A806AC0AD0C657FDEF80D2D9CEAA2EE4D1C76F60BFE74219A06527D6F82DF6412526107381E55E353090704D085B52408A8913C4ED159D79BDA71BB4BC506F4831350EB6F975CD22D69BF7AC49B91A2C0A9DDA3D5CA36AD20FC478E37
310
E61844E2352865EBCB61A275A65283CAAA9DD27703B4102F5AF51EF5F573B75CBB5AD38BC845F7A49F82A0966A49C2E3EA5EA0ECD326CD965F1DB402C6FA8B51A4658C5C5E2EC9E214602E55810345408596591009A82E7E7FFACA19EEA299B14A0081A705CB3296EBC14CDF658DCD336EA6D1136881AAEB87B81AB9EE53D5
310
F5EB8BC8362082DA24122F98680A4E7930C01A0079749CEA14382A0783E5EBA5A10F8C098456A03D6A4AEB6BB881E2513747552A5DB22C7EDAF83BD5528081A365F7FF06504B0304140006080000CC70623B000000000000000000000000350000006662782F41393633353835312D344632462D344230382D423046372D37
310
39314545314133324237412F76657274696365732E62696E504B0304140006080800CC70623BF270F1330600000004000000360000006662782F41393633353835312D344632462D344230382D423046372D3739314545314133324237412F747269616E676C65732E62696E636660600000504B0304140006080000CC7062
310
3B000000000000000000000000370000006662782F41393633353835312D344632462D344230382D423046372D3739314545314133324237412F617474726962757465732E62696E504B0304140006080800CC70623B08DA0BD19000000041010000360000006662782F41393633353835312D344632462D344230382D4230
310
46372D3739314545314133324237412F6469726563746F72792E786D6C858F410AC3201045AF22B36F53E9A60B35CBEEBAE80D244E44489C6234F4F835464A48035D0DF398FF9F8AF63D0E6CC63039F212F8F9020C7D47C6792B21C5FE7403D62A1188E2E60C98D7234A5830286103A55745067B9D86B8A3CF9C7F90C11DE6
310
07FB144396D7B6A82D282E9A152AD114D5EF2CB866EEE831B8EEA07A7BB5A8D7D61A2BAAEB7FD5F70921FF497D00504B0304140006080800CC70623BEDD1DC58FD000000A00100003B0000006662782F41393633353835312D344632462D344230382D423046372D3739314545314133324237412F7265736F75726365732F
310
636F72652E786D6C8D504B6E833010BD0A9A6D65B00922041947112427E8052C33A156828DFCA97AFC9A40A576D7CDCCE87D344F8F9FBFE667F689CE6B6B3A6039850C8DB2A336530731DC4903D95970676DF82583CCC8193B5861107C72362E3BA4AC096842428D1D7107A5F7182053CF7474E0D507CE32973124857FE48B
310
540F3961CEF244279DE03EB81420DB9EAC1384436FA353E879B1B182C7A8C75DA3C7F453DF353A1075D537A7BA6464B8F535A99AE14A9A2BBD90E350DD183B5CFABE3AF262350B1EF4FC9351399401471025A527C218A1E53BAB5A5AB765F5469B96525EACF23FA6B88CFF34456DC2A1DCE36E360F82A5202F42F062ED2BAD
310
579969AFDD8A6F504B010214000A0000080000CC70623B3DEE336E79000000790000001B00000000000000000000000000000000006175746F6465736B2D64657369676E2D7061636B6167652E786D6C504B01021400140006080800CC70623BD486FD9CA0000000F40000001300000000000000000000000000B20000005B
310
436F6E74656E745F54797065735D2E786D6C504B01021400140006080800CC70623B853B8169EB0000007C010000080000000000000000000000000083010000636F72652E786D6C504B01021400140006080800CC70623B55019EA25F0000007C000000070000000000000000000000000094020000636E782E786D6C504B
310
01021400140006080800CC70623BDBABAAF470010000D40300000C00000000000000000000000000180300006662782F636F72652E786D6C504B01021400140006080800CC70623B9C113CC27E0000009D0000000B00000000000000000000000000B20400006662782F636E782E786D6C504B01021400140006080800CC70
310
623B7DF2F77C2A010000120200003100000000000000000000000000590500006662782F41393633353835312D344632462D344230382D423046372D3739314545314133324237412F636F72652E786D6C504B01021400140006080800CC70623BAD7543B64E010000330300003000000000000000000000000000D2060000
310
6662782F41393633353835312D344632462D344230382D423046372D3739314545314133324237412F636E782E786D6C504B01021400140006080800CC70623BE75B7789680500003C10000034000000000000000000000000006E0800006662782F41393633353835312D344632462D344230382D423046372D3739314545
310
314133324237412F6F626A656374732E786D6C504B01021400140006080000CC70623B0000000000000000000000003500000000000000000000000000280E00006662782F41393633353835312D344632462D344230382D423046372D3739314545314133324237412F76657274696365732E62696E504B01021400140006
310
080800CC70623BF270F133060000000400000036000000000000000000000000007B0E00006662782F41393633353835312D344632462D344230382D423046372D3739314545314133324237412F747269616E676C65732E62696E504B01021400140006080000CC70623B0000000000000000000000003700000000000000
310
000000000000D50E00006662782F41393633353835312D344632462D344230382D423046372D3739314545314133324237412F617474726962757465732E62696E504B01021400140006080800CC70623B08DA0BD1900000004101000036000000000000000000000000002A0F00006662782F41393633353835312D344632
310
462D344230382D423046372D3739314545314133324237412F6469726563746F72792E786D6C504B01021400140006080800CC70623BEDD1DC58FD000000A00100003B000000000000000000000000000E1000006662782F41393633353835312D344632462D344230382D423046372D3739314545314133324237412F7265
310
736F75726365732F636F72652E786D6C504B0506000000000E000E0080040000641100000000
  0
XRECORD
  5
1F8
102
{ACAD_REACTORS
330
1F7
102
}
330
1F7
100
AcDbXrecord
280
     1
 70
     1
 90
429727718
  1
30362254-06B7-45E0-A893-8CFA70E3D6BC
310
504B03040A0000080000CC70623B3DEE336E79000000790000001B0000006175746F6465736B2D64657369676E2D7061636B6167652E786D6C3C3F786D6C2076657273696F6E3D22312E302220656E636F64696E673D227574662D3822203F3E3C666F726D6174733E3C666F726D61743E687474703A2F2F736368656D612E
310
6175746F6465736B2E636F6D2F64657369676E2D7061636B6167652F323030393C2F666F726D61743E3C2F666F726D6174733E504B0304140006080800CC70623BD486FD9CA0000000F4000000130000005B436F6E74656E745F54797065735D2E786D6C7D8EC10E82300C865F65E91D8A1E8C310C0EEA1BF002731658846E
310
D98AC1B77784ABF1D8FE5FBFBF75BBCE937A534CCEB38643598122B6FEE978D0B0485F9C41B54DDD7D022595594E1A469170414C76A4D9A4D207E29CF43ECE46F218070CC6BECC4078ACAA135ACF422C856C0E68EA1BF5669944DDD7BCDE7B1F8E415D77AECB980613C2E4AC91FC167A2B244592486606FC29C8FD7F045B9A
310
EF7053A7E60B504B0304140006080800CC70623B1EC5D7A3EB0000007C01000008000000636F72652E786D6C8D90416EC3201045AF82665B6103C6756C6122AB4D4ED00B204C5C94182C03558F5F9C3852BBEB6A467FFE9B197D71FC9E6FE8CBACC17AD7032D0820E3B41FAD9B7A48F1820F808E52ACDEC75F36404ECDA687
310
4D0629A6D5A76597B477D1B89855E747B38B2A041301E95B6E7A08FAD3CCAA50296647B8168BD2573599823EBB0CA76447F43862C7BCCF5EAC59410E4DDD9C7973C2755553CCCFA4C603E3040F1565ED3B1FDE4E432BCA0D9622DAF9795FAF464533826484B498524CD807E51D79ED187F21878E10516EF63F505AC67F42C9
310
BA58B1FDDD071640D2FCC87D2045B96591CB3DA85CB7DCE40F504B0304140006080800CC70623B55019EA25F0000007C00000007000000636E782E786D6C4DCB3B0E80201045D1AD90E915ED2CF8AC45050C11660C8261F98AB1B07AC9C97D42D718D865D3E909258CFD00CCE24AC6E326A164D74DC0B4128928FF32603847
310
2BA13128B1252AC747C6BAB984FC68F0B87FE8960A5C09FE86CFB69FBA01504B0304140006080800CC70623B8C9102E971010000D40300000C0000006662782F636F72652E786D6CC5535B6E833010BC8AE5DF0A6C08340F1947A84D4ED00B38C6A128602363A31CBFCB234A53A551FA553EC09AD9F5CE8C31DB9E9B1AF5CA
310
7695D1198E428A91D2D214952E33ECDD315861B4E5CC1AE3BE9561A445A3323CC098B3D21ADFCE9034DA29ED00D5A6503328BA4E398C640D8B0C77F253352214DE4145770A5B214FA2546114020D759C75CE8200340D19DE981F0F6746269C33EFAB6266AB02A655C74A59CCF365BADC27CB5D902ED22848F6340DF238A141
310
BE88E2F57B92BFEDF23523433367AE6A2EEAA455C2A902F398D2751045018D3FA264435F3771F242571B4A1919CA6F9A7C5B3CD9E42BED16F12C776AEB308F40C848FC700B1139D4891EF410CEC810227CC6846F8386402064270EF5C5C709A05E49676C024C61FC95EA45ED154CA5211D1FF4FB8291A913A68E9B83EBBB33
310
E2A7673CDE118E5AE8124C0807CB8377834E366998436B950D7A7746DAD846D4CFD978E0F04FD455FC5D49D2D4C6FE9722321F10997F0F32DC47FE05504B0304140006080800CC70623BFFEA85907E0000009D0000000B0000006662782F636E782E786D6C4DCCD10A83201886E15B91FFDC95D95A811AB6F23E625948A6C3
310
E9D8E5AF46073BFAE0E1E365ED67B3E8ADC3CB78C7815C7240DA3DFC64DCC221C519D7805AC182F7F1EF06C88D9BE6703008B6049F9E274D7A1E938DBB5AE3D6131B2589BA0D3D965551E0B2EA732C9B9A624AAEB41E3A557677029960D9AFB4EF11165F504B0304140006080800CC70623B4FEEA4082C0100001202000031
310
0000006662782F39464131463745442D413632322D343644302D413938332D3331353338454246344243312F636F72652E786D6C8D515B6EC32010BC0AE2AB55850DD871ED0813254D72825EC00192A2C460F1A872FC42ED48ED5F7E00CDCECCCEB26C731F6FE05B39AFADE921293004CA082BB5B9F43086336A21D870E6AC
310
0D7F68109861543DCC30E4ECE26C9C164858139409093556AA051CBC570102714B8F1E7AF1A5C6A11862480C7F2DA6415C878B2A4891CA89C7990F2E050073937C42DE1DB7E4F87ED8A36D4329AA9B3D46DBAEAD504556557BD81DEBDD0761E52CE42C462D17B996298E3E6BE59E35C962CE821E1FF18553435012728A7187
310
0841987E927A8D9B35ADDF70BBC6989599FE4F1427F9A4286A132ABAC49D651EF234CD5CE04CDA78BA3DC2A8FB645D00B9DF8B57E215725C60BCA2A463E54C4CE327C7A65E1C7DB02E7DEFCBF594B864C5CA6CDBD49C957943E9FA5D5FBAF336F90F504B0304140006080800CC70623BAD7543B64E01000033030000300000
310
006662782F39464131463745442D413632322D343644302D413938332D3331353338454246344243312F636E782E786D6CD593CD6EC32010845F0571AD6CE3D48AD20813A9873E410FBD12D82434182C7EAAE6EDBB2424CD25871E7B41D6EC30B3FA84F9E67BB2E40B4234DE8DB46F1925E094D7C6ED479AD3AE5951B2113C
310
789FEE6C943839C1488B4C05DF079FE72A69D8C96C13AAD6B8631503449F83828872B949AC57D26200B826A308D316B4064D6E46FCDA41C05550DC9E483A00797BFD207EFB092A45DE9514C1BBD22178396BD39D891265658C238DEA00936C654E5E433CB65A26D9F6EDB5EBC14EBF49A45CB856E66048291F6939A9A81BB5
310
C8917738143CA680F4AA299D66A042CEB3354A2684DC9D8D178FE0D9B8B41CAAD720F880EE7EF93C0C18769E099ECC04D5A102C8049A8A05632F4DDF376CF1DE0F6BB65C2F8627B65A33C6BB62177CEBBDAD973006829F89F22E814B54F4BC2BE347F8AA8F681390B50FA73F804400B5F542E796F19FF974E7F78DB802FE05
310
E207504B0304140006080800CC70623B16AB87BA640500003C100000340000006662782F39464131463745442D413632322D343644302D413938332D3331353338454246344243312F6F626A656374732E786D6CAD575B6FA33818FD2B887DE6924B3BED8A326A92B68A663B534DD4D13E548A0C38942D60649B369D5FBFC7
310
600890A493BDE42160637FD7F31D7FF63E6FB3D478A55C242CBF3247B66B1A340F5994E4F19559CA8D75611A9F7D8F33263BCB4C232719BD32D5B4E97B316765A1A722BA21652A07B3B7B33F0D11D29C9A46981221AE4C113ED38CD8A4942CA2E2C58E882476BCD9DA23BB5ED8171B73523C0F841684D35CC252CCE79062D4
310
468DFA43D7747CCF51DF7D4FFDEB5593E3AB9CCA9FBEFE241792E4E19EB28198C968BAB8199F5D5A67D3E9C49A9E8F47D6EC76B6B0469F26EEFC7C3EBFBCBEB98462213924694B38DD98FE1D62C393D073EA4FADC5DAF04326852CCF6958F90F0F2B9BB5C48816348F90C7840A68EB78EDF68723159BCEE7891A6B95DDE9D3
310
BCEAEEE8086A6C6F9E5D4B59F0175C10A7A0820BAA5055C7473B5AE3CFDD452D602CD5DF12616444529E90D448938013FE6EFA58AA96F85E4F8C42275708571E98FE6827AF6B2B4AE3D7D83D64E5A64C53054DD3AF90BD06FEA9149565C94FCA0F6B834DC85599E4F2423B24DF0B6AFA979E534DFA9E7A4CC6FA631D486393
310
921829879BF5D781A373557BCB85E97FB90DB62B558F8795179C15944B051F40AB495CF35451D26A4727654E6D8033BD98EF82F21D91FF8AF2DD9982BCF1643BDD4EB516C9492E368C67C88DED563FC36D5EACF66DFF057C3658BDBFA69DF9578B3DA735B64F18C7F20770A9D45CFCF7FCF563D6456A277DBEF78A02637CA2
310
43B90A490AEAB94F72244481D24819A6C0E59B606BFA4B3025981DBB48EAB701D97BF19C577CC77F2D1B6C55A9EF3C732474C0B727303F625995056C3B02963D9EAC146BE78EC5FCEC7FA999EBC5EACBAAE41B12D27B4D2C0BBA49F244E2ECDC81B76B502F113D8F5EE8FB1BE3111CDD4FC2AA9B844CAB1288B68AB90A7CDC
310
1C166AB0D3DC5310625FCC14E779BFD0709F8890A629C9292B1B2DED31A4B0DA928CEE135085754027E3018A397D4D5427D15BD1330B677DC8934285AC3DF45A9EB68FF8F2B8FC0A509AFEECFD0FF2DE25CC6047F7214B195F07EFEB9A094D800F7BFAE8FED187B78EA8A3A400F115961BCAD1215E47C966530AF0EE8128FE
310
58CEBB996A8964FFA529A046635D9353B0336A8F700DDF46271A024E70B0B37C9DE01847591E54DED53D54202AB947E4076556AC49C6CA5C9E1226B7F1A7B1BE15DEED62C41B91E1B3E9AFAAA735036547343A925075041DF0A9979E893B391F8FCFA6967B3EFB644DCF6E5CEBFAE272625DCC6FAF3FB93793C5F90CE1EF57
310
407342756B10D1C489E8953CD1617E5CEECAD6F4EF8914CE5D5D504E5C3F1F9736DA62CFC11E00BCDDB8CC8A9466349744C1F75EBDA4DF09BA8A9E8C7A7E9991989E20E5DBDD6A6003664ED8F7A04A8DBE0DF6EAD9B9AA858342E47399053949D2C146EDB85DE4B176BB0965FBAC19BD19AA918E27FA50C1D22402E144464C
310
59462568E704B6E71915404CB72B8FF4EDE184DDAF753F284990D2C6926782963815403548A70C657FDEF80D2D9CEAA2AE4C1C76F60BFE74219A06527D6582DF6412526107381E55E353090704D085B52408D0933C4ED159D79BDA71BB4BC506F4831350EB6F979CD22D69BF7AC49B91A2C0A9DDA3D5CA36AD20FC478E37E6
310
1844E2352865EBCB6EA275A652E3836BE04EFB400BF1A2556F515F1FBB35B2AB35BD889C744FFA1004B5544B121E57F70215746DD2F5E2C1412B602CBF19455AC6C8E5E9922C4E01E65215385004546899059180EAFCF7A707CE7017CD8CDB0410789AB32C63B91E5CEBBBACB17AC6CD347A022D5075FD106377347AAABA7E
310
7D11590744509B44E205134DC1290F06580320F78E537D3D73540E06CB970B431F185308AD40BBD794D6D77003C5A36E8EAA54BA64597CD8F83BD552A080A365F7FF06504B0304140006080000CC70623B000000000000000000000000350000006662782F39464131463745442D413632322D343644302D413938332D3331
310
353338454246344243312F76657274696365732E62696E504B0304140006080800CC70623BF270F1330600000004000000360000006662782F39464131463745442D413632322D343644302D413938332D3331353338454246344243312F747269616E676C65732E62696E636660600000504B0304140006080000CC70623B
310
000000000000000000000000370000006662782F39464131463745442D413632322D343644302D413938332D3331353338454246344243312F617474726962757465732E62696E504B0304140006080800CC70623B08DA0BD19000000041010000360000006662782F39464131463745442D413632322D343644302D413938
310
332D3331353338454246344243312F6469726563746F72792E786D6C858F410AC3201045AF22B36F53E9A60B35CBEEBAE80D244E44489C6234F4F835464A48035D0DF398FF9F8AF63D0E6CC63039F212F8F9020C7D47C6792B21C5FE7403D62A1188E2E60C98D7234A5830286103A55745067B9D86B8A3CF9C7F90C11DE607
310
FB144396D7B6A82D282E9A152AD114D5EF2CB866EEE831B8EEA07A7BB5A8D7D61A2BAAEB7FD5F70921FF497D00504B0304140006080800CC70623B0D6EF93BFE000000A00100003B0000006662782F39464131463745442D413632322D343644302D413938332D3331353338454246344243312F7265736F75726365732F63
310
6F72652E786D6C8D50596E833010BD0A9ADFCA60B334011947A8694ED00B586642AC041B79A97AFC9A40A5F6AF3F33A3B7689E1E3F7DCD8FEC139DD7D6F4C0720A191A65476DA61E62B892236427C19DB5E1970C322367EC618541F0C9D9B8EC90B226A009093576C41D94DE63804C3DD2D18357379C652E63480A7FCF17A9
310
EE72C29CE5894E3AC17D702940B63D59270887DE46A7D0F36263058F518FBB468FE9A7BE6A7420864373B8D4873369AA8691FA421B3294352543C5CAF65C0F6FEF43CB8BD52C78D0F34F46E550061C419494B6843142CB0F5677F4B52BEB177AEC28E5C52AFF638ACBF84F53D42654E51E77B379102C05791282176B5F693D
310
CB4C7BED567C03504B010214000A0000080000CC70623B3DEE336E79000000790000001B00000000000000000000000000000000006175746F6465736B2D64657369676E2D7061636B6167652E786D6C504B01021400140006080800CC70623BD486FD9CA0000000F40000001300000000000000000000000000B20000005B
310
436F6E74656E745F54797065735D2E786D6C504B01021400140006080800CC70623B1EC5D7A3EB0000007C010000080000000000000000000000000083010000636F72652E786D6C504B01021400140006080800CC70623B55019EA25F0000007C000000070000000000000000000000000094020000636E782E786D6C504B
310
01021400140006080800CC70623B8C9102E971010000D40300000C00000000000000000000000000180300006662782F636F72652E786D6C504B01021400140006080800CC70623BFFEA85907E0000009D0000000B00000000000000000000000000B30400006662782F636E782E786D6C504B01021400140006080800CC70
310
623B4FEEA4082C0100001202000031000000000000000000000000005A0500006662782F39464131463745442D413632322D343644302D413938332D3331353338454246344243312F636F72652E786D6C504B01021400140006080800CC70623BAD7543B64E010000330300003000000000000000000000000000D5060000
310
6662782F39464131463745442D413632322D343644302D413938332D3331353338454246344243312F636E782E786D6C504B01021400140006080800CC70623B16AB87BA640500003C1000003400000000000000000000000000710800006662782F39464131463745442D413632322D343644302D413938332D3331353338
310
454246344243312F6F626A656374732E786D6C504B01021400140006080000CC70623B0000000000000000000000003500000000000000000000000000270E00006662782F39464131463745442D413632322D343644302D413938332D3331353338454246344243312F76657274696365732E62696E504B01021400140006
310
080800CC70623BF270F133060000000400000036000000000000000000000000007A0E00006662782F39464131463745442D413632322D343644302D413938332D3331353338454246344243312F747269616E676C65732E62696E504B01021400140006080000CC70623B0000000000000000000000003700000000000000
310
000000000000D40E00006662782F39464131463745442D413632322D343644302D413938332D3331353338454246344243312F617474726962757465732E62696E504B01021400140006080800CC70623B08DA0BD190000000410100003600000000000000000000000000290F00006662782F39464131463745442D413632
310
322D343644302D413938332D3331353338454246344243312F6469726563746F72792E786D6C504B01021400140006080800CC70623B0D6EF93BFE000000A00100003B000000000000000000000000000D1000006662782F39464131463745442D413632322D343644302D413938332D3331353338454246344243312F7265
310
736F75726365732F636F72652E786D6C504B0506000000000E000E0080040000641100000000
  0
XRECORD
  5
175
102
{ACAD_REACTORS
330
173
102
}
330
173
100
AcDbXrecord
280
     1
270
     1
271
     1
  0
XRECORD
  5
174
102
{ACAD_REACTORS
330
173
102
}
330
173
100
AcDbXrecord
280
     1
270
     1
271
     1
  0
XRECORD
  5
1FB
102
{ACAD_REACTORS
330
173
102
}
330
173
100
AcDbXrecord
280
     1
 70
     0
 90
1673772943
  1
ECE7A1D2-D628-4531-984C-D00F80459256
310
504B03040A0000080000CC70623B3DEE336E79000000790000001B0000006175746F6465736B2D64657369676E2D7061636B6167652E786D6C3C3F786D6C2076657273696F6E3D22312E302220656E636F64696E673D227574662D3822203F3E3C666F726D6174733E3C666F726D61743E687474703A2F2F736368656D612E
310
6175746F6465736B2E636F6D2F64657369676E2D7061636B6167652F323030393C2F666F726D61743E3C2F666F726D6174733E504B0304140006080800CC70623BD486FD9CA0000000F4000000130000005B436F6E74656E745F54797065735D2E786D6C7D8EC10E82300C865F65E91D8A1E8C310C0EEA1BF002731658846E
310
D98AC1B77784ABF1D8FE5FBFBF75BBCE937A534CCEB38643598122B6FEE978D0B0485F9C41B54DDD7D022595594E1A469170414C76A4D9A4D207E29CF43ECE46F218070CC6BECC4078ACAA135ACF422C856C0E68EA1BF5669944DDD7BCDE7B1F8E415D77AECB980613C2E4AC91FC167A2B244592486606FC29C8FD7F045B9A
310
EF7053A7E60B504B0304140006080800CC70623BD9DDAED0EC0000007C01000008000000636F72652E786D6C8D90416EC3201045AF82665B61836D9CD8C2444DD39CA01740405C94182C03558F5F9C3852BBEB6A467FFE9B197D7EF89E6EE8CB2CC17A37002D0820E394D7D68D03A478C17B4007C117EFE32F1B20272733C0
310
2A83E0E3E2D3BC49CABB685CCCAAF3DA6CA20CC14440EA969B0182FA34932C648AD911AEC52CD5558EA6A0CF2EC329598D1E47ACCEFBECC59A050463A7EA5833865FEBDD0E37353BE3EE8DBDE3F6786A48D375FBF6CC78B9C282473B3DEFABC5C86834888A900E538A49F5419B9EB47DD5BC907D4F082F57FB1F28CDFA9F50
310
B22ED6D5F6EE030B20687EE43E10BC5CB3C8E51E54AE6B6EE207504B0304140006080800CC70623B55019EA25F0000007C00000007000000636E782E786D6C4DCB3B0E80201045D1AD90E915ED2CF8AC45050C11660C8261F98AB1B07AC9C97D42D718D865D3E909258CFD00CCE24AC6E326A164D74DC0B4128928FF326038
310
472BA13128B1252AC747C6BAB984FC68F0B87FE8960A5C09FE86CFB69FBA01504B0304140006080800CC70623BA24EB22D72010000D40300000C0000006662782F636F72652E786D6CC5535B6E833010BC8AE5DF0A6C5E49888CA3A6694ED00B38E05014B091B1518EDFE511A5A9D228FD2A1F60CDEC7A67C6986DCE4D8D7A
310
69BA4AAB0C073EC548AA5C17952A33ECECD15B61B4E1CC686DBF9561A44423333CC098B3D268D7CE50AE9595CA02AA74216750749DB418E5352C32DCE59FB211BE70162ABA93DF8AFC244AE9073ED050C759670D0840D390E18DF9F1706664C23973AE2A66B62A605A75ACA4C13C4976E1364A12EF355A2EBD384AF65EFA96
310
BC7B8BED2EA6719AAE16FB8491A199335B351775B991C2CA02F390D2D40B028F861F41BCA68B7518BFD0D59A524686F29B26D7164F36B94AD9289CE54E6D1DE6010819891F6E21228B3AD1831EC219194284CF98F06DD01008846CC5A1BEF83801D4CBDC6A1303536877A57A513B0953A94FC707FDBE6064EA84A9E3E6E0FA
310
EE8CF0E9198F7784A316AA0413C2C2F2E0ECA0934D1AE6D05A69BCDE9E91D2A611F573361E38FC1375157F5752AE6B6DFE4B11990F88CCBF0719EE23FF02504B0304140006080800CC70623B408A7D3B7C0000009D0000000B0000006662782F636E782E786D6C4DCCD10A83201886E15B91FFDC552A92A0064DBC8F581632
310
D3703A76F9ABD1C18E3E78F878E5F0D9027ABBFCF2292AE86E2D20171F69F6715550CB827B40839639A5F2770314A7CD293819B45C73AAFB45B35BA61ACAA1C1C7E7855C58C15BC331339661262CC762340413D68D77DA5B42298546CBE6573AF60CEB2F504B0304140006080800CC70623B449FB9BD290100001202000031
310
0000006662782F36394639363044362D344446342D343946362D394244322D3234314243333846323333332F636F72652E786D6C8D515B6EC32010BC0AE22B55850D98B871848994463E412FE002495162B07854397EA176A4F62F3F2C9A9D991D587EB84F37F0AD7D30CEF6905418026DA553C65E7A98E219ED203808EE9D
310
8B7F6810D871D23D2C3014FCE25D9A57483A1BB58D19B54EE9151C43D0110279CB971E06F9A5A7B11A53CC8C70ADE6515EC78BAE4895DB992778883E0700CB907242D17643D7E2538BD869608875438BBAE38922CAC8F1BDD90DB4691A5E2F42C153326A951B95E398B3D1FE599322163C9AE9115F7A3D46ADA0A018778810
310
84E907617BDCEE297BC5BB3DC6BC2EF47FA234AB2745C9D8D8D035EE220B50105E2F0DC1954B9FB747187D9F9D8FA0CCDB042D5FA0C015C65B42DF78BD10F3F3B363CB56C7109DCFDFBBB97E662ED92EB62D13BC2E1BCAE5777DB9966D8A1F504B0304140006080800CC70623BAD7543B64E01000033030000300000006662
310
782F36394639363044362D344446342D343946362D394244322D3234314243333846323333332F636E782E786D6CD593CD6EC32010845F0571AD6CE3D48AD20813A9873E410FBD12D82434182C7EAAE6EDBB2424CD25871E7B41D6EC30B3FA84F9E67BB2E40B4234DE8DB46F1925E094D7C6ED479AD3AE5951B2113C789FEE
310
6C943839C1488B4C05DF079FE72A69D8C96C13AAD6B8631503449F83828872B949AC57D26200B826A308D316B4064D6E46FCDA41C05550DC9E483A00797BFD207EFB092A45DE9514C1BBD22178396BD39D891265658C238DEA00936C654E5E433CB65A26D9F6EDB5EBC14EBF49A45CB856E66048291F6939A9A81BB5C89177
310
38143CA680F4AA299D66A042CEB3354A2684DC9D8D178FE0D9B8B41CAAD720F880EE7EF93C0C18769E099ECC04D5A102C8049A8A05632F4DDF376CF1DE0F6BB65C2F8627B65A33C6BB62177CEBBDAD973006829F89F22E814B54F4BC2BE347F8AA8F681390B50FA73F804400B5F542E796F19FF974E7F78DB802FE05E20750
310
4B0304140006080800CC70623B8D05915C650500003B100000340000006662782F36394639363044362D344446342D343946362D394244322D3234314243333846323333332F6F626A656374732E786D6CAD575B6FA33814FE2B887D06429276DA1565D4266D158D3A339A6846FB502932E050B66023DB74D2FDF5FB190C01
310
9276B2973C046C8ECFF53B17071F77456EBD502133CEAE6CDF9DD81665314F32965ED995DA3A17B6F5310C04E7AA47665B8C14F4CAD6DB7618A48257A5D94AE89654B91AEDDEDDFC61C998326A5B714EA4BCB265FC440BE2924AF184CA6737218AB8E976E7FA6E4338649B0A523E8D98964450A6A029F619B8588D52FE7039
310
B1BD30F0F4F730D0FF866AF6369557DB33949F31A9088B0F848DD8CCFCF9F2767A76E99CCDE733677E3EF59D9BBB9BA5E37F984D16E78BC5E5F5ED25044B25C0C96822E8D60EEFE11B91C581D77CEA34368A1F5329E68CD1B8B61F16D63A1B8E092D294B10C78C4A48EB593D192E7DED9BDEE7995E1B91FDEDD3ACEA9FE831
310
6A756F9F7D4D79F4274C90A7A04248AA51D5F8C718DAE06FB2F75AC4796EBE65D22A88A22223B995679120E2D50E41AA49C260C046A35368846B0BECD0DFF3EBEB8AD4F835768F69B9ADF25C43D30E6B646F807FAA64AD59F61715C7A54127C4AACA98BA3006A9D792DAE165E0D59B61A01FB3A9F9D838D2DAE62445C86166
310
F37564E842E7DE6A69879FEEA2DD5AE7E371E1A5E025154AC307D06A03D73EB5978C58FFA4C8E9033066E0F3BD53BEC1F39F91BE7B55103791EDE6BBB991A2046172CB4581D8B893FA674DDA17A77B3B7C413D1B511FD2743BFF8A38F03A658705E3ADF8015C3A3417FF3D7E439FF591DA0B5F18BC20C1B8981957AE6392A3
310
F43C640C01D1A0B4728E2DD4F26DB4B3C3152A252A3B4E913CEC1C72F012782FF88EFF8637AA552DBEF76408E8A8DE9E50F9E1CB3A2DA0DB1B6039A893B56063DC5B3E3FFB5F72E67AB9FEB4AEC496C4F4C1149625DD662C53E89D7BF0F6151A046260D1337DFDC94502430F83B0EE07A130A224BCAD7DAE1D9FB6CD422FF6
310
920702629C4BB9AE79C12F243C6432A6794E18E5552BA56B431AAB5D91317302B2B071E86C3A42B1A02F999E24061403B5D0EB639195DA655DD3EBEAB4FB862DDF579F014AD0E73C22F99E28DA57FB98E75C6CA2D74D53086D600F4786E0FE3144B771A8A7B900F03594DB8A633CBC49B2EDB69228BB479CF863B5E807AAAB
310
23872F6DFEB4129B949CA33823F58830E86D65621E10047D9DB34D862E8EAC3C2ABC2F7B2C40D67CDFE01F5545B92105AF983AC54D93D69E56FB8E797F88913F898A9FEC705D3F9D1B54EC8426FB500D40A03BD0119B06E1B95DDC7EB8F6975367793EBD70E66733DFB9BC982F9CE564727731999F5D4ECFCE3B8D6A4DC2A0
310
6D50FD148437D110834A64C6CDDF57FBACB5C307A2A477DFE4939736CFEF2B175371E0E10CF0DD1D5C15654E0BCA14D1E87DD02FF93782A162C0A3D95F1524A52770F972BF1EE9809D13CE7DD599467F8ECE9ADD85CE85A34CD45355448C64F9E8A031DC2D596ACC6E5DD93D9B82DE2EF5CAF81363A8E47996A0DE24564A79
310
4115AACE09C55E14540231FDA13C319787134EBF34E3A022514E5B4D9E0826E25C02D5805B15ABE1BEF51B26383D445DD9E875EE33FE4C22DA16427D65A3BCA92CA6D28DD01DF5DC53330704308475351050232CCD31583787BA75774AFB06E5070DD0C8EF484E19968C5D83BA5B90B244D31E54D55A372320FE4786B7EA58
310
44E135AA5467CB7EA333A61683CC6A8C3257034C10CF46F40EF9F5BE59BE5BD30C3C72D235E95D10345C1D45445A5F0BB47E46A5EBE5570F9380B5FA629579952296A773720405982B9DE04011506178964401AA8BDF1FBF0A8EAB6861DD6580C0E38217056766716DAEB2D6FA0917D3E4116581EADB879C4E7CFFB11EFACD
310
3D641311495D92C8676CB409A72D18610D803CE8A626049E8EC1887CB5B44CC39883690DDA8399B4B9855B481E7D71D4A9D22F96E5BB73BF5793020C02137BF837504B0304140006080000CC70623B000000000000000000000000350000006662782F36394639363044362D344446342D343946362D394244322D32343142
310
43333846323333332F76657274696365732E62696E504B0304140006080800CC70623BF270F1330600000004000000360000006662782F36394639363044362D344446342D343946362D394244322D3234314243333846323333332F747269616E676C65732E62696E636660600000504B0304140006080000CC70623B0000
310
00000000000000000000370000006662782F36394639363044362D344446342D343946362D394244322D3234314243333846323333332F617474726962757465732E62696E504B0304140006080800CC70623B08DA0BD19000000041010000360000006662782F36394639363044362D344446342D343946362D394244322D
310
3234314243333846323333332F6469726563746F72792E786D6C858F410AC3201045AF22B36F53E9A60B35CBEEBAE80D244E44489C6234F4F835464A48035D0DF398FF9F8AF63D0E6CC63039F212F8F9020C7D47C6792B21C5FE7403D62A1188E2E60C98D7234A5830286103A55745067B9D86B8A3CF9C7F90C11DE607FB14
310
4396D7B6A82D282E9A152AD114D5EF2CB866EEE831B8EEA07A7BB5A8D7D61A2BAAEB7FD5F70921FF497D00504B0304140006080800CC70623BCA768048FE000000A00100003B0000006662782F36394639363044362D344446342D343946362D394244322D3234314243333846323333332F7265736F75726365732F636F72
310
652E786D6C8D50596E833010BD0A9ADFCA60D600328E9AA639412F609909B1126CE4A5EAF16B0295DABFFECC8CDEA2797AECF8353F924FB44E193D409E5248504B332A3D0D10FC95B4901C39B3C6F85F3248B49871801506CE266BC2B243D2688FDA47549B11775038871E12F988C7004EDE7016A9083E2ADC3D5D84BC8B09
310
D33C8D74D471E6BC8D0192EDC93A815B742658898E651BCB59086ADC356A8C3FD555A1055ED7E7E254D615792D0F075295F585746FF53B694EE78A565DD736979A65AB9933AFE69F8CD2A2F038022F28ED489E135A7CE4554F9BBEA85E68DB53CAB255FEC71496F19FA6A0B42F8B3DEE6673C0F318E4497096AD7DC5F52C33
310
EEB55BFE0D504B010214000A0000080000CC70623B3DEE336E79000000790000001B00000000000000000000000000000000006175746F6465736B2D64657369676E2D7061636B6167652E786D6C504B01021400140006080800CC70623BD486FD9CA0000000F40000001300000000000000000000000000B20000005B436F
310
6E74656E745F54797065735D2E786D6C504B01021400140006080800CC70623BD9DDAED0EC0000007C010000080000000000000000000000000083010000636F72652E786D6C504B01021400140006080800CC70623B55019EA25F0000007C000000070000000000000000000000000095020000636E782E786D6C504B0102
310
1400140006080800CC70623BA24EB22D72010000D40300000C00000000000000000000000000190300006662782F636F72652E786D6C504B01021400140006080800CC70623B408A7D3B7C0000009D0000000B00000000000000000000000000B50400006662782F636E782E786D6C504B01021400140006080800CC70623B
310
449FB9BD290100001202000031000000000000000000000000005A0500006662782F36394639363044362D344446342D343946362D394244322D3234314243333846323333332F636F72652E786D6C504B01021400140006080800CC70623BAD7543B64E010000330300003000000000000000000000000000D20600006662
310
782F36394639363044362D344446342D343946362D394244322D3234314243333846323333332F636E782E786D6C504B01021400140006080800CC70623B8D05915C650500003B10000034000000000000000000000000006E0800006662782F36394639363044362D344446342D343946362D394244322D32343142433338
310
46323333332F6F626A656374732E786D6C504B01021400140006080000CC70623B0000000000000000000000003500000000000000000000000000250E00006662782F36394639363044362D344446342D343946362D394244322D3234314243333846323333332F76657274696365732E62696E504B010214001400060808
310
00CC70623BF270F13306000000040000003600000000000000000000000000780E00006662782F36394639363044362D344446342D343946362D394244322D3234314243333846323333332F747269616E676C65732E62696E504B01021400140006080000CC70623B00000000000000000000000037000000000000000000
310
00000000D20E00006662782F36394639363044362D344446342D343946362D394244322D3234314243333846323333332F617474726962757465732E62696E504B01021400140006080800CC70623B08DA0BD190000000410100003600000000000000000000000000270F00006662782F36394639363044362D344446342D
310
343946362D394244322D3234314243333846323333332F6469726563746F72792E786D6C504B01021400140006080800CC70623BCA768048FE000000A00100003B000000000000000000000000000B1000006662782F36394639363044362D344446342D343946362D394244322D3234314243333846323333332F7265736F
310
75726365732F636F72652E786D6C504B0506000000000E000E0080040000621100000000
  0
XRECORD
  5
176
102
{ACAD_REACTORS
330
173
102
}
330
173
100
AcDbXrecord
280
     1
270
     1
271
     1
  0
XRECORD
  5
177
102
{ACAD_REACTORS
330
173
102
}
330
173
100
AcDbXrecord
280
     1
270
     1
271
     1
  0
XRECORD
  5
1141
102
{ACAD_REACTORS
330
234
102
}
330
234
100
AcDbXrecord
280
     1
102
DISPLAYNAME
  1
Metric50
102
FLAGS
 90
        0
  0
CELLSTYLEMAP
  5
1107
102
{ACAD_REACTORS
330
162
102
}
330
162
100
AcDbCellStyleMap
 90
        3
300
CELLSTYLE
  1
TABLEFORMAT_BEGIN
 90
        5
170
     1
 91
        0
 92
    32768
 62
   257
 93
        1
300
CONTENTFORMAT
  1
CONTENTFORMAT_BEGIN
 90
        0
 91
        0
 92
      512
 93
        0
300

 40
0.0
140
1.0
 94
        5
 62
     0
340
11
144
6.0
309
CONTENTFORMAT_END
171
     1
301
MARGIN
  1
CELLMARGIN_BEGIN
 40
1.5
 40
1.5
 40
1.5
 40
1.5
 40
4.5
 40
4.5
309
CELLMARGIN_END
 94
        6
 95
        1
302
GRIDFORMAT
  1
GRIDFORMAT_BEGIN
 90
        0
 91
        1
 62
     0
 92
       -2
340
14
 93
        0
 40
1.125
309
GRIDFORMAT_END
 95
        2
302
GRIDFORMAT
  1
GRIDFORMAT_BEGIN
 90
        0
 91
        1
 62
     0
 92
       -2
340
14
 93
        0
 40
1.125
309
GRIDFORMAT_END
 95
        4
302
GRIDFORMAT
  1
GRIDFORMAT_BEGIN
 90
        0
 91
        1
 62
     0
 92
       -2
340
14
 93
        0
 40
1.125
309
GRIDFORMAT_END
 95
        8
302
GRIDFORMAT
  1
GRIDFORMAT_BEGIN
 90
        0
 91
        1
 62
     0
 92
       -2
340
14
 93
        0
 40
1.125
309
GRIDFORMAT_END
 95
       16
302
GRIDFORMAT
  1
GRIDFORMAT_BEGIN
 90
        0
 91
        1
 62
     0
 92
       -2
340
14
 93
        0
 40
1.125
309
GRIDFORMAT_END
 95
       32
302
GRIDFORMAT
  1
GRIDFORMAT_BEGIN
 90
        0
 91
        1
 62
     0
 92
       -2
340
14
 93
        0
 40
1.125
309
GRIDFORMAT_END
309
TABLEFORMAT_END
  1
CELLSTYLE_BEGIN
 90
        1
 91
        1
300
_TITLE
309
CELLSTYLE_END
300
CELLSTYLE
  1
TABLEFORMAT_BEGIN
 90
        5
170
     1
 91
        0
 92
        0
 62
   257
 93
        1
300
CONTENTFORMAT
  1
CONTENTFORMAT_BEGIN
 90
        0
 91
        0
 92
      512
 93
        0
300

 40
0.0
140
1.0
 94
        5
 62
     0
340
11
144
4.5
309
CONTENTFORMAT_END
171
     1
301
MARGIN
  1
CELLMARGIN_BEGIN
 40
1.5
 40
1.5
 40
1.5
 40
1.5
 40
4.5
 40
4.5
309
CELLMARGIN_END
 94
        6
 95
        1
302
GRIDFORMAT
  1
GRIDFORMAT_BEGIN
 90
        0
 91
        1
 62
     0
 92
       -2
340
14
 93
        0
 40
1.125
309
GRIDFORMAT_END
 95
        2
302
GRIDFORMAT
  1
GRIDFORMAT_BEGIN
 90
        0
 91
        1
 62
     0
 92
       -2
340
14
 93
        0
 40
1.125
309
GRIDFORMAT_END
 95
        4
302
GRIDFORMAT
  1
GRIDFORMAT_BEGIN
 90
        0
 91
        1
 62
     0
 92
       -2
340
14
 93
        0
 40
1.125
309
GRIDFORMAT_END
 95
        8
302
GRIDFORMAT
  1
GRIDFORMAT_BEGIN
 90
        0
 91
        1
 62
     0
 92
       -2
340
14
 93
        0
 40
1.125
309
GRIDFORMAT_END
 95
       16
302
GRIDFORMAT
  1
GRIDFORMAT_BEGIN
 90
        0
 91
        1
 62
     0
 92
       -2
340
14
 93
        0
 40
1.125
309
GRIDFORMAT_END
 95
       32
302
GRIDFORMAT
  1
GRIDFORMAT_BEGIN
 90
        0
 91
        1
 62
     0
 92
       -2
340
14
 93
        0
 40
1.125
309
GRIDFORMAT_END
309
TABLEFORMAT_END
  1
CELLSTYLE_BEGIN
 90
        2
 91
        1
300
_HEADER
309
CELLSTYLE_END
300
CELLSTYLE
  1
TABLEFORMAT_BEGIN
 90
        5
170
     1
 91
        0
 92
        0
 62
   257
 93
        1
300
CONTENTFORMAT
  1
CONTENTFORMAT_BEGIN
 90
        0
 91
        0
 92
      512
 93
        0
300

 40
0.0
140
1.0
 94
        2
 62
     0
340
11
144
4.5
309
CONTENTFORMAT_END
171
     1
301
MARGIN
  1
CELLMARGIN_BEGIN
 40
1.5
 40
1.5
 40
1.5
 40
1.5
 40
4.5
 40
4.5
309
CELLMARGIN_END
 94
        6
 95
        1
302
GRIDFORMAT
  1
GRIDFORMAT_BEGIN
 90
        0
 91
        1
 62
     0
 92
       -2
340
14
 93
        0
 40
1.125
309
GRIDFORMAT_END
 95
        2
302
GRIDFORMAT
  1
GRIDFORMAT_BEGIN
 90
        0
 91
        1
 62
     0
 92
       -2
340
14
 93
        0
 40
1.125
309
GRIDFORMAT_END
 95
        4
302
GRIDFORMAT
  1
GRIDFORMAT_BEGIN
 90
        0
 91
        1
 62
     0
 92
       -2
340
14
 93
        0
 40
1.125
309
GRIDFORMAT_END
 95
        8
302
GRIDFORMAT
  1
GRIDFORMAT_BEGIN
 90
        0
 91
        1
 62
     0
 92
       -2
340
14
 93
        0
 40
1.125
309
GRIDFORMAT_END
 95
       16
302
GRIDFORMAT
  1
GRIDFORMAT_BEGIN
 90
        0
 91
        1
 62
     0
 92
       -2
340
14
 93
        0
 40
1.125
309
GRIDFORMAT_END
 95
       32
302
GRIDFORMAT
  1
GRIDFORMAT_BEGIN
 90
        0
 91
        1
 62
     0
 92
       -2
340
14
 93
        0
 40
1.125
309
GRIDFORMAT_END
309
TABLEFORMAT_END
  1
CELLSTYLE_BEGIN
 90
        3
 91
        2
300
_DATA
309
CELLSTYLE_END
  0
XRECORD
  5
111C
102
{ACAD_REACTORS
330
111B
102
}
330
111B
100
AcDbXrecord
280
     1
102
RTVSPost2010Prop28
280
     1
102
RTVSPost2010PropOp28
 70
     1
102
RTVSPost2010Prop29
280
     1
102
RTVSPost2010PropOp29
 70
     1
102
RTVSPost2010Prop30
280
     0
102
RTVSPost2010PropOp30
 70
     1
102
RTVSPost2010Prop31
280
     0
102
RTVSPost2010PropOp31
 70
     1
102
RTVSPost2010Prop32
280
     0
102
RTVSPost2010PropOp32
 70
     1
102
RTVSPost2010Prop33
280
     0
102
RTVSPost2010PropOp33
 70
     1
102
RTVSPost2010Prop34
280
     0
102
RTVSPost2010PropOp34
 70
     1
102
RTVSPost2010Prop35
280
     0
102
RTVSPost2010PropOp35
 70
     1
102
RTVSPost2010Prop36
280
     0
102
RTVSPost2010PropOp36
 70
     1
102
RTVSPost2010Prop37
 90
       50
102
RTVSPost2010PropOp37
 70
     1
102
RTVSPost2010Prop38
140
0.0
102
RTVSPost2010PropOp38
 70
     1
102
RTVSPost2010Prop39
140
1.0
102
RTVSPost2010PropOp39
 70
     1
102
RTVSPost2010Prop40
 90
        0
102
RTVSPost2010PropOp40
 70
     1
102
RTVSPost2010Prop41ColorIndex
 90
       18
102
RTVSPost2010Prop41ColorRGB
 90
        0
102
RTVSPost2010PropOp41
 70
     1
102
RTVSPost2010Prop42
 90
       50
102
RTVSPost2010PropOp42
 70
     1
102
RTVSPost2010Prop43
 90
        3
102
RTVSPost2010PropOp43
 70
     1
102
RTVSPost2010Prop44ColorIndex
 90
        5
102
RTVSPost2010Prop44ColorRGB
 90
      255
102
RTVSPost2010PropOp44
 70
     1
102
RTVSPost2010Prop45
280
     0
102
RTVSPost2010PropOp45
 70
     1
102
RTVSPost2010Prop46
 90
       50
102
RTVSPost2010PropOp46
 70
     1
102
RTVSPost2010Prop47
 90
       50
102
RTVSPost2010PropOp47
 70
     1
102
RTVSPost2010Prop48
 90
       50
102
RTVSPost2010PropOp48
 70
     1
102
RTVSPost2010Prop49
280
     0
102
RTVSPost2010PropOp49
 70
     1
102
RTVSPost2010Prop50
 90
       50
102
RTVSPost2010PropOp50
 70
     1
102
RTVSPost2010Prop51ColorIndex
 90
      256
102
RTVSPost2010Prop51ColorRGB
 90
-16777216
102
RTVSPost2010PropOp51
 70
     0
102
RTVSPost2010Prop52
140
1.0
102
RTVSPost2010PropOp52
 70
     0
102
RTVSPost2010Prop53
 90
        2
102
RTVSPost2010PropOp53
 70
     1
102
RTVSPost2010Prop54
  1
strokes_ogs.tif
102
RTVSPost2010PropOp54
 70
     1
102
RTVSPost2010Prop55
280
     0
102
RTVSPost2010PropOp55
 70
     1
102
RTVSPost2010Prop56
140
1.0
102
RTVSPost2010PropOp56
 70
     1
102
RTVSPost2010Prop57
140
1.0
102
RTVSPost2010PropOp57
 70
     1
  0
XRECORD
  5
111A
102
{ACAD_REACTORS
330
1119
102
}
330
1119
100
AcDbXrecord
280
     1
102
RTVSPost2010Prop28
280
     0
102
RTVSPost2010PropOp28
 70
     1
102
RTVSPost2010Prop29
280
     1
102
RTVSPost2010PropOp29
 70
     1
102
RTVSPost2010Prop30
280
     1
102
RTVSPost2010PropOp30
 70
     1
102
RTVSPost2010Prop31
280
     0
102
RTVSPost2010PropOp31
 70
     1
102
RTVSPost2010Prop32
280
     0
102
RTVSPost2010PropOp32
 70
     1
102
RTVSPost2010Prop33
280
     0
102
RTVSPost2010PropOp33
 70
     1
102
RTVSPost2010Prop34
280
     0
102
RTVSPost2010PropOp34
 70
     1
102
RTVSPost2010Prop35
280
     0
102
RTVSPost2010PropOp35
 70
     1
102
RTVSPost2010Prop36
280
     0
102
RTVSPost2010PropOp36
 70
     1
102
RTVSPost2010Prop37
 90
       50
102
RTVSPost2010PropOp37
 70
     1
102
RTVSPost2010Prop38
140
0.0
102
RTVSPost2010PropOp38
 70
     1
102
RTVSPost2010Prop39
140
1.0
102
RTVSPost2010PropOp39
 70
     1
102
RTVSPost2010Prop40
 90
        0
102
RTVSPost2010PropOp40
 70
     1
102
RTVSPost2010Prop41ColorIndex
 90
       18
102
RTVSPost2010Prop41ColorRGB
 90
        0
102
RTVSPost2010PropOp41
 70
     1
102
RTVSPost2010Prop42
 90
       50
102
RTVSPost2010PropOp42
 70
     1
102
RTVSPost2010Prop43
 90
        3
102
RTVSPost2010PropOp43
 70
     1
102
RTVSPost2010Prop44ColorIndex
 90
        5
102
RTVSPost2010Prop44ColorRGB
 90
      255
102
RTVSPost2010PropOp44
 70
     1
102
RTVSPost2010Prop45
280
     0
102
RTVSPost2010PropOp45
 70
     1
102
RTVSPost2010Prop46
 90
       50
102
RTVSPost2010PropOp46
 70
     1
102
RTVSPost2010Prop47
 90
       50
102
RTVSPost2010PropOp47
 70
     1
102
RTVSPost2010Prop48
 90
       50
102
RTVSPost2010PropOp48
 70
     1
102
RTVSPost2010Prop49
280
     0
102
RTVSPost2010PropOp49
 70
     1
102
RTVSPost2010Prop50
 90
       50
102
RTVSPost2010PropOp50
 70
     1
102
RTVSPost2010Prop51ColorIndex
 90
      256
102
RTVSPost2010Prop51ColorRGB
 90
-16777216
102
RTVSPost2010PropOp51
 70
     0
102
RTVSPost2010Prop52
140
1.0
102
RTVSPost2010PropOp52
 70
     0
102
RTVSPost2010Prop53
 90
        2
102
RTVSPost2010PropOp53
 70
     1
102
RTVSPost2010Prop54
  1
strokes_ogs.tif
102
RTVSPost2010PropOp54
 70
     1
102
RTVSPost2010Prop55
280
     0
102
RTVSPost2010PropOp55
 70
     1
102
RTVSPost2010Prop56
140
1.0
102
RTVSPost2010PropOp56
 70
     1
102
RTVSPost2010Prop57
140
1.0
102
RTVSPost2010PropOp57
 70
     1
  0
XRECORD
  5
1128
102
{ACAD_REACTORS
330
1127
102
}
330
1127
100
AcDbXrecord
280
     1
102
RTVSPost2010Prop28
280
     0
102
RTVSPost2010PropOp28
 70
     1
102
RTVSPost2010Prop29
280
     1
102
RTVSPost2010PropOp29
 70
     1
102
RTVSPost2010Prop30
280
     1
102
RTVSPost2010PropOp30
 70
     1
102
RTVSPost2010Prop31
280
     0
102
RTVSPost2010PropOp31
 70
     1
102
RTVSPost2010Prop32
280
     0
102
RTVSPost2010PropOp32
 70
     1
102
RTVSPost2010Prop33
280
     0
102
RTVSPost2010PropOp33
 70
     1
102
RTVSPost2010Prop34
280
     0
102
RTVSPost2010PropOp34
 70
     1
102
RTVSPost2010Prop35
280
     0
102
RTVSPost2010PropOp35
 70
     1
102
RTVSPost2010Prop36
280
     0
102
RTVSPost2010PropOp36
 70
     1
102
RTVSPost2010Prop37
 90
       50
102
RTVSPost2010PropOp37
 70
     1
102
RTVSPost2010Prop38
140
0.0
102
RTVSPost2010PropOp38
 70
     1
102
RTVSPost2010Prop39
140
1.0
102
RTVSPost2010PropOp39
 70
     1
102
RTVSPost2010Prop40
 90
        0
102
RTVSPost2010PropOp40
 70
     1
102
RTVSPost2010Prop41ColorIndex
 90
       18
102
RTVSPost2010Prop41ColorRGB
 90
        0
102
RTVSPost2010PropOp41
 70
     1
102
RTVSPost2010Prop42
 90
       50
102
RTVSPost2010PropOp42
 70
     1
102
RTVSPost2010Prop43
 90
        3
102
RTVSPost2010PropOp43
 70
     1
102
RTVSPost2010Prop44ColorIndex
 90
        5
102
RTVSPost2010Prop44ColorRGB
 90
      255
102
RTVSPost2010PropOp44
 70
     1
102
RTVSPost2010Prop45
280
     0
102
RTVSPost2010PropOp45
 70
     1
102
RTVSPost2010Prop46
 90
       50
102
RTVSPost2010PropOp46
 70
     1
102
RTVSPost2010Prop47
 90
       50
102
RTVSPost2010PropOp47
 70
     1
102
RTVSPost2010Prop48
 90
       50
102
RTVSPost2010PropOp48
 70
     1
102
RTVSPost2010Prop49
280
     0
102
RTVSPost2010PropOp49
 70
     1
102
RTVSPost2010Prop50
 90
       50
102
RTVSPost2010PropOp50
 70
     1
102
RTVSPost2010Prop51ColorIndex
 90
      256
102
RTVSPost2010Prop51ColorRGB
 90
-16777216
102
RTVSPost2010PropOp51
 70
     0
102
RTVSPost2010Prop52
140
1.0
102
RTVSPost2010PropOp52
 70
     0
102
RTVSPost2010Prop53
 90
        2
102
RTVSPost2010PropOp53
 70
     1
102
RTVSPost2010Prop54
  1
strokes_ogs.tif
102
RTVSPost2010PropOp54
 70
     1
102
RTVSPost2010Prop55
280
     0
102
RTVSPost2010PropOp55
 70
     1
102
RTVSPost2010Prop56
140
1.0
102
RTVSPost2010PropOp56
 70
     1
102
RTVSPost2010Prop57
140
1.0
102
RTVSPost2010PropOp57
 70
     1
  0
XRECORD
  5
1130
102
{ACAD_REACTORS
330
112F
102
}
330
112F
100
AcDbXrecord
280
     1
102
RTVSPost2010Prop28
280
     0
102
RTVSPost2010PropOp28
 70
     1
102
RTVSPost2010Prop29
280
     1
102
RTVSPost2010PropOp29
 70
     1
102
RTVSPost2010Prop30
280
     1
102
RTVSPost2010PropOp30
 70
     1
102
RTVSPost2010Prop31
280
     0
102
RTVSPost2010PropOp31
 70
     1
102
RTVSPost2010Prop32
280
     0
102
RTVSPost2010PropOp32
 70
     1
102
RTVSPost2010Prop33
280
     0
102
RTVSPost2010PropOp33
 70
     1
102
RTVSPost2010Prop34
280
     0
102
RTVSPost2010PropOp34
 70
     1
102
RTVSPost2010Prop35
280
     0
102
RTVSPost2010PropOp35
 70
     1
102
RTVSPost2010Prop36
280
     0
102
RTVSPost2010PropOp36
 70
     1
102
RTVSPost2010Prop37
 90
       50
102
RTVSPost2010PropOp37
 70
     1
102
RTVSPost2010Prop38
140
0.0
102
RTVSPost2010PropOp38
 70
     1
102
RTVSPost2010Prop39
140
1.0
102
RTVSPost2010PropOp39
 70
     1
102
RTVSPost2010Prop40
 90
        0
102
RTVSPost2010PropOp40
 70
     1
102
RTVSPost2010Prop41ColorIndex
 90
       18
102
RTVSPost2010Prop41ColorRGB
 90
        0
102
RTVSPost2010PropOp41
 70
     1
102
RTVSPost2010Prop42
 90
       50
102
RTVSPost2010PropOp42
 70
     1
102
RTVSPost2010Prop43
 90
        3
102
RTVSPost2010PropOp43
 70
     1
102
RTVSPost2010Prop44ColorIndex
 90
        5
102
RTVSPost2010Prop44ColorRGB
 90
      255
102
RTVSPost2010PropOp44
 70
     1
102
RTVSPost2010Prop45
280
     0
102
RTVSPost2010PropOp45
 70
     1
102
RTVSPost2010Prop46
 90
       50
102
RTVSPost2010PropOp46
 70
     1
102
RTVSPost2010Prop47
 90
       50
102
RTVSPost2010PropOp47
 70
     1
102
RTVSPost2010Prop48
 90
       50
102
RTVSPost2010PropOp48
 70
     1
102
RTVSPost2010Prop49
280
     0
102
RTVSPost2010PropOp49
 70
     1
102
RTVSPost2010Prop50
 90
       50
102
RTVSPost2010PropOp50
 70
     1
102
RTVSPost2010Prop51ColorIndex
 90
      256
102
RTVSPost2010Prop51ColorRGB
 90
-16777216
102
RTVSPost2010PropOp51
 70
     0
102
RTVSPost2010Prop52
140
1.0
102
RTVSPost2010PropOp52
 70
     0
102
RTVSPost2010Prop53
 90
        2
102
RTVSPost2010PropOp53
 70
     1
102
RTVSPost2010Prop54
  1
strokes_ogs.tif
102
RTVSPost2010PropOp54
 70
     1
102
RTVSPost2010Prop55
280
     0
102
RTVSPost2010PropOp55
 70
     1
102
RTVSPost2010Prop56
140
1.0
102
RTVSPost2010PropOp56
 70
     1
102
RTVSPost2010Prop57
140
1.0
102
RTVSPost2010PropOp57
 70
     1
  0
XRECORD
  5
1122
102
{ACAD_REACTORS
330
1121
102
}
330
1121
100
AcDbXrecord
280
     1
102
RTVSPost2010Prop28
280
     0
102
RTVSPost2010PropOp28
 70
     1
102
RTVSPost2010Prop29
280
     1
102
RTVSPost2010PropOp29
 70
     1
102
RTVSPost2010Prop30
280
     1
102
RTVSPost2010PropOp30
 70
     1
102
RTVSPost2010Prop31
280
     0
102
RTVSPost2010PropOp31
 70
     1
102
RTVSPost2010Prop32
280
     0
102
RTVSPost2010PropOp32
 70
     1
102
RTVSPost2010Prop33
280
     0
102
RTVSPost2010PropOp33
 70
     1
102
RTVSPost2010Prop34
280
     0
102
RTVSPost2010PropOp34
 70
     1
102
RTVSPost2010Prop35
280
     0
102
RTVSPost2010PropOp35
 70
     1
102
RTVSPost2010Prop36
280
     0
102
RTVSPost2010PropOp36
 70
     1
102
RTVSPost2010Prop37
 90
       50
102
RTVSPost2010PropOp37
 70
     1
102
RTVSPost2010Prop38
140
0.0
102
RTVSPost2010PropOp38
 70
     1
102
RTVSPost2010Prop39
140
1.0
102
RTVSPost2010PropOp39
 70
     1
102
RTVSPost2010Prop40
 90
        0
102
RTVSPost2010PropOp40
 70
     1
102
RTVSPost2010Prop41ColorIndex
 90
       18
102
RTVSPost2010Prop41ColorRGB
 90
        0
102
RTVSPost2010PropOp41
 70
     1
102
RTVSPost2010Prop42
 90
       50
102
RTVSPost2010PropOp42
 70
     1
102
RTVSPost2010Prop43
 90
        3
102
RTVSPost2010PropOp43
 70
     1
102
RTVSPost2010Prop44ColorIndex
 90
        5
102
RTVSPost2010Prop44ColorRGB
 90
      255
102
RTVSPost2010PropOp44
 70
     1
102
RTVSPost2010Prop45
280
     0
102
RTVSPost2010PropOp45
 70
     1
102
RTVSPost2010Prop46
 90
       50
102
RTVSPost2010PropOp46
 70
     1
102
RTVSPost2010Prop47
 90
       50
102
RTVSPost2010PropOp47
 70
     1
102
RTVSPost2010Prop48
 90
       50
102
RTVSPost2010PropOp48
 70
     1
102
RTVSPost2010Prop49
280
     0
102
RTVSPost2010PropOp49
 70
     1
102
RTVSPost2010Prop50
 90
       50
102
RTVSPost2010PropOp50
 70
     1
102
RTVSPost2010Prop51ColorIndex
 90
      256
102
RTVSPost2010Prop51ColorRGB
 90
-16777216
102
RTVSPost2010PropOp51
 70
     0
102
RTVSPost2010Prop52
140
1.0
102
RTVSPost2010PropOp52
 70
     0
102
RTVSPost2010Prop53
 90
        2
102
RTVSPost2010PropOp53
 70
     1
102
RTVSPost2010Prop54
  1
strokes_ogs.tif
102
RTVSPost2010PropOp54
 70
     1
102
RTVSPost2010Prop55
280
     0
102
RTVSPost2010PropOp55
 70
     1
102
RTVSPost2010Prop56
140
1.0
102
RTVSPost2010PropOp56
 70
     1
102
RTVSPost2010Prop57
140
1.0
102
RTVSPost2010PropOp57
 70
     1
  0
XRECORD
  5
1126
102
{ACAD_REACTORS
330
1125
102
}
330
1125
100
AcDbXrecord
280
     1
102
RTVSPost2010Prop28
280
     0
102
RTVSPost2010PropOp28
 70
     1
102
RTVSPost2010Prop29
280
     1
102
RTVSPost2010PropOp29
 70
     1
102
RTVSPost2010Prop30
280
     1
102
RTVSPost2010PropOp30
 70
     1
102
RTVSPost2010Prop31
280
     0
102
RTVSPost2010PropOp31
 70
     1
102
RTVSPost2010Prop32
280
     0
102
RTVSPost2010PropOp32
 70
     1
102
RTVSPost2010Prop33
280
     0
102
RTVSPost2010PropOp33
 70
     1
102
RTVSPost2010Prop34
280
     0
102
RTVSPost2010PropOp34
 70
     1
102
RTVSPost2010Prop35
280
     0
102
RTVSPost2010PropOp35
 70
     1
102
RTVSPost2010Prop36
280
     0
102
RTVSPost2010PropOp36
 70
     1
102
RTVSPost2010Prop37
 90
       50
102
RTVSPost2010PropOp37
 70
     1
102
RTVSPost2010Prop38
140
0.0
102
RTVSPost2010PropOp38
 70
     1
102
RTVSPost2010Prop39
140
1.0
102
RTVSPost2010PropOp39
 70
     1
102
RTVSPost2010Prop40
 90
        0
102
RTVSPost2010PropOp40
 70
     1
102
RTVSPost2010Prop41ColorIndex
 90
       18
102
RTVSPost2010Prop41ColorRGB
 90
        0
102
RTVSPost2010PropOp41
 70
     1
102
RTVSPost2010Prop42
 90
       50
102
RTVSPost2010PropOp42
 70
     1
102
RTVSPost2010Prop43
 90
        3
102
RTVSPost2010PropOp43
 70
     1
102
RTVSPost2010Prop44ColorIndex
 90
        5
102
RTVSPost2010Prop44ColorRGB
 90
      255
102
RTVSPost2010PropOp44
 70
     1
102
RTVSPost2010Prop45
280
     0
102
RTVSPost2010PropOp45
 70
     1
102
RTVSPost2010Prop46
 90
       50
102
RTVSPost2010PropOp46
 70
     1
102
RTVSPost2010Prop47
 90
       50
102
RTVSPost2010PropOp47
 70
     1
102
RTVSPost2010Prop48
 90
       50
102
RTVSPost2010PropOp48
 70
     1
102
RTVSPost2010Prop49
280
     0
102
RTVSPost2010PropOp49
 70
     1
102
RTVSPost2010Prop50
 90
       50
102
RTVSPost2010PropOp50
 70
     1
102
RTVSPost2010Prop51ColorIndex
 90
      256
102
RTVSPost2010Prop51ColorRGB
 90
-16777216
102
RTVSPost2010PropOp51
 70
     0
102
RTVSPost2010Prop52
140
1.0
102
RTVSPost2010PropOp52
 70
     0
102
RTVSPost2010Prop53
 90
        2
102
RTVSPost2010PropOp53
 70
     1
102
RTVSPost2010Prop54
  1
strokes_ogs.tif
102
RTVSPost2010PropOp54
 70
     1
102
RTVSPost2010Prop55
280
     0
102
RTVSPost2010PropOp55
 70
     1
102
RTVSPost2010Prop56
140
1.0
102
RTVSPost2010PropOp56
 70
     1
102
RTVSPost2010Prop57
140
1.0
102
RTVSPost2010PropOp57
 70
     1
  0
XRECORD
  5
1136
102
{ACAD_REACTORS
330
1135
102
}
330
1135
100
AcDbXrecord
280
     1
102
RTVSPost2010Prop28
280
     0
102
RTVSPost2010PropOp28
 70
     1
102
RTVSPost2010Prop29
280
     1
102
RTVSPost2010PropOp29
 70
     1
102
RTVSPost2010Prop30
280
     1
102
RTVSPost2010PropOp30
 70
     1
102
RTVSPost2010Prop31
280
     0
102
RTVSPost2010PropOp31
 70
     1
102
RTVSPost2010Prop32
280
     0
102
RTVSPost2010PropOp32
 70
     1
102
RTVSPost2010Prop33
280
     0
102
RTVSPost2010PropOp33
 70
     1
102
RTVSPost2010Prop34
280
     0
102
RTVSPost2010PropOp34
 70
     1
102
RTVSPost2010Prop35
280
     0
102
RTVSPost2010PropOp35
 70
     1
102
RTVSPost2010Prop36
280
     0
102
RTVSPost2010PropOp36
 70
     1
102
RTVSPost2010Prop37
 90
       50
102
RTVSPost2010PropOp37
 70
     1
102
RTVSPost2010Prop38
140
0.0
102
RTVSPost2010PropOp38
 70
     1
102
RTVSPost2010Prop39
140
1.0
102
RTVSPost2010PropOp39
 70
     1
102
RTVSPost2010Prop40
 90
        0
102
RTVSPost2010PropOp40
 70
     1
102
RTVSPost2010Prop41ColorIndex
 90
       18
102
RTVSPost2010Prop41ColorRGB
 90
        0
102
RTVSPost2010PropOp41
 70
     1
102
RTVSPost2010Prop42
 90
       50
102
RTVSPost2010PropOp42
 70
     1
102
RTVSPost2010Prop43
 90
        3
102
RTVSPost2010PropOp43
 70
     1
102
RTVSPost2010Prop44ColorIndex
 90
        5
102
RTVSPost2010Prop44ColorRGB
 90
      255
102
RTVSPost2010PropOp44
 70
     1
102
RTVSPost2010Prop45
280
     0
102
RTVSPost2010PropOp45
 70
     1
102
RTVSPost2010Prop46
 90
       50
102
RTVSPost2010PropOp46
 70
     1
102
RTVSPost2010Prop47
 90
       50
102
RTVSPost2010PropOp47
 70
     1
102
RTVSPost2010Prop48
 90
       50
102
RTVSPost2010PropOp48
 70
     1
102
RTVSPost2010Prop49
280
     0
102
RTVSPost2010PropOp49
 70
     1
102
RTVSPost2010Prop50
 90
       50
102
RTVSPost2010PropOp50
 70
     1
102
RTVSPost2010Prop51ColorIndex
 90
      256
102
RTVSPost2010Prop51ColorRGB
 90
-16777216
102
RTVSPost2010PropOp51
 70
     0
102
RTVSPost2010Prop52
140
1.0
102
RTVSPost2010PropOp52
 70
     0
102
RTVSPost2010Prop53
 90
        2
102
RTVSPost2010PropOp53
 70
     1
102
RTVSPost2010Prop54
  1
strokes_ogs.tif
102
RTVSPost2010PropOp54
 70
     1
102
RTVSPost2010Prop55
280
     0
102
RTVSPost2010PropOp55
 70
     1
102
RTVSPost2010Prop56
140
1.0
102
RTVSPost2010PropOp56
 70
     1
102
RTVSPost2010Prop57
140
1.0
102
RTVSPost2010PropOp57
 70
     1
  0
XRECORD
  5
112E
102
{ACAD_REACTORS
330
112D
102
}
330
112D
100
AcDbXrecord
280
     1
102
RTVSPost2010Prop28
280
     0
102
RTVSPost2010PropOp28
 70
     1
102
RTVSPost2010Prop29
280
     1
102
RTVSPost2010PropOp29
 70
     1
102
RTVSPost2010Prop30
280
     1
102
RTVSPost2010PropOp30
 70
     1
102
RTVSPost2010Prop31
280
     0
102
RTVSPost2010PropOp31
 70
     1
102
RTVSPost2010Prop32
280
     0
102
RTVSPost2010PropOp32
 70
     1
102
RTVSPost2010Prop33
280
     0
102
RTVSPost2010PropOp33
 70
     1
102
RTVSPost2010Prop34
280
     0
102
RTVSPost2010PropOp34
 70
     1
102
RTVSPost2010Prop35
280
     0
102
RTVSPost2010PropOp35
 70
     1
102
RTVSPost2010Prop36
280
     0
102
RTVSPost2010PropOp36
 70
     1
102
RTVSPost2010Prop37
 90
       50
102
RTVSPost2010PropOp37
 70
     1
102
RTVSPost2010Prop38
140
0.0
102
RTVSPost2010PropOp38
 70
     1
102
RTVSPost2010Prop39
140
1.0
102
RTVSPost2010PropOp39
 70
     1
102
RTVSPost2010Prop40
 90
        0
102
RTVSPost2010PropOp40
 70
     1
102
RTVSPost2010Prop41ColorIndex
 90
       18
102
RTVSPost2010Prop41ColorRGB
 90
        0
102
RTVSPost2010PropOp41
 70
     1
102
RTVSPost2010Prop42
 90
       50
102
RTVSPost2010PropOp42
 70
     1
102
RTVSPost2010Prop43
 90
        3
102
RTVSPost2010PropOp43
 70
     1
102
RTVSPost2010Prop44ColorIndex
 90
        5
102
RTVSPost2010Prop44ColorRGB
 90
      255
102
RTVSPost2010PropOp44
 70
     1
102
RTVSPost2010Prop45
280
     0
102
RTVSPost2010PropOp45
 70
     1
102
RTVSPost2010Prop46
 90
       50
102
RTVSPost2010PropOp46
 70
     1
102
RTVSPost2010Prop47
 90
       50
102
RTVSPost2010PropOp47
 70
     1
102
RTVSPost2010Prop48
 90
       50
102
RTVSPost2010PropOp48
 70
     1
102
RTVSPost2010Prop49
280
     0
102
RTVSPost2010PropOp49
 70
     1
102
RTVSPost2010Prop50
 90
       50
102
RTVSPost2010PropOp50
 70
     1
102
RTVSPost2010Prop51ColorIndex
 90
      256
102
RTVSPost2010Prop51ColorRGB
 90
-16777216
102
RTVSPost2010PropOp51
 70
     0
102
RTVSPost2010Prop52
140
1.0
102
RTVSPost2010PropOp52
 70
     0
102
RTVSPost2010Prop53
 90
        2
102
RTVSPost2010PropOp53
 70
     1
102
RTVSPost2010Prop54
  1
strokes_ogs.tif
102
RTVSPost2010PropOp54
 70
     1
102
RTVSPost2010Prop55
280
     0
102
RTVSPost2010PropOp55
 70
     1
102
RTVSPost2010Prop56
140
1.0
102
RTVSPost2010PropOp56
 70
     1
102
RTVSPost2010Prop57
140
1.0
102
RTVSPost2010PropOp57
 70
     1
  0
XRECORD
  5
1112
102
{ACAD_REACTORS
330
1111
102
}
330
1111
100
AcDbXrecord
280
     1
102
RTVSPost2010Prop28
280
     0
102
RTVSPost2010PropOp28
 70
     1
102
RTVSPost2010Prop29
280
     1
102
RTVSPost2010PropOp29
 70
     1
102
RTVSPost2010Prop30
280
     1
102
RTVSPost2010PropOp30
 70
     1
102
RTVSPost2010Prop31
280
     0
102
RTVSPost2010PropOp31
 70
     1
102
RTVSPost2010Prop32
280
     0
102
RTVSPost2010PropOp32
 70
     1
102
RTVSPost2010Prop33
280
     0
102
RTVSPost2010PropOp33
 70
     1
102
RTVSPost2010Prop34
280
     0
102
RTVSPost2010PropOp34
 70
     1
102
RTVSPost2010Prop35
280
     0
102
RTVSPost2010PropOp35
 70
     1
102
RTVSPost2010Prop36
280
     0
102
RTVSPost2010PropOp36
 70
     1
102
RTVSPost2010Prop37
 90
       50
102
RTVSPost2010PropOp37
 70
     1
102
RTVSPost2010Prop38
140
0.0
102
RTVSPost2010PropOp38
 70
     1
102
RTVSPost2010Prop39
140
1.0
102
RTVSPost2010PropOp39
 70
     1
102
RTVSPost2010Prop40
 90
        0
102
RTVSPost2010PropOp40
 70
     1
102
RTVSPost2010Prop41ColorIndex
 90
       18
102
RTVSPost2010Prop41ColorRGB
 90
        0
102
RTVSPost2010PropOp41
 70
     1
102
RTVSPost2010Prop42
 90
       50
102
RTVSPost2010PropOp42
 70
     1
102
RTVSPost2010Prop43
 90
        3
102
RTVSPost2010PropOp43
 70
     1
102
RTVSPost2010Prop44ColorIndex
 90
        5
102
RTVSPost2010Prop44ColorRGB
 90
      255
102
RTVSPost2010PropOp44
 70
     1
102
RTVSPost2010Prop45
280
     0
102
RTVSPost2010PropOp45
 70
     1
102
RTVSPost2010Prop46
 90
       50
102
RTVSPost2010PropOp46
 70
     1
102
RTVSPost2010Prop47
 90
       50
102
RTVSPost2010PropOp47
 70
     1
102
RTVSPost2010Prop48
 90
       50
102
RTVSPost2010PropOp48
 70
     1
102
RTVSPost2010Prop49
280
     0
102
RTVSPost2010PropOp49
 70
     1
102
RTVSPost2010Prop50
 90
       50
102
RTVSPost2010PropOp50
 70
     1
102
RTVSPost2010Prop51ColorIndex
 90
      256
102
RTVSPost2010Prop51ColorRGB
 90
-16777216
102
RTVSPost2010PropOp51
 70
     0
102
RTVSPost2010Prop52
140
1.0
102
RTVSPost2010PropOp52
 70
     0
102
RTVSPost2010Prop53
 90
        2
102
RTVSPost2010PropOp53
 70
     1
102
RTVSPost2010Prop54
  1
strokes_ogs.tif
102
RTVSPost2010PropOp54
 70
     1
102
RTVSPost2010Prop55
280
     0
102
RTVSPost2010PropOp55
 70
     1
102
RTVSPost2010Prop56
140
1.0
102
RTVSPost2010PropOp56
 70
     1
102
RTVSPost2010Prop57
140
1.0
102
RTVSPost2010PropOp57
 70
     1
  0
XRECORD
  5
1114
102
{ACAD_REACTORS
330
1113
102
}
330
1113
100
AcDbXrecord
280
     1
102
RTVSPost2010Prop28
280
     0
102
RTVSPost2010PropOp28
 70
     1
102
RTVSPost2010Prop29
280
     1
102
RTVSPost2010PropOp29
 70
     1
102
RTVSPost2010Prop30
280
     1
102
RTVSPost2010PropOp30
 70
     1
102
RTVSPost2010Prop31
280
     0
102
RTVSPost2010PropOp31
 70
     1
102
RTVSPost2010Prop32
280
     0
102
RTVSPost2010PropOp32
 70
     1
102
RTVSPost2010Prop33
280
     0
102
RTVSPost2010PropOp33
 70
     1
102
RTVSPost2010Prop34
280
     0
102
RTVSPost2010PropOp34
 70
     1
102
RTVSPost2010Prop35
280
     0
102
RTVSPost2010PropOp35
 70
     1
102
RTVSPost2010Prop36
280
     0
102
RTVSPost2010PropOp36
 70
     1
102
RTVSPost2010Prop37
 90
       50
102
RTVSPost2010PropOp37
 70
     1
102
RTVSPost2010Prop38
140
0.0
102
RTVSPost2010PropOp38
 70
     1
102
RTVSPost2010Prop39
140
1.0
102
RTVSPost2010PropOp39
 70
     1
102
RTVSPost2010Prop40
 90
        0
102
RTVSPost2010PropOp40
 70
     1
102
RTVSPost2010Prop41ColorIndex
 90
       18
102
RTVSPost2010Prop41ColorRGB
 90
        0
102
RTVSPost2010PropOp41
 70
     1
102
RTVSPost2010Prop42
 90
       50
102
RTVSPost2010PropOp42
 70
     1
102
RTVSPost2010Prop43
 90
        3
102
RTVSPost2010PropOp43
 70
     1
102
RTVSPost2010Prop44ColorIndex
 90
        5
102
RTVSPost2010Prop44ColorRGB
 90
      255
102
RTVSPost2010PropOp44
 70
     1
102
RTVSPost2010Prop45
280
     0
102
RTVSPost2010PropOp45
 70
     1
102
RTVSPost2010Prop46
 90
       50
102
RTVSPost2010PropOp46
 70
     1
102
RTVSPost2010Prop47
 90
       50
102
RTVSPost2010PropOp47
 70
     1
102
RTVSPost2010Prop48
 90
       50
102
RTVSPost2010PropOp48
 70
     1
102
RTVSPost2010Prop49
280
     0
102
RTVSPost2010PropOp49
 70
     1
102
RTVSPost2010Prop50
 90
       50
102
RTVSPost2010PropOp50
 70
     1
102
RTVSPost2010Prop51ColorIndex
 90
      256
102
RTVSPost2010Prop51ColorRGB
 90
-16777216
102
RTVSPost2010PropOp51
 70
     0
102
RTVSPost2010Prop52
140
1.0
102
RTVSPost2010PropOp52
 70
     0
102
RTVSPost2010Prop53
 90
        2
102
RTVSPost2010PropOp53
 70
     1
102
RTVSPost2010Prop54
  1
strokes_ogs.tif
102
RTVSPost2010PropOp54
 70
     1
102
RTVSPost2010Prop55
280
     0
102
RTVSPost2010PropOp55
 70
     1
102
RTVSPost2010Prop56
140
1.0
102
RTVSPost2010PropOp56
 70
     1
102
RTVSPost2010Prop57
140
1.0
102
RTVSPost2010PropOp57
 70
     1
  0
XRECORD
  5
1116
102
{ACAD_REACTORS
330
1115
102
}
330
1115
100
AcDbXrecord
280
     1
102
RTVSPost2010Prop28
280
     0
102
RTVSPost2010PropOp28
 70
     1
102
RTVSPost2010Prop29
280
     1
102
RTVSPost2010PropOp29
 70
     1
102
RTVSPost2010Prop30
280
     1
102
RTVSPost2010PropOp30
 70
     1
102
RTVSPost2010Prop31
280
     0
102
RTVSPost2010PropOp31
 70
     1
102
RTVSPost2010Prop32
280
     0
102
RTVSPost2010PropOp32
 70
     1
102
RTVSPost2010Prop33
280
     0
102
RTVSPost2010PropOp33
 70
     1
102
RTVSPost2010Prop34
280
     0
102
RTVSPost2010PropOp34
 70
     1
102
RTVSPost2010Prop35
280
     0
102
RTVSPost2010PropOp35
 70
     1
102
RTVSPost2010Prop36
280
     0
102
RTVSPost2010PropOp36
 70
     1
102
RTVSPost2010Prop37
 90
       50
102
RTVSPost2010PropOp37
 70
     1
102
RTVSPost2010Prop38
140
0.0
102
RTVSPost2010PropOp38
 70
     1
102
RTVSPost2010Prop39
140
1.0
102
RTVSPost2010PropOp39
 70
     1
102
RTVSPost2010Prop40
 90
        0
102
RTVSPost2010PropOp40
 70
     1
102
RTVSPost2010Prop41ColorIndex
 90
       18
102
RTVSPost2010Prop41ColorRGB
 90
        0
102
RTVSPost2010PropOp41
 70
     1
102
RTVSPost2010Prop42
 90
       50
102
RTVSPost2010PropOp42
 70
     1
102
RTVSPost2010Prop43
 90
        3
102
RTVSPost2010PropOp43
 70
     1
102
RTVSPost2010Prop44ColorIndex
 90
        5
102
RTVSPost2010Prop44ColorRGB
 90
      255
102
RTVSPost2010PropOp44
 70
     1
102
RTVSPost2010Prop45
280
     0
102
RTVSPost2010PropOp45
 70
     1
102
RTVSPost2010Prop46
 90
       50
102
RTVSPost2010PropOp46
 70
     1
102
RTVSPost2010Prop47
 90
       50
102
RTVSPost2010PropOp47
 70
     1
102
RTVSPost2010Prop48
 90
       50
102
RTVSPost2010PropOp48
 70
     1
102
RTVSPost2010Prop49
280
     0
102
RTVSPost2010PropOp49
 70
     1
102
RTVSPost2010Prop50
 90
       50
102
RTVSPost2010PropOp50
 70
     1
102
RTVSPost2010Prop51ColorIndex
 90
      256
102
RTVSPost2010Prop51ColorRGB
 90
-16777216
102
RTVSPost2010PropOp51
 70
     0
102
RTVSPost2010Prop52
140
1.0
102
RTVSPost2010PropOp52
 70
     0
102
RTVSPost2010Prop53
 90
        2
102
RTVSPost2010PropOp53
 70
     1
102
RTVSPost2010Prop54
  1
strokes_ogs.tif
102
RTVSPost2010PropOp54
 70
     1
102
RTVSPost2010Prop55
280
     0
102
RTVSPost2010PropOp55
 70
     1
102
RTVSPost2010Prop56
140
1.0
102
RTVSPost2010PropOp56
 70
     1
102
RTVSPost2010Prop57
140
1.0
102
RTVSPost2010PropOp57
 70
     1
  0
XRECORD
  5
1118
102
{ACAD_REACTORS
330
1117
102
}
330
1117
100
AcDbXrecord
280
     1
102
RTVSPost2010Prop28
280
     0
102
RTVSPost2010PropOp28
 70
     1
102
RTVSPost2010Prop29
280
     1
102
RTVSPost2010PropOp29
 70
     1
102
RTVSPost2010Prop30
280
     1
102
RTVSPost2010PropOp30
 70
     1
102
RTVSPost2010Prop31
280
     0
102
RTVSPost2010PropOp31
 70
     1
102
RTVSPost2010Prop32
280
     0
102
RTVSPost2010PropOp32
 70
     1
102
RTVSPost2010Prop33
280
     0
102
RTVSPost2010PropOp33
 70
     1
102
RTVSPost2010Prop34
280
     0
102
RTVSPost2010PropOp34
 70
     1
102
RTVSPost2010Prop35
280
     0
102
RTVSPost2010PropOp35
 70
     1
102
RTVSPost2010Prop36
280
     0
102
RTVSPost2010PropOp36
 70
     1
102
RTVSPost2010Prop37
 90
       50
102
RTVSPost2010PropOp37
 70
     1
102
RTVSPost2010Prop38
140
0.0
102
RTVSPost2010PropOp38
 70
     1
102
RTVSPost2010Prop39
140
1.0
102
RTVSPost2010PropOp39
 70
     1
102
RTVSPost2010Prop40
 90
        0
102
RTVSPost2010PropOp40
 70
     1
102
RTVSPost2010Prop41ColorIndex
 90
       18
102
RTVSPost2010Prop41ColorRGB
 90
        0
102
RTVSPost2010PropOp41
 70
     1
102
RTVSPost2010Prop42
 90
       50
102
RTVSPost2010PropOp42
 70
     1
102
RTVSPost2010Prop43
 90
        3
102
RTVSPost2010PropOp43
 70
     1
102
RTVSPost2010Prop44ColorIndex
 90
        5
102
RTVSPost2010Prop44ColorRGB
 90
      255
102
RTVSPost2010PropOp44
 70
     1
102
RTVSPost2010Prop45
280
     0
102
RTVSPost2010PropOp45
 70
     1
102
RTVSPost2010Prop46
 90
       50
102
RTVSPost2010PropOp46
 70
     1
102
RTVSPost2010Prop47
 90
       50
102
RTVSPost2010PropOp47
 70
     1
102
RTVSPost2010Prop48
 90
       50
102
RTVSPost2010PropOp48
 70
     1
102
RTVSPost2010Prop49
280
     0
102
RTVSPost2010PropOp49
 70
     1
102
RTVSPost2010Prop50
 90
       50
102
RTVSPost2010PropOp50
 70
     1
102
RTVSPost2010Prop51ColorIndex
 90
      256
102
RTVSPost2010Prop51ColorRGB
 90
-16777216
102
RTVSPost2010PropOp51
 70
     0
102
RTVSPost2010Prop52
140
1.0
102
RTVSPost2010PropOp52
 70
     0
102
RTVSPost2010Prop53
 90
        2
102
RTVSPost2010PropOp53
 70
     1
102
RTVSPost2010Prop54
  1
strokes_ogs.tif
102
RTVSPost2010PropOp54
 70
     1
102
RTVSPost2010Prop55
280
     0
102
RTVSPost2010PropOp55
 70
     1
102
RTVSPost2010Prop56
140
1.0
102
RTVSPost2010PropOp56
 70
     1
102
RTVSPost2010Prop57
140
1.0
102
RTVSPost2010PropOp57
 70
     1
  0
XRECORD
  5
1120
102
{ACAD_REACTORS
330
111F
102
}
330
111F
100
AcDbXrecord
280
     1
102
RTVSPost2010Prop28
280
     0
102
RTVSPost2010PropOp28
 70
     1
102
RTVSPost2010Prop29
280
     1
102
RTVSPost2010PropOp29
 70
     1
102
RTVSPost2010Prop30
280
     1
102
RTVSPost2010PropOp30
 70
     1
102
RTVSPost2010Prop31
280
     0
102
RTVSPost2010PropOp31
 70
     1
102
RTVSPost2010Prop32
280
     0
102
RTVSPost2010PropOp32
 70
     1
102
RTVSPost2010Prop33
280
     0
102
RTVSPost2010PropOp33
 70
     1
102
RTVSPost2010Prop34
280
     0
102
RTVSPost2010PropOp34
 70
     1
102
RTVSPost2010Prop35
280
     0
102
RTVSPost2010PropOp35
 70
     1
102
RTVSPost2010Prop36
280
     0
102
RTVSPost2010PropOp36
 70
     1
102
RTVSPost2010Prop37
 90
       50
102
RTVSPost2010PropOp37
 70
     1
102
RTVSPost2010Prop38
140
0.0
102
RTVSPost2010PropOp38
 70
     1
102
RTVSPost2010Prop39
140
1.0
102
RTVSPost2010PropOp39
 70
     1
102
RTVSPost2010Prop40
 90
        0
102
RTVSPost2010PropOp40
 70
     1
102
RTVSPost2010Prop41ColorIndex
 90
       18
102
RTVSPost2010Prop41ColorRGB
 90
        0
102
RTVSPost2010PropOp41
 70
     1
102
RTVSPost2010Prop42
 90
       50
102
RTVSPost2010PropOp42
 70
     1
102
RTVSPost2010Prop43
 90
        3
102
RTVSPost2010PropOp43
 70
     1
102
RTVSPost2010Prop44ColorIndex
 90
        5
102
RTVSPost2010Prop44ColorRGB
 90
      255
102
RTVSPost2010PropOp44
 70
     1
102
RTVSPost2010Prop45
280
     0
102
RTVSPost2010PropOp45
 70
     1
102
RTVSPost2010Prop46
 90
       50
102
RTVSPost2010PropOp46
 70
     1
102
RTVSPost2010Prop47
 90
       50
102
RTVSPost2010PropOp47
 70
     1
102
RTVSPost2010Prop48
 90
       50
102
RTVSPost2010PropOp48
 70
     1
102
RTVSPost2010Prop49
280
     0
102
RTVSPost2010PropOp49
 70
     1
102
RTVSPost2010Prop50
 90
       50
102
RTVSPost2010PropOp50
 70
     1
102
RTVSPost2010Prop51ColorIndex
 90
      256
102
RTVSPost2010Prop51ColorRGB
 90
-16777216
102
RTVSPost2010PropOp51
 70
     0
102
RTVSPost2010Prop52
140
1.0
102
RTVSPost2010PropOp52
 70
     0
102
RTVSPost2010Prop53
 90
        2
102
RTVSPost2010PropOp53
 70
     1
102
RTVSPost2010Prop54
  1
strokes_ogs.tif
102
RTVSPost2010PropOp54
 70
     1
102
RTVSPost2010Prop55
280
     0
102
RTVSPost2010PropOp55
 70
     1
102
RTVSPost2010Prop56
140
1.0
102
RTVSPost2010PropOp56
 70
     1
102
RTVSPost2010Prop57
140
1.0
102
RTVSPost2010PropOp57
 70
     1
  0
XRECORD
  5
1132
102
{ACAD_REACTORS
330
1131
102
}
330
1131
100
AcDbXrecord
280
     1
102
RTVSPost2010Prop28
280
     0
102
RTVSPost2010PropOp28
 70
     1
102
RTVSPost2010Prop29
280
     1
102
RTVSPost2010PropOp29
 70
     1
102
RTVSPost2010Prop30
280
     1
102
RTVSPost2010PropOp30
 70
     1
102
RTVSPost2010Prop31
280
     0
102
RTVSPost2010PropOp31
 70
     1
102
RTVSPost2010Prop32
280
     0
102
RTVSPost2010PropOp32
 70
     1
102
RTVSPost2010Prop33
280
     0
102
RTVSPost2010PropOp33
 70
     1
102
RTVSPost2010Prop34
280
     0
102
RTVSPost2010PropOp34
 70
     1
102
RTVSPost2010Prop35
280
     0
102
RTVSPost2010PropOp35
 70
     1
102
RTVSPost2010Prop36
280
     0
102
RTVSPost2010PropOp36
 70
     1
102
RTVSPost2010Prop37
 90
       50
102
RTVSPost2010PropOp37
 70
     1
102
RTVSPost2010Prop38
140
0.0
102
RTVSPost2010PropOp38
 70
     1
102
RTVSPost2010Prop39
140
1.0
102
RTVSPost2010PropOp39
 70
     1
102
RTVSPost2010Prop40
 90
        0
102
RTVSPost2010PropOp40
 70
     1
102
RTVSPost2010Prop41ColorIndex
 90
       18
102
RTVSPost2010Prop41ColorRGB
 90
        0
102
RTVSPost2010PropOp41
 70
     1
102
RTVSPost2010Prop42
 90
       50
102
RTVSPost2010PropOp42
 70
     1
102
RTVSPost2010Prop43
 90
        3
102
RTVSPost2010PropOp43
 70
     1
102
RTVSPost2010Prop44ColorIndex
 90
        5
102
RTVSPost2010Prop44ColorRGB
 90
      255
102
RTVSPost2010PropOp44
 70
     1
102
RTVSPost2010Prop45
280
     0
102
RTVSPost2010PropOp45
 70
     1
102
RTVSPost2010Prop46
 90
       50
102
RTVSPost2010PropOp46
 70
     1
102
RTVSPost2010Prop47
 90
       50
102
RTVSPost2010PropOp47
 70
     1
102
RTVSPost2010Prop48
 90
       50
102
RTVSPost2010PropOp48
 70
     1
102
RTVSPost2010Prop49
280
     0
102
RTVSPost2010PropOp49
 70
     1
102
RTVSPost2010Prop50
 90
       50
102
RTVSPost2010PropOp50
 70
     1
102
RTVSPost2010Prop51ColorIndex
 90
      256
102
RTVSPost2010Prop51ColorRGB
 90
-16777216
102
RTVSPost2010PropOp51
 70
     0
102
RTVSPost2010Prop52
140
1.0
102
RTVSPost2010PropOp52
 70
     0
102
RTVSPost2010Prop53
 90
        2
102
RTVSPost2010PropOp53
 70
     1
102
RTVSPost2010Prop54
  1
strokes_ogs.tif
102
RTVSPost2010PropOp54
 70
     1
102
RTVSPost2010Prop55
280
     0
102
RTVSPost2010PropOp55
 70
     1
102
RTVSPost2010Prop56
140
1.0
102
RTVSPost2010PropOp56
 70
     1
102
RTVSPost2010Prop57
140
1.0
102
RTVSPost2010PropOp57
 70
     1
  0
XRECORD
  5
112C
102
{ACAD_REACTORS
330
112B
102
}
330
112B
100
AcDbXrecord
280
     1
102
RTVSPost2010Prop28
280
     0
102
RTVSPost2010PropOp28
 70
     1
102
RTVSPost2010Prop29
280
     1
102
RTVSPost2010PropOp29
 70
     1
102
RTVSPost2010Prop30
280
     1
102
RTVSPost2010PropOp30
 70
     1
102
RTVSPost2010Prop31
280
     0
102
RTVSPost2010PropOp31
 70
     1
102
RTVSPost2010Prop32
280
     0
102
RTVSPost2010PropOp32
 70
     1
102
RTVSPost2010Prop33
280
     0
102
RTVSPost2010PropOp33
 70
     1
102
RTVSPost2010Prop34
280
     0
102
RTVSPost2010PropOp34
 70
     1
102
RTVSPost2010Prop35
280
     0
102
RTVSPost2010PropOp35
 70
     1
102
RTVSPost2010Prop36
280
     0
102
RTVSPost2010PropOp36
 70
     1
102
RTVSPost2010Prop37
 90
       50
102
RTVSPost2010PropOp37
 70
     1
102
RTVSPost2010Prop38
140
0.0
102
RTVSPost2010PropOp38
 70
     1
102
RTVSPost2010Prop39
140
1.0
102
RTVSPost2010PropOp39
 70
     1
102
RTVSPost2010Prop40
 90
        0
102
RTVSPost2010PropOp40
 70
     1
102
RTVSPost2010Prop41ColorIndex
 90
       18
102
RTVSPost2010Prop41ColorRGB
 90
        0
102
RTVSPost2010PropOp41
 70
     1
102
RTVSPost2010Prop42
 90
       50
102
RTVSPost2010PropOp42
 70
     1
102
RTVSPost2010Prop43
 90
        3
102
RTVSPost2010PropOp43
 70
     1
102
RTVSPost2010Prop44ColorIndex
 90
        5
102
RTVSPost2010Prop44ColorRGB
 90
      255
102
RTVSPost2010PropOp44
 70
     1
102
RTVSPost2010Prop45
280
     0
102
RTVSPost2010PropOp45
 70
     1
102
RTVSPost2010Prop46
 90
       50
102
RTVSPost2010PropOp46
 70
     1
102
RTVSPost2010Prop47
 90
       50
102
RTVSPost2010PropOp47
 70
     1
102
RTVSPost2010Prop48
 90
       50
102
RTVSPost2010PropOp48
 70
     1
102
RTVSPost2010Prop49
280
     0
102
RTVSPost2010PropOp49
 70
     1
102
RTVSPost2010Prop50
 90
       50
102
RTVSPost2010PropOp50
 70
     1
102
RTVSPost2010Prop51ColorIndex
 90
      256
102
RTVSPost2010Prop51ColorRGB
 90
-16777216
102
RTVSPost2010PropOp51
 70
     0
102
RTVSPost2010Prop52
140
1.0
102
RTVSPost2010PropOp52
 70
     0
102
RTVSPost2010Prop53
 90
        2
102
RTVSPost2010PropOp53
 70
     1
102
RTVSPost2010Prop54
  1
strokes_ogs.tif
102
RTVSPost2010PropOp54
 70
     1
102
RTVSPost2010Prop55
280
     0
102
RTVSPost2010PropOp55
 70
     1
102
RTVSPost2010Prop56
140
1.0
102
RTVSPost2010PropOp56
 70
     1
102
RTVSPost2010Prop57
140
1.0
102
RTVSPost2010PropOp57
 70
     1
  0
XRECORD
  5
1134
102
{ACAD_REACTORS
330
1133
102
}
330
1133
100
AcDbXrecord
280
     1
102
RTVSPost2010Prop28
280
     0
102
RTVSPost2010PropOp28
 70
     1
102
RTVSPost2010Prop29
280
     1
102
RTVSPost2010PropOp29
 70
     1
102
RTVSPost2010Prop30
280
     1
102
RTVSPost2010PropOp30
 70
     1
102
RTVSPost2010Prop31
280
     0
102
RTVSPost2010PropOp31
 70
     1
102
RTVSPost2010Prop32
280
     0
102
RTVSPost2010PropOp32
 70
     1
102
RTVSPost2010Prop33
280
     0
102
RTVSPost2010PropOp33
 70
     1
102
RTVSPost2010Prop34
280
     0
102
RTVSPost2010PropOp34
 70
     1
102
RTVSPost2010Prop35
280
     0
102
RTVSPost2010PropOp35
 70
     1
102
RTVSPost2010Prop36
280
     0
102
RTVSPost2010PropOp36
 70
     1
102
RTVSPost2010Prop37
 90
       50
102
RTVSPost2010PropOp37
 70
     1
102
RTVSPost2010Prop38
140
0.0
102
RTVSPost2010PropOp38
 70
     1
102
RTVSPost2010Prop39
140
1.0
102
RTVSPost2010PropOp39
 70
     1
102
RTVSPost2010Prop40
 90
        0
102
RTVSPost2010PropOp40
 70
     1
102
RTVSPost2010Prop41ColorIndex
 90
       18
102
RTVSPost2010Prop41ColorRGB
 90
        0
102
RTVSPost2010PropOp41
 70
     1
102
RTVSPost2010Prop42
 90
       50
102
RTVSPost2010PropOp42
 70
     1
102
RTVSPost2010Prop43
 90
        3
102
RTVSPost2010PropOp43
 70
     1
102
RTVSPost2010Prop44ColorIndex
 90
        5
102
RTVSPost2010Prop44ColorRGB
 90
      255
102
RTVSPost2010PropOp44
 70
     1
102
RTVSPost2010Prop45
280
     0
102
RTVSPost2010PropOp45
 70
     1
102
RTVSPost2010Prop46
 90
       50
102
RTVSPost2010PropOp46
 70
     1
102
RTVSPost2010Prop47
 90
       50
102
RTVSPost2010PropOp47
 70
     1
102
RTVSPost2010Prop48
 90
       50
102
RTVSPost2010PropOp48
 70
     1
102
RTVSPost2010Prop49
280
     0
102
RTVSPost2010PropOp49
 70
     1
102
RTVSPost2010Prop50
 90
       50
102
RTVSPost2010PropOp50
 70
     1
102
RTVSPost2010Prop51ColorIndex
 90
      256
102
RTVSPost2010Prop51ColorRGB
 90
-16777216
102
RTVSPost2010PropOp51
 70
     0
102
RTVSPost2010Prop52
140
1.0
102
RTVSPost2010PropOp52
 70
     0
102
RTVSPost2010Prop53
 90
        2
102
RTVSPost2010PropOp53
 70
     1
102
RTVSPost2010Prop54
  1
strokes_ogs.tif
102
RTVSPost2010PropOp54
 70
     1
102
RTVSPost2010Prop55
280
     0
102
RTVSPost2010PropOp55
 70
     1
102
RTVSPost2010Prop56
140
1.0
102
RTVSPost2010PropOp56
 70
     1
102
RTVSPost2010Prop57
140
1.0
102
RTVSPost2010PropOp57
 70
     1
  0
XRECORD
  5
1124
102
{ACAD_REACTORS
330
1123
102
}
330
1123
100
AcDbXrecord
280
     1
102
RTVSPost2010Prop28
280
     0
102
RTVSPost2010PropOp28
 70
     1
102
RTVSPost2010Prop29
280
     1
102
RTVSPost2010PropOp29
 70
     1
102
RTVSPost2010Prop30
280
     1
102
RTVSPost2010PropOp30
 70
     1
102
RTVSPost2010Prop31
280
     0
102
RTVSPost2010PropOp31
 70
     1
102
RTVSPost2010Prop32
280
     0
102
RTVSPost2010PropOp32
 70
     1
102
RTVSPost2010Prop33
280
     0
102
RTVSPost2010PropOp33
 70
     1
102
RTVSPost2010Prop34
280
     0
102
RTVSPost2010PropOp34
 70
     1
102
RTVSPost2010Prop35
280
     0
102
RTVSPost2010PropOp35
 70
     1
102
RTVSPost2010Prop36
280
     0
102
RTVSPost2010PropOp36
 70
     1
102
RTVSPost2010Prop37
 90
       50
102
RTVSPost2010PropOp37
 70
     1
102
RTVSPost2010Prop38
140
0.0
102
RTVSPost2010PropOp38
 70
     1
102
RTVSPost2010Prop39
140
1.0
102
RTVSPost2010PropOp39
 70
     1
102
RTVSPost2010Prop40
 90
        0
102
RTVSPost2010PropOp40
 70
     1
102
RTVSPost2010Prop41ColorIndex
 90
       18
102
RTVSPost2010Prop41ColorRGB
 90
        0
102
RTVSPost2010PropOp41
 70
     1
102
RTVSPost2010Prop42
 90
       50
102
RTVSPost2010PropOp42
 70
     1
102
RTVSPost2010Prop43
 90
        3
102
RTVSPost2010PropOp43
 70
     1
102
RTVSPost2010Prop44ColorIndex
 90
        5
102
RTVSPost2010Prop44ColorRGB
 90
      255
102
RTVSPost2010PropOp44
 70
     1
102
RTVSPost2010Prop45
280
     0
102
RTVSPost2010PropOp45
 70
     1
102
RTVSPost2010Prop46
 90
       50
102
RTVSPost2010PropOp46
 70
     1
102
RTVSPost2010Prop47
 90
       50
102
RTVSPost2010PropOp47
 70
     1
102
RTVSPost2010Prop48
 90
       50
102
RTVSPost2010PropOp48
 70
     1
102
RTVSPost2010Prop49
280
     0
102
RTVSPost2010PropOp49
 70
     1
102
RTVSPost2010Prop50
 90
       50
102
RTVSPost2010PropOp50
 70
     1
102
RTVSPost2010Prop51ColorIndex
 90
      256
102
RTVSPost2010Prop51ColorRGB
 90
-16777216
102
RTVSPost2010PropOp51
 70
     0
102
RTVSPost2010Prop52
140
1.0
102
RTVSPost2010PropOp52
 70
     0
102
RTVSPost2010Prop53
 90
        2
102
RTVSPost2010PropOp53
 70
     1
102
RTVSPost2010Prop54
  1
strokes_ogs.tif
102
RTVSPost2010PropOp54
 70
     1
102
RTVSPost2010Prop55
280
     0
102
RTVSPost2010PropOp55
 70
     1
102
RTVSPost2010Prop56
140
1.0
102
RTVSPost2010PropOp56
 70
     1
102
RTVSPost2010Prop57
140
1.0
102
RTVSPost2010PropOp57
 70
     1
  0
XRECORD
  5
1140
102
{ACAD_REACTORS
330
113F
102
}
330
113F
100
AcDbXrecord
280
     1
102
RTVSPost2010Prop28
280
     0
102
RTVSPost2010PropOp28
 70
     1
102
RTVSPost2010Prop29
280
     1
102
RTVSPost2010PropOp29
 70
     1
102
RTVSPost2010Prop30
280
     1
102
RTVSPost2010PropOp30
 70
     1
102
RTVSPost2010Prop31
280
     0
102
RTVSPost2010PropOp31
 70
     1
102
RTVSPost2010Prop32
280
     0
102
RTVSPost2010PropOp32
 70
     1
102
RTVSPost2010Prop33
280
     0
102
RTVSPost2010PropOp33
 70
     1
102
RTVSPost2010Prop34
280
     0
102
RTVSPost2010PropOp34
 70
     1
102
RTVSPost2010Prop35
280
     0
102
RTVSPost2010PropOp35
 70
     1
102
RTVSPost2010Prop36
280
     0
102
RTVSPost2010PropOp36
 70
     1
102
RTVSPost2010Prop37
 90
       50
102
RTVSPost2010PropOp37
 70
     1
102
RTVSPost2010Prop38
140
0.0
102
RTVSPost2010PropOp38
 70
     1
102
RTVSPost2010Prop39
140
1.0
102
RTVSPost2010PropOp39
 70
     1
102
RTVSPost2010Prop40
 90
        0
102
RTVSPost2010PropOp40
 70
     1
102
RTVSPost2010Prop41ColorIndex
 90
       18
102
RTVSPost2010Prop41ColorRGB
 90
        0
102
RTVSPost2010PropOp41
 70
     1
102
RTVSPost2010Prop42
 90
       50
102
RTVSPost2010PropOp42
 70
     1
102
RTVSPost2010Prop43
 90
        3
102
RTVSPost2010PropOp43
 70
     1
102
RTVSPost2010Prop44ColorIndex
 90
        5
102
RTVSPost2010Prop44ColorRGB
 90
      255
102
RTVSPost2010PropOp44
 70
     1
102
RTVSPost2010Prop45
280
     0
102
RTVSPost2010PropOp45
 70
     1
102
RTVSPost2010Prop46
 90
       50
102
RTVSPost2010PropOp46
 70
     1
102
RTVSPost2010Prop47
 90
       50
102
RTVSPost2010PropOp47
 70
     1
102
RTVSPost2010Prop48
 90
       50
102
RTVSPost2010PropOp48
 70
     1
102
RTVSPost2010Prop49
280
     0
102
RTVSPost2010PropOp49
 70
     1
102
RTVSPost2010Prop50
 90
       50
102
RTVSPost2010PropOp50
 70
     1
102
RTVSPost2010Prop51ColorIndex
 90
      256
102
RTVSPost2010Prop51ColorRGB
 90
-16777216
102
RTVSPost2010PropOp51
 70
     0
102
RTVSPost2010Prop52
140
1.0
102
RTVSPost2010PropOp52
 70
     0
102
RTVSPost2010Prop53
 90
        2
102
RTVSPost2010PropOp53
 70
     1
102
RTVSPost2010Prop54
  1
strokes_ogs.tif
102
RTVSPost2010PropOp54
 70
     1
102
RTVSPost2010Prop55
280
     0
102
RTVSPost2010PropOp55
 70
     1
102
RTVSPost2010Prop56
140
1.0
102
RTVSPost2010PropOp56
 70
     1
102
RTVSPost2010Prop57
140
1.0
102
RTVSPost2010PropOp57
 70
     1
  0
XRECORD
  5
113E
102
{ACAD_REACTORS
330
113D
102
}
330
113D
100
AcDbXrecord
280
     1
102
RTVSPost2010Prop28
280
     0
102
RTVSPost2010PropOp28
 70
     1
102
RTVSPost2010Prop29
280
     1
102
RTVSPost2010PropOp29
 70
     1
102
RTVSPost2010Prop30
280
     1
102
RTVSPost2010PropOp30
 70
     1
102
RTVSPost2010Prop31
280
     0
102
RTVSPost2010PropOp31
 70
     1
102
RTVSPost2010Prop32
280
     0
102
RTVSPost2010PropOp32
 70
     1
102
RTVSPost2010Prop33
280
     0
102
RTVSPost2010PropOp33
 70
     1
102
RTVSPost2010Prop34
280
     0
102
RTVSPost2010PropOp34
 70
     1
102
RTVSPost2010Prop35
280
     0
102
RTVSPost2010PropOp35
 70
     1
102
RTVSPost2010Prop36
280
     0
102
RTVSPost2010PropOp36
 70
     1
102
RTVSPost2010Prop37
 90
       50
102
RTVSPost2010PropOp37
 70
     1
102
RTVSPost2010Prop38
140
0.0
102
RTVSPost2010PropOp38
 70
     1
102
RTVSPost2010Prop39
140
1.0
102
RTVSPost2010PropOp39
 70
     1
102
RTVSPost2010Prop40
 90
        0
102
RTVSPost2010PropOp40
 70
     1
102
RTVSPost2010Prop41ColorIndex
 90
       18
102
RTVSPost2010Prop41ColorRGB
 90
        0
102
RTVSPost2010PropOp41
 70
     1
102
RTVSPost2010Prop42
 90
       50
102
RTVSPost2010PropOp42
 70
     1
102
RTVSPost2010Prop43
 90
        3
102
RTVSPost2010PropOp43
 70
     1
102
RTVSPost2010Prop44ColorIndex
 90
        5
102
RTVSPost2010Prop44ColorRGB
 90
      255
102
RTVSPost2010PropOp44
 70
     1
102
RTVSPost2010Prop45
280
     0
102
RTVSPost2010PropOp45
 70
     1
102
RTVSPost2010Prop46
 90
       50
102
RTVSPost2010PropOp46
 70
     1
102
RTVSPost2010Prop47
 90
       50
102
RTVSPost2010PropOp47
 70
     1
102
RTVSPost2010Prop48
 90
       50
102
RTVSPost2010PropOp48
 70
     1
102
RTVSPost2010Prop49
280
     0
102
RTVSPost2010PropOp49
 70
     1
102
RTVSPost2010Prop50
 90
       50
102
RTVSPost2010PropOp50
 70
     1
102
RTVSPost2010Prop51ColorIndex
 90
      256
102
RTVSPost2010Prop51ColorRGB
 90
-16777216
102
RTVSPost2010PropOp51
 70
     0
102
RTVSPost2010Prop52
140
1.0
102
RTVSPost2010PropOp52
 70
     0
102
RTVSPost2010Prop53
 90
        2
102
RTVSPost2010PropOp53
 70
     1
102
RTVSPost2010Prop54
  1
strokes_ogs.tif
102
RTVSPost2010PropOp54
 70
     1
102
RTVSPost2010Prop55
280
     0
102
RTVSPost2010PropOp55
 70
     1
102
RTVSPost2010Prop56
140
1.0
102
RTVSPost2010PropOp56
 70
     1
102
RTVSPost2010Prop57
140
1.0
102
RTVSPost2010PropOp57
 70
     1
  0
XRECORD
  5
1138
102
{ACAD_REACTORS
330
1137
102
}
330
1137
100
AcDbXrecord
280
     1
102
RTVSPost2010Prop28
280
     0
102
RTVSPost2010PropOp28
 70
     1
102
RTVSPost2010Prop29
280
     1
102
RTVSPost2010PropOp29
 70
     1
102
RTVSPost2010Prop30
280
     1
102
RTVSPost2010PropOp30
 70
     1
102
RTVSPost2010Prop31
280
     0
102
RTVSPost2010PropOp31
 70
     1
102
RTVSPost2010Prop32
280
     0
102
RTVSPost2010PropOp32
 70
     1
102
RTVSPost2010Prop33
280
     0
102
RTVSPost2010PropOp33
 70
     1
102
RTVSPost2010Prop34
280
     0
102
RTVSPost2010PropOp34
 70
     1
102
RTVSPost2010Prop35
280
     0
102
RTVSPost2010PropOp35
 70
     1
102
RTVSPost2010Prop36
280
     0
102
RTVSPost2010PropOp36
 70
     1
102
RTVSPost2010Prop37
 90
       50
102
RTVSPost2010PropOp37
 70
     1
102
RTVSPost2010Prop38
140
0.0
102
RTVSPost2010PropOp38
 70
     1
102
RTVSPost2010Prop39
140
1.0
102
RTVSPost2010PropOp39
 70
     1
102
RTVSPost2010Prop40
 90
        0
102
RTVSPost2010PropOp40
 70
     1
102
RTVSPost2010Prop41ColorIndex
 90
       18
102
RTVSPost2010Prop41ColorRGB
 90
        0
102
RTVSPost2010PropOp41
 70
     1
102
RTVSPost2010Prop42
 90
       50
102
RTVSPost2010PropOp42
 70
     1
102
RTVSPost2010Prop43
 90
        3
102
RTVSPost2010PropOp43
 70
     1
102
RTVSPost2010Prop44ColorIndex
 90
        5
102
RTVSPost2010Prop44ColorRGB
 90
      255
102
RTVSPost2010PropOp44
 70
     1
102
RTVSPost2010Prop45
280
     0
102
RTVSPost2010PropOp45
 70
     1
102
RTVSPost2010Prop46
 90
       50
102
RTVSPost2010PropOp46
 70
     1
102
RTVSPost2010Prop47
 90
       50
102
RTVSPost2010PropOp47
 70
     1
102
RTVSPost2010Prop48
 90
       50
102
RTVSPost2010PropOp48
 70
     1
102
RTVSPost2010Prop49
280
     0
102
RTVSPost2010PropOp49
 70
     1
102
RTVSPost2010Prop50
 90
       50
102
RTVSPost2010PropOp50
 70
     1
102
RTVSPost2010Prop51ColorIndex
 90
      256
102
RTVSPost2010Prop51ColorRGB
 90
-16777216
102
RTVSPost2010PropOp51
 70
     0
102
RTVSPost2010Prop52
140
1.0
102
RTVSPost2010PropOp52
 70
     0
102
RTVSPost2010Prop53
 90
        2
102
RTVSPost2010PropOp53
 70
     1
102
RTVSPost2010Prop54
  1
strokes_ogs.tif
102
RTVSPost2010PropOp54
 70
     1
102
RTVSPost2010Prop55
280
     0
102
RTVSPost2010PropOp55
 70
     1
102
RTVSPost2010Prop56
140
1.0
102
RTVSPost2010PropOp56
 70
     1
102
RTVSPost2010Prop57
140
1.0
102
RTVSPost2010PropOp57
 70
     1
  0
XRECORD
  5
113A
102
{ACAD_REACTORS
330
1139
102
}
330
1139
100
AcDbXrecord
280
     1
102
RTVSPost2010Prop28
280
     0
102
RTVSPost2010PropOp28
 70
     1
102
RTVSPost2010Prop29
280
     1
102
RTVSPost2010PropOp29
 70
     1
102
RTVSPost2010Prop30
280
     1
102
RTVSPost2010PropOp30
 70
     1
102
RTVSPost2010Prop31
280
     0
102
RTVSPost2010PropOp31
 70
     1
102
RTVSPost2010Prop32
280
     0
102
RTVSPost2010PropOp32
 70
     1
102
RTVSPost2010Prop33
280
     0
102
RTVSPost2010PropOp33
 70
     1
102
RTVSPost2010Prop34
280
     0
102
RTVSPost2010PropOp34
 70
     1
102
RTVSPost2010Prop35
280
     0
102
RTVSPost2010PropOp35
 70
     1
102
RTVSPost2010Prop36
280
     0
102
RTVSPost2010PropOp36
 70
     1
102
RTVSPost2010Prop37
 90
       50
102
RTVSPost2010PropOp37
 70
     1
102
RTVSPost2010Prop38
140
0.0
102
RTVSPost2010PropOp38
 70
     1
102
RTVSPost2010Prop39
140
1.0
102
RTVSPost2010PropOp39
 70
     1
102
RTVSPost2010Prop40
 90
        0
102
RTVSPost2010PropOp40
 70
     1
102
RTVSPost2010Prop41ColorIndex
 90
       18
102
RTVSPost2010Prop41ColorRGB
 90
        0
102
RTVSPost2010PropOp41
 70
     1
102
RTVSPost2010Prop42
 90
       50
102
RTVSPost2010PropOp42
 70
     1
102
RTVSPost2010Prop43
 90
        3
102
RTVSPost2010PropOp43
 70
     1
102
RTVSPost2010Prop44ColorIndex
 90
        5
102
RTVSPost2010Prop44ColorRGB
 90
      255
102
RTVSPost2010PropOp44
 70
     1
102
RTVSPost2010Prop45
280
     0
102
RTVSPost2010PropOp45
 70
     1
102
RTVSPost2010Prop46
 90
       50
102
RTVSPost2010PropOp46
 70
     1
102
RTVSPost2010Prop47
 90
       50
102
RTVSPost2010PropOp47
 70
     1
102
RTVSPost2010Prop48
 90
       50
102
RTVSPost2010PropOp48
 70
     1
102
RTVSPost2010Prop49
280
     0
102
RTVSPost2010PropOp49
 70
     1
102
RTVSPost2010Prop50
 90
       50
102
RTVSPost2010PropOp50
 70
     1
102
RTVSPost2010Prop51ColorIndex
 90
      256
102
RTVSPost2010Prop51ColorRGB
 90
-16777216
102
RTVSPost2010PropOp51
 70
     0
102
RTVSPost2010Prop52
140
1.0
102
RTVSPost2010PropOp52
 70
     0
102
RTVSPost2010Prop53
 90
        2
102
RTVSPost2010PropOp53
 70
     1
102
RTVSPost2010Prop54
  1
strokes_ogs.tif
102
RTVSPost2010PropOp54
 70
     1
102
RTVSPost2010Prop55
280
     0
102
RTVSPost2010PropOp55
 70
     1
102
RTVSPost2010Prop56
140
1.0
102
RTVSPost2010PropOp56
 70
     1
102
RTVSPost2010Prop57
140
1.0
102
RTVSPost2010PropOp57
 70
     1
  0
XRECORD
  5
112A
102
{ACAD_REACTORS
330
1129
102
}
330
1129
100
AcDbXrecord
280
     1
102
RTVSPost2010Prop28
280
     0
102
RTVSPost2010PropOp28
 70
     1
102
RTVSPost2010Prop29
280
     1
102
RTVSPost2010PropOp29
 70
     1
102
RTVSPost2010Prop30
280
     1
102
RTVSPost2010PropOp30
 70
     1
102
RTVSPost2010Prop31
280
     0
102
RTVSPost2010PropOp31
 70
     1
102
RTVSPost2010Prop32
280
     0
102
RTVSPost2010PropOp32
 70
     1
102
RTVSPost2010Prop33
280
     0
102
RTVSPost2010PropOp33
 70
     1
102
RTVSPost2010Prop34
280
     0
102
RTVSPost2010PropOp34
 70
     1
102
RTVSPost2010Prop35
280
     0
102
RTVSPost2010PropOp35
 70
     1
102
RTVSPost2010Prop36
280
     0
102
RTVSPost2010PropOp36
 70
     1
102
RTVSPost2010Prop37
 90
       50
102
RTVSPost2010PropOp37
 70
     1
102
RTVSPost2010Prop38
140
0.0
102
RTVSPost2010PropOp38
 70
     1
102
RTVSPost2010Prop39
140
1.0
102
RTVSPost2010PropOp39
 70
     1
102
RTVSPost2010Prop40
 90
        0
102
RTVSPost2010PropOp40
 70
     1
102
RTVSPost2010Prop41ColorIndex
 90
       18
102
RTVSPost2010Prop41ColorRGB
 90
        0
102
RTVSPost2010PropOp41
 70
     1
102
RTVSPost2010Prop42
 90
       50
102
RTVSPost2010PropOp42
 70
     1
102
RTVSPost2010Prop43
 90
        3
102
RTVSPost2010PropOp43
 70
     1
102
RTVSPost2010Prop44ColorIndex
 90
        5
102
RTVSPost2010Prop44ColorRGB
 90
      255
102
RTVSPost2010PropOp44
 70
     1
102
RTVSPost2010Prop45
280
     0
102
RTVSPost2010PropOp45
 70
     1
102
RTVSPost2010Prop46
 90
       50
102
RTVSPost2010PropOp46
 70
     1
102
RTVSPost2010Prop47
 90
       50
102
RTVSPost2010PropOp47
 70
     1
102
RTVSPost2010Prop48
 90
       50
102
RTVSPost2010PropOp48
 70
     1
102
RTVSPost2010Prop49
280
     0
102
RTVSPost2010PropOp49
 70
     1
102
RTVSPost2010Prop50
 90
       50
102
RTVSPost2010PropOp50
 70
     1
102
RTVSPost2010Prop51ColorIndex
 90
      256
102
RTVSPost2010Prop51ColorRGB
 90
-16777216
102
RTVSPost2010PropOp51
 70
     0
102
RTVSPost2010Prop52
140
1.0
102
RTVSPost2010PropOp52
 70
     0
102
RTVSPost2010Prop53
 90
        2
102
RTVSPost2010PropOp53
 70
     1
102
RTVSPost2010Prop54
  1
strokes_ogs.tif
102
RTVSPost2010PropOp54
 70
     1
102
RTVSPost2010Prop55
280
     0
102
RTVSPost2010PropOp55
 70
     1
102
RTVSPost2010Prop56
140
1.0
102
RTVSPost2010PropOp56
 70
     1
102
RTVSPost2010Prop57
140
1.0
102
RTVSPost2010PropOp57
 70
     1
  0
XRECORD
  5
111E
102
{ACAD_REACTORS
330
111D
102
}
330
111D
100
AcDbXrecord
280
     1
102
RTVSPost2010Prop28
280
     0
102
RTVSPost2010PropOp28
 70
     1
102
RTVSPost2010Prop29
280
     1
102
RTVSPost2010PropOp29
 70
     1
102
RTVSPost2010Prop30
280
     1
102
RTVSPost2010PropOp30
 70
     1
102
RTVSPost2010Prop31
280
     0
102
RTVSPost2010PropOp31
 70
     1
102
RTVSPost2010Prop32
280
     0
102
RTVSPost2010PropOp32
 70
     1
102
RTVSPost2010Prop33
280
     0
102
RTVSPost2010PropOp33
 70
     1
102
RTVSPost2010Prop34
280
     0
102
RTVSPost2010PropOp34
 70
     1
102
RTVSPost2010Prop35
280
     0
102
RTVSPost2010PropOp35
 70
     1
102
RTVSPost2010Prop36
280
     0
102
RTVSPost2010PropOp36
 70
     1
102
RTVSPost2010Prop37
 90
       50
102
RTVSPost2010PropOp37
 70
     1
102
RTVSPost2010Prop38
140
0.0
102
RTVSPost2010PropOp38
 70
     1
102
RTVSPost2010Prop39
140
1.0
102
RTVSPost2010PropOp39
 70
     1
102
RTVSPost2010Prop40
 90
        0
102
RTVSPost2010PropOp40
 70
     1
102
RTVSPost2010Prop41ColorIndex
 90
       18
102
RTVSPost2010Prop41ColorRGB
 90
        0
102
RTVSPost2010PropOp41
 70
     1
102
RTVSPost2010Prop42
 90
       50
102
RTVSPost2010PropOp42
 70
     1
102
RTVSPost2010Prop43
 90
        3
102
RTVSPost2010PropOp43
 70
     1
102
RTVSPost2010Prop44ColorIndex
 90
        5
102
RTVSPost2010Prop44ColorRGB
 90
      255
102
RTVSPost2010PropOp44
 70
     1
102
RTVSPost2010Prop45
280
     0
102
RTVSPost2010PropOp45
 70
     1
102
RTVSPost2010Prop46
 90
       50
102
RTVSPost2010PropOp46
 70
     1
102
RTVSPost2010Prop47
 90
       50
102
RTVSPost2010PropOp47
 70
     1
102
RTVSPost2010Prop48
 90
       50
102
RTVSPost2010PropOp48
 70
     1
102
RTVSPost2010Prop49
280
     0
102
RTVSPost2010PropOp49
 70
     1
102
RTVSPost2010Prop50
 90
       50
102
RTVSPost2010PropOp50
 70
     1
102
RTVSPost2010Prop51ColorIndex
 90
      256
102
RTVSPost2010Prop51ColorRGB
 90
-16777216
102
RTVSPost2010PropOp51
 70
     0
102
RTVSPost2010Prop52
140
1.0
102
RTVSPost2010PropOp52
 70
     0
102
RTVSPost2010Prop53
 90
        2
102
RTVSPost2010PropOp53
 70
     1
102
RTVSPost2010Prop54
  1
strokes_ogs.tif
102
RTVSPost2010PropOp54
 70
     1
102
RTVSPost2010Prop55
280
     0
102
RTVSPost2010PropOp55
 70
     1
102
RTVSPost2010Prop56
140
1.0
102
RTVSPost2010PropOp56
 70
     1
102
RTVSPost2010Prop57
140
1.0
102
RTVSPost2010PropOp57
 70
     1
  0
XRECORD
  5
113C
102
{ACAD_REACTORS
330
113B
102
}
330
113B
100
AcDbXrecord
280
     1
102
RTVSPost2010Prop28
280
     0
102
RTVSPost2010PropOp28
 70
     1
102
RTVSPost2010Prop29
280
     1
102
RTVSPost2010PropOp29
 70
     1
102
RTVSPost2010Prop30
280
     1
102
RTVSPost2010PropOp30
 70
     1
102
RTVSPost2010Prop31
280
     0
102
RTVSPost2010PropOp31
 70
     1
102
RTVSPost2010Prop32
280
     0
102
RTVSPost2010PropOp32
 70
     1
102
RTVSPost2010Prop33
280
     0
102
RTVSPost2010PropOp33
 70
     1
102
RTVSPost2010Prop34
280
     0
102
RTVSPost2010PropOp34
 70
     1
102
RTVSPost2010Prop35
280
     0
102
RTVSPost2010PropOp35
 70
     1
102
RTVSPost2010Prop36
280
     0
102
RTVSPost2010PropOp36
 70
     1
102
RTVSPost2010Prop37
 90
       50
102
RTVSPost2010PropOp37
 70
     1
102
RTVSPost2010Prop38
140
0.0
102
RTVSPost2010PropOp38
 70
     1
102
RTVSPost2010Prop39
140
1.0
102
RTVSPost2010PropOp39
 70
     1
102
RTVSPost2010Prop40
 90
        0
102
RTVSPost2010PropOp40
 70
     1
102
RTVSPost2010Prop41ColorIndex
 90
       18
102
RTVSPost2010Prop41ColorRGB
 90
        0
102
RTVSPost2010PropOp41
 70
     1
102
RTVSPost2010Prop42
 90
       50
102
RTVSPost2010PropOp42
 70
     1
102
RTVSPost2010Prop43
 90
        3
102
RTVSPost2010PropOp43
 70
     1
102
RTVSPost2010Prop44ColorIndex
 90
        5
102
RTVSPost2010Prop44ColorRGB
 90
      255
102
RTVSPost2010PropOp44
 70
     1
102
RTVSPost2010Prop45
280
     0
102
RTVSPost2010PropOp45
 70
     1
102
RTVSPost2010Prop46
 90
       50
102
RTVSPost2010PropOp46
 70
     1
102
RTVSPost2010Prop47
 90
       50
102
RTVSPost2010PropOp47
 70
     1
102
RTVSPost2010Prop48
 90
       50
102
RTVSPost2010PropOp48
 70
     1
102
RTVSPost2010Prop49
280
     0
102
RTVSPost2010PropOp49
 70
     1
102
RTVSPost2010Prop50
 90
       50
102
RTVSPost2010PropOp50
 70
     1
102
RTVSPost2010Prop51ColorIndex
 90
      256
102
RTVSPost2010Prop51ColorRGB
 90
-16777216
102
RTVSPost2010PropOp51
 70
     0
102
RTVSPost2010Prop52
140
1.0
102
RTVSPost2010PropOp52
 70
     0
102
RTVSPost2010Prop53
 90
        2
102
RTVSPost2010PropOp53
 70
     1
102
RTVSPost2010Prop54
  1
strokes_ogs.tif
102
RTVSPost2010PropOp54
 70
     1
102
RTVSPost2010Prop55
280
     0
102
RTVSPost2010PropOp55
 70
     1
102
RTVSPost2010Prop56
140
1.0
102
RTVSPost2010PropOp56
 70
     1
102
RTVSPost2010Prop57
140
1.0
102
RTVSPost2010PropOp57
 70
     1
  0
ENDSEC
  0
EOF
